  0
SECTION
  2
HEADER
  9
$ACADVER
  1
AC1009
  9
$DWGCODEPAGE
  3
ansi_1251
  9
$INSBASE
 10
0.0
 20
0.0
 30
0.0
  9
$EXTMIN
 10
1.000000000000000E+20
 20
1.000000000000000E+20
 30
1.000000000000000E+20
  9
$EXTMAX
 10
-1.000000000000000E+20
 20
-1.000000000000000E+20
 30
-1.000000000000000E+20
  9
$LIMMIN
 10
0.0
 20
0.0
  9
$LIMMAX
 10
420.0
 20
297.0
  9
$ORTHOMODE
 70
     0
  9
$REGENMODE
 70
     1
  9
$FILLMODE
 70
     1
  9
$QTEXTMODE
 70
     0
  9
$MIRRTEXT
 70
     0
  9
$DRAGMODE
 70
     2
  9
$LTSCALE
 40
1.0
  9
$OSMODE
 70
   279
  9
$ATTMODE
 70
     1
  9
$TEXTSIZE
 40
2.5
  9
$TRACEWID
 40
1.0
  9
$TEXTSTYLE
  7
STANDARD
  9
$CLAYER
  8
0
  9
$CELTYPE
  6
BYLAYER
  9
$CECOLOR
 62
   256
  9
$DIMSCALE
 40
1.0
  9
$DIMASZ
 40
2.5
  9
$DIMEXO
 40
0.625
  9
$DIMDLI
 40
3.75
  9
$DIMRND
 40
0.0
  9
$DIMDLE
 40
0.0
  9
$DIMEXE
 40
1.25
  9
$DIMTP
 40
0.0
  9
$DIMTM
 40
0.0
  9
$DIMTXT
 40
2.5
  9
$DIMCEN
 40
2.5
  9
$DIMTSZ
 40
0.0
  9
$DIMTOL
 70
     0
  9
$DIMLIM
 70
     0
  9
$DIMTIH
 70
     0
  9
$DIMTOH
 70
     0
  9
$DIMSE1
 70
     0
  9
$DIMSE2
 70
     0
  9
$DIMTAD
 70
     1
  9
$DIMZIN
 70
     8
  9
$DIMBLK
  1

  9
$DIMASO
 70
     1
  9
$DIMSHO
 70
     1
  9
$DIMPOST
  1

  9
$DIMAPOST
  1

  9
$DIMALT
 70
     0
  9
$DIMALTD
 70
     3
  9
$DIMALTF
 40
0.03937007874016
  9
$DIMLFAC
 40
1.0
  9
$DIMTOFL
 70
     1
  9
$DIMTVP
 40
0.0
  9
$DIMTIX
 70
     0
  9
$DIMSOXD
 70
     0
  9
$DIMSAH
 70
     0
  9
$DIMBLK1
  1

  9
$DIMBLK2
  1

  9
$DIMSTYLE
  2
ISO-25
  9
$DIMCLRD
 70
     0
  9
$DIMCLRE
 70
     0
  9
$DIMCLRT
 70
     0
  9
$DIMTFAC
 40
1.0
  9
$DIMGAP
 40
0.625
  9
$LUNITS
 70
     2
  9
$LUPREC
 70
     3
  9
$SKETCHINC
 40
1.0
  9
$FILLETRAD
 40
10.0
  9
$AUNITS
 70
     0
  9
$AUPREC
 70
     0
  9
$MENU
  1
.
  9
$ELEVATION
 40
0.0
  9
$PELEVATION
 40
0.0
  9
$THICKNESS
 40
0.0
  9
$LIMCHECK
 70
     0
  9
$CHAMFERA
 40
10.0
  9
$CHAMFERB
 40
10.0
  9
$SKPOLY
 70
     0
  9
$TDCREATE
 40
2455022.429026158
  9
$TDUPDATE
 40
2455022.429026158
  9
$TDINDWG
 40
0.0000000116
  9
$TDUSRTIMER
 40
2458690.782403461
  9
$USRTIMER
 70
     1
  9
$ANGBASE
 50
0.0
  9
$ANGDIR
 70
     0
  9
$PDMODE
 70
     0
  9
$PDSIZE
 40
0.0
  9
$PLINEWID
 40
0.0
  9
$COORDS
 70
     1
  9
$SPLFRAME
 70
     0
  9
$SPLINETYPE
 70
     6
  9
$SPLINESEGS
 70
     8
  9
$ATTDIA
 70
     0
  9
$ATTREQ
 70
     1
  9
$HANDLING
 70
     1
  9
$HANDSEED
  5
D11
  9
$SURFTAB1
 70
     6
  9
$SURFTAB2
 70
     6
  9
$SURFTYPE
 70
     6
  9
$SURFU
 70
     6
  9
$SURFV
 70
     6
  9
$UCSNAME
  2

  9
$UCSORG
 10
0.0
 20
0.0
 30
0.0
  9
$UCSXDIR
 10
1.0
 20
0.0
 30
0.0
  9
$UCSYDIR
 10
0.0
 20
1.0
 30
0.0
  9
$PUCSNAME
  2

  9
$PUCSORG
 10
0.0
 20
0.0
 30
0.0
  9
$PUCSXDIR
 10
1.0
 20
0.0
 30
0.0
  9
$PUCSYDIR
 10
0.0
 20
1.0
 30
0.0
  9
$USERI1
 70
     0
  9
$USERI2
 70
     0
  9
$USERI3
 70
     0
  9
$USERI4
 70
     0
  9
$USERI5
 70
     0
  9
$USERR1
 40
0.0
  9
$USERR2
 40
0.0
  9
$USERR3
 40
0.0
  9
$USERR4
 40
0.0
  9
$USERR5
 40
0.0
  9
$WORLDVIEW
 70
     1
  9
$SHADEDGE
 70
     3
  9
$SHADEDIF
 70
    70
  9
$TILEMODE
 70
     1
  9
$MAXACTVP
 70
    64
  9
$PLIMCHECK
 70
     0
  9
$PEXTMIN
 10
1.000000000000000E+20
 20
1.000000000000000E+20
 30
1.000000000000000E+20
  9
$PEXTMAX
 10
-1.000000000000000E+20
 20
-1.000000000000000E+20
 30
-1.000000000000000E+20
  9
$PLIMMIN
 10
0.0
 20
0.0
  9
$PLIMMAX
 10
420.0
 20
297.0
  9
$UNITMODE
 70
     0
  9
$VISRETAIN
 70
     1
  9
$PLINEGEN
 70
     0
  9
$PSLTSCALE
 70
     1
  0
ENDSEC
  0
SECTION
  2
TABLES
  0
TABLE
  2
VPORT
 70
     1
  0
VPORT
  2
*ACTIVE
 70
     0
 10
0.0
 20
0.0
 11
1.0
 21
1.0
 12
174.5732743803772
 22
1.280470270319107
 13
0.0
 23
0.0
 14
10.0
 24
10.0
 15
10.0
 25
10.0
 16
0.0
 26
0.0
 36
1.0
 17
-134.1869158878504
 27
0.0
 37
0.0
 40
166.2701061111309
 41
1.332880434782609
 42
50.0
 43
0.0
 44
0.0
 50
0.0
 51
0.0
 71
    16
 72
  1000
 73
     1
 74
     3
 75
     0
 76
     0
 77
     0
 78
     0
  0
ENDTAB
  0
TABLE
  2
LTYPE
 70
     5
  0
LTYPE
  2
CONTINUOUS
 70
     0
  3
Solid line
 72
    65
 73
     0
 40
0.0
  0
LTYPE
  2
CENTER
 70
     0
  3
 Center _____  _  _____  _  _____  _  _____  _ 
 72
    65
 73
     4
 40
50.8
 49
31.75
 49
-6.35
 49
6.35
 49
-6.35
  0
LTYPE
  2
DASHED
 70
     0
  3
Dashed __  __  __  __  __  __  __  __  __  __  
 72
    65
 73
     2
 40
19.05
 49
12.7
 49
-6.35
  0
LTYPE
  2
HIDDEN
 70
     0
  3
Hidden __ __ __ __ __ __ __ __ __ __ __ __ __ __
 72
    65
 73
     2
 40
1.905
 49
1.27
 49
-0.635
  0
LTYPE
  2
CENTERX2
 70
     0
  3
Center (2x) ________  __  ________  __  _____
 72
    65
 73
     4
 40
20.32
 49
12.7
 49
-2.54
 49
2.54
 49
-2.54
  0
ENDTAB
  0
TABLE
  2
LAYER
 70
    26
  0
LAYER
  2
0
 70
     0
 62
     7
  6
CONTINUOUS
  0
LAYER
  2
1
 70
     0
 62
     4
  6
CONTINUOUS
  0
LAYER
  2
2
 70
     0
 62
     7
  6
CONTINUOUS
  0
LAYER
  2
3
 70
     0
 62
     1
  6
DASHED
  0
LAYER
  2
4
 70
     0
 62
     2
  6
CENTER
  0
LAYER
  2
6
 70
     0
 62
     5
  6
CONTINUOUS
  0
LAYER
  2
7
 70
     0
 62
     5
  6
CONTINUOUS
  0
LAYER
  2
11
 70
     0
 62
     4
  6
CONTINUOUS
  0
LAYER
  2
SK1
 70
     0
 62
     4
  6
CONTINUOUS
  0
LAYER
  2
SK2
 70
     0
 62
     7
  6
CONTINUOUS
  0
LAYER
  2
SK3
 70
     0
 62
     1
  6
DASHED
  0
LAYER
  2
SK4
 70
     0
 62
     2
  6
CENTER
  0
LAYER
  2
SK6
 70
     0
 62
     5
  6
CONTINUOUS
  0
LAYER
  2
SK7
 70
     0
 62
     5
  6
CONTINUOUS
  0
LAYER
  2
SK11
 70
     0
 62
     4
  6
CONTINUOUS
  0
LAYER
  2
CUT
 70
     0
 62
     1
  6
CONTINUOUS
  0
LAYER
  2
NOCUT
 70
     0
 62
    -7
  6
CONTINUOUS
  0
LAYER
  2
SKVIEW1
 70
     0
 62
     4
  6
CONTINUOUS
  0
LAYER
  2
SKVIEW2
 70
     0
 62
     7
  6
CONTINUOUS
  0
LAYER
  2
SKVIEW3
 70
     0
 62
     1
  6
DASHED
  0
LAYER
  2
SKVIEW4
 70
     0
 62
     2
  6
CENTER
  0
LAYER
  2
SKVIEW6
 70
     0
 62
     5
  6
CONTINUOUS
  0
LAYER
  2
SKVIEW7
 70
     0
 62
     5
  6
CONTINUOUS
  0
LAYER
  2
SKVIEW11
 70
     0
 62
     4
  6
CONTINUOUS
  0
LAYER
  2
INFTOTAL
 70
     0
 62
     9
  6
CONTINUOUS
  0
LAYER
  2
DEFPOINTS
 70
     0
 62
     7
  6
CONTINUOUS
  0
ENDTAB
  0
TABLE
  2
STYLE
 70
     1
  0
STYLE
  2
STANDARD
 70
     0
 40
0.0
 41
1.0
 50
0.0
 71
     0
 42
2.5
  3
txt
  4

  0
ENDTAB
  0
TABLE
  2
VIEW
 70
     0
  0
ENDTAB
  0
TABLE
  2
UCS
 70
     0
  0
ENDTAB
  0
TABLE
  2
APPID
 70
     2
  0
APPID
  2
ACAD
 70
     0
  0
APPID
  2
ACAECLAYERSTANDARD
 70
     0
  0
ENDTAB
  0
TABLE
  2
DIMSTYLE
 70
     1
  0
DIMSTYLE
  2
ISO-25
 70
     0
  3

  4

  5

  6

  7

 40
1.0
 41
2.5
 42
0.625
 43
3.75
 44
1.25
 45
0.0
 46
0.0
 47
0.0
 48
0.0
140
2.5
141
2.5
142
0.0
143
0.03937007874016
144
1.0
145
0.0
146
1.0
147
0.625
 71
     0
 72
     0
 73
     0
 74
     0
 75
     0
 76
     0
 77
     1
 78
     8
170
     0
171
     3
172
     1
173
     0
174
     0
175
     0
176
     0
177
     0
178
     0
  0
ENDTAB
  0
ENDSEC
  0
SECTION
  2
BLOCKS
  0
BLOCK
  8
0
  2
$MODEL_SPACE
 70
     0
 10
0.0
 20
0.0
 30
0.0
  3
$MODEL_SPACE
  1

  0
ENDBLK
  5
21
  8
0
  0
BLOCK
 67
     1
  8
0
  2
$PAPER_SPACE
 70
     0
 10
0.0
 20
0.0
 30
0.0
  3
$PAPER_SPACE
  1

  0
ENDBLK
  5
1D
 67
     1
  8
0
  0
BLOCK
  8
0
  2
SW_CENTERMARKSYMBOL_0
 70
     0
 10
0.0
 20
0.0
 30
0.0
  3
SW_CENTERMARKSYMBOL_0
  1

  0
LINE
  5
19E
  8
4
 62
     0
 10
0.0
 20
0.0
 30
0.0
 11
0.0
 21
2.5
 31
0.0
  0
LINE
  5
19F
  8
4
 62
     0
 10
0.0
 20
0.0
 30
0.0
 11
-2.5
 21
0.0
 31
0.0
  0
LINE
  5
1A0
  8
4
 62
     0
 10
0.0
 20
0.0
 30
0.0
 11
0.0
 21
-2.5
 31
0.0
  0
LINE
  5
1A1
  8
4
 62
     0
 10
0.0
 20
0.0
 30
0.0
 11
2.5
 21
0.0
 31
0.0
  0
LINE
  5
1A2
  8
4
 62
     0
 10
0.0
 20
5.0
 30
0.0
 11
0.0
 21
8.85
 31
0.0
  0
LINE
  5
1A3
  8
4
 62
     0
 10
-5.0
 20
0.0
 30
0.0
 11
-8.85
 21
0.0
 31
0.0
  0
LINE
  5
1A4
  8
4
 62
     0
 10
0.0
 20
-5.0
 30
0.0
 11
0.0
 21
-8.85
 31
0.0
  0
LINE
  5
1A5
  8
4
 62
     0
 10
5.0
 20
0.0
 30
0.0
 11
8.85
 21
0.0
 31
0.0
  0
ENDBLK
  5
1A6
  8
0
  0
BLOCK
  8
0
  2
_FILLED
 70
     0
 10
0.0
 20
0.0
 30
0.0
  3
_FILLED
  1

  0
SOLID
  5
1C4
  8
0
  6
BYBLOCK
 62
     0
 10
0.0
 20
0.0
 30
0.0
 11
-1.0
 21
0.2142857143
 31
0.0
 12
-1.0
 22
-0.2142857143
 32
0.0
 13
-1.0
 23
-0.2142857143
 33
0.0
  0
ENDBLK
  5
1C5
  8
0
  6
BYBLOCK
 62
     0
  0
BLOCK
  8
0
  2
*D2
 70
     1
 10
0.0
 20
0.0
 30
0.0
  3
*D2
  1

  0
LINE
  5
1D3
  8
2
 62
     0
 10
0.0
 20
22.84999999999999
 30
0.0
 11
0.0
 21
48.91573065769793
 31
0.0
  0
LINE
  5
1D4
  8
2
 62
     0
 10
101.6
 20
21.70060950789997
 30
0.0
 11
101.6
 21
48.91573065769793
 31
0.0
  0
LINE
  5
1D5
  8
2
 62
     0
 10
2.5
 20
47.66573065769793
 30
0.0
 11
99.10000000000001
 21
47.66573065769793
 31
0.0
  0
SOLID
  5
1D6
  8
2
 62
     0
 10
2.5
 20
48.08239732436459
 30
0.0
 11
2.5
 21
47.24906399103126
 31
0.0
 12
0.0
 22
47.66573065769793
 32
0.0
 13
0.0
 23
47.66573065769793
 33
0.0
  0
SOLID
  5
1D7
  8
2
 62
     0
 10
99.10000000000001
 20
47.24906399103126
 30
0.0
 11
99.10000000000001
 21
48.08239732436459
 31
0.0
 12
101.6
 22
47.66573065769793
 32
0.0
 13
101.6
 23
47.66573065769793
 33
0.0
  0
TEXT
  5
1D8
  8
2
  6
CONTINUOUS
 62
     0
 10
46.84166666666667
 20
48.29073065769793
 30
0.0
 40
2.5
  1
101.6
  0
POINT
  5
1D9
  8
DEFPOINTS
 62
     0
 10
0.0
 20
22.22499999999999
 30
0.0
  0
POINT
  5
1DA
  8
DEFPOINTS
 62
     0
 10
101.6
 20
21.07560950789997
 30
0.0
  0
POINT
  5
1DB
  8
DEFPOINTS
 62
     0
 10
101.6
 20
47.66573065769793
 30
0.0
  0
ENDBLK
  5
1DD
  8
0
  0
BLOCK
  8
0
  2
*D3
 70
     1
 10
0.0
 20
0.0
 30
0.0
  3
*D3
  1

  0
LINE
  5
211
  8
SK2
 62
     0
 10
0.0
 20
-22.84999999999999
 30
0.0
 11
0.0
 21
-48.27109509650273
 31
0.0
  0
LINE
  5
212
  8
SK2
 62
     0
 10
35.05
 20
-26.12500000000006
 30
0.0
 11
35.05
 21
-48.27109509650273
 31
0.0
  0
LINE
  5
213
  8
SK2
 62
     0
 10
2.5
 20
-47.02109509650273
 30
0.0
 11
32.55
 21
-47.02109509650273
 31
0.0
  0
SOLID
  5
214
  8
SK2
 62
     0
 10
2.5
 20
-46.60442842983606
 30
0.0
 11
2.5
 21
-47.43776176316939
 31
0.0
 12
0.0
 22
-47.02109509650273
 32
0.0
 13
0.0
 23
-47.02109509650273
 33
0.0
  0
SOLID
  5
215
  8
SK2
 62
     0
 10
32.55
 20
-47.43776176316939
 30
0.0
 11
32.55
 21
-46.60442842983606
 31
0.0
 12
35.05
 22
-47.02109509650273
 32
0.0
 13
35.05
 23
-47.02109509650273
 33
0.0
  0
TEXT
  5
216
  8
SK2
  6
CONTINUOUS
 62
     0
 10
12.73333333333333
 20
-46.39609509650273
 30
0.0
 40
2.5
  1
35.05
  0
POINT
  5
217
  8
DEFPOINTS
 62
     0
 10
0.0
 20
-22.22499999999999
 30
0.0
  0
POINT
  5
218
  8
DEFPOINTS
 62
     0
 10
35.05
 20
-25.50000000000006
 30
0.0
  0
POINT
  5
219
  8
DEFPOINTS
 62
     0
 10
35.05
 20
-47.02109509650273
 30
0.0
  0
ENDBLK
  5
21B
  8
0
  0
BLOCK
  8
0
  2
*D4
 70
     1
 10
0.0
 20
0.0
 30
0.0
  3
*D4
  1

  0
LINE
  5
A3F
  8
SK2
 62
     0
 10
45.04707868730002
 20
26.49999999999994
 30
0.0
 11
149.0227169850536
 21
26.49999999999994
 31
0.0
  0
LINE
  5
A40
  8
SK2
 62
     0
 10
45.04707868730002
 20
-26.50000000000006
 30
0.0
 11
149.0227169850536
 21
-26.50000000000006
 31
0.0
  0
LINE
  5
A41
  8
SK2
 62
     0
 10
147.7727169850536
 20
23.99999999999994
 30
0.0
 11
147.7727169850536
 21
-24.00000000000006
 31
0.0
  0
SOLID
  5
A42
  8
SK2
 62
     0
 10
148.1893836517202
 20
23.99999999999994
 30
0.0
 11
147.3560503183869
 21
23.99999999999994
 31
0.0
 12
147.7727169850536
 22
26.49999999999994
 32
0.0
 13
147.7727169850536
 23
26.49999999999994
 33
0.0
  0
SOLID
  5
A43
  8
SK2
 62
     0
 10
147.3560503183869
 20
-24.00000000000006
 30
0.0
 11
148.1893836517202
 21
-24.00000000000006
 31
0.0
 12
147.7727169850536
 22
-26.50000000000006
 32
0.0
 13
147.7727169850536
 23
-26.50000000000006
 33
0.0
  0
TEXT
  5
A44
  8
SK2
  6
CONTINUOUS
 62
     0
 10
147.1477169850536
 20
-2.0833333333334
 30
0.0
 40
2.5
  1
53
 50
90.0
  0
POINT
  5
A45
  8
DEFPOINTS
 62
     0
 10
44.42207868730002
 20
26.49999999999994
 30
0.0
  0
POINT
  5
A46
  8
DEFPOINTS
 62
     0
 10
44.42207868730002
 20
-26.50000000000006
 30
0.0
  0
POINT
  5
A47
  8
DEFPOINTS
 62
     0
 10
147.7727169850536
 20
-26.50000000000006
 30
0.0
  0
ENDBLK
  5
A49
  8
0
  0
BLOCK
  8
0
  2
*D5
 70
     1
 10
0.0
 20
0.0
 30
0.0
  3
*D5
  1

  0
LINE
  5
A4E
  8
SK2
 62
     0
 10
102.225
 20
22.00000000003114
 30
0.0
 11
135.92252031787
 21
22.00000000003114
 31
0.0
  0
LINE
  5
A4F
  8
SK2
 62
     0
 10
102.225
 20
-22.00000000003114
 30
0.0
 11
135.92252031787
 21
-22.00000000003115
 31
0.0
  0
LINE
  5
A50
  8
SK2
 62
     0
 10
134.67252031787
 20
19.50000000003114
 30
0.0
 11
134.67252031787
 21
-19.50000000003115
 31
0.0
  0
SOLID
  5
A51
  8
SK2
 62
     0
 10
135.0891869845366
 20
19.50000000003114
 30
0.0
 11
134.2558536512033
 21
19.50000000003114
 31
0.0
 12
134.67252031787
 22
22.00000000003114
 32
0.0
 13
134.67252031787
 23
22.00000000003114
 33
0.0
  0
SOLID
  5
A52
  8
SK2
 62
     0
 10
134.2558536512033
 20
-19.50000000003115
 30
0.0
 11
135.0891869845366
 21
-19.50000000003115
 31
0.0
 12
134.67252031787
 22
-22.00000000003115
 32
0.0
 13
134.67252031787
 23
-22.00000000003115
 33
0.0
  0
TEXT
  5
A53
  8
SK2
  6
CONTINUOUS
 62
     0
 10
134.04752031787
 20
-2.083333333333343
 30
0.0
 40
2.5
  1
44
 50
90.0
  0
POINT
  5
A54
  8
DEFPOINTS
 62
     0
 10
101.6
 20
22.00000000003114
 30
0.0
  0
POINT
  5
A55
  8
DEFPOINTS
 62
     0
 10
101.6
 20
-22.00000000003114
 30
0.0
  0
POINT
  5
A56
  8
DEFPOINTS
 62
     0
 10
134.67252031787
 20
-22.00000000003115
 30
0.0
  0
ENDBLK
  5
A58
  8
0
  0
BLOCK
  8
0
  2
*D6
 70
     1
 10
0.0
 20
0.0
 30
0.0
  3
*D6
  1

  0
LINE
  5
A5D
  8
SK2
 62
     0
 10
101.225
 20
12.69999999999999
 30
0.0
 11
119.5472744838904
 21
12.69999999999999
 31
0.0
  0
LINE
  5
A5E
  8
SK2
 62
     0
 10
101.225
 20
-12.69999999999999
 30
0.0
 11
119.5472744838904
 21
-12.69999999999999
 31
0.0
  0
LINE
  5
A5F
  8
SK2
 62
     0
 10
118.2972744838904
 20
10.19999999999999
 30
0.0
 11
118.2972744838904
 21
-10.19999999999999
 31
0.0
  0
SOLID
  5
A60
  8
SK2
 62
     0
 10
118.7139411505571
 20
10.19999999999999
 30
0.0
 11
117.8806078172238
 21
10.19999999999999
 31
0.0
 12
118.2972744838904
 22
12.69999999999999
 32
0.0
 13
118.2972744838904
 23
12.69999999999999
 33
0.0
  0
SOLID
  5
A61
  8
SK2
 62
     0
 10
117.8806078172238
 20
-10.19999999999999
 30
0.0
 11
118.7139411505571
 21
-10.19999999999999
 31
0.0
 12
118.2972744838904
 22
-12.69999999999999
 32
0.0
 13
118.2972744838904
 23
-12.69999999999999
 33
0.0
  0
TEXT
  5
A62
  8
SK2
  6
CONTINUOUS
 62
     0
 10
117.6722744838904
 20
-3.75
 30
0.0
 40
2.5
  1
25.4
 50
90.0
  0
POINT
  5
A63
  8
DEFPOINTS
 62
     0
 10
100.6
 20
12.69999999999999
 30
0.0
  0
POINT
  5
A64
  8
DEFPOINTS
 62
     0
 10
100.6
 20
-12.69999999999999
 30
0.0
  0
POINT
  5
A65
  8
DEFPOINTS
 62
     0
 10
118.2972744838904
 20
-12.69999999999999
 30
0.0
  0
ENDBLK
  5
A67
  8
0
  0
BLOCK
  8
0
  2
*U7
 70
     1
 10
0.0
 20
0.0
 30
0.0
  3
*U7
  1

  0
TEXT
  5
B66
  8
SK6
 10
-50.0
 20
78.25
 30
0.0
 40
3.5
  1
BIG KAISER
 41
0.85
  0
TEXT
  5
B68
  8
SK6
 10
-50.0
 20
73.0
 30
0.0
 40
3.5
  1
BCV40-SF1.000-4
 41
0.85
  0
ENDBLK
  5
B69
  8
0
  0
BLOCK
  8
0
  2
*U8
 70
     1
 10
0.0
 20
0.0
 30
0.0
  3
*U8
  1

  0
TEXT
  5
B6D
  8
SK6
 10
-59.69788960116666
 20
-43.0461554182
 30
0.0
 40
3.5
  1
BCV40
 41
0.85
  0
ENDBLK
  5
B6E
  8
0
  0
ENDSEC
  0
SECTION
  2
ENTITIES
  0
LINE
  5
CA
  8
1
 10
1.5
 20
-31.75
 30
0.0
 11
7.603833230899994
 21
-31.75
 31
0.0
  0
LINE
  5
CC
  8
1
 10
7.603833230899994
 20
31.74999999999997
 30
0.0
 11
1.5
 21
31.74999999999997
 31
0.0
  0
LINE
  5
CD
  8
1
 10
14.6561667691
 20
31.74999999999997
 30
0.0
 11
13.05500000000001
 21
28.97669780459998
 31
0.0
  0
LINE
  5
CE
  8
1
 10
13.05500000000001
 20
-28.97669780460001
 30
0.0
 11
14.6561667691
 21
-31.75
 31
0.0
  0
LINE
  5
CF
  8
1
 10
7.603833230899994
 20
-31.75
 30
0.0
 11
9.204999999999984
 21
-28.97669780460001
 31
0.0
  0
LINE
  5
D0
  8
1
 10
9.204999999999984
 20
28.97669780459998
 30
0.0
 11
7.603833230899994
 21
31.74999999999997
 31
0.0
  0
LINE
  5
D1
  8
1
 10
14.6561667691
 20
-31.75
 30
0.0
 11
18.55000000000001
 21
-31.75
 31
0.0
  0
LINE
  5
D2
  8
1
 10
18.55000000000001
 20
31.74999999999997
 30
0.0
 11
14.6561667691
 21
31.74999999999997
 31
0.0
  0
ARC
  5
D3
  8
1
 10
18.55000000000001
 20
31.24999999999997
 30
0.0
 40
0.5
 50
0.0
 51
90.0
  0
ARC
  5
D5
  8
1
 10
1.5
 20
31.24999999999997
 30
0.0
 40
0.5
 50
90.0
 51
180.0
  0
ARC
  5
D6
  8
1
 10
1.5
 20
-31.25
 30
0.0
 40
0.5
 50
180.0
 51
270.0
  0
ARC
  5
D7
  8
1
 10
9.704999999999984
 20
-28.68000000000001
 30
0.0
 40
0.5
 50
90.0
 51
180.0
  0
ARC
  5
D8
  8
1
 10
12.55500000000001
 20
28.67999999999998
 30
0.0
 40
0.5
 50
270.0
 51
0.0
  0
ARC
  5
D9
  8
1
 10
9.704999999999984
 20
28.67999999999998
 30
0.0
 40
0.5
 50
180.0
 51
270.0
  0
ARC
  5
DA
  8
1
 10
12.55500000000001
 20
-28.68000000000001
 30
0.0
 40
0.5
 50
0.0
 51
90.0
  0
LINE
  5
DB
  8
1
 10
12.55500000000001
 20
28.17999999999998
 30
0.0
 11
9.704999999999984
 21
28.17999999999998
 31
0.0
  0
LINE
  5
DC
  8
1
 10
9.704999999999984
 20
-28.18000000000001
 30
0.0
 11
12.55500000000001
 21
-28.18000000000001
 31
0.0
  0
ARC
  5
DF
  8
1
 10
0.8000000000000114
 20
-22.42500000000001
 30
0.0
 40
0.5000000000000163
 50
66.42182152180045
 51
90.0
  0
ARC
  5
E0
  8
1
 10
0.8000000000000114
 20
22.42499999999998
 30
0.0
 40
0.5
 50
270.0
 51
293.5781784782006
  0
LINE
  5
E3
  8
SK1
 10
0.0
 20
22.22499999999999
 30
0.0
 11
-67.39430822720001
 21
12.39657058259999
 31
0.0
  0
LINE
  5
E4
  8
SK1
 10
-67.39430822720001
 20
-12.39657058269998
 30
0.0
 11
0.0
 21
-22.22499999999999
 31
0.0
  0
LINE
  5
E7
  8
1
 10
0.0
 20
-22.22499999999999
 30
0.0
 11
0.3000000000000114
 21
-21.92500000000001
 31
0.0
  0
LINE
  5
E8
  8
1
 10
0.3000000000000114
 20
21.92499999999998
 30
0.0
 11
0.0
 21
22.22499999999999
 31
0.0
  0
LINE
  5
E9
  8
1
 10
0.3000000000000114
 20
-21.92500000000001
 30
0.0
 11
0.8000000000000114
 21
-21.92500000000001
 31
0.0
  0
LINE
  5
EA
  8
1
 10
0.8000000000000114
 20
21.92499999999998
 30
0.0
 11
0.3000000000000114
 21
21.92499999999998
 31
0.0
  0
ARC
  5
F1
  8
SK1
 10
-67.25
 20
-11.4070377962
 30
0.0
 40
1.000000000000018
 50
180.0
 51
261.7027777777988
  0
ARC
  5
F2
  8
SK1
 10
-67.25
 20
11.4070377962
 30
0.0
 40
1.000000000000018
 50
98.29722222220124
 51
180.0
  0
LINE
  5
F5
  8
1
 10
3.71536829759998
 20
8.042838178200014
 30
0.0
 11
4.034652632299981
 21
8.811856167900004
 31
0.0
  0
LINE
  5
F6
  8
1
 10
4.034656382099996
 20
8.811853219399978
 30
0.0
 11
7.567468496999993
 21
8.811853219399978
 31
0.0
  0
LINE
  5
F7
  8
1
 10
7.152654613099969
 20
8.049999904600014
 30
0.0
 11
7.567468496999993
 21
8.811853219399978
 31
0.0
  0
LINE
  5
F8
  8
1
 10
7.161482187199994
 20
8.049999999999983
 30
0.0
 11
3.699999999999989
 21
8.049999999999983
 31
0.0
  0
LINE
  5
F9
  8
1
 10
3.699999615099983
 20
8.050000384900017
 30
0.0
 11
0.9999994658999753
 21
10.7500005341
 31
0.0
  0
LINE
  5
FA
  8
1
 10
1.0
 20
10.75000044890001
 30
0.0
 11
1.0
 21
11.06550824809997
 31
0.0
  0
POLYLINE
  5
FB
  8
1
 66
     1
 10
0.0
 20
0.0
 30
0.0
  0
VERTEX
  5
CE5
  8
1
 10
1.499990290499994
 20
11.38852240849999
 30
0.0
  0
VERTEX
  5
CE6
  8
1
 10
1.37628928739997
 20
11.48840743299999
 30
0.0
  0
VERTEX
  5
CE7
  8
1
 10
1.285418490599994
 20
11.52616912829998
 30
0.0
  0
VERTEX
  5
CE8
  8
1
 10
1.211001128199996
 20
11.52931883580001
 30
0.0
  0
VERTEX
  5
CE9
  8
1
 10
1.143446607199991
 20
11.5023341559
 30
0.0
  0
VERTEX
  5
CEA
  8
1
 10
1.092957580299981
 20
11.45348233590002
 30
0.0
  0
VERTEX
  5
CEB
  8
1
 10
1.0379123779
 20
11.34366660319998
 30
0.0
  0
VERTEX
  5
CEC
  8
1
 10
1.001107981199993
 20
11.11717929160002
 30
0.0
  0
VERTEX
  5
CED
  8
1
 10
1.000002335399984
 20
11.06504604310001
 30
0.0
  0
SEQEND
  5
D10
  8
1
  0
LINE
  5
FC
  8
1
 10
1.500000040999993
 20
11.38853068950002
 30
0.0
 11
4.034656382099996
 21
8.811852791999996
 31
0.0
  0
LINE
  5
FD
  8
1
 10
0.9999994658999753
 20
-10.7500005341
 30
0.0
 11
3.699999615099983
 21
-8.050000385000004
 31
0.0
  0
LINE
  5
FE
  8
1
 10
4.034652632299981
 20
-8.811856167900004
 30
0.0
 11
3.71536829759998
 21
-8.042838178200014
 31
0.0
  0
LINE
  5
FF
  8
1
 10
4.034656382099996
 20
-8.811852791999996
 30
0.0
 11
1.5
 21
-11.38853073120001
 31
0.0
  0
POLYLINE
  5
100
  8
1
 66
     1
 10
0.0
 20
0.0
 30
0.0
  0
VERTEX
  5
CEE
  8
1
 10
1.000002335399984
 20
-11.06504604310001
 30
0.0
  0
VERTEX
  5
CEF
  8
1
 10
1.043590932599983
 20
-11.35992959580003
 30
0.0
  0
VERTEX
  5
CF0
  8
1
 10
1.086499236099996
 20
-11.44459527609999
 30
0.0
  0
VERTEX
  5
CF1
  8
1
 10
1.151675699299972
 20
-11.50758116199998
 30
0.0
  0
VERTEX
  5
CF2
  8
1
 10
1.216350402499984
 20
-11.53009617950002
 30
0.0
  0
VERTEX
  5
CF3
  8
1
 10
1.286646524099979
 20
-11.52588765319999
 30
0.0
  0
VERTEX
  5
CF4
  8
1
 10
1.38470270229999
 20
-11.48329939440001
 30
0.0
  0
VERTEX
  5
CF5
  8
1
 10
1.499990290499994
 20
-11.38852240849999
 30
0.0
  0
SEQEND
  5
D0F
  8
1
  0
LINE
  5
101
  8
1
 10
1.0
 20
-11.06550824810003
 30
0.0
 11
1.0
 21
-10.75000044890001
 31
0.0
  0
LINE
  5
102
  8
1
 10
3.699999999999989
 20
-8.049999999999983
 30
0.0
 11
7.152654613799996
 21
-8.049999999999983
 31
0.0
  0
LINE
  5
103
  8
1
 10
7.567468497499988
 20
-8.811853219399978
 30
0.0
 11
7.152654613799996
 21
-8.049999904700002
 31
0.0
  0
LINE
  5
104
  8
1
 10
7.567468497499988
 20
-8.811853219399978
 30
0.0
 11
4.034656382099996
 21
-8.811853219399978
 31
0.0
  0
LINE
  5
105
  8
1
 10
7.603832461699994
 20
-8.847246673400008
 30
0.0
 11
7.567468497499988
 21
-8.811853219399978
 31
0.0
  0
LINE
  5
106
  8
1
 10
7.603833230899994
 20
-31.75
 30
0.0
 11
7.603833230899994
 21
-8.848938227200023
 31
0.0
  0
LINE
  5
107
  8
1
 10
7.603833230899994
 20
8.847246640400016
 30
0.0
 11
7.603833230899994
 21
31.74999999999997
 31
0.0
  0
LINE
  5
108
  8
1
 10
7.567468496999993
 20
8.811853219399978
 30
0.0
 11
7.603832461299987
 21
8.847246673499995
 31
0.0
  0
LINE
  5
109
  8
1
 10
13.05500004409998
 20
8.855488666900015
 30
0.0
 11
14.65616679229998
 21
8.847246634599998
 31
0.0
  0
LINE
  5
10A
  8
1
 10
13.05500000000001
 20
8.855488658200017
 30
0.0
 11
13.05500000000001
 21
28.97669780459998
 31
0.0
  0
LINE
  5
10B
  8
1
 10
14.6561667691
 20
8.848938230400023
 30
0.0
 11
14.6561667691
 21
31.74999999999997
 31
0.0
  0
LINE
  5
10C
  8
1
 10
14.69253150179998
 20
8.811853219399978
 30
0.0
 11
15.10734538499997
 21
8.049999904700002
 31
0.0
  0
LINE
  5
10D
  8
1
 10
15.10734502769998
 20
8.049999999999983
 30
0.0
 11
13.44704320329998
 21
8.049999999999983
 31
0.0
  0
LINE
  5
10E
  8
1
 10
13.43780182399999
 20
8.053961846399972
 30
0.0
 11
13.05500056259999
 21
8.669042239800007
 31
0.0
  0
LINE
  5
10F
  8
1
 10
13.05500000000001
 20
8.69007815400002
 30
0.0
 11
13.05500000000001
 21
8.855489445000018
 31
0.0
  0
LINE
  5
110
  8
1
 10
14.65616753759997
 20
8.847246673199976
 30
0.0
 11
14.69253150179998
 21
8.811853219399978
 31
0.0
  0
LINE
  5
111
  8
1
 10
14.65616679229998
 20
-8.847246634699985
 30
0.0
 11
13.05500004409998
 21
-8.85548866709999
 31
0.0
  0
LINE
  5
112
  8
1
 10
14.6561667691
 20
-31.75
 30
0.0
 11
14.6561667691
 21
-8.847246640300028
 31
0.0
  0
LINE
  5
113
  8
1
 10
13.05500000000001
 20
-28.97669780460001
 30
0.0
 11
13.05500000000001
 21
-8.857701361300002
 31
0.0
  0
LINE
  5
114
  8
1
 10
13.05500000000001
 20
-8.669042973799975
 30
0.0
 11
13.43731549449998
 21
-8.054093609399985
 31
0.0
  0
LINE
  5
115
  8
1
 10
13.4468212324
 20
-8.049999999999983
 30
0.0
 11
15.10734502819997
 21
-8.049999999999983
 31
0.0
  0
LINE
  5
116
  8
1
 10
15.1073453857
 20
-8.049999904700002
 30
0.0
 11
14.69253150219998
 21
-8.811853219399978
 31
0.0
  0
LINE
  5
117
  8
1
 10
14.69253150229997
 20
-8.811853219399978
 30
0.0
 11
14.65616753799998
 21
-8.84724667330002
 31
0.0
  0
LINE
  5
118
  8
1
 10
13.05500000000001
 20
-8.855489703799975
 30
0.0
 11
13.05500000000001
 21
-8.690078156099986
 31
0.0
  0
LINE
  5
119
  8
1
 10
7.152654971400011
 20
-8.049999999999983
 30
0.0
 11
8.812956798100004
 21
-8.049999999999983
 31
0.0
  0
LINE
  5
11A
  8
1
 10
8.822198178199983
 20
-8.05396184769998
 30
0.0
 11
9.204999437399977
 21
-8.669042239800007
 31
0.0
  0
LINE
  5
11B
  8
1
 10
9.204999999999984
 20
-8.690078155599991
 30
0.0
 11
9.204999999999984
 21
-8.855489446400014
 31
0.0
  0
LINE
  5
11C
  8
1
 10
9.204999955900007
 20
-8.85548866740001
 30
0.0
 11
7.603833207700006
 21
-8.84724663480003
 31
0.0
  0
LINE
  5
11D
  8
1
 10
9.204999999999984
 20
-28.97669780460001
 30
0.0
 11
9.204999999999984
 21
-8.855488658700011
 31
0.0
  0
LINE
  5
11E
  8
1
 10
7.603833207700006
 20
8.847246634900017
 30
0.0
 11
9.204999955900007
 21
8.855488667499998
 31
0.0
  0
LINE
  5
11F
  8
1
 10
9.204999999999984
 20
8.857701354400007
 30
0.0
 11
9.204999999999984
 21
28.97669780459998
 31
0.0
  0
LINE
  5
120
  8
1
 10
9.204999999999984
 20
8.669042973799975
 30
0.0
 11
8.82268450769999
 21
8.054093610600006
 31
0.0
  0
LINE
  5
121
  8
1
 10
8.813178766699991
 20
8.049999999999983
 30
0.0
 11
7.152654970899988
 21
8.049999999999983
 31
0.0
  0
LINE
  5
122
  8
1
 10
9.204999999999984
 20
8.855489705499991
 30
0.0
 11
9.204999999999984
 21
8.69007815759997
 31
0.0
  0
LINE
  5
123
  8
1
 10
19.01185321561763
 20
-8.811853219399978
 30
0.0
 11
14.69253150229997
 21
-8.811853219399978
 31
0.0
  0
LINE
  5
124
  8
1
 10
14.69253150179998
 20
8.811853219399978
 30
0.0
 11
19.0118532194
 21
8.811853219399978
 31
0.0
  0
LINE
  5
125
  8
1
 10
15.09851778029997
 20
-8.049999999999983
 30
0.0
 11
18.25
 21
-8.049999999999983
 31
0.0
  0
LINE
  5
128
  8
1
 10
18.25
 20
8.049999999999983
 30
0.0
 11
15.10734538499997
 21
8.049999999999983
 31
0.0
  0
LINE
  5
12B
  8
1
 10
19.05000000000001
 20
31.24999999999997
 30
0.0
 11
19.04999999765353
 21
-31.25000000419276
 31
0.0
  0
LINE
  5
12F
  8
1
 10
1.0
 20
11.06551631390002
 30
0.0
 11
1.0
 21
31.24999999999997
 31
0.0
  0
LINE
  5
130
  8
1
 10
1.0
 20
-31.25
 30
0.0
 11
1.0
 21
-11.06551631390002
 31
0.0
  0
POLYLINE
  5
131
  8
1
 66
     1
 10
0.0
 20
0.0
 30
0.0
  0
VERTEX
  5
CF6
  8
1
 10
9.704999999999984
 20
-8.802922431600024
 30
0.0
  0
VERTEX
  5
CF7
  8
1
 10
9.61339682549999
 20
-8.8007872286
 30
0.0
  0
VERTEX
  5
CF8
  8
1
 10
9.520298052399994
 20
-8.792903181900016
 30
0.0
  0
VERTEX
  5
CF9
  8
1
 10
9.430001214799972
 20
-8.779729355800015
 30
0.0
  0
VERTEX
  5
CFA
  8
1
 10
9.347638275099996
 20
-8.76134711009999
 30
0.0
  0
VERTEX
  5
CFB
  8
1
 10
9.257923619099984
 20
-8.72632496090003
 30
0.0
  0
VERTEX
  5
CFC
  8
1
 10
9.220714299099996
 20
-8.700557828200004
 30
0.0
  0
VERTEX
  5
CFD
  8
1
 10
9.204999999999984
 20
-8.669042973799975
 30
0.0
  0
SEQEND
  5
D0E
  8
1
  0
LINE
  5
132
  8
1
 10
9.704999999999984
 20
-8.802922431600024
 30
0.0
 11
9.704999999999984
 21
-8.049999999999983
 31
0.0
  0
LINE
  5
133
  8
1
 10
8.81481466439999
 20
-8.049999999999983
 30
0.0
 11
9.704999999999984
 21
-8.049999999999983
 31
0.0
  0
POLYLINE
  5
134
  8
1
 66
     1
 10
0.0
 20
0.0
 30
0.0
  0
VERTEX
  5
CFE
  8
1
 10
12.55500000000001
 20
8.802922431600024
 30
0.0
  0
VERTEX
  5
CFF
  8
1
 10
12.6466031745
 20
8.8007872286
 30
0.0
  0
VERTEX
  5
D00
  8
1
 10
12.7397019476
 20
8.792903181900016
 30
0.0
  0
VERTEX
  5
D01
  8
1
 10
12.82999878519999
 20
8.779729355800015
 30
0.0
  0
VERTEX
  5
D02
  8
1
 10
12.91236172489999
 20
8.76134711009999
 30
0.0
  0
VERTEX
  5
D03
  8
1
 10
13.00207638090001
 20
8.726324960899973
 30
0.0
  0
VERTEX
  5
D04
  8
1
 10
13.0392857009
 20
8.700557828200004
 30
0.0
  0
VERTEX
  5
D05
  8
1
 10
13.05500000000001
 20
8.669042973799975
 30
0.0
  0
SEQEND
  5
D0D
  8
1
  0
LINE
  5
135
  8
1
 10
12.55500000000001
 20
8.802922431600024
 30
0.0
 11
12.55500000000001
 21
8.049999999999983
 31
0.0
  0
LINE
  5
136
  8
1
 10
13.445185337
 20
8.049999999999983
 30
0.0
 11
12.55500000000001
 21
8.049999999999983
 31
0.0
  0
LINE
  5
137
  8
1
 10
9.704999999999984
 20
8.802922431600024
 30
0.0
 11
9.704999999999984
 21
8.049999999999983
 31
0.0
  0
ARC
  5
138
  8
1
 10
9.616105060899997
 20
8.134303163700025
 30
0.0
 40
0.6745028061976626
 50
82.42676842310047
 51
127.5528870939997
  0
LINE
  5
139
  8
1
 10
9.704999999999984
 20
8.049999999999983
 30
0.0
 11
8.815087690899986
 21
8.049999999999983
 31
0.0
  0
ARC
  5
13A
  8
1
 10
12.64389493909999
 20
-8.134303163800013
 30
0.0
 40
0.6745028061289188
 50
262.4267684206997
 51
307.5528870964
  0
LINE
  5
13B
  8
1
 10
12.55500000000001
 20
-8.802922431600024
 30
0.0
 11
12.55500000000001
 21
-8.049999999999983
 31
0.0
  0
LINE
  5
13C
  8
1
 10
12.55500000000001
 20
-8.049999999999983
 30
0.0
 11
13.44491230979997
 21
-8.049999999999983
 31
0.0
  0
LINE
  5
13D
  8
1
 10
9.704999999999984
 20
8.802922431600024
 30
0.0
 11
12.55500000000001
 21
8.802922431600024
 31
0.0
  0
LINE
  5
13E
  8
1
 10
12.55500000000001
 20
8.049999999999983
 30
0.0
 11
9.704999999999984
 21
8.049999999999983
 31
0.0
  0
LINE
  5
13F
  8
1
 10
12.55500000000001
 20
-8.802922431600024
 30
0.0
 11
9.704999999999984
 21
-8.802922431600024
 31
0.0
  0
LINE
  5
140
  8
1
 10
9.704999999999984
 20
-8.049999999999983
 30
0.0
 11
12.55500000000001
 21
-8.049999999999983
 31
0.0
  0
CIRCLE
  5
141
  8
1
 10
11.13
 20
-0.0000000000000284
 30
0.0
 40
6.350000000000023
  0
LINE
  5
142
  8
1
 10
1.0
 20
10.74999999999997
 30
0.0
 11
1.0
 21
-10.75000000000003
 31
0.0
  0
LINE
  5
146
  8
1
 10
0.0
 20
-22.22499999999999
 30
0.0
 11
0.0
 21
22.22499999999999
 31
0.0
  0
LINE
  5
147
  8
1
 10
0.3000000000000114
 20
-21.92500000000001
 30
0.0
 11
0.3000000000000114
 21
21.92499999999998
 31
0.0
  0
CIRCLE
  5
148
  8
1
 10
11.13
 20
-0.0000000000000284
 30
0.0
 40
4.75
  0
LINE
  5
14A
  8
SK1
 10
-68.25
 20
-11.4070377962
 30
0.0
 11
-68.25
 21
11.40703779579999
 31
0.0
  0
LINE
  5
176
  8
SK3
 10
-66.51794919240001
 20
-8.150000000000006
 30
0.0
 11
-66.51794919240001
 21
8.150000000000006
 31
0.0
  0
LINE
  5
177
  8
SK3
 10
-63.48000000000002
 20
-8.150000000000006
 30
0.0
 11
-63.48000000000002
 21
8.150000000000006
 31
0.0
  0
LINE
  5
189
  8
SK3
 10
-68.25
 20
-9.150000000000006
 30
0.0
 11
-66.51794919240001
 21
-8.150000000000006
 31
0.0
  0
LINE
  5
18A
  8
SK3
 10
-66.51794919240001
 20
8.150000000000006
 30
0.0
 11
-68.25
 21
9.150000000000006
 31
0.0
  0
LINE
  5
18B
  8
SK3
 10
-66.51794919240001
 20
-8.150000000000006
 30
0.0
 11
-63.48000000000002
 21
-8.150000000000006
 31
0.0
  0
LINE
  5
18C
  8
SK3
 10
-63.48000000000002
 20
8.150000000000006
 30
0.0
 11
-66.51794919240001
 21
8.150000000000006
 31
0.0
  0
LINE
  5
18D
  8
SK3
 10
-63.48000000000002
 20
-6.687998000000022
 30
0.0
 11
-4.538115179127878
 21
-6.687998000000022
 31
0.0
  0
LINE
  5
18E
  8
SK3
 10
-4.538115179127868
 20
6.687998000000022
 30
0.0
 11
-63.48000000000002
 21
6.687998000000022
 31
0.0
  0
INSERT
  5
199
  8
4
  2
SW_CENTERMARKSYMBOL_0
 10
11.13
 20
-0.0000000000000284
 30
0.0
  0
LINE
  5
1A7
  8
SK3
 10
-39.75
 20
7.937499999999972
 30
0.0
 11
-63.48000000000002
 21
7.937499999999972
 31
0.0
  0
LINE
  5
1A8
  8
SK3
 10
-63.48000000000002
 20
-7.937500000000028
 30
0.0
 11
-39.75
 21
-7.937500000000028
 31
0.0
  0
LINE
  5
1B0
  8
SK3
 10
-39.75
 20
7.937499999999972
 30
0.0
 11
-39.75
 21
-7.937500000000028
 31
0.0
  0
LINE
  5
1B2
  8
4
 10
101.6
 20
-0.0000000069714393
 30
0.0
 11
0.0
 21
0.0
 31
0.0
  0
LINE
  5
1B3
  8
SK4
 10
0.0
 20
0.0
 30
0.0
 11
-68.25
 21
-0.0000000002000036
 31
0.0
  0
DIMENSION
  5
1CF
  8
2
  2
*D2
 10
101.6
 20
47.66573065769793
 30
0.0
 11
50.8
 21
49.54073065769793
 31
0.0
 70
    32
  3
ISO-25
 13
0.0
 23
22.22499999999999
 33
0.0
 14
101.6
 24
21.07560950789997
 34
0.0
  0
DIMENSION
  5
20D
  8
SK2
  2
*D3
 10
35.05
 20
-47.02109509650273
 30
0.0
 11
17.525
 21
-45.14609509650273
 31
0.0
 70
    32
  3
ISO-25
 13
0.0
 23
-22.22499999999999
 33
0.0
 14
35.05
 24
-25.50000000000006
 34
0.0
  0
LINE
  5
328
  8
NOCUT
 10
7.603833230899994
 20
31.74999999999997
 30
0.0
 11
1.5
 21
31.74999999999997
 31
0.0
  0
LINE
  5
32A
  8
NOCUT
 10
14.6561667691
 20
31.74999999999997
 30
0.0
 11
13.05500000000001
 21
28.97669780459998
 31
0.0
  0
LINE
  5
32B
  8
NOCUT
 10
9.204999999999984
 20
28.97669780459998
 30
0.0
 11
7.603833230899994
 21
31.74999999999997
 31
0.0
  0
LINE
  5
32C
  8
NOCUT
 10
18.55000000000001
 20
31.74999999999997
 30
0.0
 11
14.6561667691
 21
31.74999999999997
 31
0.0
  0
ARC
  5
32D
  8
NOCUT
 10
18.55000000000001
 20
31.24999999999997
 30
0.0
 40
0.5
 50
0.0
 51
90.0
  0
ARC
  5
32E
  8
NOCUT
 10
1.5
 20
31.24999999999997
 30
0.0
 40
0.5
 50
90.0
 51
180.0
  0
ARC
  5
32F
  8
NOCUT
 10
12.55500000000001
 20
28.67999999999998
 30
0.0
 40
0.5
 50
270.0
 51
0.0
  0
ARC
  5
330
  8
NOCUT
 10
9.704999999999984
 20
28.67999999999998
 30
0.0
 40
0.5
 50
180.0
 51
270.0
  0
LINE
  5
331
  8
NOCUT
 10
12.55500000000001
 20
28.17999999999998
 30
0.0
 11
9.704999999999984
 21
28.17999999999998
 31
0.0
  0
ARC
  5
333
  8
NOCUT
 10
0.8000000000000114
 20
22.42499999999998
 30
0.0
 40
0.5
 50
270.0
 51
293.5781784782006
  0
LINE
  5
336
  8
NOCUT
 10
0.3000000000000114
 20
21.92499999999998
 30
0.0
 11
0.0
 21
22.22499999999999
 31
0.0
  0
LINE
  5
337
  8
NOCUT
 10
0.8000000000000114
 20
21.92499999999998
 30
0.0
 11
0.3000000000000114
 21
21.92499999999998
 31
0.0
  0
LINE
  5
364
  8
NOCUT
 10
101.6
 20
-0.0000000069714393
 30
0.0
 11
0.0
 21
0.0
 31
0.0
  0
LINE
  5
366
  8
NOCUT
 10
0.0
 20
22.22499999999999
 30
0.0
 11
0.0
 21
0.0
 31
0.0
  0
LINE
  5
369
  8
NOCUT
 10
19.05000000000001
 20
31.24999999999997
 30
0.0
 11
19.05000000000001
 21
23.22499999999999
 31
0.0
  0
LINE
  5
36B
  8
NOCUT
 10
1.0
 20
31.24999999999997
 30
0.0
 11
1.0
 21
21.9667424305044
 31
0.0
  0
LINE
  5
36C
  8
NOCUT
 10
9.204999999999984
 20
28.97669780459998
 30
0.0
 11
9.204999999999984
 21
28.67999999999998
 31
0.0
  0
LINE
  5
36D
  8
NOCUT
 10
13.05500000000001
 20
28.97669780459998
 30
0.0
 11
13.05500000000001
 21
28.67999999999998
 31
0.0
  0
ARC
  5
75C
  8
1
 10
20.05000000000001
 20
-23.22500000000001
 30
0.0
 40
1.0
 50
90.0
 51
180.0
  0
ARC
  5
75E
  8
1
 10
20.05000000000001
 20
23.22499999999999
 30
0.0
 40
1.0
 50
180.0
 51
270.0
  0
LINE
  5
761
  8
1
 10
20.05000000000001
 20
-22.22500000000001
 30
0.0
 11
34.05000000000001
 21
-22.22500000000001
 31
0.0
  0
LINE
  5
762
  8
1
 10
34.05000000000001
 20
22.22499999999999
 30
0.0
 11
20.05000000000001
 21
22.22499999999999
 31
0.0
  0
LINE
  5
772
  8
1
 10
34.05000000000001
 20
-22.22500000000001
 30
0.0
 11
34.05000000000001
 21
22.22499999999999
 31
0.0
  0
LINE
  5
773
  8
1
 10
35.05000000000001
 20
21.22499999999999
 30
0.0
 11
35.05000000000001
 21
-21.22500000000001
 31
0.0
  0
ARC
  5
793
  8
1
 10
18.54999999765353
 20
-31.25000000415521
 30
0.0
 40
0.5
 50
269.9999999956976
 51
359.9999999956976
  0
LINE
  5
794
  8
1
 10
18.25
 20
8.049999999999983
 30
0.0
 11
19.04999999915903
 21
8.849999999159014
 31
0.0
  0
LINE
  5
795
  8
1
 10
18.24999999817611
 20
-8.050000001613222
 30
0.0
 11
19.04999999715388
 21
-8.850000000953509
 31
0.0
  0
LINE
  5
87A
  8
0
 10
3.0
 20
3.0
 30
0.0
 11
-3.0
 21
-3.0
 31
0.0
  0
LINE
  5
87B
  8
0
 10
-3.0
 20
3.0
 30
0.0
 11
3.0
 21
-3.0
 31
0.0
  0
CIRCLE
  5
87C
  8
0
 10
0.0
 20
0.0
 30
0.0
 40
2.5
  0
LINE
  5
87D
  8
0
 10
103.6
 20
1.999999993028561
 30
0.0
 11
99.60000000000005
 21
-2.000000006971439
 31
0.0
  0
LINE
  5
87E
  8
0
 10
99.60000000000005
 20
1.999999993028561
 30
0.0
 11
103.6
 21
-2.000000006971439
 31
0.0
  0
CIRCLE
  5
87F
  8
0
 10
101.6000000000001
 20
-0.0000000069714395
 30
0.0
 40
1.5
  0
ARC
  5
885
  8
NOCUT
 10
20.05000000000001
 20
23.22499999999999
 30
0.0
 40
1.0
 50
180.0
 51
270.0
  0
LINE
  5
888
  8
NOCUT
 10
34.05000000000001
 20
22.22499999999999
 30
0.0
 11
20.05000000000001
 21
22.22499999999999
 31
0.0
  0
LINE
  5
956
  8
1
 10
44.42207868730002
 20
-26.50000000000006
 30
0.0
 11
100.6784590958
 21
-22.07252684209999
 31
0.0
  0
LINE
  5
957
  8
1
 10
100.6784590958
 20
22.07252684209999
 30
0.0
 11
44.42207868730002
 21
26.49999999999994
 31
0.0
  0
LINE
  5
958
  8
1
 10
36.05
 20
-26.50000000000006
 30
0.0
 11
44.42207868730002
 21
-26.50000000000006
 31
0.0
  0
LINE
  5
959
  8
1
 10
44.42207868730002
 20
26.49999999999994
 30
0.0
 11
36.05
 21
26.49999999999994
 31
0.0
  0
ARC
  5
95A
  8
1
 10
36.05
 20
25.49999999999994
 30
0.0
 40
1.0
 50
90.0
 51
180.0
  0
ARC
  5
95B
  8
1
 10
36.05
 20
-25.50000000000006
 30
0.0
 40
1.0
 50
180.0
 51
270.0
  0
ARC
  5
95E
  8
1
 10
34.05
 20
23.22499999999997
 30
0.0
 40
1.0
 50
270.0
 51
0.0
  0
ARC
  5
95F
  8
1
 10
34.05
 20
-23.22499999999997
 30
0.0
 40
1.0
 50
0.0
 51
90.0
  0
ARC
  5
968
  8
1
 10
100.6
 20
-21.07560950839996
 30
0.0
 40
1.000000000000094
 50
274.4999999999999
 51
0.0
  0
ARC
  5
969
  8
1
 10
100.6
 20
21.07560950830003
 30
0.0
 40
1.000000000000094
 50
0.0
 51
85.50000000000007
  0
LINE
  5
9BA
  8
1
 10
44.42207868730002
 20
-26.50000000000006
 30
0.0
 11
44.42207868730002
 21
26.49999999999994
 31
0.0
  0
LINE
  5
9BB
  8
1
 10
35.05
 20
25.49999999999994
 30
0.0
 11
35.05
 21
-25.50000000000006
 31
0.0
  0
LINE
  5
9C1
  8
1
 10
101.6
 20
21.07560950789997
 30
0.0
 11
101.6
 21
-21.07560950839996
 31
0.0
  0
LINE
  5
9EA
  8
3
 10
100.6
 20
12.69999999999999
 30
0.0
 11
100.6
 21
-12.69999999999999
 31
0.0
  0
LINE
  5
9EB
  8
3
 10
44.60000000000001
 20
12.49999999999994
 30
0.0
 11
44.60000000000001
 21
-12.50000000000006
 31
0.0
  0
LINE
  5
9EC
  8
3
 10
54.60000000000001
 20
-12.69999999999999
 30
0.0
 11
54.60000000000001
 21
12.69999999999999
 31
0.0
  0
LINE
  5
9EE
  8
3
 10
43.325
 20
7.749999999999943
 30
0.0
 11
43.325
 21
-7.750000000000057
 31
0.0
  0
LINE
  5
9F0
  8
3
 10
-3.89999999999999
 20
7.749999999999943
 30
0.0
 11
-3.89999999999999
 21
-7.750000000000057
 31
0.0
  0
LINE
  5
9F1
  8
3
 10
-4.538115299300002
 20
6.687997800000005
 30
0.0
 11
-4.538115299300002
 21
-6.687997800000005
 31
0.0
  0
LINE
  5
9FE
  8
3
 10
101.6
 20
13.27735026919999
 30
0.0
 11
100.6
 21
12.69999999999999
 31
0.0
  0
LINE
  5
9FF
  8
3
 10
100.6
 20
-12.69999999999999
 30
0.0
 11
101.6
 21
-13.27735026919999
 31
0.0
  0
LINE
  5
A00
  8
3
 10
45.00000000000001
 20
-12.90000000000003
 30
0.0
 11
54.25358983849999
 21
-12.90000000000003
 31
0.0
  0
LINE
  5
A01
  8
3
 10
54.25358983849999
 20
12.90000000000003
 30
0.0
 11
45.00000000000001
 21
12.90000000000003
 31
0.0
  0
ARC
  5
A02
  8
3
 10
45.00000000000001
 20
12.49999999999994
 30
0.0
 40
0.4000000000000909
 50
90.0
 51
180.0
  0
ARC
  5
A03
  8
3
 10
45.00000000000001
 20
-12.50000000000006
 30
0.0
 40
0.4000000000000909
 50
180.0
 51
270.0
  0
ARC
  5
A04
  8
3
 10
54.25358983849999
 20
12.49999999999994
 30
0.0
 40
0.4000000000000909
 50
30.00000000000018
 51
90.0
  0
ARC
  5
A05
  8
3
 10
54.25358983849999
 20
-12.50000000000006
 30
0.0
 40
0.4000000000000909
 50
270.0
 51
329.9999999999998
  0
LINE
  5
A06
  8
3
 10
100.6
 20
12.69999999999999
 30
0.0
 11
54.60000000000001
 21
12.69999999999999
 31
0.0
  0
LINE
  5
A07
  8
3
 10
54.60000000000001
 20
-12.69999999999999
 30
0.0
 11
100.6
 21
-12.69999999999999
 31
0.0
  0
LINE
  5
A0A
  8
3
 10
44.60000000000001
 20
9.025000000000034
 30
0.0
 11
43.325
 21
7.749999999999943
 31
0.0
  0
LINE
  5
A0B
  8
3
 10
43.325
 20
-7.750000000000057
 30
0.0
 11
44.60000000000001
 21
-9.025000000000034
 31
0.0
  0
LINE
  5
A0E
  8
3
 10
43.325
 20
7.749999999999943
 30
0.0
 11
-3.89999999999999
 21
7.749999999999943
 31
0.0
  0
LINE
  5
A0F
  8
3
 10
-3.89999999999999
 20
-7.750000000000057
 30
0.0
 11
43.325
 21
-7.750000000000057
 31
0.0
  0
LINE
  5
A10
  8
3
 10
-3.89999999999999
 20
7.749999999999943
 30
0.0
 11
-4.538115299300002
 21
6.687997800000005
 31
0.0
  0
LINE
  5
A11
  8
3
 10
-4.538115299300002
 20
-6.687997800000005
 30
0.0
 11
-3.89999999999999
 21
-7.750000000000057
 31
0.0
  0
LINE
  5
A2A
  8
3
 10
8.60000000000001
 20
-9.000000000000057
 30
0.0
 11
44.575
 21
-9.000000000000057
 31
0.0
  0
LINE
  5
A2B
  8
3
 10
44.575
 20
8.999999999999943
 30
0.0
 11
8.60000000000001
 21
8.999999999999943
 31
0.0
  0
LINE
  5
A38
  8
3
 10
8.60000000000001
 20
8.999999999999943
 30
0.0
 11
8.60000000000001
 21
-9.000000000000057
 31
0.0
  0
DIMENSION
  5
A3B
  8
SK2
  2
*D4
 10
147.7727169850536
 20
-26.50000000000006
 30
0.0
 11
145.8977169850536
 21
-0.0000000000000604
 31
0.0
 70
    32
  3
ISO-25
 13
44.42207868730002
 23
26.49999999999994
 33
0.0
 14
44.42207868730002
 24
-26.50000000000006
 34
0.0
 50
90.0
1001
ACAD
1000
DSTYLE
1002
{
1070
   287
1070
     5
1070
   271
1070
     3
1070
   272
1070
     3
1070
   279
1070
     2
1002
}
  0
DIMENSION
  5
A4A
  8
SK2
  2
*D5
 10
134.67252031787
 20
-22.00000000003115
 30
0.0
 11
132.79752031787
 21
-0.0000000000000036
 31
0.0
 70
    32
  3
ISO-25
 13
101.6
 23
22.00000000003114
 33
0.0
 14
101.6
 24
-22.00000000003114
 34
0.0
 50
90.0
1001
ACAD
1000
DSTYLE
1002
{
1070
   287
1070
     5
1070
   271
1070
     3
1070
   272
1070
     3
1070
   279
1070
     2
1002
}
  0
DIMENSION
  5
A59
  8
SK2
  2
*D6
 10
118.2972744838904
 20
-12.69999999999999
 30
0.0
 11
116.4222744838904
 21
-0.0000000000000018
 31
0.0
 70
    32
  3
ISO-25
 13
100.6
 23
12.69999999999999
 33
0.0
 14
100.6
 24
-12.69999999999999
 34
0.0
 50
90.0
1001
ACAD
1000
DSTYLE
1002
{
1070
   287
1070
     5
1070
   271
1070
     3
1070
   272
1070
     3
1070
   279
1070
     2
1002
}
  0
ARC
  5
A68
  8
NOCUT
 10
34.05000000000001
 20
23.22499999999999
 30
0.0
 40
1.0
 50
270.0
 51
0.0
  0
ARC
  5
A6A
  8
NOCUT
 10
36.05000000000001
 20
25.49999999999997
 30
0.0
 40
1.0
 50
90.0
 51
180.0
  0
LINE
  5
A6B
  8
NOCUT
 10
44.42207868730003
 20
26.49999999999997
 30
0.0
 11
36.05000000000001
 21
26.49999999999997
 31
0.0
  0
LINE
  5
A6C
  8
NOCUT
 10
100.6784590958
 20
22.07252684210002
 30
0.0
 11
44.42207868730003
 21
26.49999999999997
 31
0.0
  0
ARC
  5
A6D
  8
NOCUT
 10
100.6
 20
21.07560950830006
 30
0.0
 40
1.000000000000094
 50
0.0
 51
85.50000000000007
  0
LINE
  5
A6E
  8
NOCUT
 10
101.6
 20
21.0756095079
 30
0.0
 11
101.6
 21
-0.0000000069714403
 31
0.0
  0
LINE
  5
A70
  8
SK2
 10
35.05000000000001
 20
25.49999999999997
 30
0.0
 11
35.05000000000001
 21
23.22499999999999
 31
0.0
  0
INSERT
  5
B62
  8
SK6
  2
*U7
 10
-16.17909534664395
 20
-30.91796436285907
 30
0.0
  0
INSERT
  5
B6A
  8
SK6
  2
*U8
 10
5.836457251465603
 20
-0.8511273883801103
 30
0.0
  0
INSERT
  5
B6F
  8
SK6
  2
_FILLED
 10
-17.9836627818344
 20
-19.60235774778011
 30
0.0
 41
3.5
 42
3.5
 43
3.5
 50
55.49325986033524
  0
POLYLINE
  5
B73
  8
SK6
 66
     1
 10
0.0
 20
0.0
 30
0.0
  0
VERTEX
  5
D06
  8
SK6
 10
-19.966423916232
 20
-22.48656618059532
 30
0.0
  0
VERTEX
  5
D07
  8
SK6
 10
-33.4822656830344
 20
-42.14728280658011
 30
0.0
  0
VERTEX
  5
D08
  8
SK6
 10
-35.35726568303437
 20
-40.39728280658011
 30
0.0
  0
VERTEX
  5
D09
  8
SK6
 10
-38.85726568303437
 20
-40.39728280658011
 30
0.0
  0
SEQEND
  5
D0C
  8
SK6
  0
ENDSEC
  0
EOF
