  0
SECTION
  2
HEADER
  9
$ACADVER
  1
AC1024
  9
$ACADMAINTVER
 70
     6
  9
$DWGCODEPAGE
  3
ANSI_932
  9
$INSBASE
 10
0.0
 20
0.0
 30
0.0
  9
$EXTMIN
 10
-70.26496010124094
 20
-50.01058879169931
 30
-0.0015258207003583
  9
$EXTMAX
 10
120.0046432787839
 20
50.85534720105977
 30
0.0000000349246037
  9
$LIMMIN
 10
0.0
 20
0.0
  9
$LIMMAX
 10
420.0
 20
297.0
  9
$ORTHOMODE
 70
     1
  9
$REGENMODE
 70
     1
  9
$FILLMODE
 70
     1
  9
$QTEXTMODE
 70
     0
  9
$MIRRTEXT
 70
     1
  9
$LTSCALE
 40
10.0
  9
$ATTMODE
 70
     1
  9
$TEXTSIZE
 40
3.0
  9
$TRACEWID
 40
1.0
  9
$TEXTSTYLE
  7
YOKO
  9
$CLAYER
  8
245
  9
$CELTYPE
  6
BYLAYER
  9
$CECOLOR
 62
   256
  9
$CELTSCALE
 40
1.0
  9
$DISPSILH
 70
     0
  9
$DIMSCALE
 40
1.0
  9
$DIMASZ
 40
2.229999999999999
  9
$DIMEXO
 40
0.5
  9
$DIMDLI
 40
2.5
  9
$DIMRND
 40
0.0
  9
$DIMDLE
 40
0.0
  9
$DIMEXE
 40
1.0
  9
$DIMTP
 40
0.0
  9
$DIMTM
 40
0.0
  9
$DIMTXT
 40
2.799999999999998
  9
$DIMCEN
 40
0.0
  9
$DIMTSZ
 40
0.0
  9
$DIMTOL
 70
     0
  9
$DIMLIM
 70
     0
  9
$DIMTIH
 70
     0
  9
$DIMTOH
 70
     0
  9
$DIMSE1
 70
     0
  9
$DIMSE2
 70
     0
  9
$DIMTAD
 70
     3
  9
$DIMZIN
 70
     8
  9
$DIMBLK
  1

  9
$DIMASO
 70
     1
  9
$DIMSHO
 70
     1
  9
$DIMPOST
  1

  9
$DIMAPOST
  1

  9
$DIMALT
 70
     0
  9
$DIMALTD
 70
     2
  9
$DIMALTF
 40
25.4
  9
$DIMLFAC
 40
1.0
  9
$DIMTOFL
 70
     1
  9
$DIMTVP
 40
0.0
  9
$DIMTIX
 70
     1
  9
$DIMSOXD
 70
     0
  9
$DIMSAH
 70
     1
  9
$DIMBLK1
  1
OPEN
  9
$DIMBLK2
  1
OPEN
  9
$DIMSTYLE
  2
BIGT
  9
$DIMCLRD
 70
   256
  9
$DIMCLRE
 70
   256
  9
$DIMCLRT
 70
    40
  9
$DIMTFAC
 40
1.0
  9
$DIMGAP
 40
1.0
  9
$DIMJUST
 70
     0
  9
$DIMSD1
 70
     0
  9
$DIMSD2
 70
     0
  9
$DIMTOLJ
 70
     1
  9
$DIMTZIN
 70
     8
  9
$DIMALTZ
 70
     0
  9
$DIMALTTZ
 70
     0
  9
$DIMUPT
 70
     0
  9
$DIMDEC
 70
     3
  9
$DIMTDEC
 70
     3
  9
$DIMALTU
 70
     2
  9
$DIMALTTD
 70
     2
  9
$DIMTXSTY
  7
STANDARD
  9
$DIMAUNIT
 70
     0
  9
$DIMADEC
 70
     3
  9
$DIMALTRND
 40
0.0
  9
$DIMAZIN
 70
     2
  9
$DIMDSEP
 70
    46
  9
$DIMATFIT
 70
     3
  9
$DIMFRAC
 70
     0
  9
$DIMLDRBLK
  1
OPEN
  9
$DIMLUNIT
 70
     2
  9
$DIMLWD
 70
    -1
  9
$DIMLWE
 70
    -1
  9
$DIMTMOVE
 70
     2
  9
$DIMFXL
 40
1.0
  9
$DIMFXLON
 70
     0
  9
$DIMJOGANG
 40
0.7853981633974483
  9
$DIMTFILL
 70
     0
  9
$DIMTFILLCLR
 70
     0
  9
$DIMARCSYM
 70
     0
  9
$DIMLTYPE
  6

  9
$DIMLTEX1
  6

  9
$DIMLTEX2
  6

  9
$DIMTXTDIRECTION
 70
     0
  9
$LUNITS
 70
     2
  9
$LUPREC
 70
     3
  9
$SKETCHINC
 40
1.0
  9
$FILLETRAD
 40
0.0
  9
$AUNITS
 70
     0
  9
$AUPREC
 70
     3
  9
$MENU
  1
.
  9
$ELEVATION
 40
0.0
  9
$PELEVATION
 40
0.0
  9
$THICKNESS
 40
0.0
  9
$LIMCHECK
 70
     0
  9
$CHAMFERA
 40
10.0
  9
$CHAMFERB
 40
10.0
  9
$CHAMFERC
 40
0.0
  9
$CHAMFERD
 40
0.0
  9
$SKPOLY
 70
     0
  9
$TDCREATE
 40
2453202.443804977
  9
$TDUCREATE
 40
2453202.65213831
  9
$TDUPDATE
 40
2453208.76332066
  9
$TDUUPDATE
 40
2453208.971653993
  9
$TDINDWG
 40
0.0055032755
  9
$TDUSRTIMER
 40
2456533.868734479
  9
$USRTIMER
 70
     1
  9
$ANGBASE
 50
0.0
  9
$ANGDIR
 70
     0
  9
$PDMODE
 70
     1
  9
$PDSIZE
 40
-5.0
  9
$PLINEWID
 40
0.0
  9
$SPLFRAME
 70
     0
  9
$SPLINETYPE
 70
     6
  9
$SPLINESEGS
 70
     8
  9
$HANDSEED
  5
1447
  9
$SURFTAB1
 70
     6
  9
$SURFTAB2
 70
     6
  9
$SURFTYPE
 70
     6
  9
$SURFU
 70
     6
  9
$SURFV
 70
     6
  9
$UCSBASE
  2

  9
$UCSNAME
  2

  9
$UCSORG
 10
0.0
 20
0.0
 30
0.0
  9
$UCSXDIR
 10
1.0
 20
0.0
 30
0.0
  9
$UCSYDIR
 10
0.0
 20
1.0
 30
0.0
  9
$UCSORTHOREF
  2

  9
$UCSORTHOVIEW
 70
     0
  9
$UCSORGTOP
 10
0.0
 20
0.0
 30
0.0
  9
$UCSORGBOTTOM
 10
0.0
 20
0.0
 30
0.0
  9
$UCSORGLEFT
 10
0.0
 20
0.0
 30
0.0
  9
$UCSORGRIGHT
 10
0.0
 20
0.0
 30
0.0
  9
$UCSORGFRONT
 10
0.0
 20
0.0
 30
0.0
  9
$UCSORGBACK
 10
0.0
 20
0.0
 30
0.0
  9
$PUCSBASE
  2

  9
$PUCSNAME
  2

  9
$PUCSORG
 10
0.0
 20
0.0
 30
0.0
  9
$PUCSXDIR
 10
1.0
 20
0.0
 30
0.0
  9
$PUCSYDIR
 10
0.0
 20
1.0
 30
0.0
  9
$PUCSORTHOREF
  2

  9
$PUCSORTHOVIEW
 70
     0
  9
$PUCSORGTOP
 10
0.0
 20
0.0
 30
0.0
  9
$PUCSORGBOTTOM
 10
0.0
 20
0.0
 30
0.0
  9
$PUCSORGLEFT
 10
0.0
 20
0.0
 30
0.0
  9
$PUCSORGRIGHT
 10
0.0
 20
0.0
 30
0.0
  9
$PUCSORGFRONT
 10
0.0
 20
0.0
 30
0.0
  9
$PUCSORGBACK
 10
0.0
 20
0.0
 30
0.0
  9
$USERI1
 70
     1
  9
$USERI2
 70
     0
  9
$USERI3
 70
     0
  9
$USERI4
 70
     0
  9
$USERI5
 70
     0
  9
$USERR1
 40
0.0
  9
$USERR2
 40
0.0
  9
$USERR3
 40
0.0
  9
$USERR4
 40
0.0
  9
$USERR5
 40
0.0
  9
$WORLDVIEW
 70
     1
  9
$SHADEDGE
 70
     3
  9
$SHADEDIF
 70
    70
  9
$TILEMODE
 70
     1
  9
$MAXACTVP
 70
    16
  9
$PINSBASE
 10
0.0
 20
0.0
 30
0.0
  9
$PLIMCHECK
 70
     0
  9
$PEXTMIN
 10
1.000000000000000E+20
 20
1.000000000000000E+20
 30
1.000000000000000E+20
  9
$PEXTMAX
 10
-1.000000000000000E+20
 20
-1.000000000000000E+20
 30
-1.000000000000000E+20
  9
$PLIMMIN
 10
0.0
 20
0.0
  9
$PLIMMAX
 10
420.0
 20
297.0
  9
$UNITMODE
 70
     0
  9
$VISRETAIN
 70
     0
  9
$PLINEGEN
 70
     0
  9
$PSLTSCALE
 70
     1
  9
$TREEDEPTH
 70
  3020
  9
$CMLSTYLE
  2
STANDARD
  9
$CMLJUST
 70
     0
  9
$CMLSCALE
 40
1.0
  9
$PROXYGRAPHICS
 70
     1
  9
$MEASUREMENT
 70
     1
  9
$CELWEIGHT
370
    -1
  9
$ENDCAPS
280
     0
  9
$JOINSTYLE
280
     0
  9
$LWDISPLAY
290
     0
  9
$INSUNITS
 70
     0
  9
$HYPERLINKBASE
  1

  9
$STYLESHEET
  1
big.ctb
  9
$XEDIT
290
     1
  9
$CEPSNTYPE
380
     0
  9
$PSTYLEMODE
290
     1
  9
$FINGERPRINTGUID
  2
{51294030-9CB4-11D3-8E18-00A0C925D94D}
  9
$VERSIONGUID
  2
{8CD71B72-3BC2-486D-B421-509F9D6744D7}
  9
$EXTNAMES
290
     1
  9
$PSVPSCALE
 40
0.0
  9
$OLESTARTUP
290
     0
  9
$SORTENTS
280
   127
  9
$INDEXCTL
280
     0
  9
$HIDETEXT
280
     1
  9
$XCLIPFRAME
280
     2
  9
$HALOGAP
280
     0
  9
$OBSCOLOR
 70
   257
  9
$OBSLTYPE
280
     0
  9
$INTERSECTIONDISPLAY
280
     0
  9
$INTERSECTIONCOLOR
 70
   257
  9
$DIMASSOC
280
     2
  9
$PROJECTNAME
  1

  9
$CAMERADISPLAY
290
     0
  9
$LENSLENGTH
 40
50.0
  9
$CAMERAHEIGHT
 40
0.0
  9
$STEPSPERSEC
 40
2.0
  9
$STEPSIZE
 40
6.0
  9
$3DDWFPREC
 40
2.0
  9
$PSOLWIDTH
 40
0.25
  9
$PSOLHEIGHT
 40
4.0
  9
$LOFTANG1
 40
1.570796326794897
  9
$LOFTANG2
 40
1.570796326794897
  9
$LOFTMAG1
 40
0.0
  9
$LOFTMAG2
 40
0.0
  9
$LOFTPARAM
 70
     7
  9
$LOFTNORMALS
280
     1
  9
$LATITUDE
 40
37.795
  9
$LONGITUDE
 40
-122.394
  9
$NORTHDIRECTION
 40
0.0
  9
$TIMEZONE
 70
 -8000
  9
$LIGHTGLYPHDISPLAY
280
     1
  9
$TILEMODELIGHTSYNCH
280
     1
  9
$SOLIDHIST
280
     1
  9
$SHOWHIST
280
     1
  9
$DWFFRAME
280
     2
  9
$DGNFRAME
280
     2
  9
$REALWORLDSCALE
290
     1
  9
$INTERFERECOLOR
 62
   256
  9
$CSHADOW
280
     0
  9
$SHADOWPLANELOCATION
 40
0.0
  0
ENDSEC
  0
SECTION
  2
CLASSES
  0
CLASS
  1
XRECORD
  2
AcDbXrecord
  3
AutoCAD 2000
 90
        0
 91
        1
280
     0
281
     0
  0
CLASS
  1
ACDBDICTIONARYWDFLT
  2
AcDbDictionaryWithDefault
  3
ObjectDBX Classes
 90
        0
 91
        4
280
     0
281
     0
  0
CLASS
  1
ACDBPLACEHOLDER
  2
AcDbPlaceHolder
  3
ObjectDBX Classes
 90
        0
 91
        1
280
     0
281
     0
  0
CLASS
  1
LAYOUT
  2
AcDbLayout
  3
ObjectDBX Classes
 90
        0
 91
        1
280
     0
281
     0
  0
CLASS
  1
PLOTSETTINGS
  2
AcDbPlotSettings
  3
ObjectDBX Classes
 90
        0
 91
        4
280
     0
281
     0
  0
CLASS
  1
DUMMY
  2
AcDbLongTransaction
  3
DUMMY
 90
        0
 91
        1
280
     0
281
     0
  0
CLASS
  1
LWPOLYLINE
  2
AcDbPolyline
  3
AutoCAD 2000
 90
        0
 91
        1
280
     0
281
     1
  0
CLASS
  1
HATCH
  2
AcDbHatch
  3
AutoCAD 2000
 90
        0
 91
        1
280
     0
281
     1
  0
CLASS
  1
XRECORD
  2
AcDbXrecord
  3
AutoCAD 2000
 90
        0
 91
        1
280
     0
281
     0
  0
CLASS
  1
DUMMY
  2
AcDbLongTransaction
  3
DUMMY
 90
        0
 91
        1
280
     0
281
     0
  0
CLASS
  1
LWPOLYLINE
  2
AcDbPolyline
  3
AutoCAD 2000
 90
        0
 91
        1
280
     0
281
     1
  0
CLASS
  1
HATCH
  2
AcDbHatch
  3
AutoCAD 2000
 90
        0
 91
        1
280
     0
281
     1
  0
CLASS
  1
XRECORD
  2
AcDbXrecord
  3
AutoCAD 2000
 90
        0
 91
        1
280
     0
281
     0
  0
CLASS
  1
SCALE
  2
AcDbScale
  3
ObjectDBX Classes
 90
     1153
 91
        4
280
     0
281
     0
  0
CLASS
  1
TABLESTYLE
  2
AcDbTableStyle
  3
ObjectDBX Classes
 90
     4095
 91
        4
280
     0
281
     0
  0
CLASS
  1
RASTERVARIABLES
  2
AcDbRasterVariables
  3
ISM
 90
        0
 91
        4
280
     0
281
     0
  0
CLASS
  1
DICTIONARYVAR
  2
AcDbDictionaryVar
  3
ObjectDBX Classes
 90
        0
 91
        4
280
     0
281
     0
  0
CLASS
  1
CELLSTYLEMAP
  2
AcDbCellStyleMap
  3
ObjectDBX Classes
 90
     1152
 91
        4
280
     0
281
     0
  0
ENDSEC
  0
SECTION
  2
TABLES
  0
TABLE
  2
VPORT
  5
8
330
0
100
AcDbSymbolTable
 70
     1
  0
VPORT
  5
134F
330
8
100
AcDbSymbolTableRecord
100
AcDbViewportTableRecord
  2
*ACTIVE
 70
     0
 10
0.0
 20
0.0
 11
1.0
 21
1.0
 12
15.35878309572303
 22
0.4193528399235049
 13
0.0
 23
0.0
 14
7.0
 24
7.0
 15
7.0
 25
7.0
 16
0.0
 26
0.0
 36
1.0
 17
0.0
 27
0.0
 37
0.0
 40
136.7613386652204
 41
1.276983094928479
 42
50.0
 43
0.0
 44
0.0
 50
0.0
 51
0.0
 71
    16
 72
  2000
 73
     1
 74
     0
 75
     0
 76
     0
 77
     0
 78
     0
281
     0
 65
     1
110
0.0
120
0.0
130
0.0
111
1.0
121
0.0
131
0.0
112
0.0
122
1.0
132
0.0
 79
     0
146
0.0
 60
     3
 61
     5
292
     1
282
     1
141
0.0
142
0.0
 63
   256
  0
ENDTAB
  0
TABLE
  2
LTYPE
  5
5
330
0
100
AcDbSymbolTable
 70
     3
  0
LTYPE
  5
14
330
5
100
AcDbSymbolTableRecord
100
AcDbLinetypeTableRecord
  2
BYBLOCK
 70
     0
  3

 72
    65
 73
     0
 40
0.0
  0
LTYPE
  5
15
330
5
100
AcDbSymbolTableRecord
100
AcDbLinetypeTableRecord
  2
BYLAYER
 70
     0
  3

 72
    65
 73
     0
 40
0.0
  0
LTYPE
  5
16
330
5
100
AcDbSymbolTableRecord
100
AcDbLinetypeTableRecord
  2
CONTINUOUS
 70
     0
  3
Solid line
 72
    65
 73
     0
 40
0.0
  0
LTYPE
  5
258
330
5
100
AcDbSymbolTableRecord
100
AcDbLinetypeTableRecord
  2
CENTER2
 70
     0
  3
___ _ ___ _ ___ _ ___ _ ___ _ ___ _ ___ _ ___ _
 72
    65
 73
     4
 40
1.125
 49
0.75
 74
     0
 49
-0.125
 74
     0
 49
0.125
 74
     0
 49
-0.125
 74
     0
  0
LTYPE
  5
25C
330
5
100
AcDbSymbolTableRecord
100
AcDbLinetypeTableRecord
  2
HIDDEN2
 70
     0
  3
_ _ _ _ _ _ _ _ _ _ _ _ _ _ _ _ _ _ _ _ _ _ _ _
 72
    65
 73
     2
 40
0.1875
 49
0.125
 74
     0
 49
-0.0625
 74
     0
  0
ENDTAB
  0
TABLE
  2
LAYER
  5
2
330
0
100
AcDbSymbolTable
 70
     7
  0
LAYER
  5
F
330
2
100
AcDbSymbolTableRecord
100
AcDbLayerTableRecord
  2
0
 70
     0
 62
     7
  6
CONTINUOUS
370
    -3
390
564
347
0
  0
LAYER
  5
1AA
330
2
100
AcDbSymbolTableRecord
100
AcDbLayerTableRecord
  2
240
 70
     0
 62
     4
  6
CONTINUOUS
370
    -3
390
564
347
0
  0
LAYER
  5
1AB
330
2
100
AcDbSymbolTableRecord
100
AcDbLayerTableRecord
  2
241
 70
     0
 62
   211
  6
CONTINUOUS
370
    -3
390
564
347
0
  0
LAYER
  5
1AF
330
2
100
AcDbSymbolTableRecord
100
AcDbLayerTableRecord
  2
245
 70
     0
 62
     2
  6
CENTER2
370
    -3
390
564
347
0
  0
LAYER
  5
21E
330
2
100
AcDbSymbolTableRecord
100
AcDbLayerTableRecord
  2
250
 70
     0
 62
     3
  6
CONTINUOUS
370
    -3
390
564
347
0
  0
LAYER
  5
5C4
330
2
100
AcDbSymbolTableRecord
100
AcDbLayerTableRecord
  2
DEFPOINTS
 70
     0
 62
     7
  6
CONTINUOUS
290
     0
370
    -3
390
564
347
0
  0
LAYER
  5
1412
102
{ACAD_XDICTIONARY
360
1413
102
}
330
2
100
AcDbSymbolTableRecord
100
AcDbLayerTableRecord
  2
AM_7
 70
     0
 62
     2
  6
CENTER2
370
    -3
390
564
347
0
  0
ENDTAB
  0
TABLE
  2
STYLE
  5
3
330
0
100
AcDbSymbolTable
 70
     2
  0
STYLE
  5
10
330
3
100
AcDbSymbolTableRecord
100
AcDbTextStyleTableRecord
  2
STANDARD
 70
     0
 40
0.0
 41
1.0
 50
0.0
 71
     0
 42
3.0
  3
romans.shx
  4
BIGFONT.SHX
  0
STYLE
  5
339
330
3
100
AcDbSymbolTableRecord
100
AcDbTextStyleTableRecord
  2
YOKO
 70
     0
 40
0.0
 41
1.0
 50
0.0
 71
     0
 42
3.0
  3
romans.shx
  4
extfont.shx
  0
ENDTAB
  0
TABLE
  2
VIEW
  5
6
330
0
100
AcDbSymbolTable
 70
     0
  0
ENDTAB
  0
TABLE
  2
UCS
  5
7
330
0
100
AcDbSymbolTable
 70
     0
  0
ENDTAB
  0
TABLE
  2
APPID
  5
9
330
0
100
AcDbSymbolTable
 70
    13
  0
APPID
  5
11
330
9
100
AcDbSymbolTableRecord
100
AcDbRegAppTableRecord
  2
ACAD
 70
     0
  0
APPID
  5
1B1
330
9
100
AcDbSymbolTableRecord
100
AcDbRegAppTableRecord
  2
GLOBAL
 70
     0
  0
APPID
  5
2A4
330
9
100
AcDbSymbolTableRecord
100
AcDbRegAppTableRecord
  2
DETAIL
 70
     0
  0
APPID
  5
5FD
330
9
100
AcDbSymbolTableRecord
100
AcDbRegAppTableRecord
  2
GRPNAME
 70
     0
  0
APPID
  5
5FE
330
9
100
AcDbSymbolTableRecord
100
AcDbRegAppTableRecord
  2
GPARA
 70
     0
  0
APPID
  5
6C4
330
9
100
AcDbSymbolTableRecord
100
AcDbRegAppTableRecord
  2
DCO15
 70
     0
  0
APPID
  5
6C5
330
9
100
AcDbSymbolTableRecord
100
AcDbRegAppTableRecord
  2
ITEMNAME
 70
     0
  0
APPID
  5
6C6
330
9
100
AcDbSymbolTableRecord
100
AcDbRegAppTableRecord
  2
GRADE_0
 70
     0
  0
APPID
  5
8F2
330
9
100
AcDbSymbolTableRecord
100
AcDbRegAppTableRecord
  2
LAYER_SCALE
 70
     0
  0
APPID
  5
8F3
330
9
100
AcDbSymbolTableRecord
100
AcDbRegAppTableRecord
  2
KCAD_BASE
 70
     0
  0
APPID
  5
132F
330
9
100
AcDbSymbolTableRecord
100
AcDbRegAppTableRecord
  2
CONTENTBLOCKICON
 70
     0
  0
APPID
  5
13FA
330
9
100
AcDbSymbolTableRecord
100
AcDbRegAppTableRecord
  2
GENIUS_GENODEF_13
 70
     0
  0
APPID
  5
13FB
330
9
100
AcDbSymbolTableRecord
100
AcDbRegAppTableRecord
  2
GENIUS_GENOBJ-N-FIL_13
 70
     0
  0
ENDTAB
  0
TABLE
  2
DIMSTYLE
  5
A
330
0
100
AcDbSymbolTable
 70
     1
100
AcDbDimStyleTable
  0
DIMSTYLE
105
725
102
{ACAD_REACTORS
330
11FB
102
}
330
A
100
AcDbSymbolTableRecord
100
AcDbDimStyleTableRecord
  2
BIGT
 70
     0
 41
2.229999999999999
 42
0.5
 43
2.5
 44
1.0
 73
     0
 74
     0
 77
     3
 78
     8
140
2.799999999999998
141
0.0
147
1.0
172
     1
173
     1
174
     1
176
   256
177
   256
178
    40
271
     3
272
     3
284
     8
340
10
341
594
343
594
344
594
  0
ENDTAB
  0
TABLE
  2
BLOCK_RECORD
  5
1
330
0
100
AcDbSymbolTable
 70
     8
  0
BLOCK_RECORD
  5
1A
330
1
100
AcDbSymbolTableRecord
100
AcDbBlockTableRecord
  2
*MODEL_SPACE
340
1374
 70
     0
280
     1
281
     0
  0
BLOCK_RECORD
  5
17
330
1
100
AcDbSymbolTableRecord
100
AcDbBlockTableRecord
  2
*PAPER_SPACE
340
1375
 70
     0
280
     1
281
     0
  0
BLOCK_RECORD
  5
594
330
1
100
AcDbSymbolTableRecord
100
AcDbBlockTableRecord
  2
_OPEN
340
0
102
{BLKREFS
331
1273
331
1274
331
127C
331
127D
331
126A
331
126B
331
133E
331
133F
331
1347
331
1348
102
}
 70
     0
280
     1
281
     0
  0
BLOCK_RECORD
  5
6E3
330
1
100
AcDbSymbolTableRecord
100
AcDbBlockTableRecord
  2
矢印なし
340
0
102
{BLKREFS
331
6E6
102
}
 70
     0
280
     1
281
     0
  0
BLOCK_RECORD
  5
11FC
330
1
100
AcDbSymbolTableRecord
100
AcDbBlockTableRecord
  2
*D6
340
0
 70
     0
280
     1
281
     0
  0
ENDTAB
  0
ENDSEC
  0
SECTION
  2
BLOCKS
  0
BLOCK
  5
1B
330
1A
100
AcDbEntity
  8
0
100
AcDbBlockBegin
  2
*MODEL_SPACE
 70
     0
 10
0.0
 20
0.0
 30
0.0
  3
*MODEL_SPACE
  1

  0
ENDBLK
  5
1C
330
1A
100
AcDbEntity
  8
0
100
AcDbBlockEnd
  0
BLOCK
  5
18
330
17
100
AcDbEntity
 67
     1
  8
0
100
AcDbBlockBegin
  2
*PAPER_SPACE
 70
     0
 10
0.0
 20
0.0
 30
0.0
  3
*PAPER_SPACE
  1

  0
ENDBLK
  5
19
330
17
100
AcDbEntity
 67
     1
  8
0
100
AcDbBlockEnd
  0
BLOCK
  5
598
330
594
100
AcDbEntity
  8
0
100
AcDbBlockBegin
  2
_OPEN
 70
     0
 10
0.0
 20
0.0
 30
0.0
  3
_OPEN
  1

  0
LINE
  5
595
330
594
100
AcDbEntity
  8
0
  6
ByBlock
 62
     0
100
AcDbLine
 10
-1.0
 20
0.1666666666666666
 30
0.0
 11
0.0
 21
0.0
 31
0.0
  0
LINE
  5
596
330
594
100
AcDbEntity
  8
0
  6
ByBlock
 62
     0
100
AcDbLine
 10
-1.0
 20
-0.1666666666666666
 30
0.0
 11
0.0
 21
0.0
 31
0.0
  0
LINE
  5
597
330
594
100
AcDbEntity
  8
0
  6
ByBlock
 62
     0
100
AcDbLine
 10
0.0
 20
0.0
 30
0.0
 11
-1.0
 21
0.0
 31
0.0
  0
ENDBLK
  5
599
330
594
100
AcDbEntity
  8
0
100
AcDbBlockEnd
  0
BLOCK
  5
6E4
330
6E3
100
AcDbEntity
  8
0
100
AcDbBlockBegin
  2
矢印なし
 70
     0
 10
0.0
 20
0.0
 30
0.0
  3
矢印なし
  1

  0
ENDBLK
  5
6E5
330
6E3
100
AcDbEntity
  8
0
100
AcDbBlockEnd
  0
BLOCK
  5
1206
330
11FC
100
AcDbEntity
  8
0
100
AcDbBlockBegin
  2
*D6
 70
     1
 10
0.0
 20
0.0
 30
0.0
  3
*D6
  1

  0
LINE
  5
1344
330
11FC
100
AcDbEntity
  8
250
  6
Continuous
370
    -2
100
AcDbLine
 10
0.0
 20
-22.72499999999999
 30
0.0
 11
0.0
 21
-50.0
 31
0.0
  0
LINE
  5
1345
330
11FC
100
AcDbEntity
  8
250
  6
Continuous
370
    -2
100
AcDbLine
 10
82.54999999999994
 20
-14.82175247999997
 30
0.0
 11
82.54999999999994
 21
-50.0
 31
0.0
  0
LINE
  5
1346
330
11FC
100
AcDbEntity
  8
250
  6
Continuous
370
    -2
100
AcDbLine
 10
2.229999999999999
 20
-49.0
 30
0.0
 11
80.31999999999994
 21
-49.0
 31
0.0
  0
INSERT
  5
1347
330
11FC
100
AcDbEntity
  8
250
370
    -2
100
AcDbBlockReference
  2
_OPEN
 10
0.0
 20
-49.0
 30
0.0
 41
2.229999999999999
 42
2.229999999999999
 43
2.229999999999999
 50
180.0
  0
INSERT
  5
1348
330
11FC
100
AcDbEntity
  8
250
370
    -2
100
AcDbBlockReference
  2
_OPEN
 10
82.54999999999994
 20
-49.0
 30
0.0
 41
2.229999999999999
 42
2.229999999999999
 43
2.229999999999999
  0
MTEXT
  5
1349
330
11FC
100
AcDbEntity
  8
250
 62
    40
100
AcDbMText
 10
41.27499999999997
 20
-46.6
 30
0.0
 40
2.799999999999998
 41
0.0
 46
0.0
 71
     5
 72
     1
  1
\A1;3.25
 73
     1
 44
1.0
  0
POINT
  5
134A
330
11FC
100
AcDbEntity
  8
DEFPOINTS
 62
     0
100
AcDbPoint
 10
0.0
 20
-22.22499999999999
 30
0.0
  0
POINT
  5
134B
330
11FC
100
AcDbEntity
  8
DEFPOINTS
 62
     0
100
AcDbPoint
 10
82.54999999999994
 20
-14.32175247999997
 30
0.0
  0
POINT
  5
134C
330
11FC
100
AcDbEntity
  8
DEFPOINTS
 62
     0
100
AcDbPoint
 10
82.54999999999994
 20
-49.0
 30
0.0
  0
ENDBLK
  5
1207
330
11FC
100
AcDbEntity
  8
0
100
AcDbBlockEnd
  0
ENDSEC
  0
SECTION
  2
ENTITIES
  0
INSERT
  5
6E6
330
1A
100
AcDbEntity
  8
245
100
AcDbBlockReference
  2
矢印なし
 10
175.6238269664376
 20
90.55123571690598
 30
0.0
  0
DIMENSION
  5
11FB
330
1A
100
AcDbEntity
  8
250
  6
Continuous
100
AcDbDimension
280
     0
  2
*D6
 10
82.54999999999994
 20
-49.0
 30
0.0
 11
41.27499999999997
 21
-46.6
 31
0.0
 70
    32
  1
3.25
 71
     5
 42
82.54999999999994
 73
     0
 74
     0
 75
     0
  3
BIGT
100
AcDbAlignedDimension
 13
0.0
 23
-22.22499999999999
 33
0.0
 14
82.54999999999994
 24
-14.32175247999997
 34
0.0
100
AcDbRotatedDimension
  0
MTEXT
  5
1210
330
1A
100
AcDbEntity
  8
241
100
AcDbMText
 10
-68.2041734615783
 20
50.83870567984701
 30
0.0
 40
5.0
 41
61.30600000000001
 46
0.0
 71
     1
 72
     5
  1
{BCV40-MGT6-3.25}
  7
YOKO
 73
     1
 44
1.0
  0
LEADER
  5
1211
330
1A
100
AcDbEntity
  8
250
  6
Continuous
100
AcDbLeader
  3
BIGT
 76
     2
 10
-34.72304474338239
 20
-17.16122264159007
 30
0.0
 10
-40.9808157689468
 20
-28.0
 30
0.0
1001
ACAD
1000
DSTYLE
1002
{
1070
   341
1005
594
1070
     6
1000
OPEN
1070
   343
1005
594
1002
}
  0
MTEXT
  5
1212
330
1A
100
AcDbEntity
  8
250
  6
Continuous
 62
    40
100
AcDbMText
 10
-57.26653005466108
 20
-27.0
 30
0.0
 40
3.0
 41
0.0
 46
0.0
 71
     7
 72
     1
  1
BCV40
  7
YOKO
 73
     1
 44
1.0
1001
ITEMNAME
1000
LNSP3
  0
LINE
  5
1213
330
1A
100
AcDbEntity
  8
250
  6
Continuous
100
AcDbLine
 10
-40.9808157689468
 20
-28.0
 30
0.0
 11
-60.26653005466108
 21
-28.0
 31
0.0
1001
ITEMNAME
1000
LNSP2
  0
LINE
  5
139C
330
1A
100
AcDbEntity
  8
240
  6
Continuous
100
AcDbLine
 10
0.0
 20
-22.22500000000001
 30
0.0
 11
-66.9664603396076
 21
-12.45905786714053
 31
0.0
  0
LINE
  5
139D
330
1A
100
AcDbEntity
  8
240
  6
Continuous
100
AcDbLine
 10
0.0
 20
22.22499999999996
 30
0.0
 11
-66.96646033960758
 21
12.4590578671405
 31
0.0
  0
LINE
  5
139E
330
1A
100
AcDbEntity
  8
245
  6
CENTER2
100
AcDbLine
 10
-70.25
 20
-0.0000000000000284
 30
0.0
 11
89.69174134419552
 21
0.0000000000000284
 31
0.0
  0
LINE
  5
139F
330
1A
100
AcDbEntity
  8
240
  6
Continuous
100
AcDbLine
 10
-68.25
 20
-10.97475839554561
 30
0.0
 11
-68.25
 21
10.97475839554556
 31
0.0
  0
ARC
  5
13A0
330
1A
100
AcDbEntity
  8
240
  6
Continuous
100
AcDbCircle
 10
-66.75
 20
-10.97475839554561
 30
0.0
 40
1.5
100
AcDbArc
 50
180.0
 51
261.702855030163
  0
ARC
  5
13A1
330
1A
100
AcDbEntity
  8
240
  6
Continuous
100
AcDbCircle
 10
-66.75
 20
10.97475839554556
 30
0.0
 40
1.500000000000011
100
AcDbArc
 50
98.29714496983685
 51
180.0
  0
LINE
  5
13A2
330
1A
100
AcDbEntity
  8
240
  6
Continuous
100
AcDbLine
 10
19.05000000000001
 20
-31.25000000000003
 30
0.0
 11
19.05000000000001
 21
22.92499999999987
 31
0.0
  0
LINE
  5
13A3
330
1A
100
AcDbEntity
  8
240
  6
Continuous
100
AcDbLine
 10
0.9999999999999715
 20
-31.25
 30
0.0
 11
1.0
 21
23.50000000000196
 31
0.0
  0
LINE
  5
13A4
330
1A
100
AcDbEntity
  8
241
  6
Continuous
100
AcDbLine
 10
14.64616676907558
 20
-31.75000000000002
 30
0.0
 11
14.64616676907565
 21
31.75000000000059
 31
0.0
  0
LINE
  5
13A5
330
1A
100
AcDbEntity
  8
241
  6
Continuous
100
AcDbLine
 10
7.593833230924418
 20
-31.75000000000002
 30
0.0
 11
7.593833230924418
 21
31.75000000000059
 31
0.0
  0
LINE
  5
13A6
330
1A
100
AcDbEntity
  8
241
  6
Continuous
100
AcDbLine
 10
13.03999999999996
 20
-28.96803755053246
 30
0.0
 11
13.03999999999999
 21
28.17999999999952
 31
0.0
  0
LINE
  5
13A7
330
1A
100
AcDbEntity
  8
241
  6
Continuous
100
AcDbLine
 10
9.199999999999989
 20
-28.96803755053229
 30
0.0
 11
9.19999999999996
 21
28.17999999999952
 31
0.0
  0
LINE
  5
13A8
330
1A
100
AcDbEntity
  8
245
  6
CENTER2
100
AcDbLine
 10
11.12000000000002
 20
33.52181067619218
 30
0.0
 11
11.12000000000002
 21
-32.95239573943807
 31
0.0
  0
LINE
  5
13A9
330
1A
100
AcDbEntity
  8
240
  6
Continuous
100
AcDbLine
 10
9.199999999999989
 20
-28.18000000000003
 30
0.0
 11
13.03999999999996
 21
-28.18000000000003
 31
0.0
  0
LINE
  5
13AA
330
1A
100
AcDbEntity
  8
240
  6
Continuous
100
AcDbLine
 10
1.499999999999971
 20
-31.75000000000002
 30
0.0
 11
7.59383323092436
 21
-31.75000000000002
 31
0.0
  0
ARC
  5
13AB
330
1A
100
AcDbEntity
  8
240
  6
Continuous
100
AcDbCircle
 10
1.499999999999971
 20
-31.25
 30
0.0
 40
0.5
100
AcDbArc
 50
180.0
 51
270.0
  0
LINE
  5
13AC
330
1A
100
AcDbEntity
  8
240
  6
Continuous
100
AcDbLine
 10
7.59383323092436
 20
-31.75000000000002
 30
0.0
 11
9.199999999999989
 21
-28.96803755053229
 31
0.0
  0
LINE
  5
13AD
330
1A
100
AcDbEntity
  8
240
  6
Continuous
100
AcDbLine
 10
14.64616676907547
 20
-31.75000000000002
 30
0.0
 11
18.55000000000001
 21
-31.75000000000002
 31
0.0
  0
LINE
  5
13AE
330
1A
100
AcDbEntity
  8
240
  6
Continuous
100
AcDbLine
 10
14.64616676907547
 20
-31.75000000000002
 30
0.0
 11
13.03999999999996
 21
-28.96803755053246
 31
0.0
  0
ARC
  5
13AF
330
1A
100
AcDbEntity
  8
240
  6
Continuous
100
AcDbCircle
 10
18.55000000000001
 20
-31.25000000000003
 30
0.0
 40
0.5
100
AcDbArc
 50
270.0
 51
0.0
  0
LINE
  5
13B2
330
1A
100
AcDbEntity
  8
240
  6
Continuous
100
AcDbLine
 10
9.206999999999992
 20
28.17999999999996
 30
0.0
 11
13.04699999999996
 21
28.17999999999996
 31
0.0
  0
LINE
  5
13B3
330
1A
100
AcDbEntity
  8
241
  6
HIDDEN2
100
AcDbLine
 10
0.9999999999999715
 20
24.97999999999996
 30
0.0
 11
19.05000000000001
 21
24.97999999999996
 31
0.0
  0
LINE
  5
13B4
330
1A
100
AcDbEntity
  8
241
  6
HIDDEN2
100
AcDbLine
 10
11.17999999999949
 20
17.29936934298423
 30
0.0
 11
6.417499999999505
 21
20.04899999999982
 31
0.0
  0
LINE
  5
13B5
330
1A
100
AcDbEntity
  8
241
  6
HIDDEN2
100
AcDbLine
 10
4.82999999999987
 20
20.42999999999997
 30
0.0
 11
17.53
 21
20.42999999999992
 31
0.0
  0
LINE
  5
13B6
330
1A
100
AcDbEntity
  8
241
  6
HIDDEN2
100
AcDbLine
 10
6.417499999999505
 20
20.04899999999982
 30
0.0
 11
15.9424999999995
 21
20.04899999999982
 31
0.0
  0
LINE
  5
13B7
330
1A
100
AcDbEntity
  8
241
  6
HIDDEN2
100
AcDbLine
 10
0.9999999999999715
 20
-22.57000000000001
 30
0.0
 11
19.05000000000001
 21
-22.57000000000001
 31
0.0
  0
LINE
  5
13B8
330
1A
100
AcDbEntity
  8
241
  6
Continuous
100
AcDbLine
 10
0.0
 20
-22.22499999999999
 30
0.0
 11
0.0
 21
22.22499999999992
 31
0.0
  0
LINE
  5
13B9
330
1A
100
AcDbEntity
  8
241
  6
Continuous
100
AcDbLine
 10
0.5887831516515121
 20
-21.92499999999999
 30
0.0
 11
0.5887831516515121
 21
-16.27588571352279
 31
0.0
  0
LINE
  5
13BA
330
1A
100
AcDbEntity
  8
240
  6
Continuous
100
AcDbLine
 10
-0.0000000000000568
 20
-22.22500000000001
 30
0.0
 11
0.5887831516515121
 21
-21.92499999999999
 31
0.0
  0
LINE
  5
13BB
330
1A
100
AcDbEntity
  8
240
  6
Continuous
100
AcDbLine
 10
0.5887831516515121
 20
-21.92499999999999
 30
0.0
 11
0.799999999999983
 21
-21.92499999999999
 31
0.0
  0
ARC
  5
13BC
330
1A
100
AcDbEntity
  8
240
  6
Continuous
100
AcDbCircle
 10
0.799999999999983
 20
-22.42499999999994
 30
0.0
 40
0.5
100
AcDbArc
 50
66.42182152179947
 51
90.0
  0
LINE
  5
13BD
330
1A
100
AcDbEntity
  8
241
  6
HIDDEN2
100
AcDbLine
 10
4.82999999999987
 20
20.42999999999997
 30
0.0
 11
4.82999999999987
 21
24.97999999999996
 31
0.0
  0
LINE
  5
13BE
330
1A
100
AcDbEntity
  8
241
  6
Continuous
100
AcDbLine
 10
0.5887831516514836
 20
21.925
 30
0.0
 11
0.5887831516514836
 21
16.27588571352279
 31
0.0
  0
LINE
  5
13BF
330
1A
100
AcDbEntity
  8
240
  6
Continuous
100
AcDbLine
 10
0.588783151651569
 20
21.92499999999995
 30
0.0
 11
0.0
 21
22.22499999999996
 31
0.0
  0
LINE
  5
13C0
330
1A
100
AcDbEntity
  8
240
  6
Continuous
100
AcDbLine
 10
0.588783151651569
 20
21.92499999999995
 30
0.0
 11
0.799999999999983
 21
21.92499999999998
 31
0.0
  0
ARC
  5
13C1
330
1A
100
AcDbEntity
  8
240
  6
Continuous
100
AcDbCircle
 10
0.799999999999983
 20
22.42499999999997
 30
0.0
 40
0.5
100
AcDbArc
 50
270.0
 51
293.5781608781131
  0
LINE
  5
13C2
330
1A
100
AcDbEntity
  8
241
  6
HIDDEN2
100
AcDbLine
 10
6.417499999999535
 20
20.42999999999982
 30
0.0
 11
6.417499999999535
 21
20.04899999999982
 31
0.0
  0
LINE
  5
13C3
330
1A
100
AcDbEntity
  8
240
  6
Continuous
100
AcDbLine
 10
9.206999999999992
 20
28.96803755053246
 30
0.0
 11
7.600833230924365
 21
31.74999999999997
 31
0.0
  0
LINE
  5
13C4
330
1A
100
AcDbEntity
  8
240
  6
Continuous
100
AcDbLine
 10
0.9999999999999715
 20
23.5
 30
0.0
 11
0.9999999999999715
 21
31.25
 31
0.0
  0
LINE
  5
13C5
330
1A
100
AcDbEntity
  8
240
  6
Continuous
100
AcDbLine
 10
9.206999999999992
 20
28.17999999999996
 30
0.0
 11
9.206999999999992
 21
28.96803755053246
 31
0.0
  0
LINE
  5
13C6
330
1A
100
AcDbEntity
  8
240
  6
Continuous
100
AcDbLine
 10
1.499999999999971
 20
31.74999999999997
 30
0.0
 11
7.600833230924365
 21
31.74999999999997
 31
0.0
  0
ARC
  5
13C7
330
1A
100
AcDbEntity
  8
240
  6
Continuous
100
AcDbCircle
 10
1.499999999999971
 20
31.25
 30
0.0
 40
0.5
100
AcDbArc
 50
90.0
 51
180.0
  0
LINE
  5
13C9
330
1A
100
AcDbEntity
  8
240
100
AcDbLine
 10
35.0000000000001
 20
-21.22500000000005
 30
0.0
 11
35.0000000000001
 21
21.22499999999987
 31
0.0
  0
LINE
  5
13CA
330
1A
100
AcDbEntity
  8
240
  6
Continuous
100
AcDbLine
 10
19.75
 20
-22.22500000000001
 30
0.0
 11
34.00000000000011
 21
-22.22500000000005
 31
0.0
  0
ARC
  5
13CB
330
1A
100
AcDbEntity
  8
240
  6
Continuous
100
AcDbCircle
 10
19.75
 20
-22.92500000000001
 30
0.0
 40
0.700000000000003
100
AcDbArc
 50
90.0
 51
180.0
  0
ARC
  5
13CD
330
1A
100
AcDbEntity
  8
240
  6
Continuous
100
AcDbCircle
 10
34.00000000000011
 20
-21.22500000000005
 30
0.0
 40
1.0
100
AcDbArc
 50
270.0
 51
0.0
  0
LINE
  5
13D0
330
1A
100
AcDbEntity
  8
240
100
AcDbLine
 10
19.74999999999973
 20
22.22499999999988
 30
0.0
 11
33.99999999999991
 21
22.22499999999989
 31
0.0
  0
LINE
  5
13D1
330
1A
100
AcDbEntity
  8
240
  6
Continuous
100
AcDbLine
 10
19.05000000000001
 20
31.24999999999996
 30
0.0
 11
19.04999999999974
 21
22.92499999999989
 31
0.0
  0
LINE
  5
13D2
330
1A
100
AcDbEntity
  8
245
  6
CENTER2
100
AcDbLine
 10
11.18
 20
25.97999999999996
 30
0.0
 11
11.17999999999972
 21
16.69198884168294
 31
0.0
  0
LINE
  5
13D3
330
1A
100
AcDbEntity
  8
241
  6
HIDDEN2
100
AcDbLine
 10
17.53
 20
20.42999999999992
 30
0.0
 11
17.52999999999994
 21
24.97999999999996
 31
0.0
  0
LINE
  5
13D4
330
1A
100
AcDbEntity
  8
241
  6
HIDDEN2
100
AcDbLine
 10
11.17999999999949
 20
17.29936934298423
 30
0.0
 11
15.94249999999948
 21
20.04899999999982
 31
0.0
  0
LINE
  5
13D5
330
1A
100
AcDbEntity
  8
241
  6
HIDDEN2
100
AcDbLine
 10
15.9424999999995
 20
20.42999999999982
 30
0.0
 11
15.9424999999995
 21
20.04899999999982
 31
0.0
  0
ARC
  5
13D6
330
1A
100
AcDbEntity
  8
240
100
AcDbCircle
 10
19.74999999999973
 20
22.92499999999987
 30
0.0
 40
0.7
100
AcDbArc
 50
179.9999999999983
 51
270.0
  0
LINE
  5
13D7
330
1A
100
AcDbEntity
  8
240
  6
Continuous
100
AcDbLine
 10
13.04699999999996
 20
28.96803755053236
 30
0.0
 11
14.65316676907565
 21
31.74999999999997
 31
0.0
  0
LINE
  5
13D8
330
1A
100
AcDbEntity
  8
240
  6
Continuous
100
AcDbLine
 10
13.04699999999996
 20
28.17999999999996
 30
0.0
 11
13.04699999999996
 21
28.96803755053236
 31
0.0
  0
LINE
  5
13D9
330
1A
100
AcDbEntity
  8
240
  6
Continuous
100
AcDbLine
 10
14.65316676907565
 20
31.74999999999997
 30
0.0
 11
18.55000000000001
 21
31.74999999999997
 31
0.0
  0
ARC
  5
13DA
330
1A
100
AcDbEntity
  8
240
  6
Continuous
100
AcDbCircle
 10
18.55000000000001
 20
31.24999999999996
 30
0.0
 40
0.5
100
AcDbArc
 50
0.0
 51
90.0
  0
ARC
  5
13DC
330
1A
100
AcDbEntity
  8
240
100
AcDbCircle
 10
33.99999999999991
 20
21.22499999999991
 30
0.0
 40
1.0
100
AcDbArc
 50
0.0
 51
90.0
  0
LINE
  5
13DD
330
1A
100
AcDbEntity
  8
240
100
AcDbLine
 10
34.99999999999991
 20
21.22499999999991
 30
0.0
 11
34.99999999999991
 21
21.15000000000009
 31
0.0
  0
ARC
  5
13F8
330
1A
100
AcDbEntity
  8
240
100
AcDbCircle
 10
73.23347501999994
 20
8.000000000000028
 30
0.0
 40
10.0
100
AcDbArc
 50
74.99999999999999
 51
90.0
1001
GENIUS_GENODEF_13
1002
{
1000
HIER
1070
     0
1002
}
1002
{
1000
MANEDIT
1070
     0
1002
}
1002
{
1000
NOSEL
1070
     0
1002
}
1002
{
1000
BEHIND
1070
     0
1002
}
1002
{
1000
OTHER
1070
     0
1002
}
1002
{
1000
REACTOR
1002
}
1001
GENIUS_GENOBJ-N-FIL_13
1002
{
1000
OWNER
1000
GEN
1002
}
  0
ARC
  5
13FC
330
1A
100
AcDbEntity
  8
240
100
AcDbCircle
 10
80.54999999999994
 20
14.32175248000003
 30
0.0
 40
2.0
100
AcDbArc
 50
0.0
 51
75.00000000000001
1001
GENIUS_GENOBJ-N-FIL_13
1002
{
1000
OWNER
1000
GEN
1002
}
1001
GENIUS_GENODEF_13
1002
{
1000
HIER
1070
     0
1002
}
1002
{
1000
MANEDIT
1070
     0
1002
}
1002
{
1000
NOSEL
1070
     0
1002
}
1002
{
1000
BEHIND
1070
     0
1002
}
1002
{
1000
OTHER
1070
     0
1002
}
1002
{
1000
REACTOR
1002
}
  0
LINE
  5
13FD
330
1A
100
AcDbEntity
  8
241
  6
HIDDEN2
100
AcDbLine
 10
82.54999999999994
 20
11.20000000000003
 30
0.0
 11
75.54999999999994
 21
11.20000000000003
 31
0.0
  0
LINE
  5
1400
330
1A
100
AcDbEntity
  8
240
100
AcDbLine
 10
75.82166547999994
 20
17.65925826000003
 30
0.0
 11
81.06763808999995
 21
16.25360414000002
 31
0.0
  0
ARC
  5
1401
330
1A
100
AcDbEntity
  8
240
100
AcDbCircle
 10
80.54999999999994
 20
-14.32175247999997
 30
0.0
 40
2.0
100
AcDbArc
 50
284.9999999999999
 51
0.0
1001
GENIUS_GENOBJ-N-FIL_13
1002
{
1000
OWNER
1000
GEN
1002
}
1001
GENIUS_GENODEF_13
1002
{
1000
HIER
1070
     0
1002
}
1002
{
1000
MANEDIT
1070
     0
1002
}
1002
{
1000
NOSEL
1070
     0
1002
}
1002
{
1000
BEHIND
1070
     0
1002
}
1002
{
1000
OTHER
1070
     0
1002
}
1002
{
1000
REACTOR
1002
}
  0
ARC
  5
1402
330
1A
100
AcDbEntity
  8
240
100
AcDbCircle
 10
73.23347501999994
 20
-7.999999999999972
 30
0.0
 40
10.0
100
AcDbArc
 50
270.0
 51
285.0
1001
GENIUS_GENODEF_13
1002
{
1000
HIER
1070
     0
1002
}
1002
{
1000
MANEDIT
1070
     0
1002
}
1002
{
1000
NOSEL
1070
     0
1002
}
1002
{
1000
BEHIND
1070
     0
1002
}
1002
{
1000
OTHER
1070
     0
1002
}
1002
{
1000
REACTOR
1002
}
1001
GENIUS_GENOBJ-N-FIL_13
1002
{
1000
OWNER
1000
GEN
1002
}
  0
LINE
  5
1403
330
1A
100
AcDbEntity
  8
240
100
AcDbLine
 10
75.82166547999994
 20
-17.65925825999997
 30
0.0
 11
81.06763808999995
 21
-16.25360413999997
 31
0.0
  0
LINE
  5
1404
330
1A
100
AcDbEntity
  8
241
100
AcDbLine
 10
74.54999999999994
 20
-17.91295929999997
 30
0.0
 11
74.54999999999994
 21
0.0000000000000284
 31
0.0
  0
LINE
  5
1405
330
1A
100
AcDbEntity
  8
240
100
AcDbLine
 10
82.54999999999994
 20
-14.32175247999997
 30
0.0
 11
82.54999999999994
 21
0.0000000000000284
 31
0.0
  0
LINE
  5
1406
330
1A
100
AcDbEntity
  8
241
  6
HIDDEN2
100
AcDbLine
 10
75.54999999999994
 20
11.20000000000003
 30
0.0
 11
75.54999999999994
 21
0.0000000000000284
 31
0.0
  0
LINE
  5
1407
330
1A
100
AcDbEntity
  8
240
100
AcDbLine
 10
82.54999999999994
 20
14.32175248000003
 30
0.0
 11
82.54999999999994
 21
0.0000000000000284
 31
0.0
  0
LINE
  5
1408
330
1A
100
AcDbEntity
  8
241
100
AcDbLine
 10
74.54999999999994
 20
17.91295930000003
 30
0.0
 11
74.54999999999994
 21
0.0000000000000284
 31
0.0
  0
LINE
  5
1409
330
1A
100
AcDbEntity
  8
240
100
AcDbLine
 10
59.84999999999994
 20
18.00000000000003
 30
0.0
 11
59.44999999999993
 21
17.60000000000002
 31
0.0
  0
LINE
  5
140A
330
1A
100
AcDbEntity
  8
240
100
AcDbLine
 10
58.24999999999994
 20
18.00000000000003
 30
0.0
 11
58.64999999999995
 21
17.60000000000002
 31
0.0
  0
LINE
  5
140B
330
1A
100
AcDbEntity
  8
240
100
AcDbLine
 10
58.64999999999995
 20
17.60000000000002
 30
0.0
 11
59.44999999999993
 21
17.60000000000002
 31
0.0
  0
LINE
  5
140C
330
1A
100
AcDbEntity
  8
240
100
AcDbLine
 10
56.84999999999994
 20
18.00000000000003
 30
0.0
 11
56.44999999999993
 21
17.60000000000002
 31
0.0
  0
LINE
  5
140D
330
1A
100
AcDbEntity
  8
240
100
AcDbLine
 10
56.84999999999994
 20
18.00000000000003
 30
0.0
 11
58.24999999999994
 21
18.00000000000003
 31
0.0
  0
LINE
  5
140E
330
1A
100
AcDbEntity
  8
240
100
AcDbLine
 10
55.24999999999994
 20
18.00000000000003
 30
0.0
 11
55.64999999999995
 21
17.60000000000002
 31
0.0
  0
LINE
  5
140F
330
1A
100
AcDbEntity
  8
240
100
AcDbLine
 10
55.64999999999995
 20
17.60000000000002
 30
0.0
 11
56.44999999999993
 21
17.60000000000002
 31
0.0
  0
ARC
  5
1410
330
1A
100
AcDbEntity
  8
240
100
AcDbCircle
 10
35.70710678118664
 20
19.00000000000003
 30
0.0
 40
1.0
100
AcDbArc
 50
225.0000000000006
 51
270.0
1001
GENIUS_GENOBJ-N-FIL_13
1002
{
1000
OWNER
1000
GEN
1002
}
1001
GENIUS_GENODEF_13
1002
{
1000
HIER
1070
     0
1002
}
1002
{
1000
MANEDIT
1070
     0
1002
}
1002
{
1000
NOSEL
1070
     0
1002
}
1002
{
1000
BEHIND
1070
     0
1002
}
1002
{
1000
OTHER
1070
     0
1002
}
1002
{
1000
REACTOR
1002
}
  0
LINE
  5
1411
330
1A
100
AcDbEntity
  8
AM_7
100
AcDbLine
 10
48.54999999999994
 20
19.00000000000003
 30
0.0
 11
48.54999999999994
 21
7.000000000000028
 31
0.0
  0
LINE
  5
1416
330
1A
100
AcDbEntity
  8
240
100
AcDbLine
 10
35.70710678118664
 20
18.00000000000003
 30
0.0
 11
55.24999999999994
 21
18.00000000000003
 31
0.0
  0
LINE
  5
1417
330
1A
100
AcDbEntity
  8
240
100
AcDbLine
 10
56.84999999999994
 20
-17.99999999999997
 30
0.0
 11
58.24999999999994
 21
-17.99999999999997
 31
0.0
  0
LINE
  5
1418
330
1A
100
AcDbEntity
  8
240
100
AcDbLine
 10
56.84999999999994
 20
-17.99999999999997
 30
0.0
 11
56.44999999999993
 21
-17.59999999999997
 31
0.0
  0
LINE
  5
1419
330
1A
100
AcDbEntity
  8
240
100
AcDbLine
 10
58.64999999999995
 20
-17.59999999999997
 30
0.0
 11
59.44999999999993
 21
-17.59999999999997
 31
0.0
  0
LINE
  5
141A
330
1A
100
AcDbEntity
  8
240
100
AcDbLine
 10
58.24999999999994
 20
-17.99999999999997
 30
0.0
 11
58.64999999999995
 21
-17.59999999999997
 31
0.0
  0
LINE
  5
141B
330
1A
100
AcDbEntity
  8
240
100
AcDbLine
 10
59.84999999999994
 20
-17.99999999999997
 30
0.0
 11
59.44999999999993
 21
-17.59999999999997
 31
0.0
  0
LINE
  5
141C
330
1A
100
AcDbEntity
  8
240
100
AcDbLine
 10
55.24999999999994
 20
-17.99999999999997
 30
0.0
 11
55.64999999999995
 21
-17.59999999999997
 31
0.0
  0
LINE
  5
141D
330
1A
100
AcDbEntity
  8
240
100
AcDbLine
 10
55.64999999999995
 20
-17.59999999999997
 30
0.0
 11
56.44999999999993
 21
-17.59999999999997
 31
0.0
  0
LINE
  5
141E
330
1A
100
AcDbEntity
  8
241
100
AcDbLine
 10
55.24999999999994
 20
-17.99999999999997
 30
0.0
 11
55.24999999999994
 21
0.0000000000000284
 31
0.0
  0
LINE
  5
141F
330
1A
100
AcDbEntity
  8
241
100
AcDbLine
 10
56.84999999999994
 20
-17.99999999999997
 30
0.0
 11
56.84999999999994
 21
0.0000000000000284
 31
0.0
  0
LINE
  5
1420
330
1A
100
AcDbEntity
  8
241
100
AcDbLine
 10
58.24999999999994
 20
-17.99999999999997
 30
0.0
 11
58.24999999999994
 21
0.0000000000000284
 31
0.0
  0
LINE
  5
1421
330
1A
100
AcDbEntity
  8
241
100
AcDbLine
 10
59.84999999999994
 20
-17.99999999999997
 30
0.0
 11
59.84999999999994
 21
0.0000000000000284
 31
0.0
  0
LINE
  5
1422
330
1A
100
AcDbEntity
  8
241
100
AcDbLine
 10
66.54999999999994
 20
0.0000000000000284
 30
0.0
 11
66.54999999999994
 21
-17.99999999999997
 31
0.0
  0
ARC
  5
1423
330
1A
100
AcDbEntity
  8
240
100
AcDbCircle
 10
35.70710678118664
 20
-18.99999999999997
 30
0.0
 40
1.0
100
AcDbArc
 50
90.0
 51
134.9999999999994
1001
GENIUS_GENOBJ-N-FIL_13
1002
{
1000
OWNER
1000
GEN
1002
}
1001
GENIUS_GENODEF_13
1002
{
1000
HIER
1070
     0
1002
}
1002
{
1000
MANEDIT
1070
     0
1002
}
1002
{
1000
NOSEL
1070
     0
1002
}
1002
{
1000
BEHIND
1070
     0
1002
}
1002
{
1000
OTHER
1070
     0
1002
}
1002
{
1000
REACTOR
1002
}
  0
LINE
  5
1424
330
1A
100
AcDbEntity
  8
241
100
AcDbLine
 10
35.29289322118665
 20
-17.99999999999997
 30
0.0
 11
35.29289322118665
 21
0.0000000000000284
 31
0.0
  0
LINE
  5
1425
330
1A
100
AcDbEntity
  8
240
100
AcDbLine
 10
35.70710678118664
 20
-17.99999999999997
 30
0.0
 11
55.24999999999994
 21
-17.99999999999997
 31
0.0
  0
LINE
  5
1426
330
1A
100
AcDbEntity
  8
241
100
AcDbLine
 10
66.54999999999994
 20
0.0000000000000284
 30
0.0
 11
66.54999999999994
 21
18.00000000000003
 31
0.0
  0
LINE
  5
1427
330
1A
100
AcDbEntity
  8
241
100
AcDbLine
 10
59.84999999999994
 20
18.00000000000003
 30
0.0
 11
59.84999999999994
 21
0.0000000000000284
 31
0.0
  0
LINE
  5
1428
330
1A
100
AcDbEntity
  8
241
100
AcDbLine
 10
58.24999999999994
 20
18.00000000000003
 30
0.0
 11
58.24999999999994
 21
0.0000000000000284
 31
0.0
  0
LINE
  5
1429
330
1A
100
AcDbEntity
  8
241
100
AcDbLine
 10
56.84999999999994
 20
18.00000000000003
 30
0.0
 11
56.84999999999994
 21
0.0000000000000284
 31
0.0
  0
LINE
  5
142A
330
1A
100
AcDbEntity
  8
241
100
AcDbLine
 10
55.24999999999994
 20
18.00000000000003
 30
0.0
 11
55.24999999999994
 21
0.0000000000000284
 31
0.0
  0
LINE
  5
142B
330
1A
100
AcDbEntity
  8
241
100
AcDbLine
 10
35.29289322118665
 20
18.00000000000003
 30
0.0
 11
35.29289322118665
 21
0.0000000000000284
 31
0.0
  0
LINE
  5
142C
330
1A
100
AcDbEntity
  8
240
100
AcDbLine
 10
59.84999999999994
 20
-17.99999999999997
 30
0.0
 11
73.23347501999994
 21
-17.99999999999997
 31
0.0
  0
LINE
  5
142D
330
1A
100
AcDbEntity
  8
240
100
AcDbLine
 10
59.84999999999994
 20
18.00000000000003
 30
0.0
 11
73.23347501999994
 21
18.00000000000003
 31
0.0
  0
VIEWPORT
  5
22
330
17
100
AcDbEntity
 67
     1
  8
0
100
AcDbViewport
 10
261.5176991150442
 20
148.5
 30
0.0
 40
523.0353982300885
 41
297.0
 68
     1
 69
    -1
 12
261.5176991150442
 22
148.5
 13
0.0
 23
0.0
 14
1.0
 24
1.0
 15
10.0
 25
10.0
 16
0.0
 26
0.0
 36
1.0
 17
0.0
 27
0.0
 37
0.0
 42
50.0
 43
0.0
 44
0.0
 45
297.0
 50
0.0
 51
0.0
 72
   100
 90
   557216
  1

281
     0
 71
     1
 74
     0
110
0.0
120
0.0
130
0.0
111
1.0
121
0.0
131
0.0
112
0.0
122
1.0
132
0.0
 79
     0
146
0.0
170
     0
 61
     5
292
     1
282
     1
141
0.0
142
0.0
 63
   256
  0
ENDSEC
  0
SECTION
  2
OBJECTS
  0
DICTIONARY
  5
C
330
0
100
AcDbDictionary
281
     1
  3
ACAD_GROUP
350
D
  3
ACAD_IMAGE_VARS
350
139B
  3
ACAD_LAYOUT
350
565
  3
ACAD_MATERIAL
350
1432
  3
ACAD_MLINESTYLE
350
E
  3
ACAD_PLOTSETTINGS
350
566
  3
ACAD_PLOTSTYLENAME
350
563
  3
ACAD_SCALELIST
350
1376
  3
ACAD_TABLESTYLE
350
1398
  3
ACDB_RECOMPOSE_DATA
350
1446
  3
AcDbVariableDictionary
350
143D
  3
APPDATA
350
139A
  3
GRADE_DWG
350
540
  0
DICTIONARY
  5
1413
330
1412
100
AcDbDictionary
280
     1
281
     1
  3
ADSK_XREC_LAYER_RECONCILED
360
1414
  0
DICTIONARY
  5
D
102
{ACAD_REACTORS
330
C
102
}
330
C
100
AcDbDictionary
281
     1
  3
*A1
350
6C7
  3
*A2
350
6C8
  3
*A3
350
6D4
  3
*A4
350
6D5
  3
DREC-1
350
5FC
  3
DREC-2
350
654
  3
DREC-3
350
673
  0
RASTERVARIABLES
  5
139B
102
{ACAD_REACTORS
330
C
102
}
330
C
100
AcDbRasterVariables
 90
        0
 70
     1
 71
     1
 72
     0
  0
DICTIONARY
  5
565
102
{ACAD_REACTORS
330
C
102
}
330
C
100
AcDbDictionary
281
     1
  3
Model
350
1374
  3
Sheet1
350
1375
  0
DICTIONARY
  5
1432
102
{ACAD_REACTORS
330
C
102
}
330
C
100
AcDbDictionary
281
     1
  0
DICTIONARY
  5
E
102
{ACAD_REACTORS
330
C
102
}
330
C
100
AcDbDictionary
281
     1
  3
STANDARD
350
13
  0
DICTIONARY
  5
566
102
{ACAD_REACTORS
330
C
102
}
330
C
100
AcDbDictionary
281
     1
  0
ACDBDICTIONARYWDFLT
  5
563
102
{ACAD_REACTORS
330
C
102
}
330
C
100
AcDbDictionary
281
     1
  3
Normal
350
564
100
AcDbDictionaryWithDefault
340
564
  0
DICTIONARY
  5
1376
102
{ACAD_REACTORS
330
C
102
}
330
C
100
AcDbDictionary
281
     1
  3
A0
350
1377
  3
A1
350
1378
  3
A2
350
1379
  3
A3
350
137A
  3
A4
350
137B
  3
A5
350
137C
  3
A6
350
137D
  3
A7
350
137E
  3
A8
350
137F
  3
A9
350
1380
  3
B0
350
1381
  3
B1
350
1382
  3
B2
350
1383
  3
B3
350
1384
  3
B4
350
1385
  3
B5
350
1386
  3
B6
350
1387
  3
B7
350
1388
  3
B8
350
1389
  3
B9
350
138A
  3
C0
350
138B
  3
C1
350
138C
  3
C2
350
138D
  3
C3
350
138E
  3
C4
350
138F
  3
C5
350
1390
  3
C6
350
1391
  3
C7
350
1392
  3
C8
350
1393
  3
C9
350
1394
  3
D0
350
1395
  3
D1
350
1396
  3
D2
350
1397
  0
DICTIONARY
  5
1398
102
{ACAD_REACTORS
330
C
102
}
330
C
100
AcDbDictionary
281
     1
  3
Standard
350
1399
  0
XRECORD
  5
1446
102
{ACAD_REACTORS
330
C
102
}
330
C
100
AcDbXrecord
280
     1
 90
        1
330
1399
  0
DICTIONARY
  5
143D
102
{ACAD_REACTORS
330
C
102
}
330
C
100
AcDbDictionary
281
     1
  3
CANNOSCALE
350
143E
  3
CTABLESTYLE
350
1442
  0
DICTIONARY
  5
139A
102
{ACAD_REACTORS
330
C
102
}
330
C
100
AcDbDictionary
281
     1
  0
DICTIONARY
  5
540
102
{ACAD_REACTORS
330
C
102
}
330
C
100
AcDbDictionary
281
     1
  3
VERSION
350
560
  0
XRECORD
  5
1414
102
{ACAD_REACTORS
330
1413
102
}
330
1413
100
AcDbXrecord
280
     1
290
     1
  0
GROUP
  5
6C7
102
{ACAD_REACTORS
330
D
102
}
330
D
100
AcDbGroup
300

 70
     0
 71
     1
1001
GRPNAME
1000
DMA00
  0
GROUP
  5
6C8
102
{ACAD_REACTORS
330
D
102
}
330
D
100
AcDbGroup
300

 70
     0
 71
     1
1001
GRPNAME
1000
DMA00
  0
GROUP
  5
6D4
102
{ACAD_REACTORS
330
D
102
}
330
D
100
AcDbGroup
300

 70
     0
 71
     1
1001
GRPNAME
1000
DMA00
  0
GROUP
  5
6D5
102
{ACAD_REACTORS
330
D
102
}
330
D
100
AcDbGroup
300

 70
     0
 71
     1
1001
GRPNAME
1000
DMA00
  0
GROUP
  5
5FC
102
{ACAD_REACTORS
330
D
102
}
330
D
100
AcDbGroup
300

 70
     0
 71
     1
1001
GRPNAME
1000
DREC-
1001
GPARA
1000
xsiz
1000
44.182
1000
ysiz
1000
40.677
1000
angl
1000
0
1000
ctyp
1000
0
1000
csiz
1000
5
1000
lfnt
1000
cont
1000
hcnt
1000
hoff
1000
vcnt
1000
voff
1000
opnt
1000
4
1000
dxpt
1000
0
1000
dypt
1000
0
  0
GROUP
  5
654
102
{ACAD_REACTORS
330
D
102
}
330
D
100
AcDbGroup
300

 70
     0
 71
     1
1001
GRPNAME
1000
DREC-
1001
GPARA
1000
xsiz
1000
54.592
1000
ysiz
1000
53.036
1000
angl
1000
0
1000
ctyp
1000
0
1000
csiz
1000
5
1000
lfnt
1000
cont
1000
hcnt
1000
hoff
1000
vcnt
1000
voff
1000
opnt
1000
4
1000
dxpt
1000
0
1000
dypt
1000
0
  0
GROUP
  5
673
102
{ACAD_REACTORS
330
D
102
}
330
D
100
AcDbGroup
300

 70
     0
 71
     1
1001
GRPNAME
1000
DREC-
1001
GPARA
1000
xsiz
1000
30.363
1000
ysiz
1000
36.175
1000
angl
1000
0
1000
ctyp
1000
0
1000
csiz
1000
5
1000
lfnt
1000
cont
1000
hcnt
1000
hoff
1000
vcnt
1000
voff
1000
opnt
1000
4
1000
dxpt
1000
0
1000
dypt
1000
0
  0
LAYOUT
  5
1374
102
{ACAD_REACTORS
330
565
102
}
330
565
100
AcDbPlotSettings
  1

  2
none_device
  4

  6

 40
0.0
 41
0.0
 42
0.0
 43
0.0
 44
0.0
 45
0.0
 46
0.0
 47
0.0
 48
0.0
 49
0.0
140
0.0
141
0.0
142
1.0
143
1.0
 70
   688
 72
     0
 73
     0
 74
     5
  7

 75
    16
 76
     0
 77
     2
 78
   300
147
1.0
148
0.0
149
0.0
100
AcDbLayout
  1
Model
 70
     1
 71
     0
 10
0.0
 20
0.0
 11
0.0
 21
0.0
 12
0.0
 22
0.0
 32
0.0
 14
0.0
 24
0.0
 34
0.0
 15
0.0
 25
0.0
 35
0.0
146
0.0
 13
0.0
 23
0.0
 33
0.0
 16
1.0
 26
0.0
 36
0.0
 17
0.0
 27
1.0
 37
0.0
 76
     0
330
1A
331
134F
  0
LAYOUT
  5
1375
102
{ACAD_REACTORS
330
565
102
}
330
565
100
AcDbPlotSettings
  1

  2
none_device
  4

  6

 40
0.0
 41
0.0
 42
0.0
 43
0.0
 44
0.0
 45
0.0
 46
0.0
 47
0.0
 48
0.0
 49
0.0
140
0.0
141
0.0
142
1.0
143
1.0
 70
   688
 72
     0
 73
     0
 74
     5
  7

 75
    16
 76
     0
 77
     2
 78
   300
147
1.0
148
0.0
149
0.0
100
AcDbLayout
  1
Sheet1
 70
     1
 71
     1
 10
0.0
 20
0.0
 11
0.0
 21
0.0
 12
0.0
 22
0.0
 32
0.0
 14
0.0
 24
0.0
 34
0.0
 15
0.0
 25
0.0
 35
0.0
146
0.0
 13
0.0
 23
0.0
 33
0.0
 16
1.0
 26
0.0
 36
0.0
 17
0.0
 27
1.0
 37
0.0
 76
     0
330
17
331
22
  0
MLINESTYLE
  5
13
102
{ACAD_REACTORS
330
E
102
}
330
E
100
AcDbMlineStyle
  2
STANDARD
 70
     0
  3

 62
     0
 51
90.0
 52
90.0
 71
     2
 49
0.5
 62
   256
  6
BYLAYER
 49
-0.5
 62
   256
  6
BYLAYER
  0
ACDBPLACEHOLDER
  5
564
102
{ACAD_REACTORS
330
563
102
}
330
563
  0
SCALE
  5
1377
102
{ACAD_REACTORS
330
1376
102
}
330
1376
100
AcDbScale
 70
     0
300
1:1
140
1.0
141
1.0
290
     1
  0
SCALE
  5
1378
102
{ACAD_REACTORS
330
1376
102
}
330
1376
100
AcDbScale
 70
     0
300
1:2
140
1.0
141
2.0
290
     0
  0
SCALE
  5
1379
102
{ACAD_REACTORS
330
1376
102
}
330
1376
100
AcDbScale
 70
     0
300
1:4
140
1.0
141
4.0
290
     0
  0
SCALE
  5
137A
102
{ACAD_REACTORS
330
1376
102
}
330
1376
100
AcDbScale
 70
     0
300
1:5
140
1.0
141
5.0
290
     0
  0
SCALE
  5
137B
102
{ACAD_REACTORS
330
1376
102
}
330
1376
100
AcDbScale
 70
     0
300
1:8
140
1.0
141
8.0
290
     0
  0
SCALE
  5
137C
102
{ACAD_REACTORS
330
1376
102
}
330
1376
100
AcDbScale
 70
     0
300
1:10
140
1.0
141
10.0
290
     0
  0
SCALE
  5
137D
102
{ACAD_REACTORS
330
1376
102
}
330
1376
100
AcDbScale
 70
     0
300
1:16
140
1.0
141
16.0
290
     0
  0
SCALE
  5
137E
102
{ACAD_REACTORS
330
1376
102
}
330
1376
100
AcDbScale
 70
     0
300
1:20
140
1.0
141
20.0
290
     0
  0
SCALE
  5
137F
102
{ACAD_REACTORS
330
1376
102
}
330
1376
100
AcDbScale
 70
     0
300
1:30
140
1.0
141
30.0
290
     0
  0
SCALE
  5
1380
102
{ACAD_REACTORS
330
1376
102
}
330
1376
100
AcDbScale
 70
     0
300
1:40
140
1.0
141
40.0
290
     0
  0
SCALE
  5
1381
102
{ACAD_REACTORS
330
1376
102
}
330
1376
100
AcDbScale
 70
     0
300
1:50
140
1.0
141
50.0
290
     0
  0
SCALE
  5
1382
102
{ACAD_REACTORS
330
1376
102
}
330
1376
100
AcDbScale
 70
     0
300
1:100
140
1.0
141
100.0
290
     0
  0
SCALE
  5
1383
102
{ACAD_REACTORS
330
1376
102
}
330
1376
100
AcDbScale
 70
     0
300
2:1
140
2.0
141
1.0
290
     0
  0
SCALE
  5
1384
102
{ACAD_REACTORS
330
1376
102
}
330
1376
100
AcDbScale
 70
     0
300
4:1
140
4.0
141
1.0
290
     0
  0
SCALE
  5
1385
102
{ACAD_REACTORS
330
1376
102
}
330
1376
100
AcDbScale
 70
     0
300
8:1
140
8.0
141
1.0
290
     0
  0
SCALE
  5
1386
102
{ACAD_REACTORS
330
1376
102
}
330
1376
100
AcDbScale
 70
     0
300
10:1
140
10.0
141
1.0
290
     0
  0
SCALE
  5
1387
102
{ACAD_REACTORS
330
1376
102
}
330
1376
100
AcDbScale
 70
     0
300
100:1
140
100.0
141
1.0
290
     0
  0
SCALE
  5
1388
102
{ACAD_REACTORS
330
1376
102
}
330
1376
100
AcDbScale
 70
     0
300
1/128" = 1'-0"
140
0.0078125
141
12.0
290
     0
  0
SCALE
  5
1389
102
{ACAD_REACTORS
330
1376
102
}
330
1376
100
AcDbScale
 70
     0
300
1/64" = 1'-0"
140
0.015625
141
12.0
290
     0
  0
SCALE
  5
138A
102
{ACAD_REACTORS
330
1376
102
}
330
1376
100
AcDbScale
 70
     0
300
1/32" = 1'-0"
140
0.03125
141
12.0
290
     0
  0
SCALE
  5
138B
102
{ACAD_REACTORS
330
1376
102
}
330
1376
100
AcDbScale
 70
     0
300
1/16" = 1'-0"
140
0.0625
141
12.0
290
     0
  0
SCALE
  5
138C
102
{ACAD_REACTORS
330
1376
102
}
330
1376
100
AcDbScale
 70
     0
300
3/32" = 1'-0"
140
0.09375
141
12.0
290
     0
  0
SCALE
  5
138D
102
{ACAD_REACTORS
330
1376
102
}
330
1376
100
AcDbScale
 70
     0
300
1/8" = 1'-0"
140
0.125
141
12.0
290
     0
  0
SCALE
  5
138E
102
{ACAD_REACTORS
330
1376
102
}
330
1376
100
AcDbScale
 70
     0
300
3/16" = 1'-0"
140
0.1875
141
12.0
290
     0
  0
SCALE
  5
138F
102
{ACAD_REACTORS
330
1376
102
}
330
1376
100
AcDbScale
 70
     0
300
1/4" = 1'-0"
140
0.25
141
12.0
290
     0
  0
SCALE
  5
1390
102
{ACAD_REACTORS
330
1376
102
}
330
1376
100
AcDbScale
 70
     0
300
3/8" = 1'-0"
140
0.375
141
12.0
290
     0
  0
SCALE
  5
1391
102
{ACAD_REACTORS
330
1376
102
}
330
1376
100
AcDbScale
 70
     0
300
1/2" = 1'-0"
140
0.5
141
12.0
290
     0
  0
SCALE
  5
1392
102
{ACAD_REACTORS
330
1376
102
}
330
1376
100
AcDbScale
 70
     0
300
3/4" = 1'-0"
140
0.75
141
12.0
290
     0
  0
SCALE
  5
1393
102
{ACAD_REACTORS
330
1376
102
}
330
1376
100
AcDbScale
 70
     0
300
1" = 1'-0"
140
1.0
141
12.0
290
     0
  0
SCALE
  5
1394
102
{ACAD_REACTORS
330
1376
102
}
330
1376
100
AcDbScale
 70
     0
300
1-1/2" = 1'-0"
140
1.5
141
12.0
290
     0
  0
SCALE
  5
1395
102
{ACAD_REACTORS
330
1376
102
}
330
1376
100
AcDbScale
 70
     0
300
3" = 1'-0"
140
3.0
141
12.0
290
     0
  0
SCALE
  5
1396
102
{ACAD_REACTORS
330
1376
102
}
330
1376
100
AcDbScale
 70
     0
300
6" = 1'-0"
140
6.0
141
12.0
290
     0
  0
SCALE
  5
1397
102
{ACAD_REACTORS
330
1376
102
}
330
1376
100
AcDbScale
 70
     0
300
1'-0" = 1'-0"
140
12.0
141
12.0
290
     0
  0
TABLESTYLE
  5
1399
102
{ACAD_REACTORS
330
1398
102
}
102
{ACAD_XDICTIONARY
360
1444
102
}
330
1398
100
AcDbTableStyle
  3
Standard
 70
     0
 71
     0
 40
1.5
 41
1.5
280
     0
281
     0
  7
STANDARD
140
4.5
170
     2
 62
     0
 63
   257
283
     0
 90
        4
 91
        0
  1

274
    -2
284
     1
 64
     0
275
    -2
285
     1
 65
     0
276
    -2
286
     1
 66
     0
277
    -2
287
     1
 67
     0
278
    -2
288
     1
 68
     0
279
    -2
289
     1
 69
     0
  7
STANDARD
140
6.0
170
     5
 62
     0
 63
   257
283
     0
 90
        4
 91
        0
  1

274
    -2
284
     1
 64
     0
275
    -2
285
     1
 65
     0
276
    -2
286
     1
 66
     0
277
    -2
287
     1
 67
     0
278
    -2
288
     1
 68
     0
279
    -2
289
     1
 69
     0
  7
STANDARD
140
4.5
170
     5
 62
     0
 63
   257
283
     0
 90
        4
 91
        0
  1

274
    -2
284
     1
 64
     0
275
    -2
285
     1
 65
     0
276
    -2
286
     1
 66
     0
277
    -2
287
     1
 67
     0
278
    -2
288
     1
 68
     0
279
    -2
289
     1
 69
     0
  0
DICTIONARYVAR
  5
143E
102
{ACAD_REACTORS
330
143D
102
}
330
143D
100
DictionaryVariables
280
     0
  1
1:1
  0
DICTIONARYVAR
  5
1442
102
{ACAD_REACTORS
330
143D
102
}
330
143D
100
DictionaryVariables
280
     0
  1
Standard
  0
XRECORD
  5
560
102
{ACAD_REACTORS
330
540
102
}
330
540
100
AcDbXrecord
280
     1
  1
2.0.0
  0
DICTIONARY
  5
1444
330
1399
100
AcDbDictionary
280
     1
281
     1
  3
ACAD_ROUNDTRIP_2008_TABLESTYLE_CELLSTYLEMAP
360
1445
  0
CELLSTYLEMAP
  5
1445
102
{ACAD_REACTORS
330
1444
102
}
330
1444
100
AcDbCellStyleMap
 90
        3
300
CELLSTYLE
  1
TABLEFORMAT_BEGIN
 90
        5
170
     1
 91
        0
 92
        0
 62
   257
 93
        1
300
CONTENTFORMAT
  1
CONTENTFORMAT_BEGIN
 90
        0
 91
        0
 92
        4
 93
        0
300

 40
0.0
140
1.0
 94
        5
 62
     0
340
10
144
6.0
309
CONTENTFORMAT_END
171
     1
301
MARGIN
  1
CELLMARGIN_BEGIN
 40
1.5
 40
1.5
 40
1.5
 40
1.5
 40
1.5
 40
1.5
309
CELLMARGIN_END
 94
        6
 95
        1
302
GRIDFORMAT
  1
GRIDFORMAT_BEGIN
 90
        0
 91
        1
 62
     0
 92
       -2
340
14
 93
        0
 40
0.045
309
GRIDFORMAT_END
 95
        2
302
GRIDFORMAT
  1
GRIDFORMAT_BEGIN
 90
        0
 91
        1
 62
     0
 92
       -2
340
14
 93
        0
 40
0.045
309
GRIDFORMAT_END
 95
        4
302
GRIDFORMAT
  1
GRIDFORMAT_BEGIN
 90
        0
 91
        1
 62
     0
 92
       -2
340
14
 93
        0
 40
0.045
309
GRIDFORMAT_END
 95
        8
302
GRIDFORMAT
  1
GRIDFORMAT_BEGIN
 90
        0
 91
        1
 62
     0
 92
       -2
340
14
 93
        0
 40
0.045
309
GRIDFORMAT_END
 95
       16
302
GRIDFORMAT
  1
GRIDFORMAT_BEGIN
 90
        0
 91
        1
 62
     0
 92
       -2
340
14
 93
        0
 40
0.045
309
GRIDFORMAT_END
 95
       32
302
GRIDFORMAT
  1
GRIDFORMAT_BEGIN
 90
        0
 91
        1
 62
     0
 92
       -2
340
14
 93
        0
 40
0.045
309
GRIDFORMAT_END
309
TABLEFORMAT_END
  1
CELLSTYLE_BEGIN
 90
        1
 91
        1
300
_TITLE
309
CELLSTYLE_END
300
CELLSTYLE
  1
TABLEFORMAT_BEGIN
 90
        5
170
     1
 91
        0
 92
        0
 62
   257
 93
        1
300
CONTENTFORMAT
  1
CONTENTFORMAT_BEGIN
 90
        0
 91
        0
 92
        4
 93
        0
300

 40
0.0
140
1.0
 94
        5
 62
     0
340
10
144
4.5
309
CONTENTFORMAT_END
171
     1
301
MARGIN
  1
CELLMARGIN_BEGIN
 40
1.5
 40
1.5
 40
1.5
 40
1.5
 40
1.5
 40
1.5
309
CELLMARGIN_END
 94
        6
 95
        1
302
GRIDFORMAT
  1
GRIDFORMAT_BEGIN
 90
        0
 91
        1
 62
     0
 92
       -2
340
14
 93
        0
 40
0.045
309
GRIDFORMAT_END
 95
        2
302
GRIDFORMAT
  1
GRIDFORMAT_BEGIN
 90
        0
 91
        1
 62
     0
 92
       -2
340
14
 93
        0
 40
0.045
309
GRIDFORMAT_END
 95
        4
302
GRIDFORMAT
  1
GRIDFORMAT_BEGIN
 90
        0
 91
        1
 62
     0
 92
       -2
340
14
 93
        0
 40
0.045
309
GRIDFORMAT_END
 95
        8
302
GRIDFORMAT
  1
GRIDFORMAT_BEGIN
 90
        0
 91
        1
 62
     0
 92
       -2
340
14
 93
        0
 40
0.045
309
GRIDFORMAT_END
 95
       16
302
GRIDFORMAT
  1
GRIDFORMAT_BEGIN
 90
        0
 91
        1
 62
     0
 92
       -2
340
14
 93
        0
 40
0.045
309
GRIDFORMAT_END
 95
       32
302
GRIDFORMAT
  1
GRIDFORMAT_BEGIN
 90
        0
 91
        1
 62
     0
 92
       -2
340
14
 93
        0
 40
0.045
309
GRIDFORMAT_END
309
TABLEFORMAT_END
  1
CELLSTYLE_BEGIN
 90
        2
 91
        1
300
_HEADER
309
CELLSTYLE_END
300
CELLSTYLE
  1
TABLEFORMAT_BEGIN
 90
        5
170
     1
 91
        0
 92
        0
 62
   257
 93
        1
300
CONTENTFORMAT
  1
CONTENTFORMAT_BEGIN
 90
        0
 91
        0
 92
        4
 93
        0
300

 40
0.0
140
1.0
 94
        2
 62
     0
340
10
144
4.5
309
CONTENTFORMAT_END
171
     1
301
MARGIN
  1
CELLMARGIN_BEGIN
 40
1.5
 40
1.5
 40
1.5
 40
1.5
 40
1.5
 40
1.5
309
CELLMARGIN_END
 94
        6
 95
        1
302
GRIDFORMAT
  1
GRIDFORMAT_BEGIN
 90
        0
 91
        1
 62
     0
 92
       -2
340
14
 93
        0
 40
0.045
309
GRIDFORMAT_END
 95
        2
302
GRIDFORMAT
  1
GRIDFORMAT_BEGIN
 90
        0
 91
        1
 62
     0
 92
       -2
340
14
 93
        0
 40
0.045
309
GRIDFORMAT_END
 95
        4
302
GRIDFORMAT
  1
GRIDFORMAT_BEGIN
 90
        0
 91
        1
 62
     0
 92
       -2
340
14
 93
        0
 40
0.045
309
GRIDFORMAT_END
 95
        8
302
GRIDFORMAT
  1
GRIDFORMAT_BEGIN
 90
        0
 91
        1
 62
     0
 92
       -2
340
14
 93
        0
 40
0.045
309
GRIDFORMAT_END
 95
       16
302
GRIDFORMAT
  1
GRIDFORMAT_BEGIN
 90
        0
 91
        1
 62
     0
 92
       -2
340
14
 93
        0
 40
0.045
309
GRIDFORMAT_END
 95
       32
302
GRIDFORMAT
  1
GRIDFORMAT_BEGIN
 90
        0
 91
        1
 62
     0
 92
       -2
340
14
 93
        0
 40
0.045
309
GRIDFORMAT_END
309
TABLEFORMAT_END
  1
CELLSTYLE_BEGIN
 90
        3
 91
        2
300
_DATA
309
CELLSTYLE_END
  0
ENDSEC
  0
EOF
