  0
SECTION
  2
HEADER
  9
$ACADVER
  1
AC1009
  9
$DWGCODEPAGE
  3
ansi_1252
  9
$INSBASE
 10
0.0
 20
0.0
 30
0.0
  9
$EXTMIN
 10
-68.25000000000003
 20
-48.27109509650273
 30
0.0
  9
$EXTMAX
 10
141.9525020780113
 20
50.83203563714093
 30
0.0
  9
$LIMMIN
 10
0.0
 20
0.0
  9
$LIMMAX
 10
420.0
 20
297.0
  9
$ORTHOMODE
 70
     1
  9
$REGENMODE
 70
     1
  9
$FILLMODE
 70
     1
  9
$QTEXTMODE
 70
     0
  9
$MIRRTEXT
 70
     0
  9
$DRAGMODE
 70
     2
  9
$LTSCALE
 40
1.0
  9
$OSMODE
 70
   279
  9
$ATTMODE
 70
     1
  9
$TEXTSIZE
 40
2.5
  9
$TRACEWID
 40
1.0
  9
$TEXTSTYLE
  7
STANDARD
  9
$CLAYER
  8
0
  9
$CELTYPE
  6
BYLAYER
  9
$CECOLOR
 62
   256
  9
$DIMSCALE
 40
1.0
  9
$DIMASZ
 40
2.5
  9
$DIMEXO
 40
0.625
  9
$DIMDLI
 40
3.75
  9
$DIMRND
 40
0.0
  9
$DIMDLE
 40
0.0
  9
$DIMEXE
 40
1.25
  9
$DIMTP
 40
0.0
  9
$DIMTM
 40
0.0
  9
$DIMTXT
 40
2.5
  9
$DIMCEN
 40
2.5
  9
$DIMTSZ
 40
0.0
  9
$DIMTOL
 70
     0
  9
$DIMLIM
 70
     0
  9
$DIMTIH
 70
     0
  9
$DIMTOH
 70
     0
  9
$DIMSE1
 70
     0
  9
$DIMSE2
 70
     0
  9
$DIMTAD
 70
     1
  9
$DIMZIN
 70
     8
  9
$DIMBLK
  1

  9
$DIMASO
 70
     1
  9
$DIMSHO
 70
     1
  9
$DIMPOST
  1

  9
$DIMAPOST
  1

  9
$DIMALT
 70
     0
  9
$DIMALTD
 70
     3
  9
$DIMALTF
 40
0.03937007874016
  9
$DIMLFAC
 40
1.0
  9
$DIMTOFL
 70
     1
  9
$DIMTVP
 40
0.0
  9
$DIMTIX
 70
     0
  9
$DIMSOXD
 70
     0
  9
$DIMSAH
 70
     0
  9
$DIMBLK1
  1

  9
$DIMBLK2
  1

  9
$DIMSTYLE
  2
ISO-25
  9
$DIMCLRD
 70
     0
  9
$DIMCLRE
 70
     0
  9
$DIMCLRT
 70
     0
  9
$DIMTFAC
 40
1.0
  9
$DIMGAP
 40
0.625
  9
$LUNITS
 70
     2
  9
$LUPREC
 70
     3
  9
$SKETCHINC
 40
1.0
  9
$FILLETRAD
 40
1.0
  9
$AUNITS
 70
     0
  9
$AUPREC
 70
     0
  9
$MENU
  1
.
  9
$ELEVATION
 40
0.0
  9
$PELEVATION
 40
0.0
  9
$THICKNESS
 40
0.0
  9
$LIMCHECK
 70
     0
  9
$CHAMFERA
 40
10.0
  9
$CHAMFERB
 40
10.0
  9
$SKPOLY
 70
     0
  9
$TDCREATE
 40
2455022.429026158
  9
$TDUPDATE
 40
2458696.404587697
  9
$TDINDWG
 40
0.001290463
  9
$TDUSRTIMER
 40
2458702.625440174
  9
$USRTIMER
 70
     1
  9
$ANGBASE
 50
0.0
  9
$ANGDIR
 70
     0
  9
$PDMODE
 70
     0
  9
$PDSIZE
 40
0.0
  9
$PLINEWID
 40
0.0
  9
$COORDS
 70
     1
  9
$SPLFRAME
 70
     0
  9
$SPLINETYPE
 70
     6
  9
$SPLINESEGS
 70
     8
  9
$ATTDIA
 70
     0
  9
$ATTREQ
 70
     1
  9
$HANDLING
 70
     1
  9
$HANDSEED
  5
1F94
  9
$SURFTAB1
 70
     6
  9
$SURFTAB2
 70
     6
  9
$SURFTYPE
 70
     6
  9
$SURFU
 70
     6
  9
$SURFV
 70
     6
  9
$UCSNAME
  2

  9
$UCSORG
 10
0.0
 20
0.0
 30
0.0
  9
$UCSXDIR
 10
1.0
 20
0.0
 30
0.0
  9
$UCSYDIR
 10
0.0
 20
1.0
 30
0.0
  9
$PUCSNAME
  2

  9
$PUCSORG
 10
0.0
 20
0.0
 30
0.0
  9
$PUCSXDIR
 10
1.0
 20
0.0
 30
0.0
  9
$PUCSYDIR
 10
0.0
 20
1.0
 30
0.0
  9
$USERI1
 70
     0
  9
$USERI2
 70
     0
  9
$USERI3
 70
     0
  9
$USERI4
 70
     0
  9
$USERI5
 70
     0
  9
$USERR1
 40
0.0
  9
$USERR2
 40
0.0
  9
$USERR3
 40
0.0
  9
$USERR4
 40
0.0
  9
$USERR5
 40
0.0
  9
$WORLDVIEW
 70
     1
  9
$SHADEDGE
 70
     3
  9
$SHADEDIF
 70
    70
  9
$TILEMODE
 70
     1
  9
$MAXACTVP
 70
    64
  9
$PLIMCHECK
 70
     0
  9
$PEXTMIN
 10
1.000000000000000E+20
 20
1.000000000000000E+20
 30
1.000000000000000E+20
  9
$PEXTMAX
 10
-1.000000000000000E+20
 20
-1.000000000000000E+20
 30
-1.000000000000000E+20
  9
$PLIMMIN
 10
0.0
 20
0.0
  9
$PLIMMAX
 10
0.0
 20
0.0
  9
$UNITMODE
 70
     0
  9
$VISRETAIN
 70
     1
  9
$PLINEGEN
 70
     0
  9
$PSLTSCALE
 70
     1
  0
ENDSEC
  0
SECTION
  2
TABLES
  0
TABLE
  2
VPORT
 70
     1
  0
VPORT
  2
*ACTIVE
 70
     0
 10
0.0
 20
0.0
 11
1.0
 21
1.0
 12
163.1747464682911
 22
1.280470270319107
 13
0.0
 23
0.0
 14
10.0
 24
10.0
 15
10.0
 25
10.0
 16
0.0
 26
0.0
 36
1.0
 17
-134.1869158878504
 27
0.0
 37
0.0
 40
148.8244325654402
 41
1.332880434782609
 42
50.0
 43
0.0
 44
0.0
 50
0.0
 51
0.0
 71
    16
 72
  1000
 73
     1
 74
     3
 75
     0
 76
     0
 77
     0
 78
     0
  0
ENDTAB
  0
TABLE
  2
LTYPE
 70
     6
  0
LTYPE
  2
CONTINUOUS
 70
     0
  3
Solid line
 72
    65
 73
     0
 40
0.0
  0
LTYPE
  2
CENTER
 70
     0
  3
 Center _____  _  _____  _  _____  _  _____  _ 
 72
    65
 73
     4
 40
50.8
 49
31.75
 49
-6.35
 49
6.35
 49
-6.35
  0
LTYPE
  2
DASHED
 70
     0
  3
Dashed __  __  __  __  __  __  __  __  __  __  
 72
    65
 73
     2
 40
19.05
 49
12.7
 49
-6.35
  0
LTYPE
  2
HIDDEN
 70
     0
  3
Hidden __ __ __ __ __ __ __ __ __ __ __ __ __ __
 72
    65
 73
     2
 40
1.905
 49
1.27
 49
-0.635
  0
LTYPE
  2
CENTERX2
 70
     0
  3
Center (2x) ________  __  ________  __  _____
 72
    65
 73
     4
 40
20.32
 49
12.7
 49
-2.54
 49
2.54
 49
-2.54
  0
LTYPE
  2
PHANTOM
 70
     0
  3
Phantom ______  __  __  ______  __  __  ______
 72
    65
 73
     6
 40
12.7
 49
6.35
 49
-1.27
 49
1.27
 49
-1.27
 49
1.27
 49
-1.27
  0
ENDTAB
  0
TABLE
  2
LAYER
 70
    26
  0
LAYER
  2
0
 70
     0
 62
     7
  6
CONTINUOUS
  0
LAYER
  2
1
 70
     0
 62
     4
  6
CONTINUOUS
  0
LAYER
  2
2
 70
     0
 62
     7
  6
CONTINUOUS
  0
LAYER
  2
3
 70
     0
 62
     1
  6
DASHED
  0
LAYER
  2
4
 70
     0
 62
     2
  6
CENTER
  0
LAYER
  2
6
 70
     0
 62
     5
  6
CONTINUOUS
  0
LAYER
  2
7
 70
     0
 62
     5
  6
CONTINUOUS
  0
LAYER
  2
11
 70
     0
 62
     4
  6
CONTINUOUS
  0
LAYER
  2
SK1
 70
     0
 62
     4
  6
CONTINUOUS
  0
LAYER
  2
SK2
 70
     0
 62
     7
  6
CONTINUOUS
  0
LAYER
  2
SK3
 70
     0
 62
     1
  6
DASHED
  0
LAYER
  2
SK4
 70
     0
 62
     2
  6
CENTER
  0
LAYER
  2
SK6
 70
     0
 62
     5
  6
CONTINUOUS
  0
LAYER
  2
SK7
 70
     0
 62
     5
  6
CONTINUOUS
  0
LAYER
  2
SK11
 70
     0
 62
     4
  6
CONTINUOUS
  0
LAYER
  2
CUT
 70
     0
 62
     1
  6
CONTINUOUS
  0
LAYER
  2
NOCUT
 70
     0
 62
    -7
  6
CONTINUOUS
  0
LAYER
  2
SKVIEW1
 70
     0
 62
     4
  6
CONTINUOUS
  0
LAYER
  2
SKVIEW2
 70
     0
 62
     7
  6
CONTINUOUS
  0
LAYER
  2
SKVIEW3
 70
     0
 62
     1
  6
DASHED
  0
LAYER
  2
SKVIEW4
 70
     0
 62
     2
  6
CENTER
  0
LAYER
  2
SKVIEW6
 70
     0
 62
     5
  6
CONTINUOUS
  0
LAYER
  2
SKVIEW7
 70
     0
 62
     5
  6
CONTINUOUS
  0
LAYER
  2
SKVIEW11
 70
     0
 62
     4
  6
CONTINUOUS
  0
LAYER
  2
INFTOTAL
 70
     0
 62
     9
  6
CONTINUOUS
  0
LAYER
  2
DEFPOINTS
 70
     0
 62
     7
  6
CONTINUOUS
  0
ENDTAB
  0
TABLE
  2
STYLE
 70
     1
  0
STYLE
  2
STANDARD
 70
     0
 40
0.0
 41
1.0
 50
0.0
 71
     0
 42
2.5
  3
txt
  4

  0
ENDTAB
  0
TABLE
  2
VIEW
 70
     0
  0
ENDTAB
  0
TABLE
  2
UCS
 70
     0
  0
ENDTAB
  0
TABLE
  2
APPID
 70
     2
  0
APPID
  2
ACAD
 70
     0
  0
APPID
  2
ACAECLAYERSTANDARD
 70
     0
  0
ENDTAB
  0
TABLE
  2
DIMSTYLE
 70
     1
  0
DIMSTYLE
  2
ISO-25
 70
     0
  3

  4

  5

  6

  7

 40
1.0
 41
2.5
 42
0.625
 43
3.75
 44
1.25
 45
0.0
 46
0.0
 47
0.0
 48
0.0
140
2.5
141
2.5
142
0.0
143
0.03937007874016
144
1.0
145
0.0
146
1.0
147
0.625
 71
     0
 72
     0
 73
     0
 74
     0
 75
     0
 76
     0
 77
     1
 78
     8
170
     0
171
     3
172
     1
173
     0
174
     0
175
     0
176
     0
177
     0
178
     0
  0
ENDTAB
  0
ENDSEC
  0
SECTION
  2
BLOCKS
  0
BLOCK
  8
0
  2
$MODEL_SPACE
 70
     0
 10
0.0
 20
0.0
 30
0.0
  3
$MODEL_SPACE
  1

  0
ENDBLK
  5
21
  8
0
  0
BLOCK
 67
     1
  8
0
  2
$PAPER_SPACE
 70
     0
 10
0.0
 20
0.0
 30
0.0
  3
$PAPER_SPACE
  1

  0
ENDBLK
  5
1D
 67
     1
  8
0
  0
BLOCK
  8
0
  2
_FILLED
 70
     0
 10
0.0
 20
0.0
 30
0.0
  3
_FILLED
  1

  0
SOLID
  5
1C4
  8
0
  6
BYBLOCK
 62
     0
 10
0.0
 20
0.0
 30
0.0
 11
-1.0
 21
0.2142857143
 31
0.0
 12
-1.0
 22
-0.2142857143
 32
0.0
 13
-1.0
 23
-0.2142857143
 33
0.0
  0
ENDBLK
  5
1C5
  8
0
  6
BYBLOCK
 62
     0
  0
BLOCK
  8
0
  2
*D1
 70
     1
 10
0.0
 20
0.0
 30
0.0
  3
*D1
  1

  0
LINE
  5
1D3
  8
2
 62
     0
 10
0.0
 20
22.84999999999999
 30
0.0
 11
0.0
 21
48.91573065769793
 31
0.0
  0
LINE
  5
1D4
  8
2
 62
     0
 10
50.0
 20
37.625
 30
0.0
 11
50.0
 21
48.91573065769793
 31
0.0
  0
LINE
  5
1D5
  8
2
 62
     0
 10
2.5
 20
47.66573065769793
 30
0.0
 11
47.5
 21
47.66573065769793
 31
0.0
  0
SOLID
  5
1D6
  8
2
 62
     0
 10
2.5
 20
48.08239732436459
 30
0.0
 11
2.5
 21
47.24906399103126
 31
0.0
 12
0.0
 22
47.66573065769793
 32
0.0
 13
0.0
 23
47.66573065769793
 33
0.0
  0
SOLID
  5
1D7
  8
2
 62
     0
 10
47.5
 20
47.24906399103126
 30
0.0
 11
47.5
 21
48.08239732436459
 31
0.0
 12
50.0
 22
47.66573065769793
 32
0.0
 13
50.0
 23
47.66573065769793
 33
0.0
  0
TEXT
  5
1D8
  8
2
  6
CONTINUOUS
 62
     0
 10
23.125
 20
48.29073065769793
 30
0.0
 40
2.5
  1
50
  0
POINT
  5
1D9
  8
DEFPOINTS
 62
     0
 10
0.0
 20
22.22499999999999
 30
0.0
  0
POINT
  5
1DA
  8
DEFPOINTS
 62
     0
 10
50.0
 20
37.0
 30
0.0
  0
POINT
  5
1DB
  8
DEFPOINTS
 62
     0
 10
50.0
 20
47.66573065769793
 30
0.0
  0
ENDBLK
  5
1DD
  8
0
  0
BLOCK
  8
0
  2
*D2
 70
     1
 10
0.0
 20
0.0
 30
0.0
  3
*D2
  1

  0
LINE
  5
211
  8
SK2
 62
     0
 10
0.0
 20
-22.84999999999999
 30
0.0
 11
0.0
 21
-48.27109509650273
 31
0.0
  0
LINE
  5
212
  8
SK2
 62
     0
 10
35.05000000000001
 20
-37.625
 30
0.0
 11
35.05000000000001
 21
-48.27109509650273
 31
0.0
  0
LINE
  5
213
  8
SK2
 62
     0
 10
2.5
 20
-47.02109509650273
 30
0.0
 11
32.55000000000001
 21
-47.02109509650273
 31
0.0
  0
SOLID
  5
214
  8
SK2
 62
     0
 10
2.5
 20
-46.60442842983606
 30
0.0
 11
2.5
 21
-47.43776176316939
 31
0.0
 12
0.0
 22
-47.02109509650273
 32
0.0
 13
0.0
 23
-47.02109509650273
 33
0.0
  0
SOLID
  5
215
  8
SK2
 62
     0
 10
32.55000000000001
 20
-47.43776176316939
 30
0.0
 11
32.55000000000001
 21
-46.60442842983606
 31
0.0
 12
35.05000000000001
 22
-47.02109509650273
 32
0.0
 13
35.05000000000001
 23
-47.02109509650273
 33
0.0
  0
TEXT
  5
216
  8
SK2
  6
CONTINUOUS
 62
     0
 10
12.73333333333334
 20
-46.39609509650273
 30
0.0
 40
2.5
  1
35.05
  0
POINT
  5
217
  8
DEFPOINTS
 62
     0
 10
0.0
 20
-22.22499999999999
 30
0.0
  0
POINT
  5
218
  8
DEFPOINTS
 62
     0
 10
35.05000000000001
 20
-37.0
 30
0.0
  0
POINT
  5
219
  8
DEFPOINTS
 62
     0
 10
35.05000000000001
 20
-47.02109509650273
 30
0.0
  0
ENDBLK
  5
21B
  8
0
  0
BLOCK
  8
0
  2
*D4
 70
     1
 10
0.0
 20
0.0
 30
0.0
  3
*D4
  1

  0
LINE
  5
133C
  8
SK2
 62
     0
 10
49.625
 20
38.0
 30
0.0
 11
126.2256611608813
 21
37.99999999999999
 31
0.0
  0
LINE
  5
133D
  8
SK2
 62
     0
 10
49.625
 20
-38.0
 30
0.0
 11
126.2256611608813
 21
-38.00000000000001
 31
0.0
  0
LINE
  5
133E
  8
SK2
 62
     0
 10
124.9756611608813
 20
35.49999999999999
 30
0.0
 11
124.9756611608813
 21
-35.50000000000001
 31
0.0
  0
SOLID
  5
133F
  8
SK2
 62
     0
 10
125.392327827548
 20
35.49999999999999
 30
0.0
 11
124.5589944942146
 21
35.49999999999999
 31
0.0
 12
124.9756611608813
 22
37.99999999999999
 32
0.0
 13
124.9756611608813
 23
37.99999999999999
 33
0.0
  0
SOLID
  5
1340
  8
SK2
 62
     0
 10
124.5589944942146
 20
-35.50000000000001
 30
0.0
 11
125.392327827548
 21
-35.50000000000001
 31
0.0
 12
124.9756611608813
 22
-38.00000000000001
 32
0.0
 13
124.9756611608813
 23
-38.00000000000001
 33
0.0
  0
TEXT
  5
1341
  8
SK2
  6
CONTINUOUS
 62
     0
 10
124.3506611608813
 20
-2.083333333333343
 30
0.0
 40
2.5
  1
76
 50
90.0
  0
POINT
  5
1342
  8
DEFPOINTS
 62
     0
 10
49.0
 20
38.0
 30
0.0
  0
POINT
  5
1343
  8
DEFPOINTS
 62
     0
 10
49.0
 20
-38.0
 30
0.0
  0
POINT
  5
1344
  8
DEFPOINTS
 62
     0
 10
124.9756611608813
 20
-38.00000000000001
 30
0.0
  0
ENDBLK
  5
1346
  8
0
  0
BLOCK
  8
0
  2
*D5
 70
     1
 10
0.0
 20
0.0
 30
0.0
  3
*D5
  1

  0
LINE
  5
134B
  8
SK2
 62
     0
 10
71.12499999999999
 20
16.0
 30
0.0
 11
110.298228520231
 21
16.0
 31
0.0
  0
LINE
  5
134C
  8
SK2
 62
     0
 10
71.12499999999999
 20
-16.0
 30
0.0
 11
110.298228520231
 21
-16.0
 31
0.0
  0
LINE
  5
134D
  8
SK2
 62
     0
 10
109.048228520231
 20
13.5
 30
0.0
 11
109.048228520231
 21
-13.5
 31
0.0
  0
SOLID
  5
134E
  8
SK2
 62
     0
 10
109.4648951868977
 20
13.5
 30
0.0
 11
108.6315618535643
 21
13.5
 31
0.0
 12
109.048228520231
 22
16.0
 32
0.0
 13
109.048228520231
 23
16.0
 33
0.0
  0
SOLID
  5
134F
  8
SK2
 62
     0
 10
108.6315618535643
 20
-13.5
 30
0.0
 11
109.4648951868977
 21
-13.5
 31
0.0
 12
109.048228520231
 22
-16.0
 32
0.0
 13
109.048228520231
 23
-16.0
 33
0.0
  0
TEXT
  5
1350
  8
SK2
  6
CONTINUOUS
 62
     0
 10
108.423228520231
 20
-2.083333333333329
 30
0.0
 40
2.5
  1
32
 50
90.0
  0
POINT
  5
1351
  8
DEFPOINTS
 62
     0
 10
70.49999999999999
 20
16.0
 30
0.0
  0
POINT
  5
1352
  8
DEFPOINTS
 62
     0
 10
70.49999999999999
 20
-16.0
 30
0.0
  0
POINT
  5
1353
  8
DEFPOINTS
 62
     0
 10
109.048228520231
 20
-16.0
 30
0.0
  0
ENDBLK
  5
1355
  8
0
  0
ENDSEC
  0
SECTION
  2
ENTITIES
  0
LINE
  5
1B2
  8
4
 10
50.0
 20
-0.0000000034308264
 30
0.0
 11
0.0
 21
0.0
 31
0.0
  0
DIMENSION
  5
1CF
  8
2
  2
*D1
 10
50.0
 20
47.66573065769793
 30
0.0
 11
25.0
 21
49.54073065769793
 31
0.0
 70
    32
  3
ISO-25
 13
0.0
 23
22.22499999999999
 33
0.0
 14
50.0
 24
37.0
 34
0.0
  0
DIMENSION
  5
20D
  8
SK2
  2
*D2
 10
35.05000000000001
 20
-47.02109509650273
 30
0.0
 11
17.52500000000001
 21
-45.14609509650273
 31
0.0
 70
    32
  3
ISO-25
 13
0.0
 23
-22.22499999999999
 33
0.0
 14
35.05000000000001
 24
-37.0
 34
0.0
  0
LINE
  5
364
  8
NOCUT
 10
50.00000000000001
 20
-0.0000000034308264
 30
0.0
 11
0.0
 21
0.0
 31
0.0
  0
LINE
  5
99D
  8
SK3
 10
-66.51794919240001
 20
0.0
 30
0.0
 11
-66.51794919240001
 21
8.149999999999991
 31
0.0
  0
LINE
  5
99E
  8
SK3
 10
-66.51794919240001
 20
-8.149999999999991
 30
0.0
 11
-66.51794919240001
 21
0.0
 31
0.0
  0
LINE
  5
99F
  8
SK3
 10
-63.48000000000002
 20
0.0
 30
0.0
 11
-63.48000000000002
 21
8.149999999999991
 31
0.0
  0
LINE
  5
9A0
  8
SK3
 10
-63.48000000000002
 20
-8.149999999999991
 30
0.0
 11
-63.48000000000002
 21
0.0
 31
0.0
  0
LINE
  5
9A3
  8
SK3
 10
-25.75000000000003
 20
0.0
 30
0.0
 11
-25.75000000000003
 21
6.700000000000003
 31
0.0
  0
LINE
  5
9A4
  8
SK3
 10
-25.75000000000003
 20
-6.700000000000003
 30
0.0
 11
-25.75000000000003
 21
0.0
 31
0.0
  0
LINE
  5
9BF
  8
SK3
 10
-68.25000000000003
 20
-9.149999999999991
 30
0.0
 11
-66.51794919240001
 21
-8.149999999999991
 31
0.0
  0
LINE
  5
9C0
  8
SK3
 10
-66.51794919240001
 20
8.149999999999991
 30
0.0
 11
-68.25000000000003
 21
9.149999999999991
 31
0.0
  0
LINE
  5
9C1
  8
SK3
 10
-66.51794919240001
 20
-8.149999999999991
 30
0.0
 11
-63.48000000000002
 21
-8.149999999999991
 31
0.0
  0
LINE
  5
9C2
  8
SK3
 10
-63.48000000000002
 20
8.149999999999991
 30
0.0
 11
-66.51794919240001
 21
8.149999999999991
 31
0.0
  0
LINE
  5
9C3
  8
SK3
 10
-63.48000000000002
 20
-6.700000000000003
 30
0.0
 11
-25.93025818567946
 21
-6.700000000000003
 31
0.0
  0
LINE
  5
9C4
  8
SK3
 10
-25.93025818567946
 20
6.700000000000003
 30
0.0
 11
-63.48000000000002
 21
6.700000000000003
 31
0.0
  0
LINE
  5
9E1
  8
0
 10
51.99999999999995
 20
2.0
 30
0.0
 11
48.00000000000004
 21
-2.0
 31
0.0
  0
LINE
  5
9E2
  8
0
 10
48.00000000000004
 20
2.0
 30
0.0
 11
51.99999999999995
 21
-2.0
 31
0.0
  0
CIRCLE
  5
9E3
  8
0
 10
50.00000000000004
 20
0.0
 30
0.0
 40
1.5
  0
LINE
  5
9E4
  8
0
 10
3.0
 20
3.0
 30
0.0
 11
-3.0
 21
-3.0
 31
0.0
  0
LINE
  5
9E5
  8
0
 10
-3.0
 20
3.0
 30
0.0
 11
3.0
 21
-3.0
 31
0.0
  0
CIRCLE
  5
9E6
  8
0
 10
0.0
 20
0.0
 30
0.0
 40
2.5
  0
LINE
  5
9E7
  8
SK3
 10
-63.48000000000005
 20
-7.937499999800011
 30
0.0
 11
-39.75000000000003
 21
-7.937499999800011
 31
0.0
  0
LINE
  5
9E8
  8
SK3
 10
-39.75000000000003
 20
7.937500000199975
 30
0.0
 11
-39.75000000000003
 21
-7.937499999800011
 31
0.0
  0
LINE
  5
9E9
  8
SK3
 10
-39.75000000000003
 20
7.937500000199975
 30
0.0
 11
-63.48000000000005
 21
7.937500000199975
 31
0.0
  0
ARC
  5
AA1
  8
NOCUT
 10
0.5
 20
22.72499999999999
 30
0.0
 40
0.5
 50
270.0
 51
0.0
  0
LINE
  5
AA4
  8
NOCUT
 10
0.5
 20
22.22499999999999
 30
0.0
 11
0.0
 21
22.22499999999999
 31
0.0
  0
LINE
  5
AA5
  8
NOCUT
 10
34.05000000000001
 20
22.22499999999997
 30
0.0
 11
20.04999999999998
 21
22.22499999999999
 31
0.0
  0
LINE
  5
AB0
  8
NOCUT
 10
0.0
 20
0.0
 30
0.0
 11
0.0
 21
22.22499999999999
 31
0.0
  0
LINE
  5
ACA
  8
NOCUT
 10
1.0
 20
22.72499999999999
 30
0.0
 11
1.0
 21
31.24999999999997
 31
0.0
  0
LINE
  5
ACD
  8
NOCUT
 10
19.05000000000001
 20
31.24999999999997
 30
0.0
 11
19.04999999999995
 21
23.22499999999999
 31
0.0
  0
ARC
  5
B91
  8
1
 10
20.04999999999998
 20
-23.22499999999999
 30
0.0
 40
1.0
 50
90.0
 51
180.0
  0
ARC
  5
B93
  8
1
 10
20.04999999999998
 20
23.22499999999999
 30
0.0
 40
1.0
 50
180.0
 51
270.0
  0
ARC
  5
B94
  8
1
 10
0.799999999999983
 20
-22.42500000000001
 30
0.0
 40
0.5
 50
66.42182152179994
 51
90.0
  0
ARC
  5
B95
  8
1
 10
0.799999999999983
 20
22.42499999999998
 30
0.0
 40
0.5
 50
270.0
 51
293.5781784782001
  0
LINE
  5
B96
  8
1
 10
20.04999999999998
 20
-22.22499999999999
 30
0.0
 11
34.64999999999998
 21
-22.22499999999999
 31
0.0
  0
LINE
  5
B97
  8
1
 10
34.64999999999998
 20
22.22499999999997
 30
0.0
 11
20.04999999999998
 21
22.22499999999999
 31
0.0
  0
LINE
  5
B98
  8
1
 10
0.0
 20
-22.22499999999999
 30
0.0
 11
0.2999999999999829
 21
-21.92500000000001
 31
0.0
  0
LINE
  5
B99
  8
1
 10
0.2999999999999829
 20
21.92499999999998
 30
0.0
 11
0.0
 21
22.22499999999999
 31
0.0
  0
LINE
  5
B9C
  8
SK1
 10
0.0
 20
22.22499999999999
 30
0.0
 11
-67.3943082273
 21
12.39657058259999
 31
0.0
  0
LINE
  5
B9D
  8
SK1
 10
-67.3943082273
 20
-12.39657058270001
 30
0.0
 11
0.0
 21
-22.22499999999999
 31
0.0
  0
LINE
  5
B9E
  8
1
 10
0.2999999999999829
 20
-21.92500000000001
 30
0.0
 11
0.799999999999983
 21
-21.92500000000001
 31
0.0
  0
LINE
  5
B9F
  8
1
 10
0.799999999999983
 20
21.92499999999998
 30
0.0
 11
0.2999999999999829
 21
21.92499999999998
 31
0.0
  0
ARC
  5
BA0
  8
SK1
 10
-67.25
 20
-11.4070377962
 30
0.0
 40
1.000000000000014
 50
180.0
 51
261.7027777778003
  0
ARC
  5
BA1
  8
SK1
 10
-67.25
 20
11.40703779609998
 30
0.0
 40
1.000000000000014
 50
98.29722222219964
 51
180.0
  0
LINE
  5
BA2
  8
1
 10
14.6561667922
 20
30.49243725150001
 30
0.0
 11
13.05500004409998
 21
27.5903849293
 31
0.0
  0
LINE
  5
BA3
  8
1
 10
14.65616676899998
 20
-30.51805114620001
 30
0.0
 11
14.65616676899998
 21
30.49243720799998
 31
0.0
  0
LINE
  5
BA4
  8
1
 10
13.05500002099998
 20
-27.61768172550001
 30
0.0
 11
14.65616678619998
 21
-30.51748284710001
 31
0.0
  0
LINE
  5
BA5
  8
1
 10
13.05499999999998
 20
-27.61768156150001
 30
0.0
 11
13.05499999999998
 21
27.5896745586
 31
0.0
  0
LINE
  5
BA6
  8
1
 10
14.65616729029998
 20
-30.5174828113
 30
0.0
 11
14.76217597669998
 21
-30.54092502470002
 31
0.0
  0
LINE
  5
BA7
  8
1
 10
14.69253150219998
 20
30.50268419069999
 30
0.0
 11
14.65616753799998
 21
30.49243719839998
 31
0.0
  0
LINE
  5
BA8
  8
1
 10
18.54999999999998
 20
30.50268419069999
 30
0.0
 11
14.69253150219998
 21
30.50268419069999
 31
0.0
  0
LINE
  5
BA9
  8
1
 10
14.76217597669998
 20
-30.54092502470002
 30
0.0
 11
18.54999999999998
 21
-30.54092502470002
 31
0.0
  0
LINE
  5
BAA
  8
1
 10
9.204999955799991
 20
27.5903849293
 30
0.0
 11
7.603833207699978
 21
30.49243725150001
 31
0.0
  0
LINE
  5
BAB
  8
1
 10
9.204999999999984
 20
-27.6182445954
 30
0.0
 11
9.204999999999984
 21
27.5903848518
 31
0.0
  0
LINE
  5
BAC
  8
1
 10
7.6038332137
 20
-30.51748284710001
 30
0.0
 11
9.204999978799975
 21
-27.61768172539999
 31
0.0
  0
LINE
  5
BAD
  8
1
 10
7.603833230899994
 20
-30.5174828113
 30
0.0
 11
7.603833230899994
 21
30.49194635059999
 31
0.0
  0
LINE
  5
BAE
  8
1
 10
1.0
 20
-29.20362428180002
 30
0.0
 11
1.0
 21
29.22527756419998
 31
0.0
  0
ARC
  5
BAF
  8
1
 10
1.736068826500002
 20
28.83956144390001
 30
0.0
 40
0.8318485490646366
 50
106.4871262675995
 51
152.2338518675996
  0
POLYLINE
  5
BB0
  8
1
 66
     1
 10
0.0
 20
0.0
 30
0.0
  0
VERTEX
  5
199C
  8
1
 10
1.499991175799977
 20
-29.70136738420001
 30
0.0
  0
VERTEX
  5
199D
  8
1
 10
1.31486147779998
 20
-29.6078136875
 30
0.0
  0
VERTEX
  5
199E
  8
1
 10
1.220960437199977
 20
-29.54106786380001
 30
0.0
  0
VERTEX
  5
199F
  8
1
 10
1.131120186599986
 20
-29.45918995790001
 30
0.0
  0
VERTEX
  5
19A0
  8
1
 10
1.068966655699995
 20
-29.38420485969999
 30
0.0
  0
VERTEX
  5
19A1
  8
1
 10
1.029912598300001
 20
-29.3189781797
 30
0.0
  0
VERTEX
  5
19A2
  8
1
 10
1.001757060399996
 20
-29.23060659110001
 30
0.0
  0
VERTEX
  5
19A3
  8
1
 10
1.000001938499992
 20
-29.2054619834
 30
0.0
  0
SEQEND
  5
1F93
  8
1
  0
LINE
  5
BB1
  8
1
 10
7.5674684974
 20
30.50268419069999
 30
0.0
 11
4.03465638199998
 21
30.50268419069999
 31
0.0
  0
LINE
  5
BB2
  8
1
 10
7.603832461599978
 20
30.49243719839998
 30
0.0
 11
7.5674684974
 21
30.50268419069999
 31
0.0
  0
LINE
  5
BB3
  8
1
 10
7.497824022700001
 20
-30.54092502470002
 30
0.0
 11
7.603832709099976
 21
-30.5174828113
 31
0.0
  0
LINE
  5
BB4
  8
1
 10
3.987796517999982
 20
-30.54092502470002
 30
0.0
 11
7.497824022700001
 21
-30.54092502470002
 31
0.0
  0
LINE
  5
BB5
  8
1
 10
1.500000037399985
 20
-29.70136454339999
 30
0.0
 11
3.987796517999982
 21
-30.54092512950001
 31
0.0
  0
LINE
  5
BB6
  8
1
 10
4.03465638199998
 20
30.5026843142
 30
0.0
 11
1.499999999899984
 21
29.6372041155
 31
0.0
  0
POLYLINE
  5
BB7
  8
1
 66
     1
 10
0.0
 20
0.0
 30
0.0
  0
VERTEX
  5
19A4
  8
1
 10
18.81621828999999
 20
-30.4787564463
 30
0.0
  0
VERTEX
  5
19A5
  8
1
 10
18.6790188139
 20
-30.52721612650001
 30
0.0
  0
VERTEX
  5
19A6
  8
1
 10
18.54999999999998
 20
-30.54092502470002
 30
0.0
  0
SEQEND
  5
1F92
  8
1
  0
ARC
  5
BB8
  8
1
 10
18.55943835959999
 20
29.86640550269999
 30
0.0
 40
0.6363486869715145
 50
60.60134603479981
 51
90.84984539750005
  0
ARC
  5
BB9
  8
1
 10
18.35098180669999
 20
29.95429978019999
 30
0.0
 40
0.6992094391558102
 50
1.340108450200791
 51
41.85091720829973
  0
LINE
  5
BBA
  8
1
 10
19.04999999999998
 20
29.97065231189998
 30
0.0
 11
19.04999999999998
 21
-29.97065231190001
 31
0.0
  0
ARC
  5
BBB
  8
1
 10
18.33294041069999
 20
-29.9485632036
 30
0.0
 40
0.7173997374297006
 50
312.3495695874001
 51
358.2355544919003
  0
ARC
  5
BBC
  8
1
 10
9.7449695926
 20
27.30906555679999
 30
0.0
 40
0.5407677835436584
 50
176.8865704259999
 51
265.761250323199
  0
ARC
  5
BBD
  8
1
 10
9.7179331838
 20
-27.29360212969999
 30
0.0
 40
0.4775741781478385
 50
91.55181642760164
 51
147.4596417165987
  0
ARC
  5
BBE
  8
1
 10
12.52505146019999
 20
27.30025443439999
 30
0.0
 40
0.5313222205439724
 50
273.2312498579008
 51
4.120929392898505
  0
ARC
  5
BBF
  8
1
 10
12.53972316129997
 20
-27.2977060387
 30
0.0
 40
0.4817452194643697
 50
32.86161398089808
 51
88.18276318630117
  0
LINE
  5
BC0
  8
1
 10
12.55499999999998
 20
26.7697769259
 30
0.0
 11
9.704999999999984
 21
26.7697769259
 31
0.0
  0
LINE
  5
BC1
  8
1
 10
9.704999999999984
 20
-26.81620310549999
 30
0.0
 11
12.55499999999998
 21
-26.81620310549999
 31
0.0
  0
LINE
  5
BC4
  8
1
 10
0.2999999999999829
 20
0.0
 30
0.0
 11
0.2999999999999829
 21
21.92499999999998
 31
0.0
  0
LINE
  5
BC5
  8
1
 10
0.2999999999999829
 20
-21.92500000000001
 30
0.0
 11
0.2999999999999829
 21
0.0
 31
0.0
  0
LINE
  5
BC6
  8
1
 10
0.0
 20
0.0
 30
0.0
 11
0.0
 21
22.22499999999999
 31
0.0
  0
LINE
  5
BC7
  8
1
 10
0.0
 20
-22.22499999999999
 30
0.0
 11
0.0
 21
0.0
 31
0.0
  0
LINE
  5
BC8
  8
1
 10
35.04999999999998
 20
0.0
 30
0.0
 11
35.04999999999998
 21
-21.72499999999999
 31
0.0
  0
LINE
  5
BC9
  8
1
 10
35.04999999999998
 20
21.72499999999999
 30
0.0
 11
35.04999999999998
 21
0.0
 31
0.0
  0
LINE
  5
BCA
  8
SK1
 10
-68.25
 20
0.0
 30
0.0
 11
-68.25
 21
11.40703779609998
 31
0.0
  0
LINE
  5
BCB
  8
SK1
 10
-68.25
 20
-11.4070377962
 30
0.0
 11
-68.25
 21
0.0
 31
0.0
  0
LINE
  5
BCC
  8
1
 10
7.567468496899977
 20
30.50268419069999
 30
0.0
 11
7.6038324612
 21
30.49243719839998
 31
0.0
  0
LINE
  5
BCD
  8
1
 10
3.987796517999982
 20
-30.54092512950001
 30
0.0
 11
1.499999999899984
 21
-29.7013645289
 31
0.0
  0
LINE
  5
BDE
  8
3
 10
1.0
 20
-22.59999999999999
 30
0.0
 11
3.699999999999989
 21
-22.59999999999999
 31
0.0
  0
LINE
  5
BE8
  8
3
 10
18.25
 20
25.02000000000001
 30
0.0
 11
19.04999999999998
 21
25.02000000000001
 31
0.0
  0
LINE
  5
BFE
  8
3
 10
3.699999999999989
 20
-22.59999999999999
 30
0.0
 11
19.04999999999998
 21
-22.59999999999999
 31
0.0
  0
LINE
  5
C08
  8
3
 10
1.0
 20
25.02000000000001
 30
0.0
 11
18.25
 21
25.02000000000001
 31
0.0
  0
LINE
  5
C10
  8
3
 10
11.13
 20
21.22
 30
0.0
 11
17.47999999999999
 21
21.22
 31
0.0
  0
LINE
  5
C11
  8
3
 10
4.780000000000001
 20
21.22
 30
0.0
 11
11.13
 21
21.22
 31
0.0
  0
LINE
  5
C12
  8
3
 10
11.13
 20
21.21000000000001
 30
0.0
 11
15.88
 21
21.21000000000001
 31
0.0
  0
LINE
  5
C13
  8
3
 10
6.379999999999995
 20
21.21000000000001
 30
0.0
 11
11.13
 21
21.21000000000001
 31
0.0
  0
LINE
  5
C26
  8
3
 10
4.780000000000001
 20
25.02000000000001
 30
0.0
 11
4.780000000000001
 21
21.22
 31
0.0
  0
LINE
  5
C27
  8
3
 10
17.47999999999999
 20
21.22
 30
0.0
 11
17.47999999999999
 21
25.02000000000001
 31
0.0
  0
LINE
  5
C28
  8
3
 10
6.379999999999995
 20
21.22
 30
0.0
 11
6.379999999999995
 21
21.21000000000001
 31
0.0
  0
LINE
  5
C29
  8
3
 10
15.88
 20
21.21000000000001
 30
0.0
 11
15.88
 21
21.22
 31
0.0
  0
LINE
  5
C2A
  8
3
 10
6.379999999999995
 20
21.21000000000001
 30
0.0
 11
11.13
 21
18.3559120596
 31
0.0
  0
LINE
  5
C2B
  8
3
 10
11.13
 20
18.3559120596
 30
0.0
 11
15.88
 21
21.21000000000001
 31
0.0
  0
LINE
  5
C2C
  8
1
 10
20.04999999999998
 20
22.22499999999999
 30
0.0
 11
20.04999999999998
 21
-22.22499999999999
 31
0.0
  0
LINE
  5
C2D
  8
1
 10
0.799999999999983
 20
21.92499999999998
 30
0.0
 11
0.799999999999983
 21
-21.92500000000001
 31
0.0
  0
LINE
  5
C2F
  8
1
 10
9.704999999999984
 20
26.26568698759999
 30
0.0
 11
9.704999999999984
 21
-26.08092552630001
 31
0.0
  0
LINE
  5
C30
  8
1
 10
12.55499999999998
 20
26.26578903699999
 30
0.0
 11
12.55499999999998
 21
-26.08072526110001
 31
0.0
  0
LINE
  5
C31
  8
1
 10
18.54999999999998
 20
30.50268419069999
 30
0.0
 11
18.54999999999998
 21
-30.54092502470002
 31
0.0
  0
LINE
  5
C32
  8
1
 10
1.5
 20
-29.7013645289
 30
0.0
 11
1.5
 21
29.6372041155
 31
0.0
  0
LINE
  5
C92
  8
SK4
 10
0.0
 20
0.0
 30
0.0
 11
-68.25
 21
0.0
 31
0.0
  0
TEXT
  5
D44
  8
SK6
 10
-66.17909534664395
 20
47.33203563714093
 30
0.0
 40
3.5
  1
BIG KAISER
 41
0.85
  0
TEXT
  5
D45
  8
SK6
 10
-66.17909534664395
 20
42.08203563714093
 30
0.0
 40
3.5
  1
BCV40-FMH32-76-50
 41
0.85
  0
INSERT
  5
D46
  8
SK6
  2
_FILLED
 10
-17.9836627818344
 20
-19.60235774778011
 30
0.0
 41
3.5
 42
3.5
 43
3.5
 50
55.49325986033524
  0
POLYLINE
  5
D47
  8
SK6
 66
     1
 10
0.0
 20
0.0
 30
0.0
  0
VERTEX
  5
19A7
  8
SK6
 10
-19.966423916232
 20
-22.48656618059532
 30
0.0
  0
VERTEX
  5
19A8
  8
SK6
 10
-33.4822656830344
 20
-42.14728280658011
 30
0.0
  0
VERTEX
  5
19A9
  8
SK6
 10
-35.35726568303438
 20
-40.39728280658011
 30
0.0
  0
VERTEX
  5
19AA
  8
SK6
 10
-38.85726568303438
 20
-40.39728280658011
 30
0.0
  0
SEQEND
  5
1F91
  8
SK6
  0
TEXT
  5
D48
  8
SK6
 10
-53.86143234970106
 20
-43.89728280658011
 30
0.0
 40
3.5
  1
BCV40
 41
0.85
  0
ARC
  5
E7B
  8
NOCUT
 10
20.04999999999998
 20
23.22499999999999
 30
0.0
 40
1.0
 50
180.0
 51
270.0
  0
LINE
  5
F33
  8
NOCUT
 10
7.603833230899994
 20
31.74999999999997
 30
0.0
 11
1.5
 21
31.74999999999997
 31
0.0
  0
LINE
  5
F35
  8
NOCUT
 10
14.6561667691
 20
31.74999999999997
 30
0.0
 11
13.05500000000001
 21
28.97669780459998
 31
0.0
  0
LINE
  5
F36
  8
NOCUT
 10
9.204999999999984
 20
28.97669780459998
 30
0.0
 11
7.603833230899994
 21
31.74999999999997
 31
0.0
  0
LINE
  5
F37
  8
NOCUT
 10
18.55000000000001
 20
31.74999999999997
 30
0.0
 11
14.6561667691
 21
31.74999999999997
 31
0.0
  0
ARC
  5
F38
  8
NOCUT
 10
18.55000000000001
 20
31.24999999999997
 30
0.0
 40
0.5
 50
0.0
 51
90.0
  0
ARC
  5
F39
  8
NOCUT
 10
1.5
 20
31.24999999999997
 30
0.0
 40
0.5
 50
90.0
 51
180.0
  0
ARC
  5
F3A
  8
NOCUT
 10
12.55500000000001
 20
28.67999999999998
 30
0.0
 40
0.5
 50
270.0
 51
0.0
  0
ARC
  5
F3B
  8
NOCUT
 10
9.704999999999984
 20
28.67999999999998
 30
0.0
 40
0.5
 50
180.0
 51
270.0
  0
LINE
  5
F3C
  8
NOCUT
 10
12.55500000000001
 20
28.17999999999998
 30
0.0
 11
9.704999999999984
 21
28.17999999999998
 31
0.0
  0
LINE
  5
F42
  8
NOCUT
 10
9.204999999999984
 20
28.97669780459998
 30
0.0
 11
9.204999999999984
 21
28.67999999999998
 31
0.0
  0
LINE
  5
F43
  8
NOCUT
 10
13.05500000000001
 20
28.97669780459998
 30
0.0
 11
13.05500000000001
 21
28.67999999999998
 31
0.0
  0
LINE
  5
FE0
  8
1
 10
36.05000000000001
 20
-38.0
 30
0.0
 11
49.0
 21
-38.0
 31
0.0
  0
LINE
  5
FE1
  8
1
 10
49.0
 20
38.0
 30
0.0
 11
36.05000000000001
 21
38.0
 31
0.0
  0
ARC
  5
FE2
  8
1
 10
36.05000000000001
 20
37.0
 30
0.0
 40
1.0
 50
90.0
 51
180.0
  0
ARC
  5
FE3
  8
1
 10
36.05000000000001
 20
-37.0
 30
0.0
 40
1.0
 50
180.0
 51
270.0
  0
ARC
  5
FE4
  8
1
 10
49.0
 20
-37.0
 30
0.0
 40
1.0
 50
270.0
 51
0.0
  0
ARC
  5
FE5
  8
1
 10
49.0
 20
37.0
 30
0.0
 40
1.0
 50
0.0
 51
90.0
  0
ARC
  5
FE8
  8
1
 10
34.64999999999998
 20
22.625
 30
0.0
 40
0.4000000000000341
 50
270.0
 51
290.686115026802
  0
ARC
  5
FE9
  8
1
 10
34.64999999999998
 20
-22.625
 30
0.0
 40
0.3999999999999979
 50
69.29091592060071
 51
90.0
  0
LINE
  5
1007
  8
1
 10
41.25
 20
0.7216878364999957
 30
0.0
 11
40.0
 21
1.443375672999991
 31
0.0
  0
LINE
  5
1008
  8
1
 10
38.75
 20
0.7216878364999957
 30
0.0
 11
40.0
 21
1.443375672999991
 31
0.0
  0
LINE
  5
1009
  8
1
 10
38.75
 20
-0.7216878364999957
 30
0.0
 11
38.75
 21
0.7216878364999957
 31
0.0
  0
LINE
  5
100A
  8
1
 10
38.75
 20
-0.7216878364999957
 30
0.0
 11
40.0
 21
-1.443375672999991
 31
0.0
  0
LINE
  5
100B
  8
1
 10
41.25
 20
-0.7216878364999957
 30
0.0
 11
40.0
 21
-1.443375672999991
 31
0.0
  0
LINE
  5
100C
  8
1
 10
41.25
 20
-0.7216878364999957
 30
0.0
 11
41.25
 21
0.7216878364999957
 31
0.0
  0
CIRCLE
  5
100D
  8
1
 10
40.0
 20
0.0
 30
0.0
 40
2.055000000000064
  0
CIRCLE
  5
100E
  8
1
 10
40.0
 20
0.0
 30
0.0
 40
2.256103126841964
  0
CIRCLE
  5
100F
  8
1
 10
40.0
 20
0.0
 30
0.0
 40
2.625
  0
LINE
  5
1010
  8
1
 10
35.05000000000001
 20
-37.0
 30
0.0
 11
35.05000000000001
 21
37.0
 31
0.0
  0
LINE
  5
1011
  8
1
 10
50.0
 20
0.0
 30
0.0
 11
50.0
 21
37.0
 31
0.0
  0
LINE
  5
1012
  8
1
 10
50.0
 20
-37.0
 30
0.0
 11
50.0
 21
0.0
 31
0.0
  0
CIRCLE
  5
1013
  8
1
 10
40.0
 20
0.0
 30
0.0
 40
2.525000000000006
  0
POLYLINE
  5
102E
  8
1
 66
     1
 10
0.0
 20
0.0
 30
0.0
  0
VERTEX
  5
19AB
  8
1
 10
35.05000000000001
 20
22.43806631811567
 30
0.0
  0
VERTEX
  5
19AC
  8
1
 10
34.8300685145
 20
22.26356318120003
 30
0.0
  0
VERTEX
  5
19AD
  8
1
 10
34.79127722530001
 20
22.25068548299998
 30
0.0
  0
SEQEND
  5
1F90
  8
1
  0
POLYLINE
  5
102F
  8
1
 66
     1
 10
0.0
 20
0.0
 30
0.0
  0
VERTEX
  5
19AE
  8
1
 10
34.79127985959997
 20
-22.2506863575
 30
0.0
  0
VERTEX
  5
19AF
  8
1
 10
34.78931653310002
 20
-22.25003458420002
 30
0.0
  0
VERTEX
  5
19B0
  8
1
 10
34.90886185950001
 20
-22.30337473840001
 30
0.0
  0
VERTEX
  5
19B1
  8
1
 10
35.03725536730002
 20
-22.4603527319
 30
0.0
  0
VERTEX
  5
19B2
  8
1
 10
35.05000000000001
 20
-22.53766026053599
 30
0.0
  0
SEQEND
  5
1F8F
  8
1
  0
LINE
  5
1048
  8
3
 10
39.26244997999999
 20
-22.24086999999997
 30
0.0
 11
39.26244997999999
 21
-36.25913000000003
 31
0.0
  0
LINE
  5
1049
  8
3
 10
37.19999999999999
 20
-22.5
 30
0.0
 11
37.19999999999999
 21
-36.0
 31
0.0
  0
LINE
  5
104A
  8
3
 10
38.12976581769999
 20
-22.25087000000002
 30
0.0
 11
38.12976581769999
 21
-36.24912999999998
 31
0.0
  0
LINE
  5
104B
  8
3
 10
39.26244997999999
 20
36.25913000000003
 30
0.0
 11
39.26244997999999
 21
22.24086999999997
 31
0.0
  0
LINE
  5
104C
  8
3
 10
38.12976581769999
 20
36.24912999999998
 30
0.0
 11
38.12976581769999
 21
22.25087000000002
 31
0.0
  0
LINE
  5
104D
  8
3
 10
37.19999999999999
 20
36.0
 30
0.0
 11
37.19999999999999
 21
22.5
 31
0.0
  0
POLYLINE
  5
104E
  8
3
 66
     1
 10
0.0
 20
0.0
 30
0.0
  0
VERTEX
  5
19B3
  8
3
 10
40.0
 20
-25.97178751730002
 30
0.0
  0
VERTEX
  5
19B4
  8
3
 10
40.59853525080001
 20
-26.0245564741
 30
0.0
  0
VERTEX
  5
19B5
  8
3
 10
41.12487831699997
 20
-26.17649862960002
 30
0.0
  0
VERTEX
  5
19B6
  8
3
 10
41.51554445659997
 20
-26.40928751730002
 30
0.0
  0
VERTEX
  5
19B7
  8
3
 10
41.72341356779998
 20
-26.69484536189998
 30
0.0
  0
VERTEX
  5
19B8
  8
3
 10
41.72341356779998
 20
-26.99872967279998
 30
0.0
  0
VERTEX
  5
19B9
  8
3
 10
41.51554445659997
 20
-27.28428751730002
 30
0.0
  0
VERTEX
  5
19BA
  8
3
 10
41.12487831699997
 20
-27.51707640500001
 30
0.0
  0
VERTEX
  5
19BB
  8
3
 10
40.59853525080001
 20
-27.66901856049998
 30
0.0
  0
VERTEX
  5
19BC
  8
3
 10
40.0
 20
-27.72178751730002
 30
0.0
  0
VERTEX
  5
19BD
  8
3
 10
39.40146474919999
 20
-27.66901856049998
 30
0.0
  0
VERTEX
  5
19BE
  8
3
 10
38.87512168310002
 20
-27.51707640500001
 30
0.0
  0
VERTEX
  5
19BF
  8
3
 10
38.48445554339997
 20
-27.28428751730002
 30
0.0
  0
VERTEX
  5
19C0
  8
3
 10
38.27658643230001
 20
-26.99872967279998
 30
0.0
  0
VERTEX
  5
19C1
  8
3
 10
38.27658643230001
 20
-26.69484536189998
 30
0.0
  0
VERTEX
  5
19C2
  8
3
 10
38.48445554339997
 20
-26.40928751730002
 30
0.0
  0
VERTEX
  5
19C3
  8
3
 10
38.87512168310002
 20
-26.17649862960002
 30
0.0
  0
VERTEX
  5
19C4
  8
3
 10
39.40146474919999
 20
-26.0245564741
 30
0.0
  0
VERTEX
  5
19C5
  8
3
 10
40.0
 20
-25.97178751730002
 30
0.0
  0
SEQEND
  5
1F8E
  8
3
  0
POLYLINE
  5
104F
  8
3
 66
     1
 10
0.0
 20
0.0
 30
0.0
  0
VERTEX
  5
19C6
  8
3
 10
42.31673274349998
 20
-27.33759247030002
 30
0.0
  0
VERTEX
  5
19C7
  8
3
 10
42.21380680789997
 20
-27.67902695219999
 30
0.0
  0
VERTEX
  5
19C8
  8
3
 10
41.91417442239998
 20
-27.99012348209999
 30
0.0
  0
VERTEX
  5
19C9
  8
3
 10
41.4444592392
 20
-28.24323976789998
 30
0.0
  0
VERTEX
  5
19CA
  8
3
 10
40.84639751369997
 20
-28.41588531709999
 30
0.0
  0
VERTEX
  5
19CB
  8
3
 10
40.17312965479999
 20
-28.49271981470002
 30
0.0
  0
VERTEX
  5
19CC
  8
3
 10
39.48447846620002
 20
-28.4669161786
 30
0.0
  0
VERTEX
  5
19CD
  8
3
 10
38.84163362829997
 20
-28.34076717509998
 30
0.0
  0
VERTEX
  5
19CE
  8
3
 10
38.30171472590001
 20
-28.12548169669998
 30
0.0
  0
VERTEX
  5
19CF
  8
3
 10
37.91269592290001
 20
-27.8401888029
 30
0.0
  0
VERTEX
  5
19D0
  8
3
 10
37.70914324720002
 20
-27.51023801939999
 30
0.0
  0
VERTEX
  5
19D1
  8
3
 10
37.70914324720002
 20
-27.1649469212
 30
0.0
  0
VERTEX
  5
19D2
  8
3
 10
37.91269592290001
 20
-26.83499613769999
 30
0.0
  0
VERTEX
  5
19D3
  8
3
 10
38.30171472590001
 20
-26.54970324390001
 30
0.0
  0
VERTEX
  5
19D4
  8
3
 10
38.84163362829997
 20
-26.33441776550001
 30
0.0
  0
VERTEX
  5
19D5
  8
3
 10
39.48447846620002
 20
-26.20826876199999
 30
0.0
  0
VERTEX
  5
19D6
  8
3
 10
40.17312965479999
 20
-26.18246512590002
 30
0.0
  0
VERTEX
  5
19D7
  8
3
 10
40.84639751369997
 20
-26.2592996235
 30
0.0
  0
VERTEX
  5
19D8
  8
3
 10
41.4444592392
 20
-26.43194517270001
 30
0.0
  0
VERTEX
  5
19D9
  8
3
 10
41.91417442239998
 20
-26.6850614585
 30
0.0
  0
VERTEX
  5
19DA
  8
3
 10
42.21380680789997
 20
-26.9961579884
 30
0.0
  0
VERTEX
  5
19DB
  8
3
 10
42.31673274349998
 20
-27.33759247030002
 30
0.0
  0
SEQEND
  5
1F8D
  8
3
  0
POLYLINE
  5
1050
  8
3
 66
     1
 10
0.0
 20
0.0
 30
0.0
  0
VERTEX
  5
19DC
  8
3
 10
37.94499999999999
 20
-27.4963065558
 30
0.0
  0
VERTEX
  5
19DD
  8
3
 10
38.04557885899999
 20
-27.17879159410001
 30
0.0
  0
VERTEX
  5
19DE
  8
3
 10
38.33747007659997
 20
-26.8923572091
 30
0.0
  0
VERTEX
  5
19DF
  8
3
 10
38.79210130659999
 20
-26.66504159409999
 30
0.0
  0
VERTEX
  5
19E0
  8
3
 10
39.3649700766
 20
-26.5190959853
 30
0.0
  0
VERTEX
  5
19E1
  8
3
 10
40.0
 20
-26.46880655579997
 30
0.0
  0
VERTEX
  5
19E2
  8
3
 10
40.63502992349999
 20
-26.5190959853
 30
0.0
  0
VERTEX
  5
19E3
  8
3
 10
41.2078986935
 20
-26.66504159409999
 30
0.0
  0
VERTEX
  5
19E4
  8
3
 10
41.66252992350002
 20
-26.8923572091
 30
0.0
  0
VERTEX
  5
19E5
  8
3
 10
41.95442114100001
 20
-27.17879159410001
 30
0.0
  0
VERTEX
  5
19E6
  8
3
 10
42.05500000000001
 20
-27.4963065558
 30
0.0
  0
VERTEX
  5
19E7
  8
3
 10
41.95442114100001
 20
-27.8138215175
 30
0.0
  0
VERTEX
  5
19E8
  8
3
 10
41.66252992350002
 20
-28.10025590250001
 30
0.0
  0
VERTEX
  5
19E9
  8
3
 10
41.2078986935
 20
-28.32757151750002
 30
0.0
  0
VERTEX
  5
19EA
  8
3
 10
40.63502992349999
 20
-28.47351712630001
 30
0.0
  0
VERTEX
  5
19EB
  8
3
 10
40.0
 20
-28.52380655579998
 30
0.0
  0
VERTEX
  5
19EC
  8
3
 10
39.3649700766
 20
-28.47351712630001
 30
0.0
  0
VERTEX
  5
19ED
  8
3
 10
38.79210130659999
 20
-28.32757151750002
 30
0.0
  0
VERTEX
  5
19EE
  8
3
 10
38.33747007659997
 20
-28.10025590250001
 30
0.0
  0
VERTEX
  5
19EF
  8
3
 10
38.04557885899999
 20
-27.8138215175
 30
0.0
  0
VERTEX
  5
19F0
  8
3
 10
37.94499999999999
 20
-27.4963065558
 30
0.0
  0
SEQEND
  5
1F8C
  8
3
  0
POLYLINE
  5
1051
  8
3
 66
     1
 10
0.0
 20
0.0
 30
0.0
  0
VERTEX
  5
19F1
  8
3
 10
37.5
 20
-27.7661534504
 30
0.0
  0
VERTEX
  5
19F2
  8
3
 10
37.60126756599999
 20
-27.41398775440001
 30
0.0
  0
VERTEX
  5
19F3
  8
3
 10
37.89686616789999
 20
-27.0903524286
 30
0.0
  0
VERTEX
  5
19F4
  8
3
 10
38.36284816519998
 20
-26.8214664825
 30
0.0
  0
VERTEX
  5
19F5
  8
3
 10
38.96146246749998
 20
-26.6291134562
 30
0.0
  0
VERTEX
  5
19F6
  8
3
 10
39.64421290429999
 20
-26.52887664809998
 30
0.0
  0
VERTEX
  5
19F7
  8
3
 10
40.35578709570001
 20
-26.52887664809998
 30
0.0
  0
VERTEX
  5
19F8
  8
3
 10
41.03853753250002
 20
-26.6291134562
 30
0.0
  0
VERTEX
  5
19F9
  8
3
 10
41.63715183490001
 20
-26.8214664825
 30
0.0
  0
VERTEX
  5
19FA
  8
3
 10
42.10313383210001
 20
-27.0903524286
 30
0.0
  0
VERTEX
  5
19FB
  8
3
 10
42.3987324341
 20
-27.41398775440001
 30
0.0
  0
VERTEX
  5
19FC
  8
3
 10
42.5
 20
-27.7661534504
 30
0.0
  0
VERTEX
  5
19FD
  8
3
 10
42.3987324341
 20
-28.11831914650003
 30
0.0
  0
VERTEX
  5
19FE
  8
3
 10
42.10313383210001
 20
-28.4419544722
 30
0.0
  0
VERTEX
  5
19FF
  8
3
 10
41.63715183490001
 20
-28.71084041839998
 30
0.0
  0
VERTEX
  5
1A00
  8
3
 10
41.03853753250002
 20
-28.90319344459999
 30
0.0
  0
VERTEX
  5
1A01
  8
3
 10
40.35578709570001
 20
-29.0034302528
 30
0.0
  0
VERTEX
  5
1A02
  8
3
 10
39.64421290429999
 20
-29.0034302528
 30
0.0
  0
VERTEX
  5
1A03
  8
3
 10
38.96146246749998
 20
-28.90319344459999
 30
0.0
  0
VERTEX
  5
1A04
  8
3
 10
38.36284816519998
 20
-28.71084041839998
 30
0.0
  0
VERTEX
  5
1A05
  8
3
 10
37.89686616789999
 20
-28.4419544722
 30
0.0
  0
VERTEX
  5
1A06
  8
3
 10
37.60126756599999
 20
-28.11831914650003
 30
0.0
  0
VERTEX
  5
1A07
  8
3
 10
37.5
 20
-27.7661534504
 30
0.0
  0
SEQEND
  5
1F8B
  8
3
  0
POLYLINE
  5
1052
  8
3
 66
     1
 10
0.0
 20
0.0
 30
0.0
  0
VERTEX
  5
1A08
  8
3
 10
37.5
 20
-27.84419300180002
 30
0.0
  0
VERTEX
  5
1A09
  8
3
 10
37.60126756599999
 20
-27.49202730569999
 30
0.0
  0
VERTEX
  5
1A0A
  8
3
 10
37.89686616789999
 20
-27.16839197989998
 30
0.0
  0
VERTEX
  5
1A0B
  8
3
 10
38.36284816519998
 20
-26.89950603379998
 30
0.0
  0
VERTEX
  5
1A0C
  8
3
 10
38.96146246749998
 20
-26.70715300760003
 30
0.0
  0
VERTEX
  5
1A0D
  8
3
 10
39.64421290429999
 20
-26.60691619940002
 30
0.0
  0
VERTEX
  5
1A0E
  8
3
 10
40.35578709570001
 20
-26.60691619940002
 30
0.0
  0
VERTEX
  5
1A0F
  8
3
 10
41.03853753250002
 20
-26.70715300760003
 30
0.0
  0
VERTEX
  5
1A10
  8
3
 10
41.63715183490001
 20
-26.89950603379998
 30
0.0
  0
VERTEX
  5
1A11
  8
3
 10
42.10313383210001
 20
-27.16839197989998
 30
0.0
  0
VERTEX
  5
1A12
  8
3
 10
42.3987324341
 20
-27.49202730569999
 30
0.0
  0
VERTEX
  5
1A13
  8
3
 10
42.5
 20
-27.84419300180002
 30
0.0
  0
VERTEX
  5
1A14
  8
3
 10
42.3987324341
 20
-28.19635869780001
 30
0.0
  0
VERTEX
  5
1A15
  8
3
 10
42.10313383210001
 20
-28.51999402360002
 30
0.0
  0
VERTEX
  5
1A16
  8
3
 10
41.63715183490001
 20
-28.78887996970002
 30
0.0
  0
VERTEX
  5
1A17
  8
3
 10
41.03853753250002
 20
-28.98123299600002
 30
0.0
  0
VERTEX
  5
1A18
  8
3
 10
40.35578709570001
 20
-29.08146980409998
 30
0.0
  0
VERTEX
  5
1A19
  8
3
 10
39.64421290429999
 20
-29.08146980409998
 30
0.0
  0
VERTEX
  5
1A1A
  8
3
 10
38.96146246749998
 20
-28.98123299600002
 30
0.0
  0
VERTEX
  5
1A1B
  8
3
 10
38.36284816519998
 20
-28.78887996970002
 30
0.0
  0
VERTEX
  5
1A1C
  8
3
 10
37.89686616789999
 20
-28.51999402360002
 30
0.0
  0
VERTEX
  5
1A1D
  8
3
 10
37.60126756599999
 20
-28.19635869780001
 30
0.0
  0
VERTEX
  5
1A1E
  8
3
 10
37.5
 20
-27.84419300180002
 30
0.0
  0
SEQEND
  5
1F8A
  8
3
  0
POLYLINE
  5
1053
  8
3
 66
     1
 10
0.0
 20
0.0
 30
0.0
  0
VERTEX
  5
1A1F
  8
3
 10
37.94499999999999
 20
-28.11403989640002
 30
0.0
  0
VERTEX
  5
1A20
  8
3
 10
38.04557885899999
 20
-27.79652493470002
 30
0.0
  0
VERTEX
  5
1A21
  8
3
 10
38.33747007659997
 20
-27.51009054970001
 30
0.0
  0
VERTEX
  5
1A22
  8
3
 10
38.79210130659999
 20
-27.2827749347
 30
0.0
  0
VERTEX
  5
1A23
  8
3
 10
39.3649700766
 20
-27.13682932590001
 30
0.0
  0
VERTEX
  5
1A24
  8
3
 10
40.0
 20
-27.08653989639998
 30
0.0
  0
VERTEX
  5
1A25
  8
3
 10
40.63502992349999
 20
-27.13682932590001
 30
0.0
  0
VERTEX
  5
1A26
  8
3
 10
41.2078986935
 20
-27.2827749347
 30
0.0
  0
VERTEX
  5
1A27
  8
3
 10
41.66252992350002
 20
-27.51009054970001
 30
0.0
  0
VERTEX
  5
1A28
  8
3
 10
41.95442114100001
 20
-27.79652493470002
 30
0.0
  0
VERTEX
  5
1A29
  8
3
 10
42.05500000000001
 20
-28.11403989640002
 30
0.0
  0
VERTEX
  5
1A2A
  8
3
 10
41.95442114100001
 20
-28.43155485810001
 30
0.0
  0
VERTEX
  5
1A2B
  8
3
 10
41.66252992350002
 20
-28.71798924310002
 30
0.0
  0
VERTEX
  5
1A2C
  8
3
 10
41.2078986935
 20
-28.94530485809997
 30
0.0
  0
VERTEX
  5
1A2D
  8
3
 10
40.63502992349999
 20
-29.09125046690002
 30
0.0
  0
VERTEX
  5
1A2E
  8
3
 10
40.0
 20
-29.14153989639999
 30
0.0
  0
VERTEX
  5
1A2F
  8
3
 10
39.3649700766
 20
-29.09125046690002
 30
0.0
  0
VERTEX
  5
1A30
  8
3
 10
38.79210130659999
 20
-28.94530485809997
 30
0.0
  0
VERTEX
  5
1A31
  8
3
 10
38.33747007659997
 20
-28.71798924310002
 30
0.0
  0
VERTEX
  5
1A32
  8
3
 10
38.04557885899999
 20
-28.43155485810001
 30
0.0
  0
VERTEX
  5
1A33
  8
3
 10
37.94499999999999
 20
-28.11403989640002
 30
0.0
  0
SEQEND
  5
1F89
  8
3
  0
POLYLINE
  5
1054
  8
3
 66
     1
 10
0.0
 20
0.0
 30
0.0
  0
VERTEX
  5
1A34
  8
3
 10
37.5
 20
-28.38388679100001
 30
0.0
  0
VERTEX
  5
1A35
  8
3
 10
37.60126756599999
 20
-28.03172109500002
 30
0.0
  0
VERTEX
  5
1A36
  8
3
 10
37.89686616789999
 20
-27.70808576920001
 30
0.0
  0
VERTEX
  5
1A37
  8
3
 10
38.36284816519998
 20
-27.43919982310001
 30
0.0
  0
VERTEX
  5
1A38
  8
3
 10
38.96146246749998
 20
-27.24684679680001
 30
0.0
  0
VERTEX
  5
1A39
  8
3
 10
39.64421290429999
 20
-27.14660998869999
 30
0.0
  0
VERTEX
  5
1A3A
  8
3
 10
40.35578709570001
 20
-27.14660998869999
 30
0.0
  0
VERTEX
  5
1A3B
  8
3
 10
41.03853753250002
 20
-27.24684679680001
 30
0.0
  0
VERTEX
  5
1A3C
  8
3
 10
41.63715183490001
 20
-27.43919982310001
 30
0.0
  0
VERTEX
  5
1A3D
  8
3
 10
42.10313383210001
 20
-27.70808576920001
 30
0.0
  0
VERTEX
  5
1A3E
  8
3
 10
42.3987324341
 20
-28.03172109500002
 30
0.0
  0
VERTEX
  5
1A3F
  8
3
 10
42.5
 20
-28.38388679100001
 30
0.0
  0
VERTEX
  5
1A40
  8
3
 10
42.3987324341
 20
-28.73605248709998
 30
0.0
  0
VERTEX
  5
1A41
  8
3
 10
42.10313383210001
 20
-29.05968781280001
 30
0.0
  0
VERTEX
  5
1A42
  8
3
 10
41.63715183490001
 20
-29.32857375899999
 30
0.0
  0
VERTEX
  5
1A43
  8
3
 10
41.03853753250002
 20
-29.5209267852
 30
0.0
  0
VERTEX
  5
1A44
  8
3
 10
40.35578709570001
 20
-29.62116359340001
 30
0.0
  0
VERTEX
  5
1A45
  8
3
 10
39.64421290429999
 20
-29.62116359340001
 30
0.0
  0
VERTEX
  5
1A46
  8
3
 10
38.96146246749998
 20
-29.5209267852
 30
0.0
  0
VERTEX
  5
1A47
  8
3
 10
38.36284816519998
 20
-29.32857375899999
 30
0.0
  0
VERTEX
  5
1A48
  8
3
 10
37.89686616789999
 20
-29.05968781280001
 30
0.0
  0
VERTEX
  5
1A49
  8
3
 10
37.60126756599999
 20
-28.73605248709998
 30
0.0
  0
VERTEX
  5
1A4A
  8
3
 10
37.5
 20
-28.38388679100001
 30
0.0
  0
SEQEND
  5
1F88
  8
3
  0
POLYLINE
  5
1055
  8
3
 66
     1
 10
0.0
 20
0.0
 30
0.0
  0
VERTEX
  5
1A4B
  8
3
 10
37.5
 20
-28.46192634239998
 30
0.0
  0
VERTEX
  5
1A4C
  8
3
 10
37.60126756599999
 20
-28.1097606463
 30
0.0
  0
VERTEX
  5
1A4D
  8
3
 10
37.89686616789999
 20
-27.78612532059998
 30
0.0
  0
VERTEX
  5
1A4E
  8
3
 10
38.36284816519998
 20
-27.51723937439999
 30
0.0
  0
VERTEX
  5
1A4F
  8
3
 10
38.96146246749998
 20
-27.32488634819998
 30
0.0
  0
VERTEX
  5
1A50
  8
3
 10
39.64421290429999
 20
-27.22464953999997
 30
0.0
  0
VERTEX
  5
1A51
  8
3
 10
40.35578709570001
 20
-27.22464953999997
 30
0.0
  0
VERTEX
  5
1A52
  8
3
 10
41.03853753250002
 20
-27.32488634819998
 30
0.0
  0
VERTEX
  5
1A53
  8
3
 10
41.63715183490001
 20
-27.51723937439999
 30
0.0
  0
VERTEX
  5
1A54
  8
3
 10
42.10313383210001
 20
-27.78612532059998
 30
0.0
  0
VERTEX
  5
1A55
  8
3
 10
42.3987324341
 20
-28.1097606463
 30
0.0
  0
VERTEX
  5
1A56
  8
3
 10
42.5
 20
-28.46192634239998
 30
0.0
  0
VERTEX
  5
1A57
  8
3
 10
42.3987324341
 20
-28.81409203840002
 30
0.0
  0
VERTEX
  5
1A58
  8
3
 10
42.10313383210001
 20
-29.13772736419997
 30
0.0
  0
VERTEX
  5
1A59
  8
3
 10
41.63715183490001
 20
-29.40661331029997
 30
0.0
  0
VERTEX
  5
1A5A
  8
3
 10
41.03853753250002
 20
-29.59896633659997
 30
0.0
  0
VERTEX
  5
1A5B
  8
3
 10
40.35578709570001
 20
-29.69920314469999
 30
0.0
  0
VERTEX
  5
1A5C
  8
3
 10
39.64421290429999
 20
-29.69920314469999
 30
0.0
  0
VERTEX
  5
1A5D
  8
3
 10
38.96146246749998
 20
-29.59896633659997
 30
0.0
  0
VERTEX
  5
1A5E
  8
3
 10
38.36284816519998
 20
-29.40661331029997
 30
0.0
  0
VERTEX
  5
1A5F
  8
3
 10
37.89686616789999
 20
-29.13772736419997
 30
0.0
  0
VERTEX
  5
1A60
  8
3
 10
37.60126756599999
 20
-28.81409203840002
 30
0.0
  0
VERTEX
  5
1A61
  8
3
 10
37.5
 20
-28.46192634239998
 30
0.0
  0
SEQEND
  5
1F87
  8
3
  0
POLYLINE
  5
1056
  8
3
 66
     1
 10
0.0
 20
0.0
 30
0.0
  0
VERTEX
  5
1A62
  8
3
 10
37.94499999999999
 20
-28.73177323700003
 30
0.0
  0
VERTEX
  5
1A63
  8
3
 10
38.04557885899999
 20
-28.41425827529997
 30
0.0
  0
VERTEX
  5
1A64
  8
3
 10
38.33747007659997
 20
-28.12782389030002
 30
0.0
  0
VERTEX
  5
1A65
  8
3
 10
38.79210130659999
 20
-27.90050827530001
 30
0.0
  0
VERTEX
  5
1A66
  8
3
 10
39.3649700766
 20
-27.75456266650002
 30
0.0
  0
VERTEX
  5
1A67
  8
3
 10
40.0
 20
-27.704273237
 30
0.0
  0
VERTEX
  5
1A68
  8
3
 10
40.63502992349999
 20
-27.75456266650002
 30
0.0
  0
VERTEX
  5
1A69
  8
3
 10
41.2078986935
 20
-27.90050827530001
 30
0.0
  0
VERTEX
  5
1A6A
  8
3
 10
41.66252992350002
 20
-28.12782389030002
 30
0.0
  0
VERTEX
  5
1A6B
  8
3
 10
41.95442114100001
 20
-28.41425827529997
 30
0.0
  0
VERTEX
  5
1A6C
  8
3
 10
42.05500000000001
 20
-28.73177323700003
 30
0.0
  0
VERTEX
  5
1A6D
  8
3
 10
41.95442114100001
 20
-29.04928819870003
 30
0.0
  0
VERTEX
  5
1A6E
  8
3
 10
41.66252992350002
 20
-29.33572258369998
 30
0.0
  0
VERTEX
  5
1A6F
  8
3
 10
41.2078986935
 20
-29.56303819869999
 30
0.0
  0
VERTEX
  5
1A70
  8
3
 10
40.63502992349999
 20
-29.70898380749998
 30
0.0
  0
VERTEX
  5
1A71
  8
3
 10
40.0
 20
-29.759273237
 30
0.0
  0
VERTEX
  5
1A72
  8
3
 10
39.3649700766
 20
-29.70898380749998
 30
0.0
  0
VERTEX
  5
1A73
  8
3
 10
38.79210130659999
 20
-29.56303819869999
 30
0.0
  0
VERTEX
  5
1A74
  8
3
 10
38.33747007659997
 20
-29.33572258369998
 30
0.0
  0
VERTEX
  5
1A75
  8
3
 10
38.04557885899999
 20
-29.04928819870003
 30
0.0
  0
VERTEX
  5
1A76
  8
3
 10
37.94499999999999
 20
-28.73177323700003
 30
0.0
  0
SEQEND
  5
1F86
  8
3
  0
POLYLINE
  5
1057
  8
3
 66
     1
 10
0.0
 20
0.0
 30
0.0
  0
VERTEX
  5
1A77
  8
3
 10
37.5
 20
-29.00162013160002
 30
0.0
  0
VERTEX
  5
1A78
  8
3
 10
37.60126756599999
 20
-28.64945443559998
 30
0.0
  0
VERTEX
  5
1A79
  8
3
 10
37.89686616789999
 20
-28.32581910980002
 30
0.0
  0
VERTEX
  5
1A7A
  8
3
 10
38.36284816519998
 20
-28.05693316370002
 30
0.0
  0
VERTEX
  5
1A7B
  8
3
 10
38.96146246749998
 20
-27.86458013740003
 30
0.0
  0
VERTEX
  5
1A7C
  8
3
 10
39.64421290429999
 20
-27.7643433293
 30
0.0
  0
VERTEX
  5
1A7D
  8
3
 10
40.35578709570001
 20
-27.7643433293
 30
0.0
  0
VERTEX
  5
1A7E
  8
3
 10
41.03853753250002
 20
-27.86458013740003
 30
0.0
  0
VERTEX
  5
1A7F
  8
3
 10
41.63715183490001
 20
-28.05693316370002
 30
0.0
  0
VERTEX
  5
1A80
  8
3
 10
42.10313383210001
 20
-28.32581910980002
 30
0.0
  0
VERTEX
  5
1A81
  8
3
 10
42.3987324341
 20
-28.64945443559998
 30
0.0
  0
VERTEX
  5
1A82
  8
3
 10
42.5
 20
-29.00162013160002
 30
0.0
  0
VERTEX
  5
1A83
  8
3
 10
42.3987324341
 20
-29.35378582769999
 30
0.0
  0
VERTEX
  5
1A84
  8
3
 10
42.10313383210001
 20
-29.67742115340002
 30
0.0
  0
VERTEX
  5
1A85
  8
3
 10
41.63715183490001
 20
-29.94630709960001
 30
0.0
  0
VERTEX
  5
1A86
  8
3
 10
41.03853753250002
 20
-30.13866012580002
 30
0.0
  0
VERTEX
  5
1A87
  8
3
 10
40.35578709570001
 20
-30.23889693400002
 30
0.0
  0
VERTEX
  5
1A88
  8
3
 10
39.64421290429999
 20
-30.23889693400002
 30
0.0
  0
VERTEX
  5
1A89
  8
3
 10
38.96146246749998
 20
-30.13866012580002
 30
0.0
  0
VERTEX
  5
1A8A
  8
3
 10
38.36284816519998
 20
-29.94630709960001
 30
0.0
  0
VERTEX
  5
1A8B
  8
3
 10
37.89686616789999
 20
-29.67742115340002
 30
0.0
  0
VERTEX
  5
1A8C
  8
3
 10
37.60126756599999
 20
-29.35378582769999
 30
0.0
  0
VERTEX
  5
1A8D
  8
3
 10
37.5
 20
-29.00162013160002
 30
0.0
  0
SEQEND
  5
1F85
  8
3
  0
POLYLINE
  5
1058
  8
3
 66
     1
 10
0.0
 20
0.0
 30
0.0
  0
VERTEX
  5
1A8E
  8
3
 10
37.5
 20
-29.07965968299999
 30
0.0
  0
VERTEX
  5
1A8F
  8
3
 10
37.60126756599999
 20
-28.72749398690001
 30
0.0
  0
VERTEX
  5
1A90
  8
3
 10
37.89686616789999
 20
-28.40385866119999
 30
0.0
  0
VERTEX
  5
1A91
  8
3
 10
38.36284816519998
 20
-28.134972715
 30
0.0
  0
VERTEX
  5
1A92
  8
3
 10
38.96146246749998
 20
-27.94261968879999
 30
0.0
  0
VERTEX
  5
1A93
  8
3
 10
39.64421290429999
 20
-27.84238288059998
 30
0.0
  0
VERTEX
  5
1A94
  8
3
 10
40.35578709570001
 20
-27.84238288059998
 30
0.0
  0
VERTEX
  5
1A95
  8
3
 10
41.03853753250002
 20
-27.94261968879999
 30
0.0
  0
VERTEX
  5
1A96
  8
3
 10
41.63715183490001
 20
-28.134972715
 30
0.0
  0
VERTEX
  5
1A97
  8
3
 10
42.10313383210001
 20
-28.40385866119999
 30
0.0
  0
VERTEX
  5
1A98
  8
3
 10
42.3987324341
 20
-28.72749398690001
 30
0.0
  0
VERTEX
  5
1A99
  8
3
 10
42.5
 20
-29.07965968299999
 30
0.0
  0
VERTEX
  5
1A9A
  8
3
 10
42.3987324341
 20
-29.43182537899997
 30
0.0
  0
VERTEX
  5
1A9B
  8
3
 10
42.10313383210001
 20
-29.75546070479999
 30
0.0
  0
VERTEX
  5
1A9C
  8
3
 10
41.63715183490001
 20
-30.02434665089999
 30
0.0
  0
VERTEX
  5
1A9D
  8
3
 10
41.03853753250002
 20
-30.21669967719998
 30
0.0
  0
VERTEX
  5
1A9E
  8
3
 10
40.35578709570001
 20
-30.3169364853
 30
0.0
  0
VERTEX
  5
1A9F
  8
3
 10
39.64421290429999
 20
-30.3169364853
 30
0.0
  0
VERTEX
  5
1AA0
  8
3
 10
38.96146246749998
 20
-30.21669967719998
 30
0.0
  0
VERTEX
  5
1AA1
  8
3
 10
38.36284816519998
 20
-30.02434665089999
 30
0.0
  0
VERTEX
  5
1AA2
  8
3
 10
37.89686616789999
 20
-29.75546070479999
 30
0.0
  0
VERTEX
  5
1AA3
  8
3
 10
37.60126756599999
 20
-29.43182537899997
 30
0.0
  0
VERTEX
  5
1AA4
  8
3
 10
37.5
 20
-29.07965968299999
 30
0.0
  0
SEQEND
  5
1F84
  8
3
  0
POLYLINE
  5
1059
  8
3
 66
     1
 10
0.0
 20
0.0
 30
0.0
  0
VERTEX
  5
1AA5
  8
3
 10
37.94499999999999
 20
-29.34950657759998
 30
0.0
  0
VERTEX
  5
1AA6
  8
3
 10
38.04557885899999
 20
-29.03199161589998
 30
0.0
  0
VERTEX
  5
1AA7
  8
3
 10
38.33747007659997
 20
-28.74555723089998
 30
0.0
  0
VERTEX
  5
1AA8
  8
3
 10
38.79210130659999
 20
-28.51824161590002
 30
0.0
  0
VERTEX
  5
1AA9
  8
3
 10
39.3649700766
 20
-28.37229600709998
 30
0.0
  0
VERTEX
  5
1AAA
  8
3
 10
40.0
 20
-28.32200657760001
 30
0.0
  0
VERTEX
  5
1AAB
  8
3
 10
40.63502992349999
 20
-28.37229600709998
 30
0.0
  0
VERTEX
  5
1AAC
  8
3
 10
41.2078986935
 20
-28.51824161590002
 30
0.0
  0
VERTEX
  5
1AAD
  8
3
 10
41.66252992350002
 20
-28.74555723089998
 30
0.0
  0
VERTEX
  5
1AAE
  8
3
 10
41.95442114100001
 20
-29.03199161589998
 30
0.0
  0
VERTEX
  5
1AAF
  8
3
 10
42.05500000000001
 20
-29.34950657759998
 30
0.0
  0
VERTEX
  5
1AB0
  8
3
 10
41.95442114100001
 20
-29.66702153929998
 30
0.0
  0
VERTEX
  5
1AB1
  8
3
 10
41.66252992350002
 20
-29.95345592429999
 30
0.0
  0
VERTEX
  5
1AB2
  8
3
 10
41.2078986935
 20
-30.1807715393
 30
0.0
  0
VERTEX
  5
1AB3
  8
3
 10
40.63502992349999
 20
-30.32671714809999
 30
0.0
  0
VERTEX
  5
1AB4
  8
3
 10
40.0
 20
-30.37700657760001
 30
0.0
  0
VERTEX
  5
1AB5
  8
3
 10
39.3649700766
 20
-30.32671714809999
 30
0.0
  0
VERTEX
  5
1AB6
  8
3
 10
38.79210130659999
 20
-30.1807715393
 30
0.0
  0
VERTEX
  5
1AB7
  8
3
 10
38.33747007659997
 20
-29.95345592429999
 30
0.0
  0
VERTEX
  5
1AB8
  8
3
 10
38.04557885899999
 20
-29.66702153929998
 30
0.0
  0
VERTEX
  5
1AB9
  8
3
 10
37.94499999999999
 20
-29.34950657759998
 30
0.0
  0
SEQEND
  5
1F83
  8
3
  0
POLYLINE
  5
105A
  8
3
 66
     1
 10
0.0
 20
0.0
 30
0.0
  0
VERTEX
  5
1ABA
  8
3
 10
37.5
 20
-29.61935347219998
 30
0.0
  0
VERTEX
  5
1ABB
  8
3
 10
37.60126756599999
 20
-29.26718777619999
 30
0.0
  0
VERTEX
  5
1ABC
  8
3
 10
37.89686616789999
 20
-28.94355245039998
 30
0.0
  0
VERTEX
  5
1ABD
  8
3
 10
38.36284816519998
 20
-28.67466650429998
 30
0.0
  0
VERTEX
  5
1ABE
  8
3
 10
38.96146246749998
 20
-28.48231347799998
 30
0.0
  0
VERTEX
  5
1ABF
  8
3
 10
39.64421290429999
 20
-28.38207666990002
 30
0.0
  0
VERTEX
  5
1AC0
  8
3
 10
40.35578709570001
 20
-28.38207666990002
 30
0.0
  0
VERTEX
  5
1AC1
  8
3
 10
41.03853753250002
 20
-28.48231347799998
 30
0.0
  0
VERTEX
  5
1AC2
  8
3
 10
41.63715183490001
 20
-28.67466650429998
 30
0.0
  0
VERTEX
  5
1AC3
  8
3
 10
42.10313383210001
 20
-28.94355245039998
 30
0.0
  0
VERTEX
  5
1AC4
  8
3
 10
42.3987324341
 20
-29.26718777619999
 30
0.0
  0
VERTEX
  5
1AC5
  8
3
 10
42.5
 20
-29.61935347219998
 30
0.0
  0
VERTEX
  5
1AC6
  8
3
 10
42.3987324341
 20
-29.97151916830001
 30
0.0
  0
VERTEX
  5
1AC7
  8
3
 10
42.10313383210001
 20
-30.29515449399997
 30
0.0
  0
VERTEX
  5
1AC8
  8
3
 10
41.63715183490001
 20
-30.56404044020002
 30
0.0
  0
VERTEX
  5
1AC9
  8
3
 10
41.03853753250002
 20
-30.75639346640003
 30
0.0
  0
VERTEX
  5
1ACA
  8
3
 10
40.35578709570001
 20
-30.85663027459998
 30
0.0
  0
VERTEX
  5
1ACB
  8
3
 10
39.64421290429999
 20
-30.85663027459998
 30
0.0
  0
VERTEX
  5
1ACC
  8
3
 10
38.96146246749998
 20
-30.75639346640003
 30
0.0
  0
VERTEX
  5
1ACD
  8
3
 10
38.36284816519998
 20
-30.56404044020002
 30
0.0
  0
VERTEX
  5
1ACE
  8
3
 10
37.89686616789999
 20
-30.29515449399997
 30
0.0
  0
VERTEX
  5
1ACF
  8
3
 10
37.60126756599999
 20
-29.97151916830001
 30
0.0
  0
VERTEX
  5
1AD0
  8
3
 10
37.5
 20
-29.61935347219998
 30
0.0
  0
SEQEND
  5
1F82
  8
3
  0
POLYLINE
  5
105B
  8
3
 66
     1
 10
0.0
 20
0.0
 30
0.0
  0
VERTEX
  5
1AD1
  8
3
 10
37.5
 20
-29.6973930236
 30
0.0
  0
VERTEX
  5
1AD2
  8
3
 10
37.60126756599999
 20
-29.34522732750003
 30
0.0
  0
VERTEX
  5
1AD3
  8
3
 10
37.89686616789999
 20
-29.0215920018
 30
0.0
  0
VERTEX
  5
1AD4
  8
3
 10
38.36284816519998
 20
-28.75270605560002
 30
0.0
  0
VERTEX
  5
1AD5
  8
3
 10
38.96146246749998
 20
-28.56035302940001
 30
0.0
  0
VERTEX
  5
1AD6
  8
3
 10
39.64421290429999
 20
-28.4601162212
 30
0.0
  0
VERTEX
  5
1AD7
  8
3
 10
40.35578709570001
 20
-28.4601162212
 30
0.0
  0
VERTEX
  5
1AD8
  8
3
 10
41.03853753250002
 20
-28.56035302940001
 30
0.0
  0
VERTEX
  5
1AD9
  8
3
 10
41.63715183490001
 20
-28.75270605560002
 30
0.0
  0
VERTEX
  5
1ADA
  8
3
 10
42.10313383210001
 20
-29.0215920018
 30
0.0
  0
VERTEX
  5
1ADB
  8
3
 10
42.3987324341
 20
-29.34522732750003
 30
0.0
  0
VERTEX
  5
1ADC
  8
3
 10
42.5
 20
-29.6973930236
 30
0.0
  0
VERTEX
  5
1ADD
  8
3
 10
42.3987324341
 20
-30.04955871959999
 30
0.0
  0
VERTEX
  5
1ADE
  8
3
 10
42.10313383210001
 20
-30.3731940454
 30
0.0
  0
VERTEX
  5
1ADF
  8
3
 10
41.63715183490001
 20
-30.6420799915
 30
0.0
  0
VERTEX
  5
1AE0
  8
3
 10
41.03853753250002
 20
-30.8344330178
 30
0.0
  0
VERTEX
  5
1AE1
  8
3
 10
40.35578709570001
 20
-30.93466982590002
 30
0.0
  0
VERTEX
  5
1AE2
  8
3
 10
39.64421290429999
 20
-30.93466982590002
 30
0.0
  0
VERTEX
  5
1AE3
  8
3
 10
38.96146246749998
 20
-30.8344330178
 30
0.0
  0
VERTEX
  5
1AE4
  8
3
 10
38.36284816519998
 20
-30.6420799915
 30
0.0
  0
VERTEX
  5
1AE5
  8
3
 10
37.89686616789999
 20
-30.3731940454
 30
0.0
  0
VERTEX
  5
1AE6
  8
3
 10
37.60126756599999
 20
-30.04955871959999
 30
0.0
  0
VERTEX
  5
1AE7
  8
3
 10
37.5
 20
-29.6973930236
 30
0.0
  0
SEQEND
  5
1F81
  8
3
  0
POLYLINE
  5
105C
  8
3
 66
     1
 10
0.0
 20
0.0
 30
0.0
  0
VERTEX
  5
1AE8
  8
3
 10
37.94499999999999
 20
-29.96723991819999
 30
0.0
  0
VERTEX
  5
1AE9
  8
3
 10
38.04557885899999
 20
-29.64972495649999
 30
0.0
  0
VERTEX
  5
1AEA
  8
3
 10
38.33747007659997
 20
-29.36329057149999
 30
0.0
  0
VERTEX
  5
1AEB
  8
3
 10
38.79210130659999
 20
-29.13597495649998
 30
0.0
  0
VERTEX
  5
1AEC
  8
3
 10
39.3649700766
 20
-28.99002934769999
 30
0.0
  0
VERTEX
  5
1AED
  8
3
 10
40.0
 20
-28.93973991820002
 30
0.0
  0
VERTEX
  5
1AEE
  8
3
 10
40.63502992349999
 20
-28.99002934769999
 30
0.0
  0
VERTEX
  5
1AEF
  8
3
 10
41.2078986935
 20
-29.13597495649998
 30
0.0
  0
VERTEX
  5
1AF0
  8
3
 10
41.66252992350002
 20
-29.36329057149999
 30
0.0
  0
VERTEX
  5
1AF1
  8
3
 10
41.95442114100001
 20
-29.64972495649999
 30
0.0
  0
VERTEX
  5
1AF2
  8
3
 10
42.05500000000001
 20
-29.96723991819999
 30
0.0
  0
VERTEX
  5
1AF3
  8
3
 10
41.95442114100001
 20
-30.28475487989999
 30
0.0
  0
VERTEX
  5
1AF4
  8
3
 10
41.66252992350002
 20
-30.5711892649
 30
0.0
  0
VERTEX
  5
1AF5
  8
3
 10
41.2078986935
 20
-30.79850487990001
 30
0.0
  0
VERTEX
  5
1AF6
  8
3
 10
40.63502992349999
 20
-30.9444504887
 30
0.0
  0
VERTEX
  5
1AF7
  8
3
 10
40.0
 20
-30.99473991820003
 30
0.0
  0
VERTEX
  5
1AF8
  8
3
 10
39.3649700766
 20
-30.9444504887
 30
0.0
  0
VERTEX
  5
1AF9
  8
3
 10
38.79210130659999
 20
-30.79850487990001
 30
0.0
  0
VERTEX
  5
1AFA
  8
3
 10
38.33747007659997
 20
-30.5711892649
 30
0.0
  0
VERTEX
  5
1AFB
  8
3
 10
38.04557885899999
 20
-30.28475487989999
 30
0.0
  0
VERTEX
  5
1AFC
  8
3
 10
37.94499999999999
 20
-29.96723991819999
 30
0.0
  0
SEQEND
  5
1F80
  8
3
  0
POLYLINE
  5
105D
  8
3
 66
     1
 10
0.0
 20
0.0
 30
0.0
  0
VERTEX
  5
1AFD
  8
3
 10
37.5
 20
-30.23708681279999
 30
0.0
  0
VERTEX
  5
1AFE
  8
3
 10
37.60126756599999
 20
-29.8849211168
 30
0.0
  0
VERTEX
  5
1AFF
  8
3
 10
37.89686616789999
 20
-29.56128579099999
 30
0.0
  0
VERTEX
  5
1B00
  8
3
 10
38.36284816519998
 20
-29.29239984489999
 30
0.0
  0
VERTEX
  5
1B01
  8
3
 10
38.96146246749998
 20
-29.10004681859999
 30
0.0
  0
VERTEX
  5
1B02
  8
3
 10
39.64421290429999
 20
-28.99981001050003
 30
0.0
  0
VERTEX
  5
1B03
  8
3
 10
40.35578709570001
 20
-28.99981001050003
 30
0.0
  0
VERTEX
  5
1B04
  8
3
 10
41.03853753250002
 20
-29.10004681859999
 30
0.0
  0
VERTEX
  5
1B05
  8
3
 10
41.63715183490001
 20
-29.29239984489999
 30
0.0
  0
VERTEX
  5
1B06
  8
3
 10
42.10313383210001
 20
-29.56128579099999
 30
0.0
  0
VERTEX
  5
1B07
  8
3
 10
42.3987324341
 20
-29.8849211168
 30
0.0
  0
VERTEX
  5
1B08
  8
3
 10
42.5
 20
-30.23708681279999
 30
0.0
  0
VERTEX
  5
1B09
  8
3
 10
42.3987324341
 20
-30.58925250890002
 30
0.0
  0
VERTEX
  5
1B0A
  8
3
 10
42.10313383210001
 20
-30.91288783459999
 30
0.0
  0
VERTEX
  5
1B0B
  8
3
 10
41.63715183490001
 20
-31.18177378079997
 30
0.0
  0
VERTEX
  5
1B0C
  8
3
 10
41.03853753250002
 20
-31.37412680699998
 30
0.0
  0
VERTEX
  5
1B0D
  8
3
 10
40.35578709570001
 20
-31.47436361519999
 30
0.0
  0
VERTEX
  5
1B0E
  8
3
 10
39.64421290429999
 20
-31.47436361519999
 30
0.0
  0
VERTEX
  5
1B0F
  8
3
 10
38.96146246749998
 20
-31.37412680699998
 30
0.0
  0
VERTEX
  5
1B10
  8
3
 10
38.36284816519998
 20
-31.18177378079997
 30
0.0
  0
VERTEX
  5
1B11
  8
3
 10
37.89686616789999
 20
-30.91288783459999
 30
0.0
  0
VERTEX
  5
1B12
  8
3
 10
37.60126756599999
 20
-30.58925250890002
 30
0.0
  0
VERTEX
  5
1B13
  8
3
 10
37.5
 20
-30.23708681279999
 30
0.0
  0
SEQEND
  5
1F7F
  8
3
  0
POLYLINE
  5
105E
  8
3
 66
     1
 10
0.0
 20
0.0
 30
0.0
  0
VERTEX
  5
1B14
  8
3
 10
37.5
 20
-30.31512636420001
 30
0.0
  0
VERTEX
  5
1B15
  8
3
 10
37.60126756599999
 20
-29.96296066809998
 30
0.0
  0
VERTEX
  5
1B16
  8
3
 10
37.89686616789999
 20
-29.63932534240001
 30
0.0
  0
VERTEX
  5
1B17
  8
3
 10
38.36284816519998
 20
-29.37043939620003
 30
0.0
  0
VERTEX
  5
1B18
  8
3
 10
38.96146246749998
 20
-29.17808637000002
 30
0.0
  0
VERTEX
  5
1B19
  8
3
 10
39.64421290429999
 20
-29.07784956180001
 30
0.0
  0
VERTEX
  5
1B1A
  8
3
 10
40.35578709570001
 20
-29.07784956180001
 30
0.0
  0
VERTEX
  5
1B1B
  8
3
 10
41.03853753250002
 20
-29.17808637000002
 30
0.0
  0
VERTEX
  5
1B1C
  8
3
 10
41.63715183490001
 20
-29.37043939620003
 30
0.0
  0
VERTEX
  5
1B1D
  8
3
 10
42.10313383210001
 20
-29.63932534240001
 30
0.0
  0
VERTEX
  5
1B1E
  8
3
 10
42.3987324341
 20
-29.96296066809998
 30
0.0
  0
VERTEX
  5
1B1F
  8
3
 10
42.5
 20
-30.31512636420001
 30
0.0
  0
VERTEX
  5
1B20
  8
3
 10
42.3987324341
 20
-30.6672920602
 30
0.0
  0
VERTEX
  5
1B21
  8
3
 10
42.10313383210001
 20
-30.99092738600001
 30
0.0
  0
VERTEX
  5
1B22
  8
3
 10
41.63715183490001
 20
-31.25981333210001
 30
0.0
  0
VERTEX
  5
1B23
  8
3
 10
41.03853753250002
 20
-31.45216635840001
 30
0.0
  0
VERTEX
  5
1B24
  8
3
 10
40.35578709570001
 20
-31.55240316650003
 30
0.0
  0
VERTEX
  5
1B25
  8
3
 10
39.64421290429999
 20
-31.55240316650003
 30
0.0
  0
VERTEX
  5
1B26
  8
3
 10
38.96146246749998
 20
-31.45216635840001
 30
0.0
  0
VERTEX
  5
1B27
  8
3
 10
38.36284816519998
 20
-31.25981333210001
 30
0.0
  0
VERTEX
  5
1B28
  8
3
 10
37.89686616789999
 20
-30.99092738600001
 30
0.0
  0
VERTEX
  5
1B29
  8
3
 10
37.60126756599999
 20
-30.6672920602
 30
0.0
  0
VERTEX
  5
1B2A
  8
3
 10
37.5
 20
-30.31512636420001
 30
0.0
  0
SEQEND
  5
1F7E
  8
3
  0
POLYLINE
  5
105F
  8
3
 66
     1
 10
0.0
 20
0.0
 30
0.0
  0
VERTEX
  5
1B2B
  8
3
 10
37.94499999999999
 20
-30.58497325880001
 30
0.0
  0
VERTEX
  5
1B2C
  8
3
 10
38.04557885899999
 20
-30.26745829710001
 30
0.0
  0
VERTEX
  5
1B2D
  8
3
 10
38.33747007659997
 20
-29.9810239121
 30
0.0
  0
VERTEX
  5
1B2E
  8
3
 10
38.79210130659999
 20
-29.75370829709999
 30
0.0
  0
VERTEX
  5
1B2F
  8
3
 10
39.3649700766
 20
-29.6077626883
 30
0.0
  0
VERTEX
  5
1B30
  8
3
 10
40.0
 20
-29.55747325879997
 30
0.0
  0
VERTEX
  5
1B31
  8
3
 10
40.63502992349999
 20
-29.6077626883
 30
0.0
  0
VERTEX
  5
1B32
  8
3
 10
41.2078986935
 20
-29.75370829709999
 30
0.0
  0
VERTEX
  5
1B33
  8
3
 10
41.66252992350002
 20
-29.9810239121
 30
0.0
  0
VERTEX
  5
1B34
  8
3
 10
41.95442114100001
 20
-30.26745829710001
 30
0.0
  0
VERTEX
  5
1B35
  8
3
 10
42.05500000000001
 20
-30.58497325880001
 30
0.0
  0
VERTEX
  5
1B36
  8
3
 10
41.95442114100001
 20
-30.9024882205
 30
0.0
  0
VERTEX
  5
1B37
  8
3
 10
41.66252992350002
 20
-31.18892260550001
 30
0.0
  0
VERTEX
  5
1B38
  8
3
 10
41.2078986935
 20
-31.41623822050002
 30
0.0
  0
VERTEX
  5
1B39
  8
3
 10
40.63502992349999
 20
-31.56218382930001
 30
0.0
  0
VERTEX
  5
1B3A
  8
3
 10
40.0
 20
-31.61247325879998
 30
0.0
  0
VERTEX
  5
1B3B
  8
3
 10
39.3649700766
 20
-31.56218382930001
 30
0.0
  0
VERTEX
  5
1B3C
  8
3
 10
38.79210130659999
 20
-31.41623822050002
 30
0.0
  0
VERTEX
  5
1B3D
  8
3
 10
38.33747007659997
 20
-31.18892260550001
 30
0.0
  0
VERTEX
  5
1B3E
  8
3
 10
38.04557885899999
 20
-30.9024882205
 30
0.0
  0
VERTEX
  5
1B3F
  8
3
 10
37.94499999999999
 20
-30.58497325880001
 30
0.0
  0
SEQEND
  5
1F7D
  8
3
  0
POLYLINE
  5
1060
  8
3
 66
     1
 10
0.0
 20
0.0
 30
0.0
  0
VERTEX
  5
1B40
  8
3
 10
37.5
 20
-30.8548201534
 30
0.0
  0
VERTEX
  5
1B41
  8
3
 10
37.60126756599999
 20
-30.50265445740001
 30
0.0
  0
VERTEX
  5
1B42
  8
3
 10
37.89686616789999
 20
-30.1790191316
 30
0.0
  0
VERTEX
  5
1B43
  8
3
 10
38.36284816519998
 20
-29.9101331855
 30
0.0
  0
VERTEX
  5
1B44
  8
3
 10
38.96146246749998
 20
-29.7177801592
 30
0.0
  0
VERTEX
  5
1B45
  8
3
 10
39.64421290429999
 20
-29.61754335109998
 30
0.0
  0
VERTEX
  5
1B46
  8
3
 10
40.35578709570001
 20
-29.61754335109998
 30
0.0
  0
VERTEX
  5
1B47
  8
3
 10
41.03853753250002
 20
-29.7177801592
 30
0.0
  0
VERTEX
  5
1B48
  8
3
 10
41.63715183490001
 20
-29.9101331855
 30
0.0
  0
VERTEX
  5
1B49
  8
3
 10
42.10313383210001
 20
-30.1790191316
 30
0.0
  0
VERTEX
  5
1B4A
  8
3
 10
42.3987324341
 20
-30.50265445740001
 30
0.0
  0
VERTEX
  5
1B4B
  8
3
 10
42.5
 20
-30.8548201534
 30
0.0
  0
VERTEX
  5
1B4C
  8
3
 10
42.3987324341
 20
-31.20698584949997
 30
0.0
  0
VERTEX
  5
1B4D
  8
3
 10
42.10313383210001
 20
-31.53062117529998
 30
0.0
  0
VERTEX
  5
1B4E
  8
3
 10
41.63715183490001
 20
-31.79950712139998
 30
0.0
  0
VERTEX
  5
1B4F
  8
3
 10
41.03853753250002
 20
-31.99186014759999
 30
0.0
  0
VERTEX
  5
1B50
  8
3
 10
40.35578709570001
 20
-32.0920969558
 30
0.0
  0
VERTEX
  5
1B51
  8
3
 10
39.64421290429999
 20
-32.0920969558
 30
0.0
  0
VERTEX
  5
1B52
  8
3
 10
38.96146246749998
 20
-31.99186014759999
 30
0.0
  0
VERTEX
  5
1B53
  8
3
 10
38.36284816519998
 20
-31.79950712139998
 30
0.0
  0
VERTEX
  5
1B54
  8
3
 10
37.89686616789999
 20
-31.53062117529998
 30
0.0
  0
VERTEX
  5
1B55
  8
3
 10
37.60126756599999
 20
-31.20698584949997
 30
0.0
  0
VERTEX
  5
1B56
  8
3
 10
37.5
 20
-30.8548201534
 30
0.0
  0
SEQEND
  5
1F7C
  8
3
  0
POLYLINE
  5
1061
  8
3
 66
     1
 10
0.0
 20
0.0
 30
0.0
  0
VERTEX
  5
1B57
  8
3
 10
37.5
 20
-30.93285970480002
 30
0.0
  0
VERTEX
  5
1B58
  8
3
 10
37.60126756599999
 20
-30.58069400869999
 30
0.0
  0
VERTEX
  5
1B59
  8
3
 10
37.89686616789999
 20
-30.25705868300003
 30
0.0
  0
VERTEX
  5
1B5A
  8
3
 10
38.36284816519998
 20
-29.98817273679998
 30
0.0
  0
VERTEX
  5
1B5B
  8
3
 10
38.96146246749998
 20
-29.79581971059997
 30
0.0
  0
VERTEX
  5
1B5C
  8
3
 10
39.64421290429999
 20
-29.69558290240002
 30
0.0
  0
VERTEX
  5
1B5D
  8
3
 10
40.35578709570001
 20
-29.69558290240002
 30
0.0
  0
VERTEX
  5
1B5E
  8
3
 10
41.03853753250002
 20
-29.79581971059997
 30
0.0
  0
VERTEX
  5
1B5F
  8
3
 10
41.63715183490001
 20
-29.98817273679998
 30
0.0
  0
VERTEX
  5
1B60
  8
3
 10
42.10313383210001
 20
-30.25705868300003
 30
0.0
  0
VERTEX
  5
1B61
  8
3
 10
42.3987324341
 20
-30.58069400869999
 30
0.0
  0
VERTEX
  5
1B62
  8
3
 10
42.5
 20
-30.93285970480002
 30
0.0
  0
VERTEX
  5
1B63
  8
3
 10
42.3987324341
 20
-31.28502540080001
 30
0.0
  0
VERTEX
  5
1B64
  8
3
 10
42.10313383210001
 20
-31.60866072660002
 30
0.0
  0
VERTEX
  5
1B65
  8
3
 10
41.63715183490001
 20
-31.87754667270002
 30
0.0
  0
VERTEX
  5
1B66
  8
3
 10
41.03853753250002
 20
-32.06989969900002
 30
0.0
  0
VERTEX
  5
1B67
  8
3
 10
40.35578709570001
 20
-32.17013650709998
 30
0.0
  0
VERTEX
  5
1B68
  8
3
 10
39.64421290429999
 20
-32.17013650709998
 30
0.0
  0
VERTEX
  5
1B69
  8
3
 10
38.96146246749998
 20
-32.06989969900002
 30
0.0
  0
VERTEX
  5
1B6A
  8
3
 10
38.36284816519998
 20
-31.87754667270002
 30
0.0
  0
VERTEX
  5
1B6B
  8
3
 10
37.89686616789999
 20
-31.60866072660002
 30
0.0
  0
VERTEX
  5
1B6C
  8
3
 10
37.60126756599999
 20
-31.28502540080001
 30
0.0
  0
VERTEX
  5
1B6D
  8
3
 10
37.5
 20
-30.93285970480002
 30
0.0
  0
SEQEND
  5
1F7B
  8
3
  0
POLYLINE
  5
1062
  8
3
 66
     1
 10
0.0
 20
0.0
 30
0.0
  0
VERTEX
  5
1B6E
  8
3
 10
37.94499999999999
 20
-31.20270659940002
 30
0.0
  0
VERTEX
  5
1B6F
  8
3
 10
38.04557885899999
 20
-30.88519163770002
 30
0.0
  0
VERTEX
  5
1B70
  8
3
 10
38.33747007659997
 20
-30.59875725270001
 30
0.0
  0
VERTEX
  5
1B71
  8
3
 10
38.79210130659999
 20
-30.3714416377
 30
0.0
  0
VERTEX
  5
1B72
  8
3
 10
39.3649700766
 20
-30.22549602890001
 30
0.0
  0
VERTEX
  5
1B73
  8
3
 10
40.0
 20
-30.17520659939998
 30
0.0
  0
VERTEX
  5
1B74
  8
3
 10
40.63502992349999
 20
-30.22549602890001
 30
0.0
  0
VERTEX
  5
1B75
  8
3
 10
41.2078986935
 20
-30.3714416377
 30
0.0
  0
VERTEX
  5
1B76
  8
3
 10
41.66252992350002
 20
-30.59875725270001
 30
0.0
  0
VERTEX
  5
1B77
  8
3
 10
41.95442114100001
 20
-30.88519163770002
 30
0.0
  0
VERTEX
  5
1B78
  8
3
 10
42.05500000000001
 20
-31.20270659940002
 30
0.0
  0
VERTEX
  5
1B79
  8
3
 10
41.95442114100001
 20
-31.52022156110002
 30
0.0
  0
VERTEX
  5
1B7A
  8
3
 10
41.66252992350002
 20
-31.80665594610002
 30
0.0
  0
VERTEX
  5
1B7B
  8
3
 10
41.2078986935
 20
-32.03397156109997
 30
0.0
  0
VERTEX
  5
1B7C
  8
3
 10
40.63502992349999
 20
-32.17991716990002
 30
0.0
  0
VERTEX
  5
1B7D
  8
3
 10
40.0
 20
-32.23020659939999
 30
0.0
  0
VERTEX
  5
1B7E
  8
3
 10
39.3649700766
 20
-32.17991716990002
 30
0.0
  0
VERTEX
  5
1B7F
  8
3
 10
38.79210130659999
 20
-32.03397156109997
 30
0.0
  0
VERTEX
  5
1B80
  8
3
 10
38.33747007659997
 20
-31.80665594610002
 30
0.0
  0
VERTEX
  5
1B81
  8
3
 10
38.04557885899999
 20
-31.52022156110002
 30
0.0
  0
VERTEX
  5
1B82
  8
3
 10
37.94499999999999
 20
-31.20270659940002
 30
0.0
  0
SEQEND
  5
1F7A
  8
3
  0
POLYLINE
  5
1063
  8
3
 66
     1
 10
0.0
 20
0.0
 30
0.0
  0
VERTEX
  5
1B83
  8
3
 10
37.5
 20
-31.47255349400001
 30
0.0
  0
VERTEX
  5
1B84
  8
3
 10
37.60126756599999
 20
-31.12038779800002
 30
0.0
  0
VERTEX
  5
1B85
  8
3
 10
37.89686616789999
 20
-30.79675247220001
 30
0.0
  0
VERTEX
  5
1B86
  8
3
 10
38.36284816519998
 20
-30.52786652610001
 30
0.0
  0
VERTEX
  5
1B87
  8
3
 10
38.96146246749998
 20
-30.33551349980002
 30
0.0
  0
VERTEX
  5
1B88
  8
3
 10
39.64421290429999
 20
-30.23527669169999
 30
0.0
  0
VERTEX
  5
1B89
  8
3
 10
40.35578709570001
 20
-30.23527669169999
 30
0.0
  0
VERTEX
  5
1B8A
  8
3
 10
41.03853753250002
 20
-30.33551349980002
 30
0.0
  0
VERTEX
  5
1B8B
  8
3
 10
41.63715183490001
 20
-30.52786652610001
 30
0.0
  0
VERTEX
  5
1B8C
  8
3
 10
42.10313383210001
 20
-30.79675247220001
 30
0.0
  0
VERTEX
  5
1B8D
  8
3
 10
42.3987324341
 20
-31.12038779800002
 30
0.0
  0
VERTEX
  5
1B8E
  8
3
 10
42.5
 20
-31.47255349400001
 30
0.0
  0
VERTEX
  5
1B8F
  8
3
 10
42.3987324341
 20
-31.82471919009998
 30
0.0
  0
VERTEX
  5
1B90
  8
3
 10
42.10313383210001
 20
-32.1483545159
 30
0.0
  0
VERTEX
  5
1B91
  8
3
 10
41.63715183490001
 20
-32.417240462
 30
0.0
  0
VERTEX
  5
1B92
  8
3
 10
41.03853753250002
 20
-32.60959348820001
 30
0.0
  0
VERTEX
  5
1B93
  8
3
 10
40.35578709570001
 20
-32.70983029640001
 30
0.0
  0
VERTEX
  5
1B94
  8
3
 10
39.64421290429999
 20
-32.70983029640001
 30
0.0
  0
VERTEX
  5
1B95
  8
3
 10
38.96146246749998
 20
-32.60959348820001
 30
0.0
  0
VERTEX
  5
1B96
  8
3
 10
38.36284816519998
 20
-32.417240462
 30
0.0
  0
VERTEX
  5
1B97
  8
3
 10
37.89686616789999
 20
-32.1483545159
 30
0.0
  0
VERTEX
  5
1B98
  8
3
 10
37.60126756599999
 20
-31.82471919009998
 30
0.0
  0
VERTEX
  5
1B99
  8
3
 10
37.5
 20
-31.47255349400001
 30
0.0
  0
SEQEND
  5
1F79
  8
3
  0
LINE
  5
1064
  8
3
 10
41.25
 20
-30.06551526800001
 30
0.0
 11
40.0
 21
-30.42635918629998
 31
0.0
  0
LINE
  5
1065
  8
3
 10
40.0
 20
-30.42635918629998
 30
0.0
 11
40.0
 21
-32.76462777649999
 31
0.0
  0
LINE
  5
1066
  8
3
 10
38.75
 20
-30.06551526800001
 30
0.0
 11
40.0
 21
-30.42635918629998
 31
0.0
  0
POLYLINE
  5
1067
  8
3
 66
     1
 10
0.0
 20
0.0
 30
0.0
  0
VERTEX
  5
1B9A
  8
3
 10
37.5
 20
-31.55059304539998
 30
0.0
  0
VERTEX
  5
1B9B
  8
3
 10
37.60126756599999
 20
-31.1984273493
 30
0.0
  0
VERTEX
  5
1B9C
  8
3
 10
37.89686616789999
 20
-30.87479202359998
 30
0.0
  0
VERTEX
  5
1B9D
  8
3
 10
38.36284816519998
 20
-30.60590607749998
 30
0.0
  0
VERTEX
  5
1B9E
  8
3
 10
38.96146246749998
 20
-30.41355305119998
 30
0.0
  0
VERTEX
  5
1B9F
  8
3
 10
39.64421290429999
 20
-30.31331624299997
 30
0.0
  0
VERTEX
  5
1BA0
  8
3
 10
40.35578709570001
 20
-30.31331624299997
 30
0.0
  0
VERTEX
  5
1BA1
  8
3
 10
41.03853753250002
 20
-30.41355305119998
 30
0.0
  0
VERTEX
  5
1BA2
  8
3
 10
41.63715183490001
 20
-30.60590607749998
 30
0.0
  0
VERTEX
  5
1BA3
  8
3
 10
42.10313383210001
 20
-30.87479202359998
 30
0.0
  0
VERTEX
  5
1BA4
  8
3
 10
42.3987324341
 20
-31.1984273493
 30
0.0
  0
VERTEX
  5
1BA5
  8
3
 10
42.5
 20
-31.55059304539998
 30
0.0
  0
VERTEX
  5
1BA6
  8
3
 10
42.3987324341
 20
-31.90275874140002
 30
0.0
  0
VERTEX
  5
1BA7
  8
3
 10
42.10313383210001
 20
-32.22639406719998
 30
0.0
  0
VERTEX
  5
1BA8
  8
3
 10
41.63715183490001
 20
-32.49528001329998
 30
0.0
  0
VERTEX
  5
1BA9
  8
3
 10
41.03853753250002
 20
-32.68763303959997
 30
0.0
  0
VERTEX
  5
1BAA
  8
3
 10
40.35578709570001
 20
-32.78786984769999
 30
0.0
  0
VERTEX
  5
1BAB
  8
3
 10
39.64421290429999
 20
-32.78786984769999
 30
0.0
  0
VERTEX
  5
1BAC
  8
3
 10
38.96146246749998
 20
-32.68763303959997
 30
0.0
  0
VERTEX
  5
1BAD
  8
3
 10
38.36284816519998
 20
-32.49528001329998
 30
0.0
  0
VERTEX
  5
1BAE
  8
3
 10
37.89686616789999
 20
-32.22639406719998
 30
0.0
  0
VERTEX
  5
1BAF
  8
3
 10
37.60126756599999
 20
-31.90275874140002
 30
0.0
  0
VERTEX
  5
1BB0
  8
3
 10
37.5
 20
-31.55059304539998
 30
0.0
  0
SEQEND
  5
1F78
  8
3
  0
POLYLINE
  5
1068
  8
3
 66
     1
 10
0.0
 20
0.0
 30
0.0
  0
VERTEX
  5
1BB1
  8
3
 10
37.94499999999999
 20
-31.82043993999997
 30
0.0
  0
VERTEX
  5
1BB2
  8
3
 10
38.04557885899999
 20
-31.50292497829997
 30
0.0
  0
VERTEX
  5
1BB3
  8
3
 10
38.33747007659997
 20
-31.21649059330002
 30
0.0
  0
VERTEX
  5
1BB4
  8
3
 10
38.79210130659999
 20
-30.98917497830001
 30
0.0
  0
VERTEX
  5
1BB5
  8
3
 10
39.3649700766
 20
-30.84322936950002
 30
0.0
  0
VERTEX
  5
1BB6
  8
3
 10
40.0
 20
-30.79293994
 30
0.0
  0
VERTEX
  5
1BB7
  8
3
 10
40.63502992349999
 20
-30.84322936950002
 30
0.0
  0
VERTEX
  5
1BB8
  8
3
 10
41.2078986935
 20
-30.98917497830001
 30
0.0
  0
VERTEX
  5
1BB9
  8
3
 10
41.66252992350002
 20
-31.21649059330002
 30
0.0
  0
VERTEX
  5
1BBA
  8
3
 10
41.95442114100001
 20
-31.50292497829997
 30
0.0
  0
VERTEX
  5
1BBB
  8
3
 10
42.05500000000001
 20
-31.82043993999997
 30
0.0
  0
VERTEX
  5
1BBC
  8
3
 10
41.95442114100001
 20
-32.13795490170003
 30
0.0
  0
VERTEX
  5
1BBD
  8
3
 10
41.66252992350002
 20
-32.42438928669998
 30
0.0
  0
VERTEX
  5
1BBE
  8
3
 10
41.2078986935
 20
-32.65170490169999
 30
0.0
  0
VERTEX
  5
1BBF
  8
3
 10
40.63502992349999
 20
-32.79765051049998
 30
0.0
  0
VERTEX
  5
1BC0
  8
3
 10
40.0
 20
-32.84793994
 30
0.0
  0
VERTEX
  5
1BC1
  8
3
 10
39.3649700766
 20
-32.79765051049998
 30
0.0
  0
VERTEX
  5
1BC2
  8
3
 10
38.79210130659999
 20
-32.65170490169999
 30
0.0
  0
VERTEX
  5
1BC3
  8
3
 10
38.33747007659997
 20
-32.42438928669998
 30
0.0
  0
VERTEX
  5
1BC4
  8
3
 10
38.04557885899999
 20
-32.13795490170003
 30
0.0
  0
VERTEX
  5
1BC5
  8
3
 10
37.94499999999999
 20
-31.82043993999997
 30
0.0
  0
SEQEND
  5
1F77
  8
3
  0
POLYLINE
  5
1069
  8
3
 66
     1
 10
0.0
 20
0.0
 30
0.0
  0
VERTEX
  5
1BC6
  8
3
 10
37.74389687320001
 20
-31.94238837659998
 30
0.0
  0
VERTEX
  5
1BC7
  8
3
 10
37.844129205
 20
-32.27488741190001
 30
0.0
  0
VERTEX
  5
1BC8
  8
3
 10
38.13592011779997
 20
-32.57784244880003
 30
0.0
  0
VERTEX
  5
1BC9
  8
3
 10
38.59334270850002
 20
-32.82433460269999
 30
0.0
  0
VERTEX
  5
1BCA
  8
3
 10
39.17575297259998
 20
-32.99246196410002
 30
0.0
  0
VERTEX
  5
1BCB
  8
3
 10
39.83140120219997
 20
-33.0672856791
 30
0.0
  0
VERTEX
  5
1BCC
  8
3
 10
40.50203017489997
 20
-33.04215733220002
 30
0.0
  0
VERTEX
  5
1BCD
  8
3
 10
41.12805156339999
 20
-32.91930968729997
 30
0.0
  0
VERTEX
  5
1BCE
  8
3
 10
41.65384062020001
 20
-32.7096582968
 30
0.0
  0
VERTEX
  5
1BCF
  8
3
 10
42.03267868009999
 20
-32.4318316069
 30
0.0
  0
VERTEX
  5
1BD0
  8
3
 10
42.23090431899999
 20
-32.110515738
 30
0.0
  0
VERTEX
  5
1BD1
  8
3
 10
42.23090431899999
 20
-31.77426101520001
 30
0.0
  0
VERTEX
  5
1BD2
  8
3
 10
42.03267868009999
 20
-31.45294514630001
 30
0.0
  0
VERTEX
  5
1BD3
  8
3
 10
41.65384062020001
 20
-31.17511845640001
 30
0.0
  0
VERTEX
  5
1BD4
  8
3
 10
41.12805156339999
 20
-30.96546706589999
 30
0.0
  0
VERTEX
  5
1BD5
  8
3
 10
40.50203017489997
 20
-30.84261942099999
 30
0.0
  0
VERTEX
  5
1BD6
  8
3
 10
39.83140120219997
 20
-30.81749107410002
 30
0.0
  0
VERTEX
  5
1BD7
  8
3
 10
39.17575297259998
 20
-30.8923147891
 30
0.0
  0
VERTEX
  5
1BD8
  8
3
 10
38.59334270850002
 20
-31.06044215050002
 30
0.0
  0
VERTEX
  5
1BD9
  8
3
 10
38.13592011779997
 20
-31.30693430439999
 30
0.0
  0
VERTEX
  5
1BDA
  8
3
 10
37.844129205
 20
-31.6098893413
 30
0.0
  0
VERTEX
  5
1BDB
  8
3
 10
37.74389687320001
 20
-31.94238837659998
 30
0.0
  0
SEQEND
  5
1F76
  8
3
  0
LINE
  5
106A
  8
3
 10
38.75
 20
-30.06551526800001
 30
0.0
 11
38.75
 21
-32.40378385830002
 31
0.0
  0
LINE
  5
106B
  8
3
 10
38.75
 20
-29.3438274316
 30
0.0
 11
38.75
 21
-30.06551526800001
 31
0.0
  0
LINE
  5
106C
  8
3
 10
41.25
 20
-30.06551526800001
 30
0.0
 11
41.25
 21
-32.40378385830002
 31
0.0
  0
LINE
  5
106D
  8
3
 10
41.25
 20
-29.3438274316
 30
0.0
 11
41.25
 21
-30.06551526800001
 31
0.0
  0
POLYLINE
  5
106E
  8
3
 66
     1
 10
0.0
 20
0.0
 30
0.0
  0
VERTEX
  5
1BDC
  8
3
 10
40.0
 20
-31.01543994000002
 30
0.0
  0
VERTEX
  5
1BDD
  8
3
 10
40.63502992349999
 20
-31.06572936949999
 30
0.0
  0
VERTEX
  5
1BDE
  8
3
 10
41.2078986935
 20
-31.21167497829998
 30
0.0
  0
VERTEX
  5
1BDF
  8
3
 10
41.66252992350002
 20
-31.43899059329999
 30
0.0
  0
VERTEX
  5
1BE0
  8
3
 10
41.95442114100001
 20
-31.7254249783
 30
0.0
  0
VERTEX
  5
1BE1
  8
3
 10
42.05500000000001
 20
-32.04293994
 30
0.0
  0
VERTEX
  5
1BE2
  8
3
 10
41.95442114100001
 20
-32.3604549017
 30
0.0
  0
VERTEX
  5
1BE3
  8
3
 10
41.66252992350002
 20
-32.6468892867
 30
0.0
  0
VERTEX
  5
1BE4
  8
3
 10
41.2078986935
 20
-32.87420490170001
 30
0.0
  0
VERTEX
  5
1BE5
  8
3
 10
40.63502992349999
 20
-33.0201505105
 30
0.0
  0
VERTEX
  5
1BE6
  8
3
 10
40.0
 20
-33.07043993999997
 30
0.0
  0
VERTEX
  5
1BE7
  8
3
 10
39.3649700766
 20
-33.0201505105
 30
0.0
  0
VERTEX
  5
1BE8
  8
3
 10
38.79210130659999
 20
-32.87420490170001
 30
0.0
  0
VERTEX
  5
1BE9
  8
3
 10
38.33747007659997
 20
-32.6468892867
 30
0.0
  0
VERTEX
  5
1BEA
  8
3
 10
38.04557885899999
 20
-32.3604549017
 30
0.0
  0
VERTEX
  5
1BEB
  8
3
 10
37.94499999999999
 20
-32.04293994
 30
0.0
  0
VERTEX
  5
1BEC
  8
3
 10
38.04557885899999
 20
-31.7254249783
 30
0.0
  0
VERTEX
  5
1BED
  8
3
 10
38.33747007659997
 20
-31.43899059329999
 30
0.0
  0
VERTEX
  5
1BEE
  8
3
 10
38.79210130659999
 20
-31.21167497829998
 30
0.0
  0
VERTEX
  5
1BEF
  8
3
 10
39.3649700766
 20
-31.06572936949999
 30
0.0
  0
VERTEX
  5
1BF0
  8
3
 10
40.0
 20
-31.01543994000002
 30
0.0
  0
SEQEND
  5
1F75
  8
3
  0
LINE
  5
106F
  8
3
 10
38.75
 20
-32.40378385830002
 30
0.0
 11
40.0
 21
-32.76462777649999
 31
0.0
  0
LINE
  5
1070
  8
3
 10
41.25
 20
-32.40378385830002
 30
0.0
 11
40.0
 21
-32.76462777649999
 31
0.0
  0
LINE
  5
1071
  8
3
 10
40.0
 20
-28.98298351329998
 30
0.0
 11
40.0
 21
-30.42635918629998
 31
0.0
  0
LINE
  5
1072
  8
3
 10
41.25
 20
-31.68209602180002
 30
0.0
 11
40.0
 21
-31.3212521035
 31
0.0
  0
LINE
  5
1073
  8
3
 10
41.25
 20
-29.3438274316
 30
0.0
 11
40.0
 21
-28.98298351329998
 31
0.0
  0
LINE
  5
1074
  8
3
 10
38.75
 20
-31.68209602180002
 30
0.0
 11
40.0
 21
-31.3212521035
 31
0.0
  0
LINE
  5
1075
  8
3
 10
38.75
 20
-29.3438274316
 30
0.0
 11
40.0
 21
-28.98298351329998
 31
0.0
  0
POLYLINE
  5
1076
  8
3
 66
     1
 10
0.0
 20
0.0
 30
0.0
  0
VERTEX
  5
1BF1
  8
3
 10
40.0
 20
27.72178751730002
 30
0.0
  0
VERTEX
  5
1BF2
  8
3
 10
40.59853525080001
 20
27.66901856049998
 30
0.0
  0
VERTEX
  5
1BF3
  8
3
 10
41.12487831699997
 20
27.5170764051
 30
0.0
  0
VERTEX
  5
1BF4
  8
3
 10
41.51554445659997
 20
27.28428751730002
 30
0.0
  0
VERTEX
  5
1BF5
  8
3
 10
41.72341356779998
 20
26.99872967279998
 30
0.0
  0
VERTEX
  5
1BF6
  8
3
 10
41.72341356779998
 20
26.69484536189998
 30
0.0
  0
VERTEX
  5
1BF7
  8
3
 10
41.51554445659997
 20
26.40928751730002
 30
0.0
  0
VERTEX
  5
1BF8
  8
3
 10
41.12487831699997
 20
26.17649862960002
 30
0.0
  0
VERTEX
  5
1BF9
  8
3
 10
40.59853525080001
 20
26.0245564741
 30
0.0
  0
VERTEX
  5
1BFA
  8
3
 10
40.0
 20
25.97178751730002
 30
0.0
  0
VERTEX
  5
1BFB
  8
3
 10
39.40146474919999
 20
26.0245564741
 30
0.0
  0
VERTEX
  5
1BFC
  8
3
 10
38.87512168310002
 20
26.17649862960002
 30
0.0
  0
VERTEX
  5
1BFD
  8
3
 10
38.48445554339997
 20
26.40928751730002
 30
0.0
  0
VERTEX
  5
1BFE
  8
3
 10
38.27658643230001
 20
26.69484536189998
 30
0.0
  0
VERTEX
  5
1BFF
  8
3
 10
38.27658643230001
 20
26.99872967279998
 30
0.0
  0
VERTEX
  5
1C00
  8
3
 10
38.48445554339997
 20
27.28428751730002
 30
0.0
  0
VERTEX
  5
1C01
  8
3
 10
38.87512168310002
 20
27.5170764051
 30
0.0
  0
VERTEX
  5
1C02
  8
3
 10
39.40146474919999
 20
27.66901856049998
 30
0.0
  0
VERTEX
  5
1C03
  8
3
 10
40.0
 20
27.72178751730002
 30
0.0
  0
SEQEND
  5
1F74
  8
3
  0
POLYLINE
  5
1077
  8
3
 66
     1
 10
0.0
 20
0.0
 30
0.0
  0
VERTEX
  5
1C04
  8
3
 10
42.31673274349998
 20
27.33759247030002
 30
0.0
  0
VERTEX
  5
1C05
  8
3
 10
42.21380680789997
 20
26.9961579884
 30
0.0
  0
VERTEX
  5
1C06
  8
3
 10
41.91417442239998
 20
26.6850614585
 30
0.0
  0
VERTEX
  5
1C07
  8
3
 10
41.4444592392
 20
26.43194517270001
 30
0.0
  0
VERTEX
  5
1C08
  8
3
 10
40.84639751369997
 20
26.25929962359999
 30
0.0
  0
VERTEX
  5
1C09
  8
3
 10
40.17312965479999
 20
26.18246512590002
 30
0.0
  0
VERTEX
  5
1C0A
  8
3
 10
39.48447846620002
 20
26.20826876199999
 30
0.0
  0
VERTEX
  5
1C0B
  8
3
 10
38.84163362829997
 20
26.33441776550001
 30
0.0
  0
VERTEX
  5
1C0C
  8
3
 10
38.30171472590001
 20
26.54970324390001
 30
0.0
  0
VERTEX
  5
1C0D
  8
3
 10
37.91269592290001
 20
26.83499613769999
 30
0.0
  0
VERTEX
  5
1C0E
  8
3
 10
37.70914324720002
 20
27.1649469212
 30
0.0
  0
VERTEX
  5
1C0F
  8
3
 10
37.70914324720002
 20
27.51023801939999
 30
0.0
  0
VERTEX
  5
1C10
  8
3
 10
37.91269592290001
 20
27.8401888029
 30
0.0
  0
VERTEX
  5
1C11
  8
3
 10
38.30171472590001
 20
28.12548169669998
 30
0.0
  0
VERTEX
  5
1C12
  8
3
 10
38.84163362829997
 20
28.34076717509998
 30
0.0
  0
VERTEX
  5
1C13
  8
3
 10
39.48447846620002
 20
28.4669161786
 30
0.0
  0
VERTEX
  5
1C14
  8
3
 10
40.17312965479999
 20
28.49271981470002
 30
0.0
  0
VERTEX
  5
1C15
  8
3
 10
40.84639751369997
 20
28.41588531709999
 30
0.0
  0
VERTEX
  5
1C16
  8
3
 10
41.4444592392
 20
28.24323976800002
 30
0.0
  0
VERTEX
  5
1C17
  8
3
 10
41.91417442239998
 20
27.99012348209999
 30
0.0
  0
VERTEX
  5
1C18
  8
3
 10
42.21380680789997
 20
27.67902695219999
 30
0.0
  0
VERTEX
  5
1C19
  8
3
 10
42.31673274349998
 20
27.33759247030002
 30
0.0
  0
SEQEND
  5
1F73
  8
3
  0
POLYLINE
  5
1078
  8
3
 66
     1
 10
0.0
 20
0.0
 30
0.0
  0
VERTEX
  5
1C1A
  8
3
 10
37.94499999999999
 20
27.4963065558
 30
0.0
  0
VERTEX
  5
1C1B
  8
3
 10
38.04557885899999
 20
27.8138215175
 30
0.0
  0
VERTEX
  5
1C1C
  8
3
 10
38.33747007659997
 20
28.10025590250001
 30
0.0
  0
VERTEX
  5
1C1D
  8
3
 10
38.79210130659999
 20
28.32757151750002
 30
0.0
  0
VERTEX
  5
1C1E
  8
3
 10
39.3649700766
 20
28.47351712630001
 30
0.0
  0
VERTEX
  5
1C1F
  8
3
 10
40.0
 20
28.52380655579998
 30
0.0
  0
VERTEX
  5
1C20
  8
3
 10
40.63502992349999
 20
28.47351712630001
 30
0.0
  0
VERTEX
  5
1C21
  8
3
 10
41.2078986935
 20
28.32757151750002
 30
0.0
  0
VERTEX
  5
1C22
  8
3
 10
41.66252992350002
 20
28.10025590250001
 30
0.0
  0
VERTEX
  5
1C23
  8
3
 10
41.95442114100001
 20
27.8138215175
 30
0.0
  0
VERTEX
  5
1C24
  8
3
 10
42.05500000000001
 20
27.4963065558
 30
0.0
  0
VERTEX
  5
1C25
  8
3
 10
41.95442114100001
 20
27.17879159410001
 30
0.0
  0
VERTEX
  5
1C26
  8
3
 10
41.66252992350002
 20
26.8923572091
 30
0.0
  0
VERTEX
  5
1C27
  8
3
 10
41.2078986935
 20
26.66504159409999
 30
0.0
  0
VERTEX
  5
1C28
  8
3
 10
40.63502992349999
 20
26.5190959853
 30
0.0
  0
VERTEX
  5
1C29
  8
3
 10
40.0
 20
26.46880655579997
 30
0.0
  0
VERTEX
  5
1C2A
  8
3
 10
39.3649700766
 20
26.5190959853
 30
0.0
  0
VERTEX
  5
1C2B
  8
3
 10
38.79210130659999
 20
26.66504159409999
 30
0.0
  0
VERTEX
  5
1C2C
  8
3
 10
38.33747007659997
 20
26.8923572091
 30
0.0
  0
VERTEX
  5
1C2D
  8
3
 10
38.04557885899999
 20
27.17879159410001
 30
0.0
  0
VERTEX
  5
1C2E
  8
3
 10
37.94499999999999
 20
27.4963065558
 30
0.0
  0
SEQEND
  5
1F72
  8
3
  0
POLYLINE
  5
1079
  8
3
 66
     1
 10
0.0
 20
0.0
 30
0.0
  0
VERTEX
  5
1C2F
  8
3
 10
37.5
 20
27.7661534504
 30
0.0
  0
VERTEX
  5
1C30
  8
3
 10
37.60126756599999
 20
28.11831914650003
 30
0.0
  0
VERTEX
  5
1C31
  8
3
 10
37.89686616789999
 20
28.4419544722
 30
0.0
  0
VERTEX
  5
1C32
  8
3
 10
38.36284816519998
 20
28.71084041839998
 30
0.0
  0
VERTEX
  5
1C33
  8
3
 10
38.96146246749998
 20
28.90319344459999
 30
0.0
  0
VERTEX
  5
1C34
  8
3
 10
39.64421290429999
 20
29.0034302528
 30
0.0
  0
VERTEX
  5
1C35
  8
3
 10
40.35578709570001
 20
29.0034302528
 30
0.0
  0
VERTEX
  5
1C36
  8
3
 10
41.03853753250002
 20
28.90319344459999
 30
0.0
  0
VERTEX
  5
1C37
  8
3
 10
41.63715183490001
 20
28.71084041839998
 30
0.0
  0
VERTEX
  5
1C38
  8
3
 10
42.10313383210001
 20
28.4419544722
 30
0.0
  0
VERTEX
  5
1C39
  8
3
 10
42.3987324341
 20
28.11831914650003
 30
0.0
  0
VERTEX
  5
1C3A
  8
3
 10
42.5
 20
27.7661534504
 30
0.0
  0
VERTEX
  5
1C3B
  8
3
 10
42.3987324341
 20
27.41398775440001
 30
0.0
  0
VERTEX
  5
1C3C
  8
3
 10
42.10313383210001
 20
27.0903524286
 30
0.0
  0
VERTEX
  5
1C3D
  8
3
 10
41.63715183490001
 20
26.8214664825
 30
0.0
  0
VERTEX
  5
1C3E
  8
3
 10
41.03853753250002
 20
26.6291134562
 30
0.0
  0
VERTEX
  5
1C3F
  8
3
 10
40.35578709570001
 20
26.52887664809998
 30
0.0
  0
VERTEX
  5
1C40
  8
3
 10
39.64421290429999
 20
26.52887664809998
 30
0.0
  0
VERTEX
  5
1C41
  8
3
 10
38.96146246749998
 20
26.6291134562
 30
0.0
  0
VERTEX
  5
1C42
  8
3
 10
38.36284816519998
 20
26.8214664825
 30
0.0
  0
VERTEX
  5
1C43
  8
3
 10
37.89686616789999
 20
27.0903524286
 30
0.0
  0
VERTEX
  5
1C44
  8
3
 10
37.60126756599999
 20
27.41398775440001
 30
0.0
  0
VERTEX
  5
1C45
  8
3
 10
37.5
 20
27.7661534504
 30
0.0
  0
SEQEND
  5
1F71
  8
3
  0
POLYLINE
  5
107A
  8
3
 66
     1
 10
0.0
 20
0.0
 30
0.0
  0
VERTEX
  5
1C46
  8
3
 10
37.5
 20
27.84419300180002
 30
0.0
  0
VERTEX
  5
1C47
  8
3
 10
37.60126756599999
 20
28.19635869780001
 30
0.0
  0
VERTEX
  5
1C48
  8
3
 10
37.89686616789999
 20
28.51999402360002
 30
0.0
  0
VERTEX
  5
1C49
  8
3
 10
38.36284816519998
 20
28.78887996970002
 30
0.0
  0
VERTEX
  5
1C4A
  8
3
 10
38.96146246749998
 20
28.98123299600002
 30
0.0
  0
VERTEX
  5
1C4B
  8
3
 10
39.64421290429999
 20
29.08146980409998
 30
0.0
  0
VERTEX
  5
1C4C
  8
3
 10
40.35578709570001
 20
29.08146980409998
 30
0.0
  0
VERTEX
  5
1C4D
  8
3
 10
41.03853753250002
 20
28.98123299600002
 30
0.0
  0
VERTEX
  5
1C4E
  8
3
 10
41.63715183490001
 20
28.78887996970002
 30
0.0
  0
VERTEX
  5
1C4F
  8
3
 10
42.10313383210001
 20
28.51999402360002
 30
0.0
  0
VERTEX
  5
1C50
  8
3
 10
42.3987324341
 20
28.19635869780001
 30
0.0
  0
VERTEX
  5
1C51
  8
3
 10
42.5
 20
27.84419300180002
 30
0.0
  0
VERTEX
  5
1C52
  8
3
 10
42.3987324341
 20
27.49202730569999
 30
0.0
  0
VERTEX
  5
1C53
  8
3
 10
42.10313383210001
 20
27.16839198000002
 30
0.0
  0
VERTEX
  5
1C54
  8
3
 10
41.63715183490001
 20
26.89950603379998
 30
0.0
  0
VERTEX
  5
1C55
  8
3
 10
41.03853753250002
 20
26.70715300760003
 30
0.0
  0
VERTEX
  5
1C56
  8
3
 10
40.35578709570001
 20
26.60691619940002
 30
0.0
  0
VERTEX
  5
1C57
  8
3
 10
39.64421290429999
 20
26.60691619940002
 30
0.0
  0
VERTEX
  5
1C58
  8
3
 10
38.96146246749998
 20
26.70715300760003
 30
0.0
  0
VERTEX
  5
1C59
  8
3
 10
38.36284816519998
 20
26.89950603379998
 30
0.0
  0
VERTEX
  5
1C5A
  8
3
 10
37.89686616789999
 20
27.16839198000002
 30
0.0
  0
VERTEX
  5
1C5B
  8
3
 10
37.60126756599999
 20
27.49202730569999
 30
0.0
  0
VERTEX
  5
1C5C
  8
3
 10
37.5
 20
27.84419300180002
 30
0.0
  0
SEQEND
  5
1F70
  8
3
  0
POLYLINE
  5
107B
  8
3
 66
     1
 10
0.0
 20
0.0
 30
0.0
  0
VERTEX
  5
1C5D
  8
3
 10
37.94499999999999
 20
28.11403989640002
 30
0.0
  0
VERTEX
  5
1C5E
  8
3
 10
38.04557885899999
 20
28.43155485810001
 30
0.0
  0
VERTEX
  5
1C5F
  8
3
 10
38.33747007659997
 20
28.71798924310002
 30
0.0
  0
VERTEX
  5
1C60
  8
3
 10
38.79210130659999
 20
28.94530485809997
 30
0.0
  0
VERTEX
  5
1C61
  8
3
 10
39.3649700766
 20
29.09125046690002
 30
0.0
  0
VERTEX
  5
1C62
  8
3
 10
40.0
 20
29.14153989639999
 30
0.0
  0
VERTEX
  5
1C63
  8
3
 10
40.63502992349999
 20
29.09125046690002
 30
0.0
  0
VERTEX
  5
1C64
  8
3
 10
41.2078986935
 20
28.94530485809997
 30
0.0
  0
VERTEX
  5
1C65
  8
3
 10
41.66252992350002
 20
28.71798924310002
 30
0.0
  0
VERTEX
  5
1C66
  8
3
 10
41.95442114100001
 20
28.43155485810001
 30
0.0
  0
VERTEX
  5
1C67
  8
3
 10
42.05500000000001
 20
28.11403989640002
 30
0.0
  0
VERTEX
  5
1C68
  8
3
 10
41.95442114100001
 20
27.79652493470002
 30
0.0
  0
VERTEX
  5
1C69
  8
3
 10
41.66252992350002
 20
27.51009054970001
 30
0.0
  0
VERTEX
  5
1C6A
  8
3
 10
41.2078986935
 20
27.2827749347
 30
0.0
  0
VERTEX
  5
1C6B
  8
3
 10
40.63502992349999
 20
27.13682932590001
 30
0.0
  0
VERTEX
  5
1C6C
  8
3
 10
40.0
 20
27.08653989639998
 30
0.0
  0
VERTEX
  5
1C6D
  8
3
 10
39.3649700766
 20
27.13682932590001
 30
0.0
  0
VERTEX
  5
1C6E
  8
3
 10
38.79210130659999
 20
27.2827749347
 30
0.0
  0
VERTEX
  5
1C6F
  8
3
 10
38.33747007659997
 20
27.51009054970001
 30
0.0
  0
VERTEX
  5
1C70
  8
3
 10
38.04557885899999
 20
27.79652493470002
 30
0.0
  0
VERTEX
  5
1C71
  8
3
 10
37.94499999999999
 20
28.11403989640002
 30
0.0
  0
SEQEND
  5
1F6F
  8
3
  0
POLYLINE
  5
107C
  8
3
 66
     1
 10
0.0
 20
0.0
 30
0.0
  0
VERTEX
  5
1C72
  8
3
 10
37.5
 20
28.38388679100001
 30
0.0
  0
VERTEX
  5
1C73
  8
3
 10
37.60126756599999
 20
28.73605248709998
 30
0.0
  0
VERTEX
  5
1C74
  8
3
 10
37.89686616789999
 20
29.05968781280001
 30
0.0
  0
VERTEX
  5
1C75
  8
3
 10
38.36284816519998
 20
29.32857375899999
 30
0.0
  0
VERTEX
  5
1C76
  8
3
 10
38.96146246749998
 20
29.5209267852
 30
0.0
  0
VERTEX
  5
1C77
  8
3
 10
39.64421290429999
 20
29.62116359340001
 30
0.0
  0
VERTEX
  5
1C78
  8
3
 10
40.35578709570001
 20
29.62116359340001
 30
0.0
  0
VERTEX
  5
1C79
  8
3
 10
41.03853753250002
 20
29.5209267852
 30
0.0
  0
VERTEX
  5
1C7A
  8
3
 10
41.63715183490001
 20
29.32857375899999
 30
0.0
  0
VERTEX
  5
1C7B
  8
3
 10
42.10313383210001
 20
29.05968781280001
 30
0.0
  0
VERTEX
  5
1C7C
  8
3
 10
42.3987324341
 20
28.73605248709998
 30
0.0
  0
VERTEX
  5
1C7D
  8
3
 10
42.5
 20
28.38388679100001
 30
0.0
  0
VERTEX
  5
1C7E
  8
3
 10
42.3987324341
 20
28.03172109500002
 30
0.0
  0
VERTEX
  5
1C7F
  8
3
 10
42.10313383210001
 20
27.70808576920001
 30
0.0
  0
VERTEX
  5
1C80
  8
3
 10
41.63715183490001
 20
27.43919982310001
 30
0.0
  0
VERTEX
  5
1C81
  8
3
 10
41.03853753250002
 20
27.24684679680001
 30
0.0
  0
VERTEX
  5
1C82
  8
3
 10
40.35578709570001
 20
27.14660998869999
 30
0.0
  0
VERTEX
  5
1C83
  8
3
 10
39.64421290429999
 20
27.14660998869999
 30
0.0
  0
VERTEX
  5
1C84
  8
3
 10
38.96146246749998
 20
27.24684679680001
 30
0.0
  0
VERTEX
  5
1C85
  8
3
 10
38.36284816519998
 20
27.43919982310001
 30
0.0
  0
VERTEX
  5
1C86
  8
3
 10
37.89686616789999
 20
27.70808576920001
 30
0.0
  0
VERTEX
  5
1C87
  8
3
 10
37.60126756599999
 20
28.03172109500002
 30
0.0
  0
VERTEX
  5
1C88
  8
3
 10
37.5
 20
28.38388679100001
 30
0.0
  0
SEQEND
  5
1F6E
  8
3
  0
POLYLINE
  5
107D
  8
3
 66
     1
 10
0.0
 20
0.0
 30
0.0
  0
VERTEX
  5
1C89
  8
3
 10
37.5
 20
28.46192634239998
 30
0.0
  0
VERTEX
  5
1C8A
  8
3
 10
37.60126756599999
 20
28.81409203840002
 30
0.0
  0
VERTEX
  5
1C8B
  8
3
 10
37.89686616789999
 20
29.13772736419997
 30
0.0
  0
VERTEX
  5
1C8C
  8
3
 10
38.36284816519998
 20
29.40661331029997
 30
0.0
  0
VERTEX
  5
1C8D
  8
3
 10
38.96146246749998
 20
29.59896633660003
 30
0.0
  0
VERTEX
  5
1C8E
  8
3
 10
39.64421290429999
 20
29.69920314469999
 30
0.0
  0
VERTEX
  5
1C8F
  8
3
 10
40.35578709570001
 20
29.69920314469999
 30
0.0
  0
VERTEX
  5
1C90
  8
3
 10
41.03853753250002
 20
29.59896633660003
 30
0.0
  0
VERTEX
  5
1C91
  8
3
 10
41.63715183490001
 20
29.40661331029997
 30
0.0
  0
VERTEX
  5
1C92
  8
3
 10
42.10313383210001
 20
29.13772736419997
 30
0.0
  0
VERTEX
  5
1C93
  8
3
 10
42.3987324341
 20
28.81409203840002
 30
0.0
  0
VERTEX
  5
1C94
  8
3
 10
42.5
 20
28.46192634239998
 30
0.0
  0
VERTEX
  5
1C95
  8
3
 10
42.3987324341
 20
28.1097606463
 30
0.0
  0
VERTEX
  5
1C96
  8
3
 10
42.10313383210001
 20
27.78612532059998
 30
0.0
  0
VERTEX
  5
1C97
  8
3
 10
41.63715183490001
 20
27.51723937439999
 30
0.0
  0
VERTEX
  5
1C98
  8
3
 10
41.03853753250002
 20
27.32488634819998
 30
0.0
  0
VERTEX
  5
1C99
  8
3
 10
40.35578709570001
 20
27.22464953999997
 30
0.0
  0
VERTEX
  5
1C9A
  8
3
 10
39.64421290429999
 20
27.22464953999997
 30
0.0
  0
VERTEX
  5
1C9B
  8
3
 10
38.96146246749998
 20
27.32488634819998
 30
0.0
  0
VERTEX
  5
1C9C
  8
3
 10
38.36284816519998
 20
27.51723937439999
 30
0.0
  0
VERTEX
  5
1C9D
  8
3
 10
37.89686616789999
 20
27.78612532059998
 30
0.0
  0
VERTEX
  5
1C9E
  8
3
 10
37.60126756599999
 20
28.1097606463
 30
0.0
  0
VERTEX
  5
1C9F
  8
3
 10
37.5
 20
28.46192634239998
 30
0.0
  0
SEQEND
  5
1F6D
  8
3
  0
POLYLINE
  5
107E
  8
3
 66
     1
 10
0.0
 20
0.0
 30
0.0
  0
VERTEX
  5
1CA0
  8
3
 10
37.94499999999999
 20
28.73177323700003
 30
0.0
  0
VERTEX
  5
1CA1
  8
3
 10
38.04557885899999
 20
29.04928819870003
 30
0.0
  0
VERTEX
  5
1CA2
  8
3
 10
38.33747007659997
 20
29.33572258369998
 30
0.0
  0
VERTEX
  5
1CA3
  8
3
 10
38.79210130659999
 20
29.56303819869999
 30
0.0
  0
VERTEX
  5
1CA4
  8
3
 10
39.3649700766
 20
29.70898380749998
 30
0.0
  0
VERTEX
  5
1CA5
  8
3
 10
40.0
 20
29.759273237
 30
0.0
  0
VERTEX
  5
1CA6
  8
3
 10
40.63502992349999
 20
29.70898380749998
 30
0.0
  0
VERTEX
  5
1CA7
  8
3
 10
41.2078986935
 20
29.56303819869999
 30
0.0
  0
VERTEX
  5
1CA8
  8
3
 10
41.66252992350002
 20
29.33572258369998
 30
0.0
  0
VERTEX
  5
1CA9
  8
3
 10
41.95442114100001
 20
29.04928819870003
 30
0.0
  0
VERTEX
  5
1CAA
  8
3
 10
42.05500000000001
 20
28.73177323700003
 30
0.0
  0
VERTEX
  5
1CAB
  8
3
 10
41.95442114100001
 20
28.41425827530003
 30
0.0
  0
VERTEX
  5
1CAC
  8
3
 10
41.66252992350002
 20
28.12782389030002
 30
0.0
  0
VERTEX
  5
1CAD
  8
3
 10
41.2078986935
 20
27.90050827530001
 30
0.0
  0
VERTEX
  5
1CAE
  8
3
 10
40.63502992349999
 20
27.75456266650002
 30
0.0
  0
VERTEX
  5
1CAF
  8
3
 10
40.0
 20
27.704273237
 30
0.0
  0
VERTEX
  5
1CB0
  8
3
 10
39.3649700766
 20
27.75456266650002
 30
0.0
  0
VERTEX
  5
1CB1
  8
3
 10
38.79210130659999
 20
27.90050827530001
 30
0.0
  0
VERTEX
  5
1CB2
  8
3
 10
38.33747007659997
 20
28.12782389030002
 30
0.0
  0
VERTEX
  5
1CB3
  8
3
 10
38.04557885899999
 20
28.41425827530003
 30
0.0
  0
VERTEX
  5
1CB4
  8
3
 10
37.94499999999999
 20
28.73177323700003
 30
0.0
  0
SEQEND
  5
1F6C
  8
3
  0
POLYLINE
  5
107F
  8
3
 66
     1
 10
0.0
 20
0.0
 30
0.0
  0
VERTEX
  5
1CB5
  8
3
 10
37.5
 20
29.00162013160002
 30
0.0
  0
VERTEX
  5
1CB6
  8
3
 10
37.60126756599999
 20
29.35378582769999
 30
0.0
  0
VERTEX
  5
1CB7
  8
3
 10
37.89686616789999
 20
29.67742115350001
 30
0.0
  0
VERTEX
  5
1CB8
  8
3
 10
38.36284816519998
 20
29.94630709960001
 30
0.0
  0
VERTEX
  5
1CB9
  8
3
 10
38.96146246749998
 20
30.13866012580002
 30
0.0
  0
VERTEX
  5
1CBA
  8
3
 10
39.64421290429999
 20
30.23889693400002
 30
0.0
  0
VERTEX
  5
1CBB
  8
3
 10
40.35578709570001
 20
30.23889693400002
 30
0.0
  0
VERTEX
  5
1CBC
  8
3
 10
41.03853753250002
 20
30.13866012580002
 30
0.0
  0
VERTEX
  5
1CBD
  8
3
 10
41.63715183490001
 20
29.94630709960001
 30
0.0
  0
VERTEX
  5
1CBE
  8
3
 10
42.10313383210001
 20
29.67742115350001
 30
0.0
  0
VERTEX
  5
1CBF
  8
3
 10
42.3987324341
 20
29.35378582769999
 30
0.0
  0
VERTEX
  5
1CC0
  8
3
 10
42.5
 20
29.00162013160002
 30
0.0
  0
VERTEX
  5
1CC1
  8
3
 10
42.3987324341
 20
28.64945443559998
 30
0.0
  0
VERTEX
  5
1CC2
  8
3
 10
42.10313383210001
 20
28.32581910980002
 30
0.0
  0
VERTEX
  5
1CC3
  8
3
 10
41.63715183490001
 20
28.05693316370002
 30
0.0
  0
VERTEX
  5
1CC4
  8
3
 10
41.03853753250002
 20
27.86458013740003
 30
0.0
  0
VERTEX
  5
1CC5
  8
3
 10
40.35578709570001
 20
27.7643433293
 30
0.0
  0
VERTEX
  5
1CC6
  8
3
 10
39.64421290429999
 20
27.7643433293
 30
0.0
  0
VERTEX
  5
1CC7
  8
3
 10
38.96146246749998
 20
27.86458013740003
 30
0.0
  0
VERTEX
  5
1CC8
  8
3
 10
38.36284816519998
 20
28.05693316370002
 30
0.0
  0
VERTEX
  5
1CC9
  8
3
 10
37.89686616789999
 20
28.32581910980002
 30
0.0
  0
VERTEX
  5
1CCA
  8
3
 10
37.60126756599999
 20
28.64945443559998
 30
0.0
  0
VERTEX
  5
1CCB
  8
3
 10
37.5
 20
29.00162013160002
 30
0.0
  0
SEQEND
  5
1F6B
  8
3
  0
POLYLINE
  5
1080
  8
3
 66
     1
 10
0.0
 20
0.0
 30
0.0
  0
VERTEX
  5
1CCC
  8
3
 10
37.5
 20
29.07965968299999
 30
0.0
  0
VERTEX
  5
1CCD
  8
3
 10
37.60126756599999
 20
29.43182537899997
 30
0.0
  0
VERTEX
  5
1CCE
  8
3
 10
37.89686616789999
 20
29.75546070479999
 30
0.0
  0
VERTEX
  5
1CCF
  8
3
 10
38.36284816519998
 20
30.02434665089999
 30
0.0
  0
VERTEX
  5
1CD0
  8
3
 10
38.96146246749998
 20
30.21669967719998
 30
0.0
  0
VERTEX
  5
1CD1
  8
3
 10
39.64421290429999
 20
30.3169364853
 30
0.0
  0
VERTEX
  5
1CD2
  8
3
 10
40.35578709570001
 20
30.3169364853
 30
0.0
  0
VERTEX
  5
1CD3
  8
3
 10
41.03853753250002
 20
30.21669967719998
 30
0.0
  0
VERTEX
  5
1CD4
  8
3
 10
41.63715183490001
 20
30.02434665089999
 30
0.0
  0
VERTEX
  5
1CD5
  8
3
 10
42.10313383210001
 20
29.75546070479999
 30
0.0
  0
VERTEX
  5
1CD6
  8
3
 10
42.3987324341
 20
29.43182537899997
 30
0.0
  0
VERTEX
  5
1CD7
  8
3
 10
42.5
 20
29.07965968299999
 30
0.0
  0
VERTEX
  5
1CD8
  8
3
 10
42.3987324341
 20
28.72749398690001
 30
0.0
  0
VERTEX
  5
1CD9
  8
3
 10
42.10313383210001
 20
28.40385866119999
 30
0.0
  0
VERTEX
  5
1CDA
  8
3
 10
41.63715183490001
 20
28.134972715
 30
0.0
  0
VERTEX
  5
1CDB
  8
3
 10
41.03853753250002
 20
27.94261968879999
 30
0.0
  0
VERTEX
  5
1CDC
  8
3
 10
40.35578709570001
 20
27.84238288059998
 30
0.0
  0
VERTEX
  5
1CDD
  8
3
 10
39.64421290429999
 20
27.84238288059998
 30
0.0
  0
VERTEX
  5
1CDE
  8
3
 10
38.96146246749998
 20
27.94261968879999
 30
0.0
  0
VERTEX
  5
1CDF
  8
3
 10
38.36284816519998
 20
28.134972715
 30
0.0
  0
VERTEX
  5
1CE0
  8
3
 10
37.89686616789999
 20
28.40385866119999
 30
0.0
  0
VERTEX
  5
1CE1
  8
3
 10
37.60126756599999
 20
28.72749398690001
 30
0.0
  0
VERTEX
  5
1CE2
  8
3
 10
37.5
 20
29.07965968299999
 30
0.0
  0
SEQEND
  5
1F6A
  8
3
  0
POLYLINE
  5
1081
  8
3
 66
     1
 10
0.0
 20
0.0
 30
0.0
  0
VERTEX
  5
1CE3
  8
3
 10
37.94499999999999
 20
29.34950657759998
 30
0.0
  0
VERTEX
  5
1CE4
  8
3
 10
38.04557885899999
 20
29.66702153929998
 30
0.0
  0
VERTEX
  5
1CE5
  8
3
 10
38.33747007659997
 20
29.95345592429999
 30
0.0
  0
VERTEX
  5
1CE6
  8
3
 10
38.79210130659999
 20
30.1807715393
 30
0.0
  0
VERTEX
  5
1CE7
  8
3
 10
39.3649700766
 20
30.32671714809999
 30
0.0
  0
VERTEX
  5
1CE8
  8
3
 10
40.0
 20
30.37700657760001
 30
0.0
  0
VERTEX
  5
1CE9
  8
3
 10
40.63502992349999
 20
30.32671714809999
 30
0.0
  0
VERTEX
  5
1CEA
  8
3
 10
41.2078986935
 20
30.1807715393
 30
0.0
  0
VERTEX
  5
1CEB
  8
3
 10
41.66252992350002
 20
29.95345592429999
 30
0.0
  0
VERTEX
  5
1CEC
  8
3
 10
41.95442114100001
 20
29.66702153929998
 30
0.0
  0
VERTEX
  5
1CED
  8
3
 10
42.05500000000001
 20
29.34950657759998
 30
0.0
  0
VERTEX
  5
1CEE
  8
3
 10
41.95442114100001
 20
29.03199161589998
 30
0.0
  0
VERTEX
  5
1CEF
  8
3
 10
41.66252992350002
 20
28.74555723089998
 30
0.0
  0
VERTEX
  5
1CF0
  8
3
 10
41.2078986935
 20
28.51824161590002
 30
0.0
  0
VERTEX
  5
1CF1
  8
3
 10
40.63502992349999
 20
28.37229600709998
 30
0.0
  0
VERTEX
  5
1CF2
  8
3
 10
40.0
 20
28.32200657760001
 30
0.0
  0
VERTEX
  5
1CF3
  8
3
 10
39.3649700766
 20
28.37229600709998
 30
0.0
  0
VERTEX
  5
1CF4
  8
3
 10
38.79210130659999
 20
28.51824161590002
 30
0.0
  0
VERTEX
  5
1CF5
  8
3
 10
38.33747007659997
 20
28.74555723089998
 30
0.0
  0
VERTEX
  5
1CF6
  8
3
 10
38.04557885899999
 20
29.03199161589998
 30
0.0
  0
VERTEX
  5
1CF7
  8
3
 10
37.94499999999999
 20
29.34950657759998
 30
0.0
  0
SEQEND
  5
1F69
  8
3
  0
POLYLINE
  5
1082
  8
3
 66
     1
 10
0.0
 20
0.0
 30
0.0
  0
VERTEX
  5
1CF8
  8
3
 10
37.5
 20
29.61935347219998
 30
0.0
  0
VERTEX
  5
1CF9
  8
3
 10
37.60126756599999
 20
29.97151916830001
 30
0.0
  0
VERTEX
  5
1CFA
  8
3
 10
37.89686616789999
 20
30.29515449410002
 30
0.0
  0
VERTEX
  5
1CFB
  8
3
 10
38.36284816519998
 20
30.56404044020002
 30
0.0
  0
VERTEX
  5
1CFC
  8
3
 10
38.96146246749998
 20
30.75639346640003
 30
0.0
  0
VERTEX
  5
1CFD
  8
3
 10
39.64421290429999
 20
30.85663027459998
 30
0.0
  0
VERTEX
  5
1CFE
  8
3
 10
40.35578709570001
 20
30.85663027459998
 30
0.0
  0
VERTEX
  5
1CFF
  8
3
 10
41.03853753250002
 20
30.75639346640003
 30
0.0
  0
VERTEX
  5
1D00
  8
3
 10
41.63715183490001
 20
30.56404044020002
 30
0.0
  0
VERTEX
  5
1D01
  8
3
 10
42.10313383210001
 20
30.29515449410002
 30
0.0
  0
VERTEX
  5
1D02
  8
3
 10
42.3987324341
 20
29.97151916830001
 30
0.0
  0
VERTEX
  5
1D03
  8
3
 10
42.5
 20
29.61935347219998
 30
0.0
  0
VERTEX
  5
1D04
  8
3
 10
42.3987324341
 20
29.26718777619999
 30
0.0
  0
VERTEX
  5
1D05
  8
3
 10
42.10313383210001
 20
28.94355245039998
 30
0.0
  0
VERTEX
  5
1D06
  8
3
 10
41.63715183490001
 20
28.67466650429998
 30
0.0
  0
VERTEX
  5
1D07
  8
3
 10
41.03853753250002
 20
28.48231347799998
 30
0.0
  0
VERTEX
  5
1D08
  8
3
 10
40.35578709570001
 20
28.38207666990002
 30
0.0
  0
VERTEX
  5
1D09
  8
3
 10
39.64421290429999
 20
28.38207666990002
 30
0.0
  0
VERTEX
  5
1D0A
  8
3
 10
38.96146246749998
 20
28.48231347799998
 30
0.0
  0
VERTEX
  5
1D0B
  8
3
 10
38.36284816519998
 20
28.67466650429998
 30
0.0
  0
VERTEX
  5
1D0C
  8
3
 10
37.89686616789999
 20
28.94355245039998
 30
0.0
  0
VERTEX
  5
1D0D
  8
3
 10
37.60126756599999
 20
29.26718777619999
 30
0.0
  0
VERTEX
  5
1D0E
  8
3
 10
37.5
 20
29.61935347219998
 30
0.0
  0
SEQEND
  5
1F68
  8
3
  0
POLYLINE
  5
1083
  8
3
 66
     1
 10
0.0
 20
0.0
 30
0.0
  0
VERTEX
  5
1D0F
  8
3
 10
37.5
 20
29.6973930236
 30
0.0
  0
VERTEX
  5
1D10
  8
3
 10
37.60126756599999
 20
30.04955871959999
 30
0.0
  0
VERTEX
  5
1D11
  8
3
 10
37.89686616789999
 20
30.3731940454
 30
0.0
  0
VERTEX
  5
1D12
  8
3
 10
38.36284816519998
 20
30.6420799915
 30
0.0
  0
VERTEX
  5
1D13
  8
3
 10
38.96146246749998
 20
30.8344330178
 30
0.0
  0
VERTEX
  5
1D14
  8
3
 10
39.64421290429999
 20
30.93466982590002
 30
0.0
  0
VERTEX
  5
1D15
  8
3
 10
40.35578709570001
 20
30.93466982590002
 30
0.0
  0
VERTEX
  5
1D16
  8
3
 10
41.03853753250002
 20
30.8344330178
 30
0.0
  0
VERTEX
  5
1D17
  8
3
 10
41.63715183490001
 20
30.6420799915
 30
0.0
  0
VERTEX
  5
1D18
  8
3
 10
42.10313383210001
 20
30.3731940454
 30
0.0
  0
VERTEX
  5
1D19
  8
3
 10
42.3987324341
 20
30.04955871959999
 30
0.0
  0
VERTEX
  5
1D1A
  8
3
 10
42.5
 20
29.6973930236
 30
0.0
  0
VERTEX
  5
1D1B
  8
3
 10
42.3987324341
 20
29.34522732750003
 30
0.0
  0
VERTEX
  5
1D1C
  8
3
 10
42.10313383210001
 20
29.0215920018
 30
0.0
  0
VERTEX
  5
1D1D
  8
3
 10
41.63715183490001
 20
28.75270605560002
 30
0.0
  0
VERTEX
  5
1D1E
  8
3
 10
41.03853753250002
 20
28.56035302940001
 30
0.0
  0
VERTEX
  5
1D1F
  8
3
 10
40.35578709570001
 20
28.4601162212
 30
0.0
  0
VERTEX
  5
1D20
  8
3
 10
39.64421290429999
 20
28.4601162212
 30
0.0
  0
VERTEX
  5
1D21
  8
3
 10
38.96146246749998
 20
28.56035302940001
 30
0.0
  0
VERTEX
  5
1D22
  8
3
 10
38.36284816519998
 20
28.75270605560002
 30
0.0
  0
VERTEX
  5
1D23
  8
3
 10
37.89686616789999
 20
29.0215920018
 30
0.0
  0
VERTEX
  5
1D24
  8
3
 10
37.60126756599999
 20
29.34522732750003
 30
0.0
  0
VERTEX
  5
1D25
  8
3
 10
37.5
 20
29.6973930236
 30
0.0
  0
SEQEND
  5
1F67
  8
3
  0
POLYLINE
  5
1084
  8
3
 66
     1
 10
0.0
 20
0.0
 30
0.0
  0
VERTEX
  5
1D26
  8
3
 10
37.94499999999999
 20
29.96723991819999
 30
0.0
  0
VERTEX
  5
1D27
  8
3
 10
38.04557885899999
 20
30.28475487989999
 30
0.0
  0
VERTEX
  5
1D28
  8
3
 10
38.33747007659997
 20
30.5711892649
 30
0.0
  0
VERTEX
  5
1D29
  8
3
 10
38.79210130659999
 20
30.79850487990001
 30
0.0
  0
VERTEX
  5
1D2A
  8
3
 10
39.3649700766
 20
30.9444504887
 30
0.0
  0
VERTEX
  5
1D2B
  8
3
 10
40.0
 20
30.99473991820003
 30
0.0
  0
VERTEX
  5
1D2C
  8
3
 10
40.63502992349999
 20
30.9444504887
 30
0.0
  0
VERTEX
  5
1D2D
  8
3
 10
41.2078986935
 20
30.79850487990001
 30
0.0
  0
VERTEX
  5
1D2E
  8
3
 10
41.66252992350002
 20
30.5711892649
 30
0.0
  0
VERTEX
  5
1D2F
  8
3
 10
41.95442114100001
 20
30.28475487989999
 30
0.0
  0
VERTEX
  5
1D30
  8
3
 10
42.05500000000001
 20
29.96723991819999
 30
0.0
  0
VERTEX
  5
1D31
  8
3
 10
41.95442114100001
 20
29.64972495649999
 30
0.0
  0
VERTEX
  5
1D32
  8
3
 10
41.66252992350002
 20
29.36329057149999
 30
0.0
  0
VERTEX
  5
1D33
  8
3
 10
41.2078986935
 20
29.13597495649998
 30
0.0
  0
VERTEX
  5
1D34
  8
3
 10
40.63502992349999
 20
28.99002934769999
 30
0.0
  0
VERTEX
  5
1D35
  8
3
 10
40.0
 20
28.93973991820002
 30
0.0
  0
VERTEX
  5
1D36
  8
3
 10
39.3649700766
 20
28.99002934769999
 30
0.0
  0
VERTEX
  5
1D37
  8
3
 10
38.79210130659999
 20
29.13597495649998
 30
0.0
  0
VERTEX
  5
1D38
  8
3
 10
38.33747007659997
 20
29.36329057149999
 30
0.0
  0
VERTEX
  5
1D39
  8
3
 10
38.04557885899999
 20
29.64972495649999
 30
0.0
  0
VERTEX
  5
1D3A
  8
3
 10
37.94499999999999
 20
29.96723991819999
 30
0.0
  0
SEQEND
  5
1F66
  8
3
  0
POLYLINE
  5
1085
  8
3
 66
     1
 10
0.0
 20
0.0
 30
0.0
  0
VERTEX
  5
1D3B
  8
3
 10
37.5
 20
30.23708681279999
 30
0.0
  0
VERTEX
  5
1D3C
  8
3
 10
37.60126756599999
 20
30.58925250890002
 30
0.0
  0
VERTEX
  5
1D3D
  8
3
 10
37.89686616789999
 20
30.91288783469997
 30
0.0
  0
VERTEX
  5
1D3E
  8
3
 10
38.36284816519998
 20
31.18177378079997
 30
0.0
  0
VERTEX
  5
1D3F
  8
3
 10
38.96146246749998
 20
31.37412680699998
 30
0.0
  0
VERTEX
  5
1D40
  8
3
 10
39.64421290429999
 20
31.47436361519999
 30
0.0
  0
VERTEX
  5
1D41
  8
3
 10
40.35578709570001
 20
31.47436361519999
 30
0.0
  0
VERTEX
  5
1D42
  8
3
 10
41.03853753250002
 20
31.37412680699998
 30
0.0
  0
VERTEX
  5
1D43
  8
3
 10
41.63715183490001
 20
31.18177378079997
 30
0.0
  0
VERTEX
  5
1D44
  8
3
 10
42.10313383210001
 20
30.91288783469997
 30
0.0
  0
VERTEX
  5
1D45
  8
3
 10
42.3987324341
 20
30.58925250890002
 30
0.0
  0
VERTEX
  5
1D46
  8
3
 10
42.5
 20
30.23708681279999
 30
0.0
  0
VERTEX
  5
1D47
  8
3
 10
42.3987324341
 20
29.8849211168
 30
0.0
  0
VERTEX
  5
1D48
  8
3
 10
42.10313383210001
 20
29.56128579099999
 30
0.0
  0
VERTEX
  5
1D49
  8
3
 10
41.63715183490001
 20
29.29239984489999
 30
0.0
  0
VERTEX
  5
1D4A
  8
3
 10
41.03853753250002
 20
29.10004681859999
 30
0.0
  0
VERTEX
  5
1D4B
  8
3
 10
40.35578709570001
 20
28.99981001050003
 30
0.0
  0
VERTEX
  5
1D4C
  8
3
 10
39.64421290429999
 20
28.99981001050003
 30
0.0
  0
VERTEX
  5
1D4D
  8
3
 10
38.96146246749998
 20
29.10004681859999
 30
0.0
  0
VERTEX
  5
1D4E
  8
3
 10
38.36284816519998
 20
29.29239984489999
 30
0.0
  0
VERTEX
  5
1D4F
  8
3
 10
37.89686616789999
 20
29.56128579099999
 30
0.0
  0
VERTEX
  5
1D50
  8
3
 10
37.60126756599999
 20
29.8849211168
 30
0.0
  0
VERTEX
  5
1D51
  8
3
 10
37.5
 20
30.23708681279999
 30
0.0
  0
SEQEND
  5
1F65
  8
3
  0
POLYLINE
  5
1086
  8
3
 66
     1
 10
0.0
 20
0.0
 30
0.0
  0
VERTEX
  5
1D52
  8
3
 10
37.5
 20
30.31512636420001
 30
0.0
  0
VERTEX
  5
1D53
  8
3
 10
37.60126756599999
 20
30.6672920602
 30
0.0
  0
VERTEX
  5
1D54
  8
3
 10
37.89686616789999
 20
30.99092738600001
 30
0.0
  0
VERTEX
  5
1D55
  8
3
 10
38.36284816519998
 20
31.25981333210001
 30
0.0
  0
VERTEX
  5
1D56
  8
3
 10
38.96146246749998
 20
31.45216635840001
 30
0.0
  0
VERTEX
  5
1D57
  8
3
 10
39.64421290429999
 20
31.55240316650003
 30
0.0
  0
VERTEX
  5
1D58
  8
3
 10
40.35578709570001
 20
31.55240316650003
 30
0.0
  0
VERTEX
  5
1D59
  8
3
 10
41.03853753250002
 20
31.45216635840001
 30
0.0
  0
VERTEX
  5
1D5A
  8
3
 10
41.63715183490001
 20
31.25981333210001
 30
0.0
  0
VERTEX
  5
1D5B
  8
3
 10
42.10313383210001
 20
30.99092738600001
 30
0.0
  0
VERTEX
  5
1D5C
  8
3
 10
42.3987324341
 20
30.6672920602
 30
0.0
  0
VERTEX
  5
1D5D
  8
3
 10
42.5
 20
30.31512636420001
 30
0.0
  0
VERTEX
  5
1D5E
  8
3
 10
42.3987324341
 20
29.96296066809998
 30
0.0
  0
VERTEX
  5
1D5F
  8
3
 10
42.10313383210001
 20
29.63932534240001
 30
0.0
  0
VERTEX
  5
1D60
  8
3
 10
41.63715183490001
 20
29.37043939630001
 30
0.0
  0
VERTEX
  5
1D61
  8
3
 10
41.03853753250002
 20
29.17808637000002
 30
0.0
  0
VERTEX
  5
1D62
  8
3
 10
40.35578709570001
 20
29.07784956180001
 30
0.0
  0
VERTEX
  5
1D63
  8
3
 10
39.64421290429999
 20
29.07784956180001
 30
0.0
  0
VERTEX
  5
1D64
  8
3
 10
38.96146246749998
 20
29.17808637000002
 30
0.0
  0
VERTEX
  5
1D65
  8
3
 10
38.36284816519998
 20
29.37043939630001
 30
0.0
  0
VERTEX
  5
1D66
  8
3
 10
37.89686616789999
 20
29.63932534240001
 30
0.0
  0
VERTEX
  5
1D67
  8
3
 10
37.60126756599999
 20
29.96296066809998
 30
0.0
  0
VERTEX
  5
1D68
  8
3
 10
37.5
 20
30.31512636420001
 30
0.0
  0
SEQEND
  5
1F64
  8
3
  0
POLYLINE
  5
1087
  8
3
 66
     1
 10
0.0
 20
0.0
 30
0.0
  0
VERTEX
  5
1D69
  8
3
 10
37.94499999999999
 20
30.58497325880001
 30
0.0
  0
VERTEX
  5
1D6A
  8
3
 10
38.04557885899999
 20
30.9024882205
 30
0.0
  0
VERTEX
  5
1D6B
  8
3
 10
38.33747007659997
 20
31.1889226056
 30
0.0
  0
VERTEX
  5
1D6C
  8
3
 10
38.79210130659999
 20
31.41623822050002
 30
0.0
  0
VERTEX
  5
1D6D
  8
3
 10
39.3649700766
 20
31.56218382930001
 30
0.0
  0
VERTEX
  5
1D6E
  8
3
 10
40.0
 20
31.61247325879998
 30
0.0
  0
VERTEX
  5
1D6F
  8
3
 10
40.63502992349999
 20
31.56218382930001
 30
0.0
  0
VERTEX
  5
1D70
  8
3
 10
41.2078986935
 20
31.41623822050002
 30
0.0
  0
VERTEX
  5
1D71
  8
3
 10
41.66252992350002
 20
31.1889226056
 30
0.0
  0
VERTEX
  5
1D72
  8
3
 10
41.95442114100001
 20
30.9024882205
 30
0.0
  0
VERTEX
  5
1D73
  8
3
 10
42.05500000000001
 20
30.58497325880001
 30
0.0
  0
VERTEX
  5
1D74
  8
3
 10
41.95442114100001
 20
30.26745829710001
 30
0.0
  0
VERTEX
  5
1D75
  8
3
 10
41.66252992350002
 20
29.9810239121
 30
0.0
  0
VERTEX
  5
1D76
  8
3
 10
41.2078986935
 20
29.75370829709999
 30
0.0
  0
VERTEX
  5
1D77
  8
3
 10
40.63502992349999
 20
29.6077626883
 30
0.0
  0
VERTEX
  5
1D78
  8
3
 10
40.0
 20
29.55747325879997
 30
0.0
  0
VERTEX
  5
1D79
  8
3
 10
39.3649700766
 20
29.6077626883
 30
0.0
  0
VERTEX
  5
1D7A
  8
3
 10
38.79210130659999
 20
29.75370829709999
 30
0.0
  0
VERTEX
  5
1D7B
  8
3
 10
38.33747007659997
 20
29.9810239121
 30
0.0
  0
VERTEX
  5
1D7C
  8
3
 10
38.04557885899999
 20
30.26745829710001
 30
0.0
  0
VERTEX
  5
1D7D
  8
3
 10
37.94499999999999
 20
30.58497325880001
 30
0.0
  0
SEQEND
  5
1F63
  8
3
  0
POLYLINE
  5
1088
  8
3
 66
     1
 10
0.0
 20
0.0
 30
0.0
  0
VERTEX
  5
1D7E
  8
3
 10
37.5
 20
30.8548201534
 30
0.0
  0
VERTEX
  5
1D7F
  8
3
 10
37.60126756599999
 20
31.20698584949997
 30
0.0
  0
VERTEX
  5
1D80
  8
3
 10
37.89686616789999
 20
31.53062117529998
 30
0.0
  0
VERTEX
  5
1D81
  8
3
 10
38.36284816519998
 20
31.79950712139998
 30
0.0
  0
VERTEX
  5
1D82
  8
3
 10
38.96146246749998
 20
31.99186014759999
 30
0.0
  0
VERTEX
  5
1D83
  8
3
 10
39.64421290429999
 20
32.0920969558
 30
0.0
  0
VERTEX
  5
1D84
  8
3
 10
40.35578709570001
 20
32.0920969558
 30
0.0
  0
VERTEX
  5
1D85
  8
3
 10
41.03853753250002
 20
31.99186014759999
 30
0.0
  0
VERTEX
  5
1D86
  8
3
 10
41.63715183490001
 20
31.79950712139998
 30
0.0
  0
VERTEX
  5
1D87
  8
3
 10
42.10313383210001
 20
31.53062117529998
 30
0.0
  0
VERTEX
  5
1D88
  8
3
 10
42.3987324341
 20
31.20698584949997
 30
0.0
  0
VERTEX
  5
1D89
  8
3
 10
42.5
 20
30.8548201534
 30
0.0
  0
VERTEX
  5
1D8A
  8
3
 10
42.3987324341
 20
30.50265445740001
 30
0.0
  0
VERTEX
  5
1D8B
  8
3
 10
42.10313383210001
 20
30.1790191316
 30
0.0
  0
VERTEX
  5
1D8C
  8
3
 10
41.63715183490001
 20
29.9101331855
 30
0.0
  0
VERTEX
  5
1D8D
  8
3
 10
41.03853753250002
 20
29.71778015929999
 30
0.0
  0
VERTEX
  5
1D8E
  8
3
 10
40.35578709570001
 20
29.61754335109998
 30
0.0
  0
VERTEX
  5
1D8F
  8
3
 10
39.64421290429999
 20
29.61754335109998
 30
0.0
  0
VERTEX
  5
1D90
  8
3
 10
38.96146246749998
 20
29.71778015929999
 30
0.0
  0
VERTEX
  5
1D91
  8
3
 10
38.36284816519998
 20
29.9101331855
 30
0.0
  0
VERTEX
  5
1D92
  8
3
 10
37.89686616789999
 20
30.1790191316
 30
0.0
  0
VERTEX
  5
1D93
  8
3
 10
37.60126756599999
 20
30.50265445740001
 30
0.0
  0
VERTEX
  5
1D94
  8
3
 10
37.5
 20
30.8548201534
 30
0.0
  0
SEQEND
  5
1F62
  8
3
  0
POLYLINE
  5
1089
  8
3
 66
     1
 10
0.0
 20
0.0
 30
0.0
  0
VERTEX
  5
1D95
  8
3
 10
37.5
 20
30.93285970480002
 30
0.0
  0
VERTEX
  5
1D96
  8
3
 10
37.60126756599999
 20
31.2850254009
 30
0.0
  0
VERTEX
  5
1D97
  8
3
 10
37.89686616789999
 20
31.60866072660002
 30
0.0
  0
VERTEX
  5
1D98
  8
3
 10
38.36284816519998
 20
31.87754667270002
 30
0.0
  0
VERTEX
  5
1D99
  8
3
 10
38.96146246749998
 20
32.06989969900002
 30
0.0
  0
VERTEX
  5
1D9A
  8
3
 10
39.64421290429999
 20
32.17013650720003
 30
0.0
  0
VERTEX
  5
1D9B
  8
3
 10
40.35578709570001
 20
32.17013650720003
 30
0.0
  0
VERTEX
  5
1D9C
  8
3
 10
41.03853753250002
 20
32.06989969900002
 30
0.0
  0
VERTEX
  5
1D9D
  8
3
 10
41.63715183490001
 20
31.87754667270002
 30
0.0
  0
VERTEX
  5
1D9E
  8
3
 10
42.10313383210001
 20
31.60866072660002
 30
0.0
  0
VERTEX
  5
1D9F
  8
3
 10
42.3987324341
 20
31.2850254009
 30
0.0
  0
VERTEX
  5
1DA0
  8
3
 10
42.5
 20
30.93285970480002
 30
0.0
  0
VERTEX
  5
1DA1
  8
3
 10
42.3987324341
 20
30.58069400869999
 30
0.0
  0
VERTEX
  5
1DA2
  8
3
 10
42.10313383210001
 20
30.25705868300003
 30
0.0
  0
VERTEX
  5
1DA3
  8
3
 10
41.63715183490001
 20
29.98817273690003
 30
0.0
  0
VERTEX
  5
1DA4
  8
3
 10
41.03853753250002
 20
29.79581971060003
 30
0.0
  0
VERTEX
  5
1DA5
  8
3
 10
40.35578709570001
 20
29.69558290240002
 30
0.0
  0
VERTEX
  5
1DA6
  8
3
 10
39.64421290429999
 20
29.69558290240002
 30
0.0
  0
VERTEX
  5
1DA7
  8
3
 10
38.96146246749998
 20
29.79581971060003
 30
0.0
  0
VERTEX
  5
1DA8
  8
3
 10
38.36284816519998
 20
29.98817273690003
 30
0.0
  0
VERTEX
  5
1DA9
  8
3
 10
37.89686616789999
 20
30.25705868300003
 30
0.0
  0
VERTEX
  5
1DAA
  8
3
 10
37.60126756599999
 20
30.58069400869999
 30
0.0
  0
VERTEX
  5
1DAB
  8
3
 10
37.5
 20
30.93285970480002
 30
0.0
  0
SEQEND
  5
1F61
  8
3
  0
POLYLINE
  5
108A
  8
3
 66
     1
 10
0.0
 20
0.0
 30
0.0
  0
VERTEX
  5
1DAC
  8
3
 10
37.94499999999999
 20
31.20270659940002
 30
0.0
  0
VERTEX
  5
1DAD
  8
3
 10
38.04557885899999
 20
31.52022156110002
 30
0.0
  0
VERTEX
  5
1DAE
  8
3
 10
38.33747007659997
 20
31.80665594620001
 30
0.0
  0
VERTEX
  5
1DAF
  8
3
 10
38.79210130659999
 20
32.03397156109997
 30
0.0
  0
VERTEX
  5
1DB0
  8
3
 10
39.3649700766
 20
32.17991716990002
 30
0.0
  0
VERTEX
  5
1DB1
  8
3
 10
40.0
 20
32.23020659939999
 30
0.0
  0
VERTEX
  5
1DB2
  8
3
 10
40.63502992349999
 20
32.17991716990002
 30
0.0
  0
VERTEX
  5
1DB3
  8
3
 10
41.2078986935
 20
32.03397156109997
 30
0.0
  0
VERTEX
  5
1DB4
  8
3
 10
41.66252992350002
 20
31.80665594620001
 30
0.0
  0
VERTEX
  5
1DB5
  8
3
 10
41.95442114100001
 20
31.52022156110002
 30
0.0
  0
VERTEX
  5
1DB6
  8
3
 10
42.05500000000001
 20
31.20270659940002
 30
0.0
  0
VERTEX
  5
1DB7
  8
3
 10
41.95442114100001
 20
30.88519163770002
 30
0.0
  0
VERTEX
  5
1DB8
  8
3
 10
41.66252992350002
 20
30.59875725270001
 30
0.0
  0
VERTEX
  5
1DB9
  8
3
 10
41.2078986935
 20
30.3714416377
 30
0.0
  0
VERTEX
  5
1DBA
  8
3
 10
40.63502992349999
 20
30.22549602890001
 30
0.0
  0
VERTEX
  5
1DBB
  8
3
 10
40.0
 20
30.17520659939998
 30
0.0
  0
VERTEX
  5
1DBC
  8
3
 10
39.3649700766
 20
30.22549602890001
 30
0.0
  0
VERTEX
  5
1DBD
  8
3
 10
38.79210130659999
 20
30.3714416377
 30
0.0
  0
VERTEX
  5
1DBE
  8
3
 10
38.33747007659997
 20
30.59875725270001
 30
0.0
  0
VERTEX
  5
1DBF
  8
3
 10
38.04557885899999
 20
30.88519163770002
 30
0.0
  0
VERTEX
  5
1DC0
  8
3
 10
37.94499999999999
 20
31.20270659940002
 30
0.0
  0
SEQEND
  5
1F60
  8
3
  0
POLYLINE
  5
108B
  8
3
 66
     1
 10
0.0
 20
0.0
 30
0.0
  0
VERTEX
  5
1DC1
  8
3
 10
37.5
 20
31.4725534941
 30
0.0
  0
VERTEX
  5
1DC2
  8
3
 10
37.60126756599999
 20
31.82471919009998
 30
0.0
  0
VERTEX
  5
1DC3
  8
3
 10
37.89686616789999
 20
32.1483545159
 30
0.0
  0
VERTEX
  5
1DC4
  8
3
 10
38.36284816519998
 20
32.417240462
 30
0.0
  0
VERTEX
  5
1DC5
  8
3
 10
38.96146246749998
 20
32.60959348820001
 30
0.0
  0
VERTEX
  5
1DC6
  8
3
 10
39.64421290429999
 20
32.70983029640001
 30
0.0
  0
VERTEX
  5
1DC7
  8
3
 10
40.35578709570001
 20
32.70983029640001
 30
0.0
  0
VERTEX
  5
1DC8
  8
3
 10
41.03853753250002
 20
32.60959348820001
 30
0.0
  0
VERTEX
  5
1DC9
  8
3
 10
41.63715183490001
 20
32.417240462
 30
0.0
  0
VERTEX
  5
1DCA
  8
3
 10
42.10313383210001
 20
32.1483545159
 30
0.0
  0
VERTEX
  5
1DCB
  8
3
 10
42.3987324341
 20
31.82471919009998
 30
0.0
  0
VERTEX
  5
1DCC
  8
3
 10
42.5
 20
31.4725534941
 30
0.0
  0
VERTEX
  5
1DCD
  8
3
 10
42.3987324341
 20
31.12038779800002
 30
0.0
  0
VERTEX
  5
1DCE
  8
3
 10
42.10313383210001
 20
30.79675247220001
 30
0.0
  0
VERTEX
  5
1DCF
  8
3
 10
41.63715183490001
 20
30.52786652610001
 30
0.0
  0
VERTEX
  5
1DD0
  8
3
 10
41.03853753250002
 20
30.3355134999
 30
0.0
  0
VERTEX
  5
1DD1
  8
3
 10
40.35578709570001
 20
30.23527669169999
 30
0.0
  0
VERTEX
  5
1DD2
  8
3
 10
39.64421290429999
 20
30.23527669169999
 30
0.0
  0
VERTEX
  5
1DD3
  8
3
 10
38.96146246749998
 20
30.3355134999
 30
0.0
  0
VERTEX
  5
1DD4
  8
3
 10
38.36284816519998
 20
30.52786652610001
 30
0.0
  0
VERTEX
  5
1DD5
  8
3
 10
37.89686616789999
 20
30.79675247220001
 30
0.0
  0
VERTEX
  5
1DD6
  8
3
 10
37.60126756599999
 20
31.12038779800002
 30
0.0
  0
VERTEX
  5
1DD7
  8
3
 10
37.5
 20
31.4725534941
 30
0.0
  0
SEQEND
  5
1F5F
  8
3
  0
LINE
  5
108C
  8
3
 10
40.0
 20
30.42635918629998
 30
0.0
 11
40.0
 21
32.76462777649999
 31
0.0
  0
LINE
  5
108D
  8
3
 10
38.75
 20
30.0655152681
 30
0.0
 11
40.0
 21
30.42635918629998
 31
0.0
  0
LINE
  5
108E
  8
3
 10
41.25
 20
30.0655152681
 30
0.0
 11
40.0
 21
30.42635918629998
 31
0.0
  0
POLYLINE
  5
108F
  8
3
 66
     1
 10
0.0
 20
0.0
 30
0.0
  0
VERTEX
  5
1DD8
  8
3
 10
37.5
 20
31.55059304539998
 30
0.0
  0
VERTEX
  5
1DD9
  8
3
 10
37.60126756599999
 20
31.90275874150001
 30
0.0
  0
VERTEX
  5
1DDA
  8
3
 10
37.89686616789999
 20
32.22639406719998
 30
0.0
  0
VERTEX
  5
1DDB
  8
3
 10
38.36284816519998
 20
32.49528001329998
 30
0.0
  0
VERTEX
  5
1DDC
  8
3
 10
38.96146246749998
 20
32.68763303959997
 30
0.0
  0
VERTEX
  5
1DDD
  8
3
 10
39.64421290429999
 20
32.78786984779998
 30
0.0
  0
VERTEX
  5
1DDE
  8
3
 10
40.35578709570001
 20
32.78786984779998
 30
0.0
  0
VERTEX
  5
1DDF
  8
3
 10
41.03853753250002
 20
32.68763303959997
 30
0.0
  0
VERTEX
  5
1DE0
  8
3
 10
41.63715183490001
 20
32.49528001329998
 30
0.0
  0
VERTEX
  5
1DE1
  8
3
 10
42.10313383210001
 20
32.22639406719998
 30
0.0
  0
VERTEX
  5
1DE2
  8
3
 10
42.3987324341
 20
31.90275874150001
 30
0.0
  0
VERTEX
  5
1DE3
  8
3
 10
42.5
 20
31.55059304539998
 30
0.0
  0
VERTEX
  5
1DE4
  8
3
 10
42.3987324341
 20
31.19842734939999
 30
0.0
  0
VERTEX
  5
1DE5
  8
3
 10
42.10313383210001
 20
30.87479202359998
 30
0.0
  0
VERTEX
  5
1DE6
  8
3
 10
41.63715183490001
 20
30.60590607749998
 30
0.0
  0
VERTEX
  5
1DE7
  8
3
 10
41.03853753250002
 20
30.41355305119998
 30
0.0
  0
VERTEX
  5
1DE8
  8
3
 10
40.35578709570001
 20
30.31331624310002
 30
0.0
  0
VERTEX
  5
1DE9
  8
3
 10
39.64421290429999
 20
30.31331624310002
 30
0.0
  0
VERTEX
  5
1DEA
  8
3
 10
38.96146246749998
 20
30.41355305119998
 30
0.0
  0
VERTEX
  5
1DEB
  8
3
 10
38.36284816519998
 20
30.60590607749998
 30
0.0
  0
VERTEX
  5
1DEC
  8
3
 10
37.89686616789999
 20
30.87479202359998
 30
0.0
  0
VERTEX
  5
1DED
  8
3
 10
37.60126756599999
 20
31.19842734939999
 30
0.0
  0
VERTEX
  5
1DEE
  8
3
 10
37.5
 20
31.55059304539998
 30
0.0
  0
SEQEND
  5
1F5E
  8
3
  0
POLYLINE
  5
1090
  8
3
 66
     1
 10
0.0
 20
0.0
 30
0.0
  0
VERTEX
  5
1DEF
  8
3
 10
37.94499999999999
 20
31.82043994000003
 30
0.0
  0
VERTEX
  5
1DF0
  8
3
 10
38.04557885899999
 20
32.13795490180001
 30
0.0
  0
VERTEX
  5
1DF1
  8
3
 10
38.33747007659997
 20
32.42438928680002
 30
0.0
  0
VERTEX
  5
1DF2
  8
3
 10
38.79210130659999
 20
32.65170490179997
 30
0.0
  0
VERTEX
  5
1DF3
  8
3
 10
39.3649700766
 20
32.79765051049998
 30
0.0
  0
VERTEX
  5
1DF4
  8
3
 10
40.0
 20
32.84793994
 30
0.0
  0
VERTEX
  5
1DF5
  8
3
 10
40.63502992349999
 20
32.79765051049998
 30
0.0
  0
VERTEX
  5
1DF6
  8
3
 10
41.2078986935
 20
32.65170490179997
 30
0.0
  0
VERTEX
  5
1DF7
  8
3
 10
41.66252992350002
 20
32.42438928680002
 30
0.0
  0
VERTEX
  5
1DF8
  8
3
 10
41.95442114100001
 20
32.13795490180001
 30
0.0
  0
VERTEX
  5
1DF9
  8
3
 10
42.05500000000001
 20
31.82043994000003
 30
0.0
  0
VERTEX
  5
1DFA
  8
3
 10
41.95442114100001
 20
31.50292497829997
 30
0.0
  0
VERTEX
  5
1DFB
  8
3
 10
41.66252992350002
 20
31.21649059330002
 30
0.0
  0
VERTEX
  5
1DFC
  8
3
 10
41.2078986935
 20
30.98917497830001
 30
0.0
  0
VERTEX
  5
1DFD
  8
3
 10
40.63502992349999
 20
30.84322936950002
 30
0.0
  0
VERTEX
  5
1DFE
  8
3
 10
40.0
 20
30.79293994
 30
0.0
  0
VERTEX
  5
1DFF
  8
3
 10
39.3649700766
 20
30.84322936950002
 30
0.0
  0
VERTEX
  5
1E00
  8
3
 10
38.79210130659999
 20
30.98917497830001
 30
0.0
  0
VERTEX
  5
1E01
  8
3
 10
38.33747007659997
 20
31.21649059330002
 30
0.0
  0
VERTEX
  5
1E02
  8
3
 10
38.04557885899999
 20
31.50292497829997
 30
0.0
  0
VERTEX
  5
1E03
  8
3
 10
37.94499999999999
 20
31.82043994000003
 30
0.0
  0
SEQEND
  5
1F5D
  8
3
  0
POLYLINE
  5
1091
  8
3
 66
     1
 10
0.0
 20
0.0
 30
0.0
  0
VERTEX
  5
1E04
  8
3
 10
37.74389687320001
 20
31.94238837659998
 30
0.0
  0
VERTEX
  5
1E05
  8
3
 10
37.844129205
 20
31.6098893413
 30
0.0
  0
VERTEX
  5
1E06
  8
3
 10
38.13592011779997
 20
31.30693430439999
 30
0.0
  0
VERTEX
  5
1E07
  8
3
 10
38.59334270850002
 20
31.06044215050002
 30
0.0
  0
VERTEX
  5
1E08
  8
3
 10
39.17575297259998
 20
30.8923147891
 30
0.0
  0
VERTEX
  5
1E09
  8
3
 10
39.83140120219997
 20
30.81749107410002
 30
0.0
  0
VERTEX
  5
1E0A
  8
3
 10
40.50203017489997
 20
30.84261942099999
 30
0.0
  0
VERTEX
  5
1E0B
  8
3
 10
41.12805156339999
 20
30.96546706589999
 30
0.0
  0
VERTEX
  5
1E0C
  8
3
 10
41.65384062020001
 20
31.17511845640001
 30
0.0
  0
VERTEX
  5
1E0D
  8
3
 10
42.03267868009999
 20
31.4529451464
 30
0.0
  0
VERTEX
  5
1E0E
  8
3
 10
42.23090431899999
 20
31.77426101520001
 30
0.0
  0
VERTEX
  5
1E0F
  8
3
 10
42.23090431899999
 20
32.110515738
 30
0.0
  0
VERTEX
  5
1E10
  8
3
 10
42.03267868009999
 20
32.4318316069
 30
0.0
  0
VERTEX
  5
1E11
  8
3
 10
41.65384062020001
 20
32.7096582968
 30
0.0
  0
VERTEX
  5
1E12
  8
3
 10
41.12805156339999
 20
32.91930968730003
 30
0.0
  0
VERTEX
  5
1E13
  8
3
 10
40.50203017489997
 20
33.04215733220002
 30
0.0
  0
VERTEX
  5
1E14
  8
3
 10
39.83140120219997
 20
33.0672856791
 30
0.0
  0
VERTEX
  5
1E15
  8
3
 10
39.17575297259998
 20
32.99246196410002
 30
0.0
  0
VERTEX
  5
1E16
  8
3
 10
38.59334270850002
 20
32.82433460269999
 30
0.0
  0
VERTEX
  5
1E17
  8
3
 10
38.13592011779997
 20
32.57784244880003
 30
0.0
  0
VERTEX
  5
1E18
  8
3
 10
37.844129205
 20
32.27488741190001
 30
0.0
  0
VERTEX
  5
1E19
  8
3
 10
37.74389687320001
 20
31.94238837659998
 30
0.0
  0
SEQEND
  5
1F5C
  8
3
  0
LINE
  5
1092
  8
3
 10
38.75
 20
30.0655152681
 30
0.0
 11
38.75
 21
29.3438274316
 31
0.0
  0
LINE
  5
1093
  8
3
 10
38.75
 20
30.0655152681
 30
0.0
 11
38.75
 21
32.40378385830002
 31
0.0
  0
LINE
  5
1094
  8
3
 10
41.25
 20
30.0655152681
 30
0.0
 11
41.25
 21
29.3438274316
 31
0.0
  0
LINE
  5
1095
  8
3
 10
41.25
 20
30.0655152681
 30
0.0
 11
41.25
 21
32.40378385830002
 31
0.0
  0
POLYLINE
  5
1096
  8
3
 66
     1
 10
0.0
 20
0.0
 30
0.0
  0
VERTEX
  5
1E1A
  8
3
 10
40.0
 20
33.07043994000003
 30
0.0
  0
VERTEX
  5
1E1B
  8
3
 10
40.63502992349999
 20
33.0201505105
 30
0.0
  0
VERTEX
  5
1E1C
  8
3
 10
41.2078986935
 20
32.8742049018
 30
0.0
  0
VERTEX
  5
1E1D
  8
3
 10
41.66252992350002
 20
32.64688928679999
 30
0.0
  0
VERTEX
  5
1E1E
  8
3
 10
41.95442114100001
 20
32.36045490179998
 30
0.0
  0
VERTEX
  5
1E1F
  8
3
 10
42.05500000000001
 20
32.04293994
 30
0.0
  0
VERTEX
  5
1E20
  8
3
 10
41.95442114100001
 20
31.7254249783
 30
0.0
  0
VERTEX
  5
1E21
  8
3
 10
41.66252992350002
 20
31.43899059329999
 30
0.0
  0
VERTEX
  5
1E22
  8
3
 10
41.2078986935
 20
31.21167497829998
 30
0.0
  0
VERTEX
  5
1E23
  8
3
 10
40.63502992349999
 20
31.06572936949999
 30
0.0
  0
VERTEX
  5
1E24
  8
3
 10
40.0
 20
31.01543994000002
 30
0.0
  0
VERTEX
  5
1E25
  8
3
 10
39.3649700766
 20
31.06572936949999
 30
0.0
  0
VERTEX
  5
1E26
  8
3
 10
38.79210130659999
 20
31.21167497829998
 30
0.0
  0
VERTEX
  5
1E27
  8
3
 10
38.33747007659997
 20
31.43899059329999
 30
0.0
  0
VERTEX
  5
1E28
  8
3
 10
38.04557885899999
 20
31.7254249783
 30
0.0
  0
VERTEX
  5
1E29
  8
3
 10
37.94499999999999
 20
32.04293994
 30
0.0
  0
VERTEX
  5
1E2A
  8
3
 10
38.04557885899999
 20
32.36045490179998
 30
0.0
  0
VERTEX
  5
1E2B
  8
3
 10
38.33747007659997
 20
32.64688928679999
 30
0.0
  0
VERTEX
  5
1E2C
  8
3
 10
38.79210130659999
 20
32.8742049018
 30
0.0
  0
VERTEX
  5
1E2D
  8
3
 10
39.3649700766
 20
33.0201505105
 30
0.0
  0
VERTEX
  5
1E2E
  8
3
 10
40.0
 20
33.07043994000003
 30
0.0
  0
SEQEND
  5
1F5B
  8
3
  0
LINE
  5
1097
  8
3
 10
38.75
 20
32.40378385830002
 30
0.0
 11
40.0
 21
32.76462777649999
 31
0.0
  0
LINE
  5
1098
  8
3
 10
41.25
 20
32.40378385830002
 30
0.0
 11
40.0
 21
32.76462777649999
 31
0.0
  0
LINE
  5
1099
  8
3
 10
40.0
 20
28.98298351329998
 30
0.0
 11
40.0
 21
30.42635918629998
 31
0.0
  0
LINE
  5
109A
  8
3
 10
41.25
 20
31.68209602180002
 30
0.0
 11
40.0
 21
31.3212521035
 31
0.0
  0
LINE
  5
109B
  8
3
 10
41.25
 20
29.3438274316
 30
0.0
 11
40.0
 21
28.98298351329998
 31
0.0
  0
LINE
  5
109C
  8
3
 10
38.75
 20
31.68209602180002
 30
0.0
 11
40.0
 21
31.3212521035
 31
0.0
  0
LINE
  5
109D
  8
3
 10
38.75
 20
29.3438274316
 30
0.0
 11
40.0
 21
28.98298351329998
 31
0.0
  0
CIRCLE
  5
109E
  8
3
 10
40.0
 20
0.0
 30
0.0
 40
2.5
  0
CIRCLE
  5
109F
  8
3
 10
40.0
 20
0.0
 30
0.0
 40
2.316732743452235
  0
CIRCLE
  5
10A0
  8
3
 10
40.0
 20
0.0
 30
0.0
 40
1.75
  0
POLYLINE
  5
10A1
  8
3
 66
     1
 10
0.0
 20
0.0
 30
0.0
  0
VERTEX
  5
1E2F
  8
3
 10
42.625
 20
32.90896534379999
 30
0.0
  0
VERTEX
  5
1E30
  8
3
 10
42.47743640789997
 20
33.3342432938
 30
0.0
  0
VERTEX
  5
1E31
  8
3
 10
42.0515647185
 20
33.6971888448
 30
0.0
  0
VERTEX
  5
1E32
  8
3
 10
41.39421598489997
 20
33.96461665380002
 30
0.0
  0
VERTEX
  5
1E33
  8
3
 10
40.5787182748
 20
34.11438363399998
 30
0.0
  0
VERTEX
  5
1E34
  8
3
 10
39.69906215309999
 20
34.13523308840001
 30
0.0
  0
VERTEX
  5
1E35
  8
3
 10
38.85479552620001
 20
34.02633849829999
 30
0.0
  0
VERTEX
  5
1E36
  8
3
 10
38.13869134110001
 20
33.79539467490002
 30
0.0
  0
VERTEX
  5
1E37
  8
3
 10
37.63084521309997
 20
33.45958602079997
 30
0.0
  0
VERTEX
  5
1E38
  8
3
 10
37.39018041759999
 20
33.04900903710001
 30
0.0
  0
VERTEX
  5
1E39
  8
3
 10
37.44372513960002
 20
32.60654368910002
 30
0.0
  0
VERTEX
  5
1E3A
  8
3
 10
37.78413085440002
 20
32.18272922009999
 30
0.0
  0
VERTEX
  5
1E3B
  8
3
 10
38.37404556249999
 20
31.83013595
 30
0.0
  0
VERTEX
  5
1E3C
  8
3
 10
39.14840169669998
 20
31.59712324690003
 30
0.0
  0
VERTEX
  5
1E3D
  8
3
 10
39.50702447869998
 20
31.56446215400001
 30
0.0
  0
SEQEND
  5
1F5A
  8
3
  0
POLYLINE
  5
10A2
  8
3
 66
     1
 10
0.0
 20
0.0
 30
0.0
  0
VERTEX
  5
1E3E
  8
3
 10
40.4772337407
 20
31.56326784459998
 30
0.0
  0
VERTEX
  5
1E3F
  8
3
 10
40.88457945459999
 20
31.60355584529998
 30
0.0
  0
VERTEX
  5
1E40
  8
3
 10
41.6511563569
 20
31.84114673030001
 30
0.0
  0
VERTEX
  5
1E41
  8
3
 10
42.23335366999999
 20
32.19757397289999
 30
0.0
  0
VERTEX
  5
1E42
  8
3
 10
42.56420109099997
 20
32.62452408920001
 30
0.0
  0
VERTEX
  5
1E43
  8
3
 10
42.625
 20
32.90896534379999
 30
0.0
  0
SEQEND
  5
1F59
  8
3
  0
POLYLINE
  5
10A3
  8
3
 66
     1
 10
0.0
 20
0.0
 30
0.0
  0
VERTEX
  5
1E44
  8
3
 10
42.625
 20
-32.90896534379999
 30
0.0
  0
VERTEX
  5
1E45
  8
3
 10
42.47743640789997
 20
-32.466525687
 30
0.0
  0
VERTEX
  5
1E46
  8
3
 10
42.0515647185
 20
-32.0595969524
 30
0.0
  0
VERTEX
  5
1E47
  8
3
 10
41.39421598489997
 20
-31.74047934070001
 30
0.0
  0
VERTEX
  5
1E48
  8
3
 10
40.6216658852
 20
-31.56379382900002
 30
0.0
  0
SEQEND
  5
1F58
  8
3
  0
POLYLINE
  5
10A4
  8
3
 66
     1
 10
0.0
 20
0.0
 30
0.0
  0
VERTEX
  5
1E49
  8
3
 10
39.49467488189998
 20
-31.56065311920003
 30
0.0
  0
VERTEX
  5
1E4A
  8
3
 10
38.85479552620001
 20
-31.66431993089998
 30
0.0
  0
VERTEX
  5
1E4B
  8
3
 10
38.13869134110001
 20
-31.94440708000002
 30
0.0
  0
VERTEX
  5
1E4C
  8
3
 10
37.63084521309997
 20
-32.32921856029998
 30
0.0
  0
VERTEX
  5
1E4D
  8
3
 10
37.39018041759999
 20
-32.76711056710002
 30
0.0
  0
VERTEX
  5
1E4E
  8
3
 10
37.44372513960002
 20
-33.20327129690003
 30
0.0
  0
VERTEX
  5
1E4F
  8
3
 10
37.78413085440002
 20
-33.59004898799998
 30
0.0
  0
VERTEX
  5
1E50
  8
3
 10
38.37404556249999
 20
-33.89093607789999
 30
0.0
  0
VERTEX
  5
1E51
  8
3
 10
39.14840169669998
 20
-34.0801466721
 30
0.0
  0
VERTEX
  5
1E52
  8
3
 10
40.0184095875
 20
-34.14282387980001
 30
0.0
  0
VERTEX
  5
1E53
  8
3
 10
40.88457945459999
 20
-34.07502184510003
 30
0.0
  0
VERTEX
  5
1E54
  8
3
 10
41.6511563569
 20
-33.8818102706
 30
0.0
  0
VERTEX
  5
1E55
  8
3
 10
42.23335366999999
 20
-33.5769783316
 30
0.0
  0
VERTEX
  5
1E56
  8
3
 10
42.56420109099997
 20
-33.18621596669999
 30
0.0
  0
VERTEX
  5
1E57
  8
3
 10
42.625
 20
-32.90896534379999
 30
0.0
  0
VERTEX
  5
1E58
  8
3
 10
42.625
 20
-32.90896534379999
 30
0.0
  0
SEQEND
  5
1F57
  8
3
  0
CIRCLE
  5
10A5
  8
3
 10
40.0
 20
0.0
 30
0.0
 40
2.099999999999994
  0
POLYLINE
  5
10A8
  8
3
 66
     1
 10
0.0
 20
0.0
 30
0.0
  0
VERTEX
  5
1E59
  8
3
 10
35.02325013860002
 20
22.44322949299999
 30
0.0
  0
VERTEX
  5
1E5A
  8
3
 10
35.03725536730002
 20
22.4603527319
 30
0.0
  0
VERTEX
  5
1E5B
  8
3
 10
35.04028384809999
 20
22.47872315990003
 30
0.0
  0
SEQEND
  5
1F56
  8
3
  0
POLYLINE
  5
10A9
  8
3
 66
     1
 10
0.0
 20
0.0
 30
0.0
  0
VERTEX
  5
1E5C
  8
3
 10
35.03052638859998
 20
-22.46891567620003
 30
0.0
  0
VERTEX
  5
1E5D
  8
3
 10
35.01360797899997
 20
-22.40919131729999
 30
0.0
  0
VERTEX
  5
1E5E
  8
3
 10
34.8300685145
 20
-22.26356318120003
 30
0.0
  0
VERTEX
  5
1E5F
  8
3
 10
34.79127985959997
 20
-22.2506863575
 30
0.0
  0
SEQEND
  5
1F55
  8
3
  0
POLYLINE
  5
10B2
  8
3
 66
     1
 10
0.0
 20
0.0
 30
0.0
  0
VERTEX
  5
1E60
  8
3
 10
40.0
 20
7.735244946900025
 30
0.0
  0
VERTEX
  5
1E61
  8
3
 10
40.6814095789
 20
7.7044266849
 30
0.0
  0
VERTEX
  5
1E62
  8
3
 10
41.28574411210002
 20
7.607531228100015
 30
0.0
  0
VERTEX
  5
1E63
  8
3
 10
41.76005575919999
 20
7.429567584899985
 30
0.0
  0
VERTEX
  5
1E64
  8
3
 10
42.04202691400002
 20
7.160207117699997
 30
0.0
  0
VERTEX
  5
1E65
  8
3
 10
42.08958067980001
 20
6.821374059300013
 30
0.0
  0
VERTEX
  5
1E66
  8
3
 10
41.9123299977
 20
6.453449514599981
 30
0.0
  0
VERTEX
  5
1E67
  8
3
 10
41.53097692709997
 20
6.096755917499991
 30
0.0
  0
VERTEX
  5
1E68
  8
3
 10
40.96868492570002
 20
5.806056734899983
 30
0.0
  0
VERTEX
  5
1E69
  8
3
 10
40.28962992599998
 20
5.649983053000028
 30
0.0
  0
VERTEX
  5
1E6A
  8
3
 10
40.0
 20
5.635244946900002
 30
0.0
  0
SEQEND
  5
1F54
  8
3
  0
LINE
  5
10B3
  8
3
 10
40.0
 20
8.0
 30
0.0
 11
40.0
 21
2.100000000000023
 31
0.0
  0
LINE
  5
10B4
  8
3
 10
40.0
 20
-2.100000000000023
 30
0.0
 11
40.0
 21
-8.0
 31
0.0
  0
POLYLINE
  5
10B5
  8
3
 66
     1
 10
0.0
 20
0.0
 30
0.0
  0
VERTEX
  5
1E6B
  8
3
 10
40.0
 20
-5.635244946900002
 30
0.0
  0
VERTEX
  5
1E6C
  8
3
 10
40.6814095789
 20
-5.718052856600025
 30
0.0
  0
VERTEX
  5
1E6D
  8
3
 10
41.28574411210002
 20
-5.947151127600023
 30
0.0
  0
VERTEX
  5
1E6E
  8
3
 10
41.76005575919999
 20
-6.2840529737
 30
0.0
  0
VERTEX
  5
1E6F
  8
3
 10
42.04202691400002
 20
-6.670180503499978
 30
0.0
  0
VERTEX
  5
1E70
  8
3
 10
42.08958067980001
 20
-7.030306064499996
 30
0.0
  0
VERTEX
  5
1E71
  8
3
 10
41.9123299977
 20
-7.32120177180002
 30
0.0
  0
VERTEX
  5
1E72
  8
3
 10
41.53097692709997
 20
-7.534152748199972
 30
0.0
  0
VERTEX
  5
1E73
  8
3
 10
40.96868492570002
 20
-7.669293036300019
 30
0.0
  0
VERTEX
  5
1E74
  8
3
 10
40.28962992599998
 20
-7.72991442350002
 30
0.0
  0
VERTEX
  5
1E75
  8
3
 10
40.0
 20
-7.735244946900025
 30
0.0
  0
SEQEND
  5
1F53
  8
3
  0
POLYLINE
  5
10B6
  8
3
 66
     1
 10
0.0
 20
0.0
 30
0.0
  0
VERTEX
  5
1E76
  8
3
 10
40.0
 20
4.732949074700002
 30
0.0
  0
VERTEX
  5
1E77
  8
3
 10
39.3228416737
 20
4.818694084900017
 30
0.0
  0
VERTEX
  5
1E78
  8
3
 10
38.72239176469998
 20
5.054520189799973
 30
0.0
  0
VERTEX
  5
1E79
  8
3
 10
38.24652800479998
 20
5.401221080799985
 30
0.0
  0
VERTEX
  5
1E7A
  8
3
 10
37.96015951099997
 20
5.797227240899986
 30
0.0
  0
VERTEX
  5
1E7B
  8
3
 10
37.90942034689999
 20
6.159079085100018
 30
0.0
  0
VERTEX
  5
1E7C
  8
3
 10
38.0807940391
 20
6.4432786104
 30
0.0
  0
VERTEX
  5
1E7D
  8
3
 10
38.45334421799998
 20
6.646299406100013
 30
0.0
  0
VERTEX
  5
1E7E
  8
3
 10
39.01022086360001
 20
6.772189431100003
 30
0.0
  0
VERTEX
  5
1E7F
  8
3
 10
39.68962466689999
 20
6.827660967600025
 30
0.0
  0
VERTEX
  5
1E80
  8
3
 10
40.0
 20
6.832949074700025
 30
0.0
  0
SEQEND
  5
1F52
  8
3
  0
LINE
  5
10B7
  8
3
 10
40.0
 20
-2.100000000000023
 30
0.0
 11
40.0
 21
2.100000000000023
 31
0.0
  0
POLYLINE
  5
10B8
  8
3
 66
     1
 10
0.0
 20
0.0
 30
0.0
  0
VERTEX
  5
1E81
  8
3
 10
40.0
 20
-6.832949074599981
 30
0.0
  0
VERTEX
  5
1E82
  8
3
 10
39.3228416737
 20
-6.806521190299975
 30
0.0
  0
VERTEX
  5
1E83
  8
3
 10
38.72239176469998
 20
-6.721168682099972
 30
0.0
  0
VERTEX
  5
1E84
  8
3
 10
38.24652800479998
 20
-6.556788457399989
 30
0.0
  0
VERTEX
  5
1E85
  8
3
 10
37.96015951099997
 20
-6.296277117300008
 30
0.0
  0
VERTEX
  5
1E86
  8
3
 10
37.90942034689999
 20
-5.960391607100007
 30
0.0
  0
VERTEX
  5
1E87
  8
3
 10
38.0807940391
 20
-5.590841821100014
 30
0.0
  0
VERTEX
  5
1E88
  8
3
 10
38.45334421799998
 20
-5.22578686060001
 30
0.0
  0
VERTEX
  5
1E89
  8
3
 10
39.01022086360001
 20
-4.920072463700023
 30
0.0
  0
VERTEX
  5
1E8A
  8
3
 10
39.68962466689999
 20
-4.750724003599998
 30
0.0
  0
VERTEX
  5
1E8B
  8
3
 10
40.0
 20
-4.732949074600015
 30
0.0
  0
SEQEND
  5
1F51
  8
3
  0
LINE
  5
10B9
  8
SK3
 10
-25.75
 20
7.0
 30
0.0
 11
-25.75
 21
-7.0
 31
0.0
  0
LINE
  5
10BA
  8
SK3
 10
-25.937469835
 20
6.687997800000005
 30
0.0
 11
-25.937469835
 21
-6.687997800000005
 31
0.0
  0
POLYLINE
  5
10BF
  8
3
 66
     1
 10
0.0
 20
0.0
 30
0.0
  0
VERTEX
  5
1E8C
  8
3
 10
40.0
 20
-30.62487914339999
 30
0.0
  0
VERTEX
  5
1E8D
  8
3
 10
40.64893568819997
 20
-30.67626980130001
 30
0.0
  0
VERTEX
  5
1E8E
  8
3
 10
41.2343490298
 20
-30.82541129930001
 30
0.0
  0
VERTEX
  5
1E8F
  8
3
 10
41.69893568819998
 20
-31.05770462850001
 30
0.0
  0
VERTEX
  5
1E90
  8
3
 10
41.99721868419999
 20
-31.35041129929999
 30
0.0
  0
VERTEX
  5
1E91
  8
3
 10
42.10000000000002
 20
-31.67487914340001
 30
0.0
  0
VERTEX
  5
1E92
  8
3
 10
41.99721868419999
 20
-31.99934698750002
 30
0.0
  0
VERTEX
  5
1E93
  8
3
 10
41.69893568819998
 20
-32.29205365830001
 30
0.0
  0
VERTEX
  5
1E94
  8
3
 10
41.2343490298
 20
-32.5243469875
 30
0.0
  0
VERTEX
  5
1E95
  8
3
 10
40.64893568819997
 20
-32.6734884855
 30
0.0
  0
VERTEX
  5
1E96
  8
3
 10
40.0
 20
-32.72487914340002
 30
0.0
  0
VERTEX
  5
1E97
  8
3
 10
39.35106431179997
 20
-32.6734884855
 30
0.0
  0
VERTEX
  5
1E98
  8
3
 10
38.7656509702
 20
-32.5243469875
 30
0.0
  0
VERTEX
  5
1E99
  8
3
 10
38.30106431180002
 20
-32.29205365830001
 30
0.0
  0
VERTEX
  5
1E9A
  8
3
 10
38.00278131580001
 20
-31.99934698750002
 30
0.0
  0
VERTEX
  5
1E9B
  8
3
 10
37.89999999999998
 20
-31.67487914340001
 30
0.0
  0
VERTEX
  5
1E9C
  8
3
 10
38.00278131580001
 20
-31.35041129929999
 30
0.0
  0
VERTEX
  5
1E9D
  8
3
 10
38.30106431180002
 20
-31.05770462850001
 30
0.0
  0
VERTEX
  5
1E9E
  8
3
 10
38.7656509702
 20
-30.82541129930001
 30
0.0
  0
VERTEX
  5
1E9F
  8
3
 10
39.35106431179997
 20
-30.67626980130001
 30
0.0
  0
VERTEX
  5
1EA0
  8
3
 10
40.0
 20
-30.62487914339999
 30
0.0
  0
SEQEND
  5
1F50
  8
3
  0
POLYLINE
  5
10C0
  8
3
 66
     1
 10
0.0
 20
0.0
 30
0.0
  0
VERTEX
  5
1EA1
  8
3
 10
41.18743420869998
 20
-10.39230484540002
 30
0.0
  0
VERTEX
  5
1EA2
  8
3
 10
41.74890983609998
 20
-11.22051215290003
 30
0.0
  0
VERTEX
  5
1EA3
  8
3
 10
41.98937715059998
 20
-11.68717954120001
 30
0.0
  0
VERTEX
  5
1EA4
  8
3
 10
42.09822813940002
 20
-12.07962050549997
 30
0.0
  0
VERTEX
  5
1EA5
  8
3
 10
42.05594995519999
 20
-12.29818896429998
 30
0.0
  0
VERTEX
  5
1EA6
  8
3
 10
41.90977232440002
 20
-12.38716758010003
 30
0.0
  0
VERTEX
  5
1EA7
  8
3
 10
41.57872907870001
 20
-12.33441025619999
 30
0.0
  0
VERTEX
  5
1EA8
  8
3
 10
41.02727769469999
 20
-12.00377975330002
 30
0.0
  0
VERTEX
  5
1EA9
  8
3
 10
40.79420357189997
 20
-11.7712206123
 30
0.0
  0
VERTEX
  5
1EAA
  8
3
 10
40.66499650049997
 20
-11.54372094950003
 30
0.0
  0
VERTEX
  5
1EAB
  8
3
 10
40.64138925840001
 20
-11.35995878540001
 30
0.0
  0
VERTEX
  5
1EAC
  8
3
 10
40.68730668789999
 20
-11.16815880569999
 30
0.0
  0
VERTEX
  5
1EAD
  8
3
 10
40.8771154607
 20
-10.82719904359999
 30
0.0
  0
VERTEX
  5
1EAE
  8
3
 10
41.42652384510001
 20
-10.05890140380001
 30
0.0
  0
VERTEX
  5
1EAF
  8
3
 10
41.82149134409997
 20
-9.438061437600027
 30
0.0
  0
VERTEX
  5
1EB0
  8
3
 10
42.02743133659999
 20
-9.000007255400021
 30
0.0
  0
VERTEX
  5
1EB1
  8
3
 10
42.0998083938
 20
-8.646244572400008
 30
0.0
  0
VERTEX
  5
1EB2
  8
3
 10
42.03394911639998
 20
-8.459144759299988
 30
0.0
  0
VERTEX
  5
1EB3
  8
3
 10
41.86723288539997
 20
-8.392806479199976
 30
0.0
  0
VERTEX
  5
1EB4
  8
3
 10
41.4996433485
 20
-8.482883512499996
 30
0.0
  0
VERTEX
  5
1EB5
  8
3
 10
40.92353764009999
 20
-8.872933529399972
 30
0.0
  0
VERTEX
  5
1EB6
  8
3
 10
40.73319171259999
 20
-9.0990624131
 30
0.0
  0
VERTEX
  5
1EB7
  8
3
 10
40.65000501330002
 20
-9.29701956209999
 30
0.0
  0
VERTEX
  5
1EB8
  8
3
 10
40.6483785218
 20
-9.481900162700015
 30
0.0
  0
VERTEX
  5
1EB9
  8
3
 10
40.73321999979999
 20
-9.717753775099993
 30
0.0
  0
VERTEX
  5
1EBA
  8
3
 10
41.11454719509999
 20
-10.29243026770001
 30
0.0
  0
VERTEX
  5
1EBB
  8
3
 10
41.18743420869998
 20
-10.39230484540002
 30
0.0
  0
SEQEND
  5
1F4F
  8
3
  0
POLYLINE
  5
10C1
  8
3
 66
     1
 10
0.0
 20
0.0
 30
0.0
  0
VERTEX
  5
1EBC
  8
3
 10
40.0
 20
32.72487914340002
 30
0.0
  0
VERTEX
  5
1EBD
  8
3
 10
40.64893568819997
 20
32.6734884855
 30
0.0
  0
VERTEX
  5
1EBE
  8
3
 10
41.2343490298
 20
32.5243469875
 30
0.0
  0
VERTEX
  5
1EBF
  8
3
 10
41.69893568819998
 20
32.29205365830001
 30
0.0
  0
VERTEX
  5
1EC0
  8
3
 10
41.99721868419999
 20
31.99934698750002
 30
0.0
  0
VERTEX
  5
1EC1
  8
3
 10
42.10000000000002
 20
31.67487914340001
 30
0.0
  0
VERTEX
  5
1EC2
  8
3
 10
41.99721868419999
 20
31.35041129929999
 30
0.0
  0
VERTEX
  5
1EC3
  8
3
 10
41.69893568819998
 20
31.05770462850001
 30
0.0
  0
VERTEX
  5
1EC4
  8
3
 10
41.2343490298
 20
30.82541129930001
 30
0.0
  0
VERTEX
  5
1EC5
  8
3
 10
40.64893568819997
 20
30.67626980130001
 30
0.0
  0
VERTEX
  5
1EC6
  8
3
 10
40.0
 20
30.62487914339999
 30
0.0
  0
VERTEX
  5
1EC7
  8
3
 10
39.35106431179997
 20
30.67626980130001
 30
0.0
  0
VERTEX
  5
1EC8
  8
3
 10
38.7656509702
 20
30.82541129930001
 30
0.0
  0
VERTEX
  5
1EC9
  8
3
 10
38.30106431180002
 20
31.05770462850001
 30
0.0
  0
VERTEX
  5
1ECA
  8
3
 10
38.00278131580001
 20
31.35041129929999
 30
0.0
  0
VERTEX
  5
1ECB
  8
3
 10
37.89999999999998
 20
31.67487914340001
 30
0.0
  0
VERTEX
  5
1ECC
  8
3
 10
38.00278131580001
 20
31.99934698750002
 30
0.0
  0
VERTEX
  5
1ECD
  8
3
 10
38.30106431180002
 20
32.29205365830001
 30
0.0
  0
VERTEX
  5
1ECE
  8
3
 10
38.7656509702
 20
32.5243469875
 30
0.0
  0
VERTEX
  5
1ECF
  8
3
 10
39.35106431179997
 20
32.6734884855
 30
0.0
  0
VERTEX
  5
1ED0
  8
3
 10
40.0
 20
32.72487914340002
 30
0.0
  0
SEQEND
  5
1F4E
  8
3
  0
POLYLINE
  5
10C2
  8
3
 66
     1
 10
0.0
 20
0.0
 30
0.0
  0
VERTEX
  5
1ED1
  8
3
 10
41.18743420869998
 20
10.39230484540002
 30
0.0
  0
VERTEX
  5
1ED2
  8
3
 10
40.83071350810002
 20
9.886277844099993
 30
0.0
  0
VERTEX
  5
1ED3
  8
3
 10
40.69306655809999
 20
9.630823114699979
 30
0.0
  0
VERTEX
  5
1ED4
  8
3
 10
40.64145720699997
 20
9.425662236300013
 30
0.0
  0
VERTEX
  5
1ED5
  8
3
 10
40.66926547539998
 20
9.228422313299973
 30
0.0
  0
VERTEX
  5
1ED6
  8
3
 10
40.81240975650002
 20
8.991039223500024
 30
0.0
  0
VERTEX
  5
1ED7
  8
3
 10
41.26120238729999
 20
8.611760011000001
 30
0.0
  0
VERTEX
  5
1ED8
  8
3
 10
41.76244969099997
 20
8.399360034999972
 30
0.0
  0
VERTEX
  5
1ED9
  8
3
 10
41.99671859419999
 20
8.429184491000001
 30
0.0
  0
VERTEX
  5
1EDA
  8
3
 10
42.09896407420001
 20
8.628219492500023
 30
0.0
  0
VERTEX
  5
1EDB
  8
3
 10
42.0524341615
 20
8.925771162899991
 30
0.0
  0
VERTEX
  5
1EDC
  8
3
 10
41.90274057400001
 20
9.28488196249998
 30
0.0
  0
VERTEX
  5
1EDD
  8
3
 10
41.56548096649999
 20
9.855021178299978
 30
0.0
  0
VERTEX
  5
1EDE
  8
3
 10
41.00877979910001
 20
10.6381473852
 30
0.0
  0
VERTEX
  5
1EDF
  8
3
 10
40.78264801559999
 20
10.97691082969999
 30
0.0
  0
VERTEX
  5
1EE0
  8
3
 10
40.6623756697
 20
11.24188556339999
 30
0.0
  0
VERTEX
  5
1EE1
  8
3
 10
40.64198546990002
 20
11.432149079
 30
0.0
  0
VERTEX
  5
1EE2
  8
3
 10
40.68999487349998
 20
11.60665134300001
 30
0.0
  0
VERTEX
  5
1EE3
  8
3
 10
40.88676977749998
 20
11.8753891376
 30
0.0
  0
VERTEX
  5
1EE4
  8
3
 10
41.44378092549999
 20
12.27544321570002
 30
0.0
  0
VERTEX
  5
1EE5
  8
3
 10
41.83023572669998
 20
12.3920082839
 30
0.0
  0
VERTEX
  5
1EE6
  8
3
 10
42.03158622270001
 20
12.32786511839998
 30
0.0
  0
VERTEX
  5
1EE7
  8
3
 10
42.09958565469998
 20
12.10312174799998
 30
0.0
  0
VERTEX
  5
1EE8
  8
3
 10
42.03105246370001
 20
11.79470494930001
 30
0.0
  0
VERTEX
  5
1EE9
  8
3
 10
41.86184255019998
 20
11.42067294539999
 30
0.0
  0
VERTEX
  5
1EEA
  8
3
 10
41.4897946255
 20
10.81723915750001
 30
0.0
  0
VERTEX
  5
1EEB
  8
3
 10
41.18743420869998
 20
10.39230484540002
 30
0.0
  0
SEQEND
  5
1F4D
  8
3
  0
POLYLINE
  5
10C3
  8
3
 66
     1
 10
0.0
 20
0.0
 30
0.0
  0
VERTEX
  5
1EEC
  8
3
 10
42.625
 20
-32.04293994
 30
0.0
  0
VERTEX
  5
1EED
  8
3
 10
42.51866905579999
 20
-32.41271392089999
 30
0.0
  0
VERTEX
  5
1EEE
  8
3
 10
42.20829052369999
 20
-32.75253101290002
 30
0.0
  0
VERTEX
  5
1EEF
  8
3
 10
41.7190094266
 20
-33.03486125640001
 30
0.0
  0
VERTEX
  5
1EF0
  8
3
 10
41.09046440919997
 20
-33.23683193390002
 30
0.0
  0
VERTEX
  5
1EF1
  8
3
 10
40.37357645049997
 20
-33.34208058249999
 30
0.0
  0
VERTEX
  5
1EF2
  8
3
 10
39.62642354960002
 20
-33.34208058249999
 30
0.0
  0
VERTEX
  5
1EF3
  8
3
 10
38.90953559090002
 20
-33.23683193390002
 30
0.0
  0
VERTEX
  5
1EF4
  8
3
 10
38.2809905734
 20
-33.03486125640001
 30
0.0
  0
VERTEX
  5
1EF5
  8
3
 10
37.79170947630001
 20
-32.75253101290002
 30
0.0
  0
VERTEX
  5
1EF6
  8
3
 10
37.4813309443
 20
-32.41271392089999
 30
0.0
  0
VERTEX
  5
1EF7
  8
3
 10
37.375
 20
-32.04293994
 30
0.0
  0
VERTEX
  5
1EF8
  8
3
 10
37.4813309443
 20
-31.67316595919999
 30
0.0
  0
VERTEX
  5
1EF9
  8
3
 10
37.79170947630001
 20
-31.33334886709997
 30
0.0
  0
VERTEX
  5
1EFA
  8
3
 10
38.2809905734
 20
-31.05101862369997
 30
0.0
  0
VERTEX
  5
1EFB
  8
3
 10
38.90953559090002
 20
-30.84904794609997
 30
0.0
  0
VERTEX
  5
1EFC
  8
3
 10
39.62642354960002
 20
-30.7437992975
 30
0.0
  0
VERTEX
  5
1EFD
  8
3
 10
40.37357645049997
 20
-30.7437992975
 30
0.0
  0
VERTEX
  5
1EFE
  8
3
 10
41.09046440919997
 20
-30.84904794609997
 30
0.0
  0
VERTEX
  5
1EFF
  8
3
 10
41.7190094266
 20
-31.05101862369997
 30
0.0
  0
VERTEX
  5
1F00
  8
3
 10
42.20829052369999
 20
-31.33334886709997
 30
0.0
  0
VERTEX
  5
1F01
  8
3
 10
42.51866905579999
 20
-31.67316595919999
 30
0.0
  0
VERTEX
  5
1F02
  8
3
 10
42.625
 20
-32.04293994
 30
0.0
  0
SEQEND
  5
1F4C
  8
3
  0
POLYLINE
  5
10C4
  8
3
 66
     1
 10
0.0
 20
0.0
 30
0.0
  0
VERTEX
  5
1F03
  8
3
 10
42.625
 20
32.04293994
 30
0.0
  0
VERTEX
  5
1F04
  8
3
 10
42.51866905579999
 20
31.67316595919999
 30
0.0
  0
VERTEX
  5
1F05
  8
3
 10
42.20829052369999
 20
31.33334886710003
 30
0.0
  0
VERTEX
  5
1F06
  8
3
 10
41.7190094266
 20
31.05101862369997
 30
0.0
  0
VERTEX
  5
1F07
  8
3
 10
41.09046440919997
 20
30.84904794609997
 30
0.0
  0
VERTEX
  5
1F08
  8
3
 10
40.37357645049997
 20
30.74379929759999
 30
0.0
  0
VERTEX
  5
1F09
  8
3
 10
39.62642354960002
 20
30.74379929759999
 30
0.0
  0
VERTEX
  5
1F0A
  8
3
 10
38.90953559090002
 20
30.84904794609997
 30
0.0
  0
VERTEX
  5
1F0B
  8
3
 10
38.2809905734
 20
31.05101862369997
 30
0.0
  0
VERTEX
  5
1F0C
  8
3
 10
37.79170947630001
 20
31.33334886710003
 30
0.0
  0
VERTEX
  5
1F0D
  8
3
 10
37.4813309443
 20
31.67316595919999
 30
0.0
  0
VERTEX
  5
1F0E
  8
3
 10
37.375
 20
32.04293994
 30
0.0
  0
VERTEX
  5
1F0F
  8
3
 10
37.4813309443
 20
32.41271392089999
 30
0.0
  0
VERTEX
  5
1F10
  8
3
 10
37.79170947630001
 20
32.75253101290002
 30
0.0
  0
VERTEX
  5
1F11
  8
3
 10
38.2809905734
 20
33.03486125640001
 30
0.0
  0
VERTEX
  5
1F12
  8
3
 10
38.90953559090002
 20
33.23683193390002
 30
0.0
  0
VERTEX
  5
1F13
  8
3
 10
39.62642354960002
 20
33.34208058249999
 30
0.0
  0
VERTEX
  5
1F14
  8
3
 10
40.37357645049997
 20
33.34208058249999
 30
0.0
  0
VERTEX
  5
1F15
  8
3
 10
41.09046440919997
 20
33.23683193390002
 30
0.0
  0
VERTEX
  5
1F16
  8
3
 10
41.7190094266
 20
33.03486125640001
 30
0.0
  0
VERTEX
  5
1F17
  8
3
 10
42.20829052369999
 20
32.75253101290002
 30
0.0
  0
VERTEX
  5
1F18
  8
3
 10
42.51866905579999
 20
32.41271392089999
 30
0.0
  0
VERTEX
  5
1F19
  8
3
 10
42.625
 20
32.04293994
 30
0.0
  0
SEQEND
  5
1F4B
  8
3
  0
POLYLINE
  5
10C5
  8
3
 66
     1
 10
0.0
 20
0.0
 30
0.0
  0
VERTEX
  5
1F1A
  8
3
 10
40.0
 20
-30.78043994000001
 30
0.0
  0
VERTEX
  5
1F1B
  8
3
 10
40.71137470600002
 20
-30.83158006079998
 30
0.0
  0
VERTEX
  5
1F1C
  8
3
 10
41.36511806409999
 20
-30.98085735479998
 30
0.0
  0
VERTEX
  5
1F1D
  8
3
 10
41.90826767530001
 20
-31.21617826340002
 30
0.0
  0
VERTEX
  5
1F1E
  8
3
 10
42.29682078830001
 20
-31.51847848609998
 30
0.0
  0
VERTEX
  5
1F1F
  8
3
 10
42.49929914080002
 20
-31.86326745669999
 30
0.0
  0
VERTEX
  5
1F20
  8
3
 10
42.49929914080002
 20
-32.22261242330001
 30
0.0
  0
VERTEX
  5
1F21
  8
3
 10
42.29682078830001
 20
-32.56740139390001
 30
0.0
  0
VERTEX
  5
1F22
  8
3
 10
41.90826767530001
 20
-32.86970161660003
 30
0.0
  0
VERTEX
  5
1F23
  8
3
 10
41.36511806409999
 20
-33.10502252520001
 30
0.0
  0
VERTEX
  5
1F24
  8
3
 10
40.71137470600002
 20
-33.25429981920001
 30
0.0
  0
VERTEX
  5
1F25
  8
3
 10
40.0
 20
-33.30543993999999
 30
0.0
  0
VERTEX
  5
1F26
  8
3
 10
39.28862529399998
 20
-33.25429981920001
 30
0.0
  0
VERTEX
  5
1F27
  8
3
 10
38.63488193590001
 20
-33.10502252520001
 30
0.0
  0
VERTEX
  5
1F28
  8
3
 10
38.09173232479998
 20
-32.86970161660003
 30
0.0
  0
VERTEX
  5
1F29
  8
3
 10
37.70317921179998
 20
-32.56740139390001
 30
0.0
  0
VERTEX
  5
1F2A
  8
3
 10
37.50070085929997
 20
-32.22261242330001
 30
0.0
  0
VERTEX
  5
1F2B
  8
3
 10
37.50070085929997
 20
-31.86326745669999
 30
0.0
  0
VERTEX
  5
1F2C
  8
3
 10
37.70317921179998
 20
-31.51847848609998
 30
0.0
  0
VERTEX
  5
1F2D
  8
3
 10
38.09173232479998
 20
-31.21617826340002
 30
0.0
  0
VERTEX
  5
1F2E
  8
3
 10
38.63488193590001
 20
-30.98085735479998
 30
0.0
  0
VERTEX
  5
1F2F
  8
3
 10
39.28862529399998
 20
-30.83158006079998
 30
0.0
  0
VERTEX
  5
1F30
  8
3
 10
40.0
 20
-30.78043994000001
 30
0.0
  0
SEQEND
  5
1F4A
  8
3
  0
POLYLINE
  5
10C6
  8
3
 66
     1
 10
0.0
 20
0.0
 30
0.0
  0
VERTEX
  5
1F31
  8
3
 10
40.0
 20
33.30543993999999
 30
0.0
  0
VERTEX
  5
1F32
  8
3
 10
40.71137470600002
 20
33.25429981920001
 30
0.0
  0
VERTEX
  5
1F33
  8
3
 10
41.36511806409999
 20
33.10502252520001
 30
0.0
  0
VERTEX
  5
1F34
  8
3
 10
41.90826767530001
 20
32.86970161660003
 30
0.0
  0
VERTEX
  5
1F35
  8
3
 10
42.29682078830001
 20
32.56740139390001
 30
0.0
  0
VERTEX
  5
1F36
  8
3
 10
42.49929914080002
 20
32.22261242339999
 30
0.0
  0
VERTEX
  5
1F37
  8
3
 10
42.49929914080002
 20
31.86326745669999
 30
0.0
  0
VERTEX
  5
1F38
  8
3
 10
42.29682078830001
 20
31.51847848609998
 30
0.0
  0
VERTEX
  5
1F39
  8
3
 10
41.90826767530001
 20
31.21617826340002
 30
0.0
  0
VERTEX
  5
1F3A
  8
3
 10
41.36511806409999
 20
30.98085735479998
 30
0.0
  0
VERTEX
  5
1F3B
  8
3
 10
40.71137470600002
 20
30.83158006079998
 30
0.0
  0
VERTEX
  5
1F3C
  8
3
 10
40.0
 20
30.78043994000001
 30
0.0
  0
VERTEX
  5
1F3D
  8
3
 10
39.28862529399998
 20
30.83158006079998
 30
0.0
  0
VERTEX
  5
1F3E
  8
3
 10
38.63488193590001
 20
30.98085735479998
 30
0.0
  0
VERTEX
  5
1F3F
  8
3
 10
38.09173232479998
 20
31.21617826340002
 30
0.0
  0
VERTEX
  5
1F40
  8
3
 10
37.70317921179998
 20
31.51847848609998
 30
0.0
  0
VERTEX
  5
1F41
  8
3
 10
37.50070085929997
 20
31.86326745669999
 30
0.0
  0
VERTEX
  5
1F42
  8
3
 10
37.50070085929997
 20
32.22261242339999
 30
0.0
  0
VERTEX
  5
1F43
  8
3
 10
37.70317921179998
 20
32.56740139390001
 30
0.0
  0
VERTEX
  5
1F44
  8
3
 10
38.09173232479998
 20
32.86970161660003
 30
0.0
  0
VERTEX
  5
1F45
  8
3
 10
38.63488193590001
 20
33.10502252520001
 30
0.0
  0
VERTEX
  5
1F46
  8
3
 10
39.28862529399998
 20
33.25429981920001
 30
0.0
  0
VERTEX
  5
1F47
  8
3
 10
40.0
 20
33.30543993999999
 30
0.0
  0
SEQEND
  5
1F49
  8
3
  0
LINE
  5
10CD
  8
3
 10
50.0
 20
-22.24086999999997
 30
0.0
 11
39.26244997999999
 21
-22.24086999999997
 31
0.0
  0
LINE
  5
10CE
  8
3
 10
39.26244997999999
 20
-36.25913000000003
 30
0.0
 11
50.0
 21
-36.25913000000003
 31
0.0
  0
ARC
  5
10CF
  8
3
 10
39.19999999999999
 20
-22.05086999999997
 30
0.0
 40
0.2000000000000013
 50
270.0
 51
288.1948723387958
  0
ARC
  5
10D0
  8
3
 10
39.19999999999999
 20
-36.44913000000003
 30
0.0
 40
0.2000000000000013
 50
71.80512766120421
 51
90.0
  0
LINE
  5
10D1
  8
3
 10
38.12976581769999
 20
-22.25087000000002
 30
0.0
 11
37.19999999999999
 21
-22.5
 31
0.0
  0
LINE
  5
10D2
  8
3
 10
37.19999999999999
 20
-36.0
 30
0.0
 11
38.12976581769999
 21
-36.24912999999998
 31
0.0
  0
LINE
  5
10D3
  8
3
 10
39.19999999999999
 20
-22.25087000000002
 30
0.0
 11
38.12976581769999
 21
-22.25087000000002
 31
0.0
  0
LINE
  5
10D4
  8
3
 10
38.12976581769999
 20
-36.24912999999998
 30
0.0
 11
39.19999999999999
 21
-36.24912999999998
 31
0.0
  0
ARC
  5
10D5
  8
3
 10
39.19999999999999
 20
36.44913000000003
 30
0.0
 40
0.1999999999999474
 50
270.0
 51
288.1948723388009
  0
ARC
  5
10D6
  8
3
 10
39.19999999999999
 20
22.05086999999997
 30
0.0
 40
0.2000000000000554
 50
71.80512766119128
 51
90.0
  0
LINE
  5
10D7
  8
3
 10
50.0
 20
36.25913000000003
 30
0.0
 11
39.26244997999999
 21
36.25913000000003
 31
0.0
  0
LINE
  5
10D8
  8
3
 10
39.26244997999999
 20
22.24086999999997
 30
0.0
 11
50.0
 21
22.24086999999997
 31
0.0
  0
LINE
  5
10D9
  8
3
 10
39.19999999999999
 20
36.24912999999998
 30
0.0
 11
38.12976581769999
 21
36.24912999999998
 31
0.0
  0
LINE
  5
10DA
  8
3
 10
38.12976581769999
 20
22.25087000000002
 30
0.0
 11
39.19999999999999
 21
22.25087000000002
 31
0.0
  0
LINE
  5
10DB
  8
3
 10
38.12976581769999
 20
36.24912999999998
 30
0.0
 11
37.19999999999999
 21
36.0
 31
0.0
  0
LINE
  5
10DC
  8
3
 10
37.19999999999999
 20
22.5
 30
0.0
 11
38.12976581769999
 21
22.25087000000002
 31
0.0
  0
LINE
  5
10DD
  8
3
 10
41.89160436399999
 20
-26.66880933380003
 30
0.0
 11
41.4288690166
 21
-26.34160603179998
 31
0.0
  0
LINE
  5
10DE
  8
3
 10
38.5711309834
 20
-26.34160603179998
 30
0.0
 11
38.1083956361
 21
-26.66880933380003
 31
0.0
  0
LINE
  5
10DF
  8
3
 10
41.41450320410001
 20
-26.73547640520002
 30
0.0
 11
41.16272163370002
 21
-26.6490900247
 31
0.0
  0
LINE
  5
10E0
  8
3
 10
38.83727836629998
 20
-26.6490900247
 30
0.0
 11
38.58549679599997
 21
-26.73547640520002
 31
0.0
  0
LINE
  5
10E1
  8
3
 10
38.68918964459999
 20
-28.29271377369997
 30
0.0
 11
38.83727836629998
 21
-28.34352308690001
 31
0.0
  0
LINE
  5
10E2
  8
3
 10
41.16272163370002
 20
-28.34352308690001
 30
0.0
 11
41.31081035540001
 21
-28.29271377369997
 31
0.0
  0
LINE
  5
10E3
  8
3
 10
42.5
 20
-27.84419300180002
 30
0.0
 11
42.5
 21
-27.7661534504
 31
0.0
  0
LINE
  5
10E4
  8
3
 10
37.5
 20
-27.7661534504
 30
0.0
 11
37.5
 21
-27.84419300180002
 31
0.0
  0
LINE
  5
10E5
  8
3
 10
38.58549679599997
 20
-28.87487004690001
 30
0.0
 11
38.83727836629998
 21
-28.96125642750002
 31
0.0
  0
LINE
  5
10E6
  8
3
 10
41.16272163370002
 20
-28.96125642750002
 30
0.0
 11
41.41450320410001
 21
-28.87487004690001
 31
0.0
  0
LINE
  5
10E7
  8
3
 10
41.41450320410001
 20
-27.35320974579997
 30
0.0
 11
41.16272163370002
 21
-27.26682336530001
 31
0.0
  0
LINE
  5
10E8
  8
3
 10
38.83727836629998
 20
-27.26682336530001
 30
0.0
 11
38.58549679599997
 21
-27.35320974579997
 31
0.0
  0
LINE
  5
10E9
  8
3
 10
42.5
 20
-28.46192634239998
 30
0.0
 11
42.5
 21
-28.38388679100001
 31
0.0
  0
LINE
  5
10EA
  8
3
 10
37.5
 20
-28.38388679100001
 30
0.0
 11
37.5
 21
-28.46192634239998
 31
0.0
  0
LINE
  5
10EB
  8
3
 10
38.58549679599997
 20
-29.49260338750003
 30
0.0
 11
38.83727836629998
 21
-29.57898976809997
 31
0.0
  0
LINE
  5
10EC
  8
3
 10
41.16272163370002
 20
-29.57898976809997
 30
0.0
 11
41.41450320410001
 21
-29.49260338750003
 31
0.0
  0
LINE
  5
10ED
  8
3
 10
41.41450320410001
 20
-27.97094308649997
 30
0.0
 11
41.16272163370002
 21
-27.88455670590002
 31
0.0
  0
LINE
  5
10EE
  8
3
 10
38.83727836629998
 20
-27.88455670590002
 30
0.0
 11
38.58549679599997
 21
-27.97094308649997
 31
0.0
  0
LINE
  5
10EF
  8
3
 10
42.5
 20
-29.07965968299999
 30
0.0
 11
42.5
 21
-29.00162013160002
 31
0.0
  0
LINE
  5
10F0
  8
3
 10
37.5
 20
-29.00162013160002
 30
0.0
 11
37.5
 21
-29.07965968299999
 31
0.0
  0
LINE
  5
10F1
  8
3
 10
38.58549679599997
 20
-30.11033672809998
 30
0.0
 11
38.83727836629998
 21
-30.19672310869998
 31
0.0
  0
LINE
  5
10F2
  8
3
 10
41.16272163370002
 20
-30.19672310869998
 30
0.0
 11
41.41450320410001
 21
-30.11033672809998
 31
0.0
  0
LINE
  5
10F3
  8
3
 10
41.41450320410001
 20
-28.58867642709998
 30
0.0
 11
41.16272163370002
 21
-28.50229004649998
 31
0.0
  0
LINE
  5
10F4
  8
3
 10
38.83727836629998
 20
-28.50229004649998
 30
0.0
 11
38.58549679599997
 21
-28.58867642709998
 31
0.0
  0
LINE
  5
10F5
  8
3
 10
42.5
 20
-29.6973930236
 30
0.0
 11
42.5
 21
-29.61935347219998
 31
0.0
  0
LINE
  5
10F6
  8
3
 10
37.5
 20
-29.61935347219998
 30
0.0
 11
37.5
 21
-29.6973930236
 31
0.0
  0
LINE
  5
10F7
  8
3
 10
38.58549679599997
 20
-30.72807006869999
 30
0.0
 11
38.83727836629998
 21
-30.8144564493
 31
0.0
  0
LINE
  5
10F8
  8
3
 10
41.16272163370002
 20
-30.8144564493
 30
0.0
 11
41.41450320410001
 21
-30.72807006869999
 31
0.0
  0
LINE
  5
10F9
  8
3
 10
41.41450320410001
 20
-29.20640976769999
 30
0.0
 11
41.16272163370002
 21
-29.12002338709999
 31
0.0
  0
LINE
  5
10FA
  8
3
 10
38.83727836629998
 20
-29.12002338709999
 30
0.0
 11
38.58549679599997
 21
-29.20640976769999
 31
0.0
  0
LINE
  5
10FB
  8
3
 10
42.5
 20
-30.31512636420001
 30
0.0
 11
42.5
 21
-30.23708681279999
 31
0.0
  0
LINE
  5
10FC
  8
3
 10
37.5
 20
-30.23708681279999
 30
0.0
 11
37.5
 21
-30.31512636420001
 31
0.0
  0
LINE
  5
10FD
  8
3
 10
38.58549679599997
 20
-31.34580340939999
 30
0.0
 11
38.83727836629998
 21
-31.43218978990001
 31
0.0
  0
LINE
  5
10FE
  8
3
 10
41.16272163370002
 20
-31.43218978990001
 30
0.0
 11
41.41450320410001
 21
-31.34580340939999
 31
0.0
  0
LINE
  5
10FF
  8
3
 10
41.41450320410001
 20
-29.82414310830001
 30
0.0
 11
41.16272163370002
 21
-29.7377567277
 31
0.0
  0
LINE
  5
1100
  8
3
 10
38.83727836629998
 20
-29.7377567277
 30
0.0
 11
38.58549679599997
 21
-29.82414310830001
 31
0.0
  0
LINE
  5
1101
  8
3
 10
42.5
 20
-30.93285970480002
 30
0.0
 11
42.5
 21
-30.8548201534
 31
0.0
  0
LINE
  5
1102
  8
3
 10
37.5
 20
-30.8548201534
 30
0.0
 11
37.5
 21
-30.93285970480002
 31
0.0
  0
LINE
  5
1103
  8
3
 10
38.58549679599997
 20
-31.96353675
 30
0.0
 11
38.83727836629998
 21
-32.04992313050002
 31
0.0
  0
LINE
  5
1104
  8
3
 10
41.16272163370002
 20
-32.04992313050002
 30
0.0
 11
41.41450320410001
 21
-31.96353675
 31
0.0
  0
LINE
  5
1105
  8
3
 10
41.41450320410001
 20
-30.44187644890002
 30
0.0
 11
41.16272163370002
 21
-30.35549006830001
 31
0.0
  0
LINE
  5
1106
  8
3
 10
38.83727836629998
 20
-30.35549006830001
 30
0.0
 11
38.58549679599997
 21
-30.44187644890002
 31
0.0
  0
LINE
  5
1107
  8
3
 10
42.5
 20
-31.55059304539998
 30
0.0
 11
42.5
 21
-31.47255349400001
 31
0.0
  0
LINE
  5
1108
  8
3
 10
37.5
 20
-31.47255349400001
 30
0.0
 11
37.5
 21
-31.55059304539998
 31
0.0
  0
LINE
  5
1109
  8
3
 10
38.58549679599997
 20
-32.58127009060001
 30
0.0
 11
38.83727836629998
 21
-32.66765647109997
 31
0.0
  0
LINE
  5
110A
  8
3
 10
41.16272163370002
 20
-32.66765647109997
 30
0.0
 11
41.41450320410001
 21
-32.58127009060001
 31
0.0
  0
LINE
  5
110B
  8
3
 10
41.27650604069999
 20
-31.01226289480002
 30
0.0
 11
41.16272163370002
 21
-30.97322340890003
 31
0.0
  0
LINE
  5
110C
  8
3
 10
38.83727836629998
 20
-30.97322340890003
 30
0.0
 11
38.7234939594
 21
-31.01226289480002
 31
0.0
  0
LINE
  5
110D
  8
3
 10
38.1083956361
 20
26.66880933380003
 30
0.0
 11
38.5711309834
 21
26.34160603179998
 31
0.0
  0
LINE
  5
110E
  8
3
 10
41.4288690166
 20
26.34160603179998
 30
0.0
 11
41.89160436399999
 21
26.66880933380003
 31
0.0
  0
LINE
  5
110F
  8
3
 10
38.58549679599997
 20
26.73547640530001
 30
0.0
 11
38.83727836629998
 21
26.6490900247
 31
0.0
  0
LINE
  5
1110
  8
3
 10
41.16272163370002
 20
26.6490900247
 30
0.0
 11
41.41450320410001
 21
26.73547640530001
 31
0.0
  0
LINE
  5
1111
  8
3
 10
41.31081035540001
 20
28.29271377369997
 30
0.0
 11
41.16272163370002
 21
28.34352308690001
 31
0.0
  0
LINE
  5
1112
  8
3
 10
38.83727836629998
 20
28.34352308690001
 30
0.0
 11
38.68918964459999
 21
28.29271377369997
 31
0.0
  0
LINE
  5
1113
  8
3
 10
37.5
 20
27.84419300180002
 30
0.0
 11
37.5
 21
27.7661534504
 31
0.0
  0
LINE
  5
1114
  8
3
 10
42.5
 20
27.7661534504
 30
0.0
 11
42.5
 21
27.84419300180002
 31
0.0
  0
LINE
  5
1115
  8
3
 10
41.41450320410001
 20
28.87487004690001
 30
0.0
 11
41.16272163370002
 21
28.96125642750002
 31
0.0
  0
LINE
  5
1116
  8
3
 10
38.83727836629998
 20
28.96125642750002
 30
0.0
 11
38.58549679599997
 21
28.87487004690001
 31
0.0
  0
LINE
  5
1117
  8
3
 10
38.58549679599997
 20
27.35320974590002
 30
0.0
 11
38.83727836629998
 21
27.26682336530001
 31
0.0
  0
LINE
  5
1118
  8
3
 10
41.16272163370002
 20
27.26682336530001
 30
0.0
 11
41.41450320410001
 21
27.35320974590002
 31
0.0
  0
LINE
  5
1119
  8
3
 10
37.5
 20
28.46192634239998
 30
0.0
 11
37.5
 21
28.38388679100001
 31
0.0
  0
LINE
  5
111A
  8
3
 10
42.5
 20
28.38388679100001
 30
0.0
 11
42.5
 21
28.46192634239998
 31
0.0
  0
LINE
  5
111B
  8
3
 10
41.41450320410001
 20
29.49260338760001
 30
0.0
 11
41.16272163370002
 21
29.57898976809997
 31
0.0
  0
LINE
  5
111C
  8
3
 10
38.83727836629998
 20
29.57898976809997
 30
0.0
 11
38.58549679599997
 21
29.49260338760001
 31
0.0
  0
LINE
  5
111D
  8
3
 10
38.58549679599997
 20
27.97094308650003
 30
0.0
 11
38.83727836629998
 21
27.88455670590002
 31
0.0
  0
LINE
  5
111E
  8
3
 10
41.16272163370002
 20
27.88455670590002
 30
0.0
 11
41.41450320410001
 21
27.97094308650003
 31
0.0
  0
LINE
  5
111F
  8
3
 10
37.5
 20
29.07965968299999
 30
0.0
 11
37.5
 21
29.00162013160002
 31
0.0
  0
LINE
  5
1120
  8
3
 10
42.5
 20
29.00162013160002
 30
0.0
 11
42.5
 21
29.07965968299999
 31
0.0
  0
LINE
  5
1121
  8
3
 10
41.41450320410001
 20
30.11033672820002
 30
0.0
 11
41.16272163370002
 21
30.19672310869998
 31
0.0
  0
LINE
  5
1122
  8
3
 10
38.83727836629998
 20
30.19672310869998
 30
0.0
 11
38.58549679599997
 21
30.11033672820002
 31
0.0
  0
LINE
  5
1123
  8
3
 10
38.58549679599997
 20
28.58867642709998
 30
0.0
 11
38.83727836629998
 21
28.50229004649998
 31
0.0
  0
LINE
  5
1124
  8
3
 10
41.16272163370002
 20
28.50229004649998
 30
0.0
 11
41.41450320410001
 21
28.58867642709998
 31
0.0
  0
LINE
  5
1125
  8
3
 10
37.5
 20
29.6973930236
 30
0.0
 11
37.5
 21
29.61935347219998
 31
0.0
  0
LINE
  5
1126
  8
3
 10
42.5
 20
29.61935347219998
 30
0.0
 11
42.5
 21
29.6973930236
 31
0.0
  0
LINE
  5
1127
  8
3
 10
41.41450320410001
 20
30.72807006879998
 30
0.0
 11
41.16272163370002
 21
30.8144564493
 31
0.0
  0
LINE
  5
1128
  8
3
 10
38.83727836629998
 20
30.8144564493
 30
0.0
 11
38.58549679599997
 21
30.72807006879998
 31
0.0
  0
LINE
  5
1129
  8
3
 10
38.58549679599997
 20
29.20640976769999
 30
0.0
 11
38.83727836629998
 21
29.12002338709999
 31
0.0
  0
LINE
  5
112A
  8
3
 10
41.16272163370002
 20
29.12002338709999
 30
0.0
 11
41.41450320410001
 21
29.20640976769999
 31
0.0
  0
LINE
  5
112B
  8
3
 10
37.5
 20
30.31512636420001
 30
0.0
 11
37.5
 21
30.23708681279999
 31
0.0
  0
LINE
  5
112C
  8
3
 10
42.5
 20
30.23708681279999
 30
0.0
 11
42.5
 21
30.31512636420001
 31
0.0
  0
LINE
  5
112D
  8
3
 10
41.41450320410001
 20
31.34580340939999
 30
0.0
 11
41.16272163370002
 21
31.43218978990001
 31
0.0
  0
LINE
  5
112E
  8
3
 10
38.83727836629998
 20
31.43218978990001
 30
0.0
 11
38.58549679599997
 21
31.34580340939999
 31
0.0
  0
LINE
  5
112F
  8
3
 10
38.58549679599997
 20
29.82414310830001
 30
0.0
 11
38.83727836629998
 21
29.7377567277
 31
0.0
  0
LINE
  5
1130
  8
3
 10
41.16272163370002
 20
29.7377567277
 30
0.0
 11
41.41450320410001
 21
29.82414310830001
 31
0.0
  0
LINE
  5
1131
  8
3
 10
37.5
 20
30.93285970480002
 30
0.0
 11
37.5
 21
30.8548201534
 31
0.0
  0
LINE
  5
1132
  8
3
 10
42.5
 20
30.8548201534
 30
0.0
 11
42.5
 21
30.93285970480002
 31
0.0
  0
LINE
  5
1133
  8
3
 10
41.41450320410001
 20
31.96353675
 30
0.0
 11
41.16272163370002
 21
32.04992313060001
 31
0.0
  0
LINE
  5
1134
  8
3
 10
38.83727836629998
 20
32.04992313060001
 30
0.0
 11
38.58549679599997
 21
31.96353675
 31
0.0
  0
LINE
  5
1135
  8
3
 10
38.58549679599997
 20
30.44187644890002
 30
0.0
 11
38.83727836629998
 21
30.35549006830001
 31
0.0
  0
LINE
  5
1136
  8
3
 10
41.16272163370002
 20
30.35549006830001
 30
0.0
 11
41.41450320410001
 21
30.44187644890002
 31
0.0
  0
LINE
  5
1137
  8
3
 10
37.5
 20
31.55059304539998
 30
0.0
 11
37.5
 21
31.4725534941
 31
0.0
  0
LINE
  5
1138
  8
3
 10
42.5
 20
31.4725534941
 30
0.0
 11
42.5
 21
31.55059304539998
 31
0.0
  0
LINE
  5
1139
  8
3
 10
41.41450320410001
 20
32.58127009060001
 30
0.0
 11
41.16272163370002
 21
32.66765647120002
 31
0.0
  0
LINE
  5
113A
  8
3
 10
38.83727836629998
 20
32.66765647120002
 30
0.0
 11
38.58549679599997
 21
32.58127009060001
 31
0.0
  0
LINE
  5
113B
  8
3
 10
38.7234939594
 20
31.0122628949
 30
0.0
 11
38.83727836629998
 21
30.97322340890003
 31
0.0
  0
LINE
  5
113C
  8
3
 10
41.16272163370002
 20
30.97322340890003
 30
0.0
 11
41.27650604069999
 21
31.0122628949
 31
0.0
  0
LINE
  5
1140
  8
3
 10
50.0
 20
16.99907116060001
 30
0.0
 11
49.81362966950002
 21
16.30352761799998
 31
0.0
  0
LINE
  5
1141
  8
3
 10
49.81362966950002
 20
-16.30352761799998
 30
0.0
 11
50.0
 21
-16.99907116050002
 31
0.0
  0
ARC
  5
1142
  8
3
 10
50.19999999999999
 20
-16.19999999999999
 30
0.0
 40
0.4000000000000044
 50
166.874999999997
 51
195.0000000000026
  0
ARC
  5
1143
  8
3
 10
50.19999999999999
 20
-16.19999999999999
 30
0.0
 40
0.4000000000000044
 50
119.9999999999977
 51
166.874999999997
  0
ARC
  5
1144
  8
3
 10
50.19999999999999
 20
16.19999999999999
 30
0.0
 40
0.3999999999999773
 50
164.9999999999964
 51
180.0
  0
ARC
  5
1145
  8
3
 10
50.19999999999999
 20
16.19999999999999
 30
0.0
 40
0.3999999999999773
 50
180.0
 51
239.9999999999992
  0
LINE
  5
1146
  8
3
 10
49.80000000000001
 20
16.19999999999999
 30
0.0
 11
49.80000000000001
 21
-16.19999999999999
 31
0.0
  0
LINE
  5
1147
  8
3
 10
50.0
 20
2.0
 30
0.0
 11
40.64689797369999
 21
2.0
 31
0.0
  0
LINE
  5
1148
  8
3
 10
40.65012668549997
 20
-2.0
 30
0.0
 11
50.0
 21
-2.0
 31
0.0
  0
LINE
  5
1151
  8
3
 10
50.0
 20
8.0
 30
0.0
 11
40.0
 21
8.0
 31
0.0
  0
LINE
  5
1152
  8
3
 10
40.0
 20
-8.0
 30
0.0
 11
50.0
 21
-8.0
 31
0.0
  0
LINE
  5
1153
  8
3
 10
50.0
 20
36.25
 30
0.0
 11
35.05000000000001
 21
36.25
 31
0.0
  0
LINE
  5
1154
  8
3
 10
34.79127453310002
 20
22.25
 30
0.0
 11
50.0
 21
22.25
 31
0.0
  0
LINE
  5
1155
  8
3
 10
50.0
 20
-22.25
 30
0.0
 11
34.79127453310002
 21
-22.25
 31
0.0
  0
LINE
  5
1156
  8
3
 10
35.05000000000001
 20
-36.25
 30
0.0
 11
50.0
 21
-36.25
 31
0.0
  0
LINE
  5
1157
  8
3
 10
40.0
 20
7.0
 30
0.0
 11
0.0
 21
7.0
 31
0.0
  0
LINE
  5
1158
  8
3
 10
0.0000000000000036
 20
-7.0
 30
0.0
 11
40.0
 21
-7.0
 31
0.0
  0
LINE
  5
1159
  8
SK3
 10
-25.75
 20
7.0
 30
0.0
 11
-25.937469835
 21
6.687997800000005
 31
0.0
  0
LINE
  5
115A
  8
SK3
 10
-25.937469835
 20
-6.687997800000005
 30
0.0
 11
-25.75
 21
-7.0
 31
0.0
  0
LINE
  5
1163
  8
3
 10
42.10000000000002
 20
-8.66362421780002
 30
0.0
 11
42.10000000000002
 21
-6.922683105399983
 31
0.0
  0
LINE
  5
1164
  8
3
 10
42.10000000000002
 20
-31.67487914340001
 30
0.0
 11
42.10000000000002
 21
-12.11634173149997
 31
0.0
  0
LINE
  5
1165
  8
3
 10
37.89999999999998
 20
-6.056070391099979
 30
0.0
 11
37.89999999999998
 21
-31.67487914340001
 31
0.0
  0
LINE
  5
1166
  8
3
 10
37.89999999999998
 20
31.67487914340001
 30
0.0
 11
37.89999999999998
 21
6.056070391099979
 31
0.0
  0
LINE
  5
1167
  8
3
 10
42.10000000000002
 20
12.11954019910002
 30
0.0
 11
42.10000000000002
 21
31.67487914340001
 31
0.0
  0
LINE
  5
1168
  8
3
 10
42.10000000000002
 20
6.922683105399983
 30
0.0
 11
42.10000000000002
 21
8.666617389099997
 31
0.0
  0
LINE
  5
1169
  8
3
 10
50.0
 20
-8.39230484540002
 30
0.0
 11
41.84204078409999
 21
-8.39230484540002
 31
0.0
  0
LINE
  5
116A
  8
3
 10
41.83418134710001
 20
-12.39230484540002
 30
0.0
 11
50.0
 21
-12.39230484540002
 31
0.0
  0
LINE
  5
116B
  8
3
 10
50.0
 20
12.39230484540002
 30
0.0
 11
41.8429309105
 21
12.39230484540002
 31
0.0
  0
LINE
  5
116C
  8
3
 10
41.8335497759
 20
8.39230484540002
 30
0.0
 11
50.0
 21
8.39230484540002
 31
0.0
  0
LINE
  5
116D
  8
3
 10
42.625
 20
-32.90896534379999
 30
0.0
 11
42.625
 21
-32.04293994
 31
0.0
  0
LINE
  5
116E
  8
3
 10
37.375
 20
-32.04293994
 30
0.0
 11
37.375
 21
-32.907055464
 31
0.0
  0
LINE
  5
116F
  8
3
 10
37.375
 20
32.907055464
 30
0.0
 11
37.375
 21
32.04293994
 31
0.0
  0
LINE
  5
1170
  8
3
 10
42.625
 20
32.04293994
 30
0.0
 11
42.625
 21
32.90896534379999
 31
0.0
  0
LINE
  5
1171
  8
3
 10
42.06165386689997
 20
-31.31403522519997
 30
0.0
 11
41.71464281999999
 21
-31.06866136079998
 31
0.0
  0
LINE
  5
1172
  8
3
 10
38.28535718009999
 20
-31.06866136079998
 30
0.0
 11
37.93834613320001
 21
-31.31403522519997
 31
0.0
  0
LINE
  5
1173
  8
3
 10
37.93834613320001
 20
31.31403522519997
 30
0.0
 11
38.28535718009999
 21
31.06866136079998
 31
0.0
  0
LINE
  5
1174
  8
3
 10
41.71464281999999
 20
31.06866136079998
 30
0.0
 11
42.06165386689997
 21
31.31403522519997
 31
0.0
  0
LINE
  5
117A
  8
SK3
 10
-25.75
 20
7.0
 30
0.0
 11
0.0
 21
7.0
 31
0.0
  0
LINE
  5
117B
  8
SK3
 10
-25.75
 20
-7.0
 30
0.0
 11
0.0000000000000036
 21
-7.0
 31
0.0
  0
ARC
  5
117D
  8
NOCUT
 10
49.0
 20
37.0
 30
0.0
 40
1.0
 50
0.0
 51
90.0
  0
ARC
  5
117F
  8
NOCUT
 10
36.05000000000001
 20
37.0
 30
0.0
 40
1.0
 50
90.0
 51
180.0
  0
LINE
  5
1180
  8
NOCUT
 10
49.0
 20
38.0
 30
0.0
 11
36.05000000000001
 21
38.0
 31
0.0
  0
LINE
  5
1183
  8
NOCUT
 10
50.0
 20
0.0
 30
0.0
 11
50.0
 21
37.0
 31
0.0
  0
LINE
  5
1186
  8
NOCUT
 10
35.05000000000001
 20
37.0
 30
0.0
 11
35.05000000000001
 21
23.22499999999997
 31
0.0
  0
ARC
  5
1187
  8
NOCUT
 10
34.05000000000001
 20
23.22499999999997
 30
0.0
 40
1.0
 50
269.9999999999999
 51
0.0
  0
LINE
  5
1190
  8
SK1
 10
93.40000000000002
 20
12.0
 30
0.0
 11
78.99999999999999
 21
12.0
 31
0.0
  0
LINE
  5
1192
  8
SK1
 10
78.99999999999999
 20
-12.0
 30
0.0
 11
93.40000000000002
 21
-12.0
 31
0.0
  0
LINE
  5
1193
  8
SK1
 10
93.40000000000002
 20
-12.0
 30
0.0
 11
94.99999999999999
 21
-10.39999999999998
 31
0.0
  0
LINE
  5
1194
  8
SK1
 10
94.99999999999999
 20
10.39999999999998
 30
0.0
 11
93.40000000000002
 21
12.0
 31
0.0
  0
ARC
  5
1195
  8
SK1
 10
78.40000000000002
 20
-8.600000000000023
 30
0.0
 40
0.6000000000000227
 50
0.0
 51
90.0
  0
ARC
  5
1196
  8
SK1
 10
78.40000000000002
 20
8.600000000000023
 30
0.0
 40
0.5999999999999659
 50
270.0
 51
0.0
  0
LINE
  5
1197
  8
SK1
 10
78.40000000000002
 20
8.0
 30
0.0
 11
71.99999999999999
 21
8.0
 31
0.0
  0
LINE
  5
1198
  8
SK1
 10
71.99999999999999
 20
-8.0
 30
0.0
 11
78.40000000000002
 21
-8.0
 31
0.0
  0
ARC
  5
11AD
  8
SK1
 10
50.20000000000002
 20
-16.19999999999999
 30
0.0
 40
0.3999999999999822
 50
75.00000000000037
 51
119.9999999999997
  0
ARC
  5
11AE
  8
SK1
 10
50.20000000000002
 20
16.19999999999999
 30
0.0
 40
0.4000000000000371
 50
239.9999999999998
 51
285.0000000000015
  0
ARC
  5
11AF
  8
SK1
 10
70.49999999999999
 20
-14.5
 30
0.0
 40
1.5
 50
270.0
 51
0.0
  0
ARC
  5
11B0
  8
SK1
 10
70.49999999999999
 20
14.5
 30
0.0
 40
1.5
 50
0.0
 51
90.0
  0
LINE
  5
11B1
  8
SK1
 10
50.99907116060001
 20
-16.0
 30
0.0
 11
70.49999999999999
 21
-16.0
 31
0.0
  0
LINE
  5
11B2
  8
SK1
 10
70.49999999999999
 20
16.0
 30
0.0
 11
50.99907116060001
 21
16.0
 31
0.0
  0
LINE
  5
11B3
  8
SK1
 10
50.99907116060001
 20
16.0
 30
0.0
 11
50.30352761810002
 21
15.81362966950002
 31
0.0
  0
LINE
  5
11B4
  8
SK1
 10
50.30352761810002
 20
-15.81362966950002
 30
0.0
 11
50.99907116060001
 21
-16.0
 31
0.0
  0
LINE
  5
11B7
  8
SK1
 10
93.40000000000002
 20
12.0
 30
0.0
 11
93.40000000000002
 21
-12.0
 31
0.0
  0
LINE
  5
11B8
  8
SK1
 10
78.99999999999999
 20
12.0
 30
0.0
 11
78.99999999999999
 21
-12.0
 31
0.0
  0
LINE
  5
11B9
  8
SK1
 10
94.99999999999999
 20
10.39999999999998
 30
0.0
 11
94.99999999999999
 21
-10.39999999999998
 31
0.0
  0
LINE
  5
11BA
  8
SK1
 10
57.0
 20
-22.25
 30
0.0
 11
50.0
 21
-22.25
 31
0.0
  0
LINE
  5
11BB
  8
SK1
 10
57.0
 20
-36.25
 30
0.0
 11
50.0
 21
-36.25
 31
0.0
  0
LINE
  5
11BC
  8
SK1
 10
57.0
 20
-22.25
 30
0.0
 11
57.0
 21
-36.25
 31
0.0
  0
LINE
  5
11BD
  8
SK1
 10
57.0
 20
36.25
 30
0.0
 11
50.0
 21
36.25
 31
0.0
  0
LINE
  5
11BE
  8
SK1
 10
57.0
 20
22.25
 30
0.0
 11
50.0
 21
22.25
 31
0.0
  0
LINE
  5
11BF
  8
SK1
 10
57.0
 20
36.25
 30
0.0
 11
57.0
 21
22.25
 31
0.0
  0
LINE
  5
11ED
  8
SK1
 10
71.99999999999999
 20
0.0
 30
0.0
 11
71.99999999999999
 21
14.5
 31
0.0
  0
LINE
  5
11EE
  8
SK1
 10
71.99999999999999
 20
-14.5
 30
0.0
 11
71.99999999999999
 21
0.0
 31
0.0
  0
LINE
  5
11EF
  8
SK1
 10
50.99907116060001
 20
0.0
 30
0.0
 11
50.99907116060001
 21
16.0
 31
0.0
  0
LINE
  5
11F0
  8
SK1
 10
50.99907116060001
 20
-16.0
 30
0.0
 11
50.99907116060001
 21
0.0
 31
0.0
  0
LINE
  5
11F3
  8
SK3
 10
54.0
 20
6.898500000000013
 30
0.0
 11
54.0
 21
-6.898500000000013
 31
0.0
  0
LINE
  5
11F6
  8
SK3
 10
55.10150000000002
 20
8.0
 30
0.0
 11
55.10150000000002
 21
-8.0
 31
0.0
  0
LINE
  5
11F7
  8
SK3
 10
86.99999999999999
 20
-4.082443753400014
 30
0.0
 11
94.99999999999999
 21
-4.082443753400014
 31
0.0
  0
LINE
  5
11F8
  8
SK3
 10
86.99999999999999
 20
4.082443753400014
 30
0.0
 11
86.99999999999999
 21
0.0
 31
0.0
  0
LINE
  5
11F9
  8
SK3
 10
86.99999999999999
 20
6.12366563019998
 30
0.0
 11
86.99999999999999
 21
4.082443753400014
 31
0.0
  0
LINE
  5
11FA
  8
SK3
 10
86.99999999999999
 20
4.082443753400014
 30
0.0
 11
94.99999999999999
 21
4.082443753400014
 31
0.0
  0
LINE
  5
11FB
  8
SK3
 10
86.99999999999999
 20
0.0
 30
0.0
 11
86.99999999999999
 21
-4.082443753400014
 31
0.0
  0
LINE
  5
11FC
  8
SK3
 10
86.99999999999999
 20
-6.12366563019998
 30
0.0
 11
86.99999999999999
 21
-4.082443753400014
 31
0.0
  0
LINE
  5
11FD
  8
SK3
 10
86.99999999999999
 20
8.164887506900016
 30
0.0
 11
86.99999999999999
 21
6.12366563019998
 31
0.0
  0
LINE
  5
11FE
  8
SK3
 10
86.99999999999999
 20
-8.164887506900016
 30
0.0
 11
86.99999999999999
 21
-6.12366563019998
 31
0.0
  0
LINE
  5
11FF
  8
SK3
 10
86.99999999999999
 20
8.164887506900016
 30
0.0
 11
94.99999999999999
 21
8.164887506900016
 31
0.0
  0
LINE
  5
1200
  8
SK3
 10
86.99999999999999
 20
-8.164887506900016
 30
0.0
 11
94.99999999999999
 21
-8.164887506900016
 31
0.0
  0
LINE
  5
1265
  8
SK3
 10
71.13397459619999
 20
-8.5
 30
0.0
 11
71.13397459619999
 21
8.5
 31
0.0
  0
LINE
  5
1266
  8
SK3
 10
68.99999999999999
 20
8.5
 30
0.0
 11
68.99999999999999
 21
-8.5
 31
0.0
  0
LINE
  5
1280
  8
SK3
 10
55.10150000000002
 20
8.0
 30
0.0
 11
54.0
 21
6.898500000000013
 31
0.0
  0
LINE
  5
1281
  8
SK3
 10
54.0
 20
-6.898500000000013
 30
0.0
 11
55.10150000000002
 21
-8.0
 31
0.0
  0
LINE
  5
1282
  8
SK3
 10
71.99999999999999
 20
8.0
 30
0.0
 11
55.10150000000002
 21
8.0
 31
0.0
  0
LINE
  5
1283
  8
SK3
 10
55.10150000000002
 20
-8.0
 30
0.0
 11
71.99999999999999
 21
-8.0
 31
0.0
  0
LINE
  5
1284
  8
SK3
 10
86.99999999999999
 20
7.071000000000026
 30
0.0
 11
82.91755624660003
 21
0.0
 31
0.0
  0
LINE
  5
1285
  8
SK3
 10
82.91755624660003
 20
0.0
 30
0.0
 11
86.99999999999999
 21
-7.071000000000026
 31
0.0
  0
LINE
  5
1300
  8
SK3
 10
71.99999999999999
 20
2.0
 30
0.0
 11
50.0
 21
2.0
 31
0.0
  0
LINE
  5
1301
  8
SK3
 10
50.0
 20
-2.0
 30
0.0
 11
71.99999999999999
 21
-2.0
 31
0.0
  0
LINE
  5
1304
  8
SK3
 10
71.99999999999999
 20
9.0
 30
0.0
 11
71.13397459619999
 21
8.5
 31
0.0
  0
LINE
  5
1305
  8
SK3
 10
71.13397459619999
 20
-8.5
 30
0.0
 11
71.99999999999999
 21
-9.0
 31
0.0
  0
LINE
  5
1306
  8
SK3
 10
71.13397459619999
 20
8.5
 30
0.0
 11
68.99999999999999
 21
8.5
 31
0.0
  0
LINE
  5
1307
  8
SK3
 10
68.99999999999999
 20
-8.5
 30
0.0
 11
71.13397459619999
 21
-8.5
 31
0.0
  0
LINE
  5
130A
  8
SK3
 10
68.99999999999999
 20
8.0
 30
0.0
 11
50.00000000000001
 21
8.0
 31
0.0
  0
LINE
  5
130B
  8
SK3
 10
50.0
 20
-8.0
 30
0.0
 11
68.99999999999999
 21
-8.0
 31
0.0
  0
LINE
  5
1322
  8
SK3
 10
71.99999999999999
 20
-8.39230484540002
 30
0.0
 11
50.00000000000001
 21
-8.39230484540002
 31
0.0
  0
LINE
  5
1323
  8
SK3
 10
50.0
 20
-12.39230484540002
 30
0.0
 11
71.99999999999999
 21
-12.39230484540002
 31
0.0
  0
LINE
  5
1324
  8
SK3
 10
71.99999999999999
 20
12.39230484540002
 30
0.0
 11
50.0
 21
12.39230484540002
 31
0.0
  0
LINE
  5
1325
  8
SK3
 10
50.0
 20
8.39230484540002
 30
0.0
 11
71.99999999999999
 21
8.39230484540002
 31
0.0
  0
LINE
  5
1336
  8
SK4
 10
50.0
 20
0.0
 30
0.0
 11
94.99999999999999
 21
0.0
 31
0.0
  0
DIMENSION
  5
1338
  8
SK2
  2
*D4
 10
124.9756611608813
 20
-38.00000000000001
 30
0.0
 11
123.1006611608813
 21
-0.0000000000000071
 31
0.0
 70
    32
  3
ISO-25
 13
49.0
 23
38.0
 33
0.0
 14
49.0
 24
-38.0
 34
0.0
 50
90.0
1001
ACAD
1000
DSTYLE
1002
{
1070
   287
1070
     5
1070
   271
1070
     3
1070
   272
1070
     3
1070
   279
1070
     2
1002
}
  0
DIMENSION
  5
1347
  8
SK2
  2
*D5
 10
109.048228520231
 20
-16.0
 30
0.0
 11
107.173228520231
 21
-0.0000000000000036
 31
0.0
 70
    32
  3
ISO-25
 13
70.49999999999999
 23
16.0
 33
0.0
 14
70.49999999999999
 24
-16.0
 34
0.0
 50
90.0
1001
ACAD
1000
DSTYLE
1002
{
1070
   287
1070
     5
1070
   271
1070
     3
1070
   272
1070
     3
1070
   279
1070
     2
1002
}
  0
ENDSEC
  0
EOF
