  0
SECTION
  2
HEADER
  9
$ACADVER
  1
AC1009
  9
$DWGCODEPAGE
  3
ansi_1252
  9
$INSBASE
 10
0.0
 20
0.0
 30
0.0
  9
$EXTMIN
 10
-68.25000000000003
 20
-48.27109509650273
 30
0.0
  9
$EXTMAX
 10
141.9525020780113
 20
50.83203563714093
 30
0.0
  9
$LIMMIN
 10
0.0
 20
0.0
  9
$LIMMAX
 10
420.0
 20
297.0
  9
$ORTHOMODE
 70
     0
  9
$REGENMODE
 70
     1
  9
$FILLMODE
 70
     1
  9
$QTEXTMODE
 70
     0
  9
$MIRRTEXT
 70
     0
  9
$DRAGMODE
 70
     2
  9
$LTSCALE
 40
1.0
  9
$OSMODE
 70
   279
  9
$ATTMODE
 70
     1
  9
$TEXTSIZE
 40
2.5
  9
$TRACEWID
 40
1.0
  9
$TEXTSTYLE
  7
STANDARD
  9
$CLAYER
  8
0
  9
$CELTYPE
  6
BYLAYER
  9
$CECOLOR
 62
   256
  9
$DIMSCALE
 40
1.0
  9
$DIMASZ
 40
2.5
  9
$DIMEXO
 40
0.625
  9
$DIMDLI
 40
3.75
  9
$DIMRND
 40
0.0
  9
$DIMDLE
 40
0.0
  9
$DIMEXE
 40
1.25
  9
$DIMTP
 40
0.0
  9
$DIMTM
 40
0.0
  9
$DIMTXT
 40
2.5
  9
$DIMCEN
 40
2.5
  9
$DIMTSZ
 40
0.0
  9
$DIMTOL
 70
     0
  9
$DIMLIM
 70
     0
  9
$DIMTIH
 70
     0
  9
$DIMTOH
 70
     0
  9
$DIMSE1
 70
     0
  9
$DIMSE2
 70
     0
  9
$DIMTAD
 70
     1
  9
$DIMZIN
 70
     8
  9
$DIMBLK
  1

  9
$DIMASO
 70
     1
  9
$DIMSHO
 70
     1
  9
$DIMPOST
  1

  9
$DIMAPOST
  1

  9
$DIMALT
 70
     0
  9
$DIMALTD
 70
     3
  9
$DIMALTF
 40
0.03937007874016
  9
$DIMLFAC
 40
1.0
  9
$DIMTOFL
 70
     1
  9
$DIMTVP
 40
0.0
  9
$DIMTIX
 70
     0
  9
$DIMSOXD
 70
     0
  9
$DIMSAH
 70
     0
  9
$DIMBLK1
  1

  9
$DIMBLK2
  1

  9
$DIMSTYLE
  2
ISO-25
  9
$DIMCLRD
 70
     0
  9
$DIMCLRE
 70
     0
  9
$DIMCLRT
 70
     0
  9
$DIMTFAC
 40
1.0
  9
$DIMGAP
 40
0.625
  9
$LUNITS
 70
     2
  9
$LUPREC
 70
     3
  9
$SKETCHINC
 40
1.0
  9
$FILLETRAD
 40
10.0
  9
$AUNITS
 70
     0
  9
$AUPREC
 70
     0
  9
$MENU
  1
.
  9
$ELEVATION
 40
0.0
  9
$PELEVATION
 40
0.0
  9
$THICKNESS
 40
0.0
  9
$LIMCHECK
 70
     0
  9
$CHAMFERA
 40
10.0
  9
$CHAMFERB
 40
10.0
  9
$SKPOLY
 70
     0
  9
$TDCREATE
 40
2455022.429026158
  9
$TDUPDATE
 40
2458696.404587697
  9
$TDINDWG
 40
0.001290463
  9
$TDUSRTIMER
 40
2458702.620795972
  9
$USRTIMER
 70
     1
  9
$ANGBASE
 50
0.0
  9
$ANGDIR
 70
     0
  9
$PDMODE
 70
     0
  9
$PDSIZE
 40
0.0
  9
$PLINEWID
 40
0.0
  9
$COORDS
 70
     1
  9
$SPLFRAME
 70
     0
  9
$SPLINETYPE
 70
     6
  9
$SPLINESEGS
 70
     8
  9
$ATTDIA
 70
     0
  9
$ATTREQ
 70
     1
  9
$HANDLING
 70
     1
  9
$HANDSEED
  5
1681
  9
$SURFTAB1
 70
     6
  9
$SURFTAB2
 70
     6
  9
$SURFTYPE
 70
     6
  9
$SURFU
 70
     6
  9
$SURFV
 70
     6
  9
$UCSNAME
  2

  9
$UCSORG
 10
0.0
 20
0.0
 30
0.0
  9
$UCSXDIR
 10
1.0
 20
0.0
 30
0.0
  9
$UCSYDIR
 10
0.0
 20
1.0
 30
0.0
  9
$PUCSNAME
  2

  9
$PUCSORG
 10
0.0
 20
0.0
 30
0.0
  9
$PUCSXDIR
 10
1.0
 20
0.0
 30
0.0
  9
$PUCSYDIR
 10
0.0
 20
1.0
 30
0.0
  9
$USERI1
 70
     0
  9
$USERI2
 70
     0
  9
$USERI3
 70
     0
  9
$USERI4
 70
     0
  9
$USERI5
 70
     0
  9
$USERR1
 40
0.0
  9
$USERR2
 40
0.0
  9
$USERR3
 40
0.0
  9
$USERR4
 40
0.0
  9
$USERR5
 40
0.0
  9
$WORLDVIEW
 70
     1
  9
$SHADEDGE
 70
     3
  9
$SHADEDIF
 70
    70
  9
$TILEMODE
 70
     1
  9
$MAXACTVP
 70
    64
  9
$PLIMCHECK
 70
     0
  9
$PEXTMIN
 10
1.000000000000000E+20
 20
1.000000000000000E+20
 30
1.000000000000000E+20
  9
$PEXTMAX
 10
-1.000000000000000E+20
 20
-1.000000000000000E+20
 30
-1.000000000000000E+20
  9
$PLIMMIN
 10
0.0
 20
0.0
  9
$PLIMMAX
 10
0.0
 20
0.0
  9
$UNITMODE
 70
     0
  9
$VISRETAIN
 70
     1
  9
$PLINEGEN
 70
     0
  9
$PSLTSCALE
 70
     1
  0
ENDSEC
  0
SECTION
  2
TABLES
  0
TABLE
  2
VPORT
 70
     1
  0
VPORT
  2
*ACTIVE
 70
     0
 10
0.0
 20
0.0
 11
1.0
 21
1.0
 12
158.2804824016119
 22
1.280470270319107
 13
0.0
 23
0.0
 14
10.0
 24
10.0
 15
10.0
 25
10.0
 16
0.0
 26
0.0
 36
1.0
 17
-134.1869158878504
 27
0.0
 37
0.0
 40
141.3336641247931
 41
1.332880434782609
 42
50.0
 43
0.0
 44
0.0
 50
0.0
 51
0.0
 71
    16
 72
  1000
 73
     1
 74
     3
 75
     0
 76
     0
 77
     0
 78
     0
  0
ENDTAB
  0
TABLE
  2
LTYPE
 70
     6
  0
LTYPE
  2
CONTINUOUS
 70
     0
  3
Solid line
 72
    65
 73
     0
 40
0.0
  0
LTYPE
  2
CENTER
 70
     0
  3
 Center _____  _  _____  _  _____  _  _____  _ 
 72
    65
 73
     4
 40
50.8
 49
31.75
 49
-6.35
 49
6.35
 49
-6.35
  0
LTYPE
  2
DASHED
 70
     0
  3
Dashed __  __  __  __  __  __  __  __  __  __  
 72
    65
 73
     2
 40
19.05
 49
12.7
 49
-6.35
  0
LTYPE
  2
HIDDEN
 70
     0
  3
Hidden __ __ __ __ __ __ __ __ __ __ __ __ __ __
 72
    65
 73
     2
 40
1.905
 49
1.27
 49
-0.635
  0
LTYPE
  2
CENTERX2
 70
     0
  3
Center (2x) ________  __  ________  __  _____
 72
    65
 73
     4
 40
20.32
 49
12.7
 49
-2.54
 49
2.54
 49
-2.54
  0
LTYPE
  2
PHANTOM
 70
     0
  3
Phantom ______  __  __  ______  __  __  ______
 72
    65
 73
     6
 40
12.7
 49
6.35
 49
-1.27
 49
1.27
 49
-1.27
 49
1.27
 49
-1.27
  0
ENDTAB
  0
TABLE
  2
LAYER
 70
    26
  0
LAYER
  2
0
 70
     0
 62
     7
  6
CONTINUOUS
  0
LAYER
  2
1
 70
     0
 62
     4
  6
CONTINUOUS
  0
LAYER
  2
2
 70
     0
 62
     7
  6
CONTINUOUS
  0
LAYER
  2
3
 70
     0
 62
     1
  6
DASHED
  0
LAYER
  2
4
 70
     0
 62
     2
  6
CENTER
  0
LAYER
  2
6
 70
     0
 62
     5
  6
CONTINUOUS
  0
LAYER
  2
7
 70
     0
 62
     5
  6
CONTINUOUS
  0
LAYER
  2
11
 70
     0
 62
     4
  6
CONTINUOUS
  0
LAYER
  2
SK1
 70
     0
 62
     4
  6
CONTINUOUS
  0
LAYER
  2
SK2
 70
     0
 62
     7
  6
CONTINUOUS
  0
LAYER
  2
SK3
 70
     0
 62
     1
  6
DASHED
  0
LAYER
  2
SK4
 70
     0
 62
     2
  6
CENTER
  0
LAYER
  2
SK6
 70
     0
 62
     5
  6
CONTINUOUS
  0
LAYER
  2
SK7
 70
     0
 62
     5
  6
CONTINUOUS
  0
LAYER
  2
SK11
 70
     0
 62
     4
  6
CONTINUOUS
  0
LAYER
  2
CUT
 70
     0
 62
     1
  6
CONTINUOUS
  0
LAYER
  2
NOCUT
 70
     0
 62
    -7
  6
CONTINUOUS
  0
LAYER
  2
SKVIEW1
 70
     0
 62
     4
  6
CONTINUOUS
  0
LAYER
  2
SKVIEW2
 70
     0
 62
     7
  6
CONTINUOUS
  0
LAYER
  2
SKVIEW3
 70
     0
 62
     1
  6
DASHED
  0
LAYER
  2
SKVIEW4
 70
     0
 62
     2
  6
CENTER
  0
LAYER
  2
SKVIEW6
 70
     0
 62
     5
  6
CONTINUOUS
  0
LAYER
  2
SKVIEW7
 70
     0
 62
     5
  6
CONTINUOUS
  0
LAYER
  2
SKVIEW11
 70
     0
 62
     4
  6
CONTINUOUS
  0
LAYER
  2
INFTOTAL
 70
     0
 62
     9
  6
CONTINUOUS
  0
LAYER
  2
DEFPOINTS
 70
     0
 62
     7
  6
CONTINUOUS
  0
ENDTAB
  0
TABLE
  2
STYLE
 70
     1
  0
STYLE
  2
STANDARD
 70
     0
 40
0.0
 41
1.0
 50
0.0
 71
     0
 42
2.5
  3
txt
  4

  0
ENDTAB
  0
TABLE
  2
VIEW
 70
     0
  0
ENDTAB
  0
TABLE
  2
UCS
 70
     0
  0
ENDTAB
  0
TABLE
  2
APPID
 70
     2
  0
APPID
  2
ACAD
 70
     0
  0
APPID
  2
ACAECLAYERSTANDARD
 70
     0
  0
ENDTAB
  0
TABLE
  2
DIMSTYLE
 70
     1
  0
DIMSTYLE
  2
ISO-25
 70
     0
  3

  4

  5

  6

  7

 40
1.0
 41
2.5
 42
0.625
 43
3.75
 44
1.25
 45
0.0
 46
0.0
 47
0.0
 48
0.0
140
2.5
141
2.5
142
0.0
143
0.03937007874016
144
1.0
145
0.0
146
1.0
147
0.625
 71
     0
 72
     0
 73
     0
 74
     0
 75
     0
 76
     0
 77
     1
 78
     8
170
     0
171
     3
172
     1
173
     0
174
     0
175
     0
176
     0
177
     0
178
     0
  0
ENDTAB
  0
ENDSEC
  0
SECTION
  2
BLOCKS
  0
BLOCK
  8
0
  2
$MODEL_SPACE
 70
     0
 10
0.0
 20
0.0
 30
0.0
  3
$MODEL_SPACE
  1

  0
ENDBLK
  5
21
  8
0
  0
BLOCK
 67
     1
  8
0
  2
$PAPER_SPACE
 70
     0
 10
0.0
 20
0.0
 30
0.0
  3
$PAPER_SPACE
  1

  0
ENDBLK
  5
1D
 67
     1
  8
0
  0
BLOCK
  8
0
  2
_FILLED
 70
     0
 10
0.0
 20
0.0
 30
0.0
  3
_FILLED
  1

  0
SOLID
  5
1C4
  8
0
  6
BYBLOCK
 62
     0
 10
0.0
 20
0.0
 30
0.0
 11
-1.0
 21
0.2142857143
 31
0.0
 12
-1.0
 22
-0.2142857143
 32
0.0
 13
-1.0
 23
-0.2142857143
 33
0.0
  0
ENDBLK
  5
1C5
  8
0
  6
BYBLOCK
 62
     0
  0
BLOCK
  8
0
  2
*D1
 70
     1
 10
0.0
 20
0.0
 30
0.0
  3
*D1
  1

  0
LINE
  5
1D3
  8
2
 62
     0
 10
0.0
 20
22.84999999999999
 30
0.0
 11
0.0
 21
48.91573065769793
 31
0.0
  0
LINE
  5
1D4
  8
2
 62
     0
 10
50.0
 20
37.625
 30
0.0
 11
50.0
 21
48.91573065769793
 31
0.0
  0
LINE
  5
1D5
  8
2
 62
     0
 10
2.5
 20
47.66573065769793
 30
0.0
 11
47.5
 21
47.66573065769793
 31
0.0
  0
SOLID
  5
1D6
  8
2
 62
     0
 10
2.5
 20
48.08239732436459
 30
0.0
 11
2.5
 21
47.24906399103126
 31
0.0
 12
0.0
 22
47.66573065769793
 32
0.0
 13
0.0
 23
47.66573065769793
 33
0.0
  0
SOLID
  5
1D7
  8
2
 62
     0
 10
47.5
 20
47.24906399103126
 30
0.0
 11
47.5
 21
48.08239732436459
 31
0.0
 12
50.0
 22
47.66573065769793
 32
0.0
 13
50.0
 23
47.66573065769793
 33
0.0
  0
TEXT
  5
1D8
  8
2
  6
CONTINUOUS
 62
     0
 10
23.125
 20
48.29073065769793
 30
0.0
 40
2.5
  1
50
  0
POINT
  5
1D9
  8
DEFPOINTS
 62
     0
 10
0.0
 20
22.22499999999999
 30
0.0
  0
POINT
  5
1DA
  8
DEFPOINTS
 62
     0
 10
50.0
 20
37.0
 30
0.0
  0
POINT
  5
1DB
  8
DEFPOINTS
 62
     0
 10
50.0
 20
47.66573065769793
 30
0.0
  0
ENDBLK
  5
1DD
  8
0
  0
BLOCK
  8
0
  2
*D2
 70
     1
 10
0.0
 20
0.0
 30
0.0
  3
*D2
  1

  0
LINE
  5
211
  8
SK2
 62
     0
 10
0.0
 20
-22.84999999999999
 30
0.0
 11
0.0
 21
-48.27109509650273
 31
0.0
  0
LINE
  5
212
  8
SK2
 62
     0
 10
35.05000000000001
 20
-37.625
 30
0.0
 11
35.05000000000001
 21
-48.27109509650273
 31
0.0
  0
LINE
  5
213
  8
SK2
 62
     0
 10
2.5
 20
-47.02109509650273
 30
0.0
 11
32.55000000000001
 21
-47.02109509650273
 31
0.0
  0
SOLID
  5
214
  8
SK2
 62
     0
 10
2.5
 20
-46.60442842983606
 30
0.0
 11
2.5
 21
-47.43776176316939
 31
0.0
 12
0.0
 22
-47.02109509650273
 32
0.0
 13
0.0
 23
-47.02109509650273
 33
0.0
  0
SOLID
  5
215
  8
SK2
 62
     0
 10
32.55000000000001
 20
-47.43776176316939
 30
0.0
 11
32.55000000000001
 21
-46.60442842983606
 31
0.0
 12
35.05000000000001
 22
-47.02109509650273
 32
0.0
 13
35.05000000000001
 23
-47.02109509650273
 33
0.0
  0
TEXT
  5
216
  8
SK2
  6
CONTINUOUS
 62
     0
 10
12.73333333333334
 20
-46.39609509650273
 30
0.0
 40
2.5
  1
35.05
  0
POINT
  5
217
  8
DEFPOINTS
 62
     0
 10
0.0
 20
-22.22499999999999
 30
0.0
  0
POINT
  5
218
  8
DEFPOINTS
 62
     0
 10
35.05000000000001
 20
-37.0
 30
0.0
  0
POINT
  5
219
  8
DEFPOINTS
 62
     0
 10
35.05000000000001
 20
-47.02109509650273
 30
0.0
  0
ENDBLK
  5
21B
  8
0
  0
BLOCK
  8
0
  2
*D4
 70
     1
 10
0.0
 20
0.0
 30
0.0
  3
*D4
  1

  0
LINE
  5
126D
  8
SK2
 62
     0
 10
69.125
 20
13.5
 30
0.0
 11
100.1335091743119
 21
13.5
 31
0.0
  0
LINE
  5
126E
  8
SK2
 62
     0
 10
69.125
 20
-13.5
 30
0.0
 11
100.1335091743119
 21
-13.5
 31
0.0
  0
LINE
  5
126F
  8
SK2
 62
     0
 10
98.88350917431192
 20
11.0
 30
0.0
 11
98.88350917431192
 21
-11.0
 31
0.0
  0
SOLID
  5
1270
  8
SK2
 62
     0
 10
99.3001758409786
 20
11.0
 30
0.0
 11
98.46684250764525
 21
11.0
 31
0.0
 12
98.88350917431192
 22
13.5
 32
0.0
 13
98.88350917431192
 23
13.5
 33
0.0
  0
SOLID
  5
1271
  8
SK2
 62
     0
 10
98.46684250764525
 20
-11.0
 30
0.0
 11
99.3001758409786
 21
-11.0
 31
0.0
 12
98.88350917431192
 22
-13.5
 32
0.0
 13
98.88350917431192
 23
-13.5
 33
0.0
  0
TEXT
  5
1272
  8
SK2
  6
CONTINUOUS
 62
     0
 10
98.25850917431192
 20
-2.083333333333329
 30
0.0
 40
2.5
  1
27
 50
90.0
  0
POINT
  5
1273
  8
DEFPOINTS
 62
     0
 10
68.5
 20
13.5
 30
0.0
  0
POINT
  5
1274
  8
DEFPOINTS
 62
     0
 10
68.5
 20
-13.5
 30
0.0
  0
POINT
  5
1275
  8
DEFPOINTS
 62
     0
 10
98.88350917431192
 20
-13.5
 30
0.0
  0
ENDBLK
  5
1277
  8
0
  0
BLOCK
  8
0
  2
*D5
 70
     1
 10
0.0
 20
0.0
 30
0.0
  3
*D5
  1

  0
LINE
  5
127C
  8
SK2
 62
     0
 10
49.625
 20
38.0
 30
0.0
 11
116.4371330275229
 21
37.99999999999999
 31
0.0
  0
LINE
  5
127D
  8
SK2
 62
     0
 10
49.625
 20
-38.0
 30
0.0
 11
116.4371330275229
 21
-38.00000000000001
 31
0.0
  0
LINE
  5
127E
  8
SK2
 62
     0
 10
115.1871330275229
 20
35.49999999999999
 30
0.0
 11
115.1871330275229
 21
-35.50000000000001
 31
0.0
  0
SOLID
  5
127F
  8
SK2
 62
     0
 10
115.6037996941896
 20
35.49999999999999
 30
0.0
 11
114.7704663608562
 21
35.49999999999999
 31
0.0
 12
115.1871330275229
 22
37.99999999999999
 32
0.0
 13
115.1871330275229
 23
37.99999999999999
 33
0.0
  0
SOLID
  5
1280
  8
SK2
 62
     0
 10
114.7704663608562
 20
-35.50000000000001
 30
0.0
 11
115.6037996941896
 21
-35.50000000000001
 31
0.0
 12
115.1871330275229
 22
-38.00000000000001
 32
0.0
 13
115.1871330275229
 23
-38.00000000000001
 33
0.0
  0
TEXT
  5
1281
  8
SK2
  6
CONTINUOUS
 62
     0
 10
114.5621330275229
 20
-2.083333333333329
 30
0.0
 40
2.5
  1
76
 50
90.0
  0
POINT
  5
1282
  8
DEFPOINTS
 62
     0
 10
49.0
 20
38.0
 30
0.0
  0
POINT
  5
1283
  8
DEFPOINTS
 62
     0
 10
49.0
 20
-38.0
 30
0.0
  0
POINT
  5
1284
  8
DEFPOINTS
 62
     0
 10
115.1871330275229
 20
-38.00000000000001
 30
0.0
  0
ENDBLK
  5
1286
  8
0
  0
ENDSEC
  0
SECTION
  2
ENTITIES
  0
LINE
  5
1B2
  8
4
 10
50.0
 20
-0.0000000034308264
 30
0.0
 11
0.0
 21
0.0
 31
0.0
  0
DIMENSION
  5
1CF
  8
2
  2
*D1
 10
50.0
 20
47.66573065769793
 30
0.0
 11
25.0
 21
49.54073065769793
 31
0.0
 70
    32
  3
ISO-25
 13
0.0
 23
22.22499999999999
 33
0.0
 14
50.0
 24
37.0
 34
0.0
  0
DIMENSION
  5
20D
  8
SK2
  2
*D2
 10
35.05000000000001
 20
-47.02109509650273
 30
0.0
 11
17.52500000000001
 21
-45.14609509650273
 31
0.0
 70
    32
  3
ISO-25
 13
0.0
 23
-22.22499999999999
 33
0.0
 14
35.05000000000001
 24
-37.0
 34
0.0
  0
LINE
  5
364
  8
NOCUT
 10
50.00000000000001
 20
-0.0000000034308264
 30
0.0
 11
0.0
 21
0.0
 31
0.0
  0
LINE
  5
99D
  8
SK3
 10
-66.51794919240001
 20
0.0
 30
0.0
 11
-66.51794919240001
 21
8.149999999999991
 31
0.0
  0
LINE
  5
99E
  8
SK3
 10
-66.51794919240001
 20
-8.149999999999991
 30
0.0
 11
-66.51794919240001
 21
0.0
 31
0.0
  0
LINE
  5
99F
  8
SK3
 10
-63.48000000000002
 20
0.0
 30
0.0
 11
-63.48000000000002
 21
8.149999999999991
 31
0.0
  0
LINE
  5
9A0
  8
SK3
 10
-63.48000000000002
 20
-8.149999999999991
 30
0.0
 11
-63.48000000000002
 21
0.0
 31
0.0
  0
LINE
  5
9BF
  8
SK3
 10
-68.25000000000003
 20
-9.149999999999991
 30
0.0
 11
-66.51794919240001
 21
-8.149999999999991
 31
0.0
  0
LINE
  5
9C0
  8
SK3
 10
-66.51794919240001
 20
8.149999999999991
 30
0.0
 11
-68.25000000000003
 21
9.149999999999991
 31
0.0
  0
LINE
  5
9C1
  8
SK3
 10
-66.51794919240001
 20
-8.149999999999991
 30
0.0
 11
-63.48000000000002
 21
-8.149999999999991
 31
0.0
  0
LINE
  5
9C2
  8
SK3
 10
-63.48000000000002
 20
8.149999999999991
 30
0.0
 11
-66.51794919240001
 21
8.149999999999991
 31
0.0
  0
LINE
  5
9C3
  8
SK3
 10
-63.48000000000002
 20
-6.700000000000003
 30
0.0
 11
-25.75000000000003
 21
-6.700000000000003
 31
0.0
  0
LINE
  5
9C4
  8
SK3
 10
-25.75000000000003
 20
6.700000000000003
 30
0.0
 11
-63.48000000000002
 21
6.700000000000003
 31
0.0
  0
LINE
  5
9E1
  8
0
 10
51.94999999999994
 20
2.0
 30
0.0
 11
47.95000000000003
 21
-2.0
 31
0.0
  0
LINE
  5
9E2
  8
0
 10
47.95000000000003
 20
2.0
 30
0.0
 11
51.94999999999994
 21
-2.0
 31
0.0
  0
CIRCLE
  5
9E3
  8
0
 10
49.95000000000003
 20
0.0
 30
0.0
 40
1.5
  0
LINE
  5
9E4
  8
0
 10
3.0
 20
3.0
 30
0.0
 11
-3.0
 21
-3.0
 31
0.0
  0
LINE
  5
9E5
  8
0
 10
-3.0
 20
3.0
 30
0.0
 11
3.0
 21
-3.0
 31
0.0
  0
CIRCLE
  5
9E6
  8
0
 10
0.0
 20
0.0
 30
0.0
 40
2.5
  0
LINE
  5
9E7
  8
SK3
 10
-63.48000000000005
 20
-7.937499999800011
 30
0.0
 11
-39.75000000000003
 21
-7.937499999800011
 31
0.0
  0
LINE
  5
9E8
  8
SK3
 10
-39.75000000000003
 20
7.937500000199975
 30
0.0
 11
-39.75000000000003
 21
-7.937499999800011
 31
0.0
  0
LINE
  5
9E9
  8
SK3
 10
-39.75000000000003
 20
7.937500000199975
 30
0.0
 11
-63.48000000000005
 21
7.937500000199975
 31
0.0
  0
ARC
  5
AA1
  8
NOCUT
 10
0.5
 20
22.72499999999999
 30
0.0
 40
0.5
 50
270.0
 51
0.0
  0
LINE
  5
AA4
  8
NOCUT
 10
0.5
 20
22.22499999999999
 30
0.0
 11
0.0
 21
22.22499999999999
 31
0.0
  0
LINE
  5
AA5
  8
NOCUT
 10
34.65000000000003
 20
22.22499999999999
 30
0.0
 11
20.04999999999998
 21
22.22499999999999
 31
0.0
  0
LINE
  5
AB0
  8
NOCUT
 10
0.0
 20
0.0
 30
0.0
 11
0.0
 21
22.22499999999999
 31
0.0
  0
LINE
  5
ACA
  8
NOCUT
 10
1.0
 20
22.72499999999999
 30
0.0
 11
1.0
 21
31.24999999999997
 31
0.0
  0
LINE
  5
ACD
  8
NOCUT
 10
19.05000000000001
 20
31.24999999999997
 30
0.0
 11
19.04999999999995
 21
23.22499999999999
 31
0.0
  0
ARC
  5
B91
  8
1
 10
20.04999999999998
 20
-23.22499999999999
 30
0.0
 40
1.0
 50
90.0
 51
180.0
  0
ARC
  5
B93
  8
1
 10
20.04999999999998
 20
23.22499999999999
 30
0.0
 40
1.0
 50
180.0
 51
270.0
  0
ARC
  5
B94
  8
1
 10
0.799999999999983
 20
-22.42500000000001
 30
0.0
 40
0.5
 50
66.42182152179994
 51
90.0
  0
ARC
  5
B95
  8
1
 10
0.799999999999983
 20
22.42499999999998
 30
0.0
 40
0.5
 50
270.0
 51
293.5781784782001
  0
LINE
  5
B96
  8
1
 10
20.04999999999998
 20
-22.22499999999999
 30
0.0
 11
34.65000000000003
 21
-22.22499999999999
 31
0.0
  0
LINE
  5
B97
  8
1
 10
34.65000000000003
 20
22.22499999999999
 30
0.0
 11
20.04999999999998
 21
22.22499999999999
 31
0.0
  0
LINE
  5
B98
  8
1
 10
0.0
 20
-22.22499999999999
 30
0.0
 11
0.2999999999999829
 21
-21.92500000000001
 31
0.0
  0
LINE
  5
B99
  8
1
 10
0.2999999999999829
 20
21.92499999999998
 30
0.0
 11
0.0
 21
22.22499999999999
 31
0.0
  0
LINE
  5
B9C
  8
SK1
 10
0.0
 20
22.22499999999999
 30
0.0
 11
-67.3943082273
 21
12.39657058259999
 31
0.0
  0
LINE
  5
B9D
  8
SK1
 10
-67.3943082273
 20
-12.39657058270001
 30
0.0
 11
0.0
 21
-22.22499999999999
 31
0.0
  0
LINE
  5
B9E
  8
1
 10
0.2999999999999829
 20
-21.92500000000001
 30
0.0
 11
0.799999999999983
 21
-21.92500000000001
 31
0.0
  0
LINE
  5
B9F
  8
1
 10
0.799999999999983
 20
21.92499999999998
 30
0.0
 11
0.2999999999999829
 21
21.92499999999998
 31
0.0
  0
ARC
  5
BA0
  8
SK1
 10
-67.25
 20
-11.4070377962
 30
0.0
 40
1.000000000000014
 50
180.0
 51
261.7027777778003
  0
ARC
  5
BA1
  8
SK1
 10
-67.25
 20
11.40703779609998
 30
0.0
 40
1.000000000000014
 50
98.29722222219964
 51
180.0
  0
LINE
  5
BA2
  8
1
 10
14.6561667922
 20
30.49243725150001
 30
0.0
 11
13.05500004409998
 21
27.5903849293
 31
0.0
  0
LINE
  5
BA3
  8
1
 10
14.65616676899998
 20
-30.51805114620001
 30
0.0
 11
14.65616676899998
 21
30.49243720799998
 31
0.0
  0
LINE
  5
BA4
  8
1
 10
13.05500002099998
 20
-27.61768172550001
 30
0.0
 11
14.65616678619998
 21
-30.51748284710001
 31
0.0
  0
LINE
  5
BA5
  8
1
 10
13.05499999999998
 20
-27.61768156150001
 30
0.0
 11
13.05499999999998
 21
27.5896745586
 31
0.0
  0
LINE
  5
BA6
  8
1
 10
14.65616729029998
 20
-30.5174828113
 30
0.0
 11
14.76217597669998
 21
-30.54092502470002
 31
0.0
  0
LINE
  5
BA7
  8
1
 10
14.69253150219998
 20
30.50268419069999
 30
0.0
 11
14.65616753799998
 21
30.49243719839998
 31
0.0
  0
LINE
  5
BA8
  8
1
 10
18.54999999999998
 20
30.50268419069999
 30
0.0
 11
14.69253150219998
 21
30.50268419069999
 31
0.0
  0
LINE
  5
BA9
  8
1
 10
14.76217597669998
 20
-30.54092502470002
 30
0.0
 11
18.54999999999998
 21
-30.54092502470002
 31
0.0
  0
LINE
  5
BAA
  8
1
 10
9.204999955799991
 20
27.5903849293
 30
0.0
 11
7.603833207699978
 21
30.49243725150001
 31
0.0
  0
LINE
  5
BAB
  8
1
 10
9.204999999999984
 20
-27.6182445954
 30
0.0
 11
9.204999999999984
 21
27.5903848518
 31
0.0
  0
LINE
  5
BAC
  8
1
 10
7.6038332137
 20
-30.51748284710001
 30
0.0
 11
9.204999978799975
 21
-27.61768172539999
 31
0.0
  0
LINE
  5
BAD
  8
1
 10
7.603833230899994
 20
-30.5174828113
 30
0.0
 11
7.603833230899994
 21
30.49194635059999
 31
0.0
  0
LINE
  5
BAE
  8
1
 10
1.0
 20
-29.20362428180002
 30
0.0
 11
1.0
 21
29.22527756419998
 31
0.0
  0
ARC
  5
BAF
  8
1
 10
1.736068826500002
 20
28.83956144390001
 30
0.0
 40
0.8318485490646366
 50
106.4871262675995
 51
152.2338518675996
  0
POLYLINE
  5
BB0
  8
1
 66
     1
 10
0.0
 20
0.0
 30
0.0
  0
VERTEX
  5
1496
  8
1
 10
1.499991175799977
 20
-29.70136738420001
 30
0.0
  0
VERTEX
  5
1497
  8
1
 10
1.31486147779998
 20
-29.6078136875
 30
0.0
  0
VERTEX
  5
1498
  8
1
 10
1.220960437199977
 20
-29.54106786380001
 30
0.0
  0
VERTEX
  5
1499
  8
1
 10
1.131120186599986
 20
-29.45918995790001
 30
0.0
  0
VERTEX
  5
149A
  8
1
 10
1.068966655699995
 20
-29.38420485969999
 30
0.0
  0
VERTEX
  5
149B
  8
1
 10
1.029912598300001
 20
-29.3189781797
 30
0.0
  0
VERTEX
  5
149C
  8
1
 10
1.001757060399996
 20
-29.23060659110001
 30
0.0
  0
VERTEX
  5
149D
  8
1
 10
1.000001938499992
 20
-29.2054619834
 30
0.0
  0
SEQEND
  5
1680
  8
1
  0
LINE
  5
BB1
  8
1
 10
7.5674684974
 20
30.50268419069999
 30
0.0
 11
4.03465638199998
 21
30.50268419069999
 31
0.0
  0
LINE
  5
BB2
  8
1
 10
7.603832461599978
 20
30.49243719839998
 30
0.0
 11
7.5674684974
 21
30.50268419069999
 31
0.0
  0
LINE
  5
BB3
  8
1
 10
7.497824022700001
 20
-30.54092502470002
 30
0.0
 11
7.603832709099976
 21
-30.5174828113
 31
0.0
  0
LINE
  5
BB4
  8
1
 10
3.987796517999982
 20
-30.54092502470002
 30
0.0
 11
7.497824022700001
 21
-30.54092502470002
 31
0.0
  0
LINE
  5
BB5
  8
1
 10
1.500000037399985
 20
-29.70136454339999
 30
0.0
 11
3.987796517999982
 21
-30.54092512950001
 31
0.0
  0
LINE
  5
BB6
  8
1
 10
4.03465638199998
 20
30.5026843142
 30
0.0
 11
1.499999999899984
 21
29.6372041155
 31
0.0
  0
POLYLINE
  5
BB7
  8
1
 66
     1
 10
0.0
 20
0.0
 30
0.0
  0
VERTEX
  5
149E
  8
1
 10
18.81621828999999
 20
-30.4787564463
 30
0.0
  0
VERTEX
  5
149F
  8
1
 10
18.6790188139
 20
-30.52721612650001
 30
0.0
  0
VERTEX
  5
14A0
  8
1
 10
18.54999999999998
 20
-30.54092502470002
 30
0.0
  0
SEQEND
  5
167F
  8
1
  0
ARC
  5
BB8
  8
1
 10
18.55943835959999
 20
29.86640550269999
 30
0.0
 40
0.6363486869715145
 50
60.60134603479981
 51
90.84984539750005
  0
ARC
  5
BB9
  8
1
 10
18.35098180669999
 20
29.95429978019999
 30
0.0
 40
0.6992094391558102
 50
1.340108450200791
 51
41.85091720829973
  0
LINE
  5
BBA
  8
1
 10
19.04999999999998
 20
29.97065231189998
 30
0.0
 11
19.04999999999998
 21
-29.97065231190001
 31
0.0
  0
ARC
  5
BBB
  8
1
 10
18.33294041069999
 20
-29.9485632036
 30
0.0
 40
0.7173997374297006
 50
312.3495695874001
 51
358.2355544919003
  0
ARC
  5
BBC
  8
1
 10
9.7449695926
 20
27.30906555679999
 30
0.0
 40
0.5407677835436584
 50
176.8865704259999
 51
265.761250323199
  0
ARC
  5
BBD
  8
1
 10
9.7179331838
 20
-27.29360212969999
 30
0.0
 40
0.4775741781478385
 50
91.55181642760164
 51
147.4596417165987
  0
ARC
  5
BBE
  8
1
 10
12.52505146019999
 20
27.30025443439999
 30
0.0
 40
0.5313222205439724
 50
273.2312498579008
 51
4.120929392898505
  0
ARC
  5
BBF
  8
1
 10
12.53972316129997
 20
-27.2977060387
 30
0.0
 40
0.4817452194643697
 50
32.86161398089808
 51
88.18276318630117
  0
LINE
  5
BC0
  8
1
 10
12.55499999999998
 20
26.7697769259
 30
0.0
 11
9.704999999999984
 21
26.7697769259
 31
0.0
  0
LINE
  5
BC1
  8
1
 10
9.704999999999984
 20
-26.81620310549999
 30
0.0
 11
12.55499999999998
 21
-26.81620310549999
 31
0.0
  0
LINE
  5
BC4
  8
1
 10
0.2999999999999829
 20
0.0
 30
0.0
 11
0.2999999999999829
 21
21.92499999999998
 31
0.0
  0
LINE
  5
BC5
  8
1
 10
0.2999999999999829
 20
-21.92500000000001
 30
0.0
 11
0.2999999999999829
 21
0.0
 31
0.0
  0
LINE
  5
BC6
  8
1
 10
0.0
 20
0.0
 30
0.0
 11
0.0
 21
22.22499999999999
 31
0.0
  0
LINE
  5
BC7
  8
1
 10
0.0
 20
-22.22499999999999
 30
0.0
 11
0.0
 21
0.0
 31
0.0
  0
LINE
  5
BC8
  8
1
 10
35.04999999999998
 20
0.0
 30
0.0
 11
35.04999999999998
 21
-21.72499999999999
 31
0.0
  0
LINE
  5
BC9
  8
1
 10
35.04999999999998
 20
21.72499999999999
 30
0.0
 11
35.04999999999998
 21
0.0
 31
0.0
  0
LINE
  5
BCA
  8
SK1
 10
-68.25
 20
0.0
 30
0.0
 11
-68.25
 21
11.40703779609998
 31
0.0
  0
LINE
  5
BCB
  8
SK1
 10
-68.25
 20
-11.4070377962
 30
0.0
 11
-68.25
 21
0.0
 31
0.0
  0
LINE
  5
BCC
  8
1
 10
7.567468496899977
 20
30.50268419069999
 30
0.0
 11
7.6038324612
 21
30.49243719839998
 31
0.0
  0
LINE
  5
BCD
  8
1
 10
3.987796517999982
 20
-30.54092512950001
 30
0.0
 11
1.499999999899984
 21
-29.7013645289
 31
0.0
  0
LINE
  5
BDE
  8
3
 10
1.0
 20
-22.59999999999999
 30
0.0
 11
3.699999999999989
 21
-22.59999999999999
 31
0.0
  0
LINE
  5
BE8
  8
3
 10
18.25
 20
25.02000000000001
 30
0.0
 11
19.04999999999998
 21
25.02000000000001
 31
0.0
  0
LINE
  5
BFE
  8
3
 10
3.699999999999989
 20
-22.59999999999999
 30
0.0
 11
19.04999999999998
 21
-22.59999999999999
 31
0.0
  0
LINE
  5
C08
  8
3
 10
1.0
 20
25.02000000000001
 30
0.0
 11
18.25
 21
25.02000000000001
 31
0.0
  0
LINE
  5
C10
  8
3
 10
11.13
 20
21.22
 30
0.0
 11
17.47999999999999
 21
21.22
 31
0.0
  0
LINE
  5
C11
  8
3
 10
4.780000000000001
 20
21.22
 30
0.0
 11
11.13
 21
21.22
 31
0.0
  0
LINE
  5
C12
  8
3
 10
11.13
 20
21.21000000000001
 30
0.0
 11
15.88
 21
21.21000000000001
 31
0.0
  0
LINE
  5
C13
  8
3
 10
6.379999999999995
 20
21.21000000000001
 30
0.0
 11
11.13
 21
21.21000000000001
 31
0.0
  0
LINE
  5
C26
  8
3
 10
4.780000000000001
 20
25.02000000000001
 30
0.0
 11
4.780000000000001
 21
21.22
 31
0.0
  0
LINE
  5
C27
  8
3
 10
17.47999999999999
 20
21.22
 30
0.0
 11
17.47999999999999
 21
25.02000000000001
 31
0.0
  0
LINE
  5
C28
  8
3
 10
6.379999999999995
 20
21.22
 30
0.0
 11
6.379999999999995
 21
21.21000000000001
 31
0.0
  0
LINE
  5
C29
  8
3
 10
15.88
 20
21.21000000000001
 30
0.0
 11
15.88
 21
21.22
 31
0.0
  0
LINE
  5
C2A
  8
3
 10
6.379999999999995
 20
21.21000000000001
 30
0.0
 11
11.13
 21
18.3559120596
 31
0.0
  0
LINE
  5
C2B
  8
3
 10
11.13
 20
18.3559120596
 30
0.0
 11
15.88
 21
21.21000000000001
 31
0.0
  0
LINE
  5
C2C
  8
1
 10
20.04999999999998
 20
22.22499999999999
 30
0.0
 11
20.04999999999998
 21
-22.22499999999999
 31
0.0
  0
LINE
  5
C2D
  8
1
 10
0.799999999999983
 20
21.92499999999998
 30
0.0
 11
0.799999999999983
 21
-21.92500000000001
 31
0.0
  0
LINE
  5
C2F
  8
1
 10
9.704999999999984
 20
26.26568698759999
 30
0.0
 11
9.704999999999984
 21
-26.08092552630001
 31
0.0
  0
LINE
  5
C30
  8
1
 10
12.55499999999998
 20
26.26578903699999
 30
0.0
 11
12.55499999999998
 21
-26.08072526110001
 31
0.0
  0
LINE
  5
C31
  8
1
 10
18.54999999999998
 20
30.50268419069999
 30
0.0
 11
18.54999999999998
 21
-30.54092502470002
 31
0.0
  0
LINE
  5
C32
  8
1
 10
1.5
 20
-29.7013645289
 30
0.0
 11
1.5
 21
29.6372041155
 31
0.0
  0
LINE
  5
C92
  8
SK4
 10
0.0
 20
0.0
 30
0.0
 11
-68.25
 21
0.0
 31
0.0
  0
TEXT
  5
D44
  8
SK6
 10
-66.17909534664395
 20
47.33203563714093
 30
0.0
 40
3.5
  1
BIG KAISER
 41
0.85
  0
TEXT
  5
D45
  8
SK6
 10
-66.17909534664395
 20
42.08203563714093
 30
0.0
 40
3.5
  1
BCV40-FMH27-76-50
 41
0.85
  0
INSERT
  5
D46
  8
SK6
  2
_FILLED
 10
-17.9836627818344
 20
-19.60235774778011
 30
0.0
 41
3.5
 42
3.5
 43
3.5
 50
55.49325986033524
  0
POLYLINE
  5
D47
  8
SK6
 66
     1
 10
0.0
 20
0.0
 30
0.0
  0
VERTEX
  5
14A1
  8
SK6
 10
-19.966423916232
 20
-22.48656618059532
 30
0.0
  0
VERTEX
  5
14A2
  8
SK6
 10
-33.4822656830344
 20
-42.14728280658011
 30
0.0
  0
VERTEX
  5
14A3
  8
SK6
 10
-35.35726568303438
 20
-40.39728280658011
 30
0.0
  0
VERTEX
  5
14A4
  8
SK6
 10
-38.85726568303438
 20
-40.39728280658011
 30
0.0
  0
SEQEND
  5
167E
  8
SK6
  0
TEXT
  5
D48
  8
SK6
 10
-53.86143234970106
 20
-43.89728280658011
 30
0.0
 40
3.5
  1
BCV40
 41
0.85
  0
ARC
  5
E7B
  8
NOCUT
 10
20.04999999999998
 20
23.22499999999999
 30
0.0
 40
1.0
 50
180.0
 51
270.0
  0
LINE
  5
F33
  8
NOCUT
 10
7.603833230899994
 20
31.74999999999997
 30
0.0
 11
1.5
 21
31.74999999999997
 31
0.0
  0
LINE
  5
F35
  8
NOCUT
 10
14.6561667691
 20
31.74999999999997
 30
0.0
 11
13.05500000000001
 21
28.97669780459998
 31
0.0
  0
LINE
  5
F36
  8
NOCUT
 10
9.204999999999984
 20
28.97669780459998
 30
0.0
 11
7.603833230899994
 21
31.74999999999997
 31
0.0
  0
LINE
  5
F37
  8
NOCUT
 10
18.55000000000001
 20
31.74999999999997
 30
0.0
 11
14.6561667691
 21
31.74999999999997
 31
0.0
  0
ARC
  5
F38
  8
NOCUT
 10
18.55000000000001
 20
31.24999999999997
 30
0.0
 40
0.5
 50
0.0
 51
90.0
  0
ARC
  5
F39
  8
NOCUT
 10
1.5
 20
31.24999999999997
 30
0.0
 40
0.5
 50
90.0
 51
180.0
  0
ARC
  5
F3A
  8
NOCUT
 10
12.55500000000001
 20
28.67999999999998
 30
0.0
 40
0.5
 50
270.0
 51
0.0
  0
ARC
  5
F3B
  8
NOCUT
 10
9.704999999999984
 20
28.67999999999998
 30
0.0
 40
0.5
 50
180.0
 51
270.0
  0
LINE
  5
F3C
  8
NOCUT
 10
12.55500000000001
 20
28.17999999999998
 30
0.0
 11
9.704999999999984
 21
28.17999999999998
 31
0.0
  0
LINE
  5
F42
  8
NOCUT
 10
9.204999999999984
 20
28.97669780459998
 30
0.0
 11
9.204999999999984
 21
28.67999999999998
 31
0.0
  0
LINE
  5
F43
  8
NOCUT
 10
13.05500000000001
 20
28.97669780459998
 30
0.0
 11
13.05500000000001
 21
28.67999999999998
 31
0.0
  0
ARC
  5
FE0
  8
1
 10
36.05000000000001
 20
37.0
 30
0.0
 40
1.0
 50
90.0
 51
180.0
  0
ARC
  5
FE1
  8
1
 10
36.05000000000001
 20
-37.0
 30
0.0
 40
1.0
 50
180.0
 51
270.0
  0
LINE
  5
FE2
  8
1
 10
36.05000000000001
 20
-38.0
 30
0.0
 11
49.0
 21
-38.0
 31
0.0
  0
LINE
  5
FE3
  8
1
 10
49.0
 20
38.0
 30
0.0
 11
36.05000000000001
 21
38.0
 31
0.0
  0
ARC
  5
FE4
  8
1
 10
49.0
 20
-37.0
 30
0.0
 40
1.0
 50
270.0
 51
0.0
  0
ARC
  5
FE5
  8
1
 10
49.0
 20
37.0
 30
0.0
 40
1.0
 50
0.0
 51
90.0
  0
ARC
  5
FE8
  8
1
 10
34.65000000000003
 20
22.625
 30
0.0
 40
0.4000000000000057
 50
270.0
 51
0.0
  0
ARC
  5
FE9
  8
1
 10
34.65000000000003
 20
-22.625
 30
0.0
 40
0.4000000000000057
 50
0.0
 51
90.0
  0
LINE
  5
1006
  8
1
 10
43.5
 20
0.577350269200025
 30
0.0
 11
42.5
 21
1.154700538400022
 31
0.0
  0
LINE
  5
1007
  8
1
 10
41.5
 20
0.577350269200025
 30
0.0
 11
42.5
 21
1.154700538400022
 31
0.0
  0
LINE
  5
1008
  8
1
 10
41.5
 20
-0.5773502691999965
 30
0.0
 11
41.5
 21
0.577350269200025
 31
0.0
  0
LINE
  5
1009
  8
1
 10
41.5
 20
-0.5773502691999965
 30
0.0
 11
42.5
 21
-1.154700538399993
 31
0.0
  0
LINE
  5
100A
  8
1
 10
43.5
 20
-0.5773502691999965
 30
0.0
 11
42.5
 21
-1.154700538399993
 31
0.0
  0
LINE
  5
100B
  8
1
 10
43.5
 20
-0.5773502691999965
 30
0.0
 11
43.5
 21
0.577350269200025
 31
0.0
  0
CIRCLE
  5
100C
  8
1
 10
42.5
 20
0.0
 30
0.0
 40
1.610000000000014
  0
LINE
  5
100D
  8
1
 10
35.05000000000001
 20
-37.0
 30
0.0
 11
35.05000000000001
 21
37.0
 31
0.0
  0
CIRCLE
  5
100E
  8
1
 10
42.5
 20
0.0
 30
0.0
 40
2.250000000000057
  0
LINE
  5
100F
  8
1
 10
50.0
 20
0.0
 30
0.0
 11
50.0
 21
37.0
 31
0.0
  0
LINE
  5
1010
  8
1
 10
50.0
 20
-37.0
 30
0.0
 11
50.0
 21
0.0
 31
0.0
  0
CIRCLE
  5
1011
  8
1
 10
42.5
 20
0.0
 30
0.0
 40
2.025000000000006
  0
LINE
  5
1043
  8
3
 10
38.76244998000004
 20
35.00837000000001
 30
0.0
 11
38.76244998000004
 21
22.99163000000001
 31
0.0
  0
LINE
  5
1044
  8
3
 10
37.20000000000005
 20
34.75
 30
0.0
 11
37.20000000000005
 21
23.25
 31
0.0
  0
LINE
  5
1045
  8
3
 10
38.12692945910004
 20
34.99837000000002
 30
0.0
 11
38.12692945910004
 21
23.00163000000001
 31
0.0
  0
LINE
  5
1046
  8
3
 10
38.76244998000004
 20
-22.99162999999999
 30
0.0
 11
38.76244998000004
 21
-35.00836999999999
 31
0.0
  0
LINE
  5
1047
  8
3
 10
38.12692945910004
 20
-23.00162999999998
 30
0.0
 11
38.12692945910004
 21
-34.99836999999999
 31
0.0
  0
LINE
  5
1048
  8
3
 10
37.20000000000005
 20
-23.25
 30
0.0
 11
37.20000000000005
 21
-34.75
 31
0.0
  0
POLYLINE
  5
1049
  8
3
 66
     1
 10
0.0
 20
0.0
 30
0.0
  0
VERTEX
  5
14A5
  8
3
 10
42.5
 20
-24.76425576259999
 30
0.0
  0
VERTEX
  5
14A6
  8
3
 10
43.11803398870001
 20
-24.8131992463
 30
0.0
  0
VERTEX
  5
14A7
  8
3
 10
43.67557050460005
 20
-24.95523876819999
 30
0.0
  0
VERTEX
  5
14A8
  8
3
 10
44.11803398870001
 20
-25.17647051029999
 30
0.0
  0
VERTEX
  5
14A9
  8
3
 10
44.40211303260003
 20
-25.45523876819999
 30
0.0
  0
VERTEX
  5
14AA
  8
3
 10
44.5
 20
-25.76425576259999
 30
0.0
  0
VERTEX
  5
14AB
  8
3
 10
44.40211303260003
 20
-26.0732727569
 30
0.0
  0
VERTEX
  5
14AC
  8
3
 10
44.11803398870001
 20
-26.35204101489998
 30
0.0
  0
VERTEX
  5
14AD
  8
3
 10
43.67557050460005
 20
-26.5732727569
 30
0.0
  0
VERTEX
  5
14AE
  8
3
 10
43.11803398870001
 20
-26.7153122789
 30
0.0
  0
VERTEX
  5
14AF
  8
3
 10
42.5
 20
-26.76425576259999
 30
0.0
  0
VERTEX
  5
14B0
  8
3
 10
41.88196601120001
 20
-26.7153122789
 30
0.0
  0
VERTEX
  5
14B1
  8
3
 10
41.32442949540001
 20
-26.5732727569
 30
0.0
  0
VERTEX
  5
14B2
  8
3
 10
40.88196601120001
 20
-26.35204101489998
 30
0.0
  0
VERTEX
  5
14B3
  8
3
 10
40.59788696740003
 20
-26.0732727569
 30
0.0
  0
VERTEX
  5
14B4
  8
3
 10
40.5
 20
-25.76425576259999
 30
0.0
  0
VERTEX
  5
14B5
  8
3
 10
40.59788696740003
 20
-25.45523876819999
 30
0.0
  0
VERTEX
  5
14B6
  8
3
 10
40.88196601120001
 20
-25.17647051029999
 30
0.0
  0
VERTEX
  5
14B7
  8
3
 10
41.32442949540001
 20
-24.95523876819999
 30
0.0
  0
VERTEX
  5
14B8
  8
3
 10
41.88196601120001
 20
-24.8131992463
 30
0.0
  0
VERTEX
  5
14B9
  8
3
 10
42.5
 20
-24.76425576259999
 30
0.0
  0
SEQEND
  5
167D
  8
3
  0
POLYLINE
  5
104A
  8
3
 66
     1
 10
0.0
 20
0.0
 30
0.0
  0
VERTEX
  5
14BA
  8
3
 10
42.5
 20
-24.4897367097
 30
0.0
  0
VERTEX
  5
14BB
  8
3
 10
42.97835429040003
 20
-24.53731200189998
 30
0.0
  0
VERTEX
  5
14BC
  8
3
 10
43.38388347650005
 20
-24.6727949715
 30
0.0
  0
VERTEX
  5
14BD
  8
3
 10
43.65484941560004
 20
-24.87555956449998
 30
0.0
  0
VERTEX
  5
14BE
  8
3
 10
43.75
 20
-25.1147367097
 30
0.0
  0
VERTEX
  5
14BF
  8
3
 10
43.65484941560004
 20
-25.35391385499997
 30
0.0
  0
VERTEX
  5
14C0
  8
3
 10
43.38388347650005
 20
-25.55667844799999
 30
0.0
  0
VERTEX
  5
14C1
  8
3
 10
42.97835429040003
 20
-25.69216141759998
 30
0.0
  0
VERTEX
  5
14C2
  8
3
 10
42.5
 20
-25.7397367097
 30
0.0
  0
VERTEX
  5
14C3
  8
3
 10
42.02164570950004
 20
-25.69216141759998
 30
0.0
  0
VERTEX
  5
14C4
  8
3
 10
41.61611652350001
 20
-25.55667844799999
 30
0.0
  0
VERTEX
  5
14C5
  8
3
 10
41.34515058430003
 20
-25.35391385499997
 30
0.0
  0
VERTEX
  5
14C6
  8
3
 10
41.25
 20
-25.1147367097
 30
0.0
  0
VERTEX
  5
14C7
  8
3
 10
41.34515058430003
 20
-24.87555956449998
 30
0.0
  0
VERTEX
  5
14C8
  8
3
 10
41.61611652350001
 20
-24.6727949715
 30
0.0
  0
VERTEX
  5
14C9
  8
3
 10
42.02164570950004
 20
-24.53731200189998
 30
0.0
  0
VERTEX
  5
14CA
  8
3
 10
42.5
 20
-24.4897367097
 30
0.0
  0
SEQEND
  5
167C
  8
3
  0
POLYLINE
  5
104B
  8
3
 66
     1
 10
0.0
 20
0.0
 30
0.0
  0
VERTEX
  5
14CB
  8
3
 10
42.5
 20
-30.84793993999997
 30
0.0
  0
VERTEX
  5
14CC
  8
3
 10
43.11803398870001
 20
-30.89688342369999
 30
0.0
  0
VERTEX
  5
14CD
  8
3
 10
43.67557050460005
 20
-31.03892294559998
 30
0.0
  0
VERTEX
  5
14CE
  8
3
 10
44.11803398870001
 20
-31.26015468769998
 30
0.0
  0
VERTEX
  5
14CF
  8
3
 10
44.40211303260003
 20
-31.53892294559998
 30
0.0
  0
VERTEX
  5
14D0
  8
3
 10
44.5
 20
-31.84793993999997
 30
0.0
  0
VERTEX
  5
14D1
  8
3
 10
44.40211303260003
 20
-32.1569569344
 30
0.0
  0
VERTEX
  5
14D2
  8
3
 10
44.11803398870001
 20
-32.4357251923
 30
0.0
  0
VERTEX
  5
14D3
  8
3
 10
43.67557050460005
 20
-32.6569569344
 30
0.0
  0
VERTEX
  5
14D4
  8
3
 10
43.11803398870001
 20
-32.79899645629999
 30
0.0
  0
VERTEX
  5
14D5
  8
3
 10
42.5
 20
-32.84793993999997
 30
0.0
  0
VERTEX
  5
14D6
  8
3
 10
41.88196601120001
 20
-32.79899645629999
 30
0.0
  0
VERTEX
  5
14D7
  8
3
 10
41.32442949540001
 20
-32.6569569344
 30
0.0
  0
VERTEX
  5
14D8
  8
3
 10
40.88196601120001
 20
-32.4357251923
 30
0.0
  0
VERTEX
  5
14D9
  8
3
 10
40.59788696740003
 20
-32.1569569344
 30
0.0
  0
VERTEX
  5
14DA
  8
3
 10
40.5
 20
-31.84793993999997
 30
0.0
  0
VERTEX
  5
14DB
  8
3
 10
40.59788696740003
 20
-31.53892294559998
 30
0.0
  0
VERTEX
  5
14DC
  8
3
 10
40.88196601120001
 20
-31.26015468769998
 30
0.0
  0
VERTEX
  5
14DD
  8
3
 10
41.32442949540001
 20
-31.03892294559998
 30
0.0
  0
VERTEX
  5
14DE
  8
3
 10
41.88196601120001
 20
-30.89688342369999
 30
0.0
  0
VERTEX
  5
14DF
  8
3
 10
42.5
 20
-30.84793993999997
 30
0.0
  0
SEQEND
  5
167B
  8
3
  0
LINE
  5
104C
  8
3
 10
42.5
 20
-30.62843178049999
 30
0.0
 11
42.5
 21
-32.62029020919999
 31
0.0
  0
LINE
  5
104D
  8
3
 10
41.5
 20
-30.3397566459
 30
0.0
 11
42.5
 21
-30.62843178049999
 31
0.0
  0
LINE
  5
104E
  8
3
 10
43.5
 20
-30.3397566459
 30
0.0
 11
42.5
 21
-30.62843178049999
 31
0.0
  0
LINE
  5
104F
  8
3
 10
43.5
 20
-29.7624063767
 30
0.0
 11
43.5
 21
-30.3397566459
 31
0.0
  0
LINE
  5
1050
  8
3
 10
43.5
 20
-30.3397566459
 30
0.0
 11
43.5
 21
-32.33161507459999
 31
0.0
  0
LINE
  5
1051
  8
3
 10
41.5
 20
-29.7624063767
 30
0.0
 11
41.5
 21
-30.3397566459
 31
0.0
  0
LINE
  5
1052
  8
3
 10
41.5
 20
-30.3397566459
 30
0.0
 11
41.5
 21
-32.33161507459999
 31
0.0
  0
POLYLINE
  5
1053
  8
3
 66
     1
 10
0.0
 20
0.0
 30
0.0
  0
VERTEX
  5
14E0
  8
3
 10
42.5
 20
-31.23793993999999
 30
0.0
  0
VERTEX
  5
14E1
  8
3
 10
43.05065243070004
 20
-31.28648738029997
 30
0.0
  0
VERTEX
  5
14E2
  8
3
 10
43.53488805160003
 20
-31.42627416329998
 30
0.0
  0
VERTEX
  5
14E3
  8
3
 10
43.89430090010001
 20
-31.64043993999999
 30
0.0
  0
VERTEX
  5
14E4
  8
3
 10
44.08554048230002
 20
-31.90315315699999
 30
0.0
  0
VERTEX
  5
14E5
  8
3
 10
44.08554048230002
 20
-32.182726723
 30
0.0
  0
VERTEX
  5
14E6
  8
3
 10
43.89430090010001
 20
-32.44543994
 30
0.0
  0
VERTEX
  5
14E7
  8
3
 10
43.53488805160003
 20
-32.65960571669999
 30
0.0
  0
VERTEX
  5
14E8
  8
3
 10
43.05065243070004
 20
-32.79939249969999
 30
0.0
  0
VERTEX
  5
14E9
  8
3
 10
42.5
 20
-32.84793993999997
 30
0.0
  0
VERTEX
  5
14EA
  8
3
 10
41.94934756920003
 20
-32.79939249969999
 30
0.0
  0
VERTEX
  5
14EB
  8
3
 10
41.46511194840002
 20
-32.65960571669999
 30
0.0
  0
VERTEX
  5
14EC
  8
3
 10
41.10569909990005
 20
-32.44543994
 30
0.0
  0
VERTEX
  5
14ED
  8
3
 10
40.91445951760005
 20
-32.182726723
 30
0.0
  0
VERTEX
  5
14EE
  8
3
 10
40.91445951760005
 20
-31.90315315699999
 30
0.0
  0
VERTEX
  5
14EF
  8
3
 10
41.10569909990005
 20
-31.64043993999999
 30
0.0
  0
VERTEX
  5
14F0
  8
3
 10
41.46511194840002
 20
-31.42627416329998
 30
0.0
  0
VERTEX
  5
14F1
  8
3
 10
41.94934756920003
 20
-31.28648738029997
 30
0.0
  0
VERTEX
  5
14F2
  8
3
 10
42.5
 20
-31.23793993999999
 30
0.0
  0
SEQEND
  5
167A
  8
3
  0
LINE
  5
1054
  8
3
 10
41.5
 20
-32.33161507459999
 30
0.0
 11
42.5
 21
-32.62029020919999
 31
0.0
  0
LINE
  5
1055
  8
3
 10
43.5
 20
-32.33161507459999
 30
0.0
 11
42.5
 21
-32.62029020919999
 31
0.0
  0
LINE
  5
1056
  8
3
 10
42.5
 20
-29.4737312421
 30
0.0
 11
42.5
 21
-30.62843178049999
 31
0.0
  0
LINE
  5
1057
  8
3
 10
41.5
 20
-31.7542648054
 30
0.0
 11
42.5
 21
-31.4655896708
 31
0.0
  0
LINE
  5
1058
  8
3
 10
41.5
 20
-29.7624063767
 30
0.0
 11
42.5
 21
-29.4737312421
 31
0.0
  0
LINE
  5
1059
  8
3
 10
43.5
 20
-31.7542648054
 30
0.0
 11
42.5
 21
-31.4655896708
 31
0.0
  0
LINE
  5
105A
  8
3
 10
43.5
 20
-29.7624063767
 30
0.0
 11
42.5
 21
-29.4737312421
 31
0.0
  0
CIRCLE
  5
105B
  8
3
 10
42.5
 20
0.0
 30
0.0
 40
2.0
  0
CIRCLE
  5
105C
  8
3
 10
42.5
 20
0.0
 30
0.0
 40
1.25
  0
POLYLINE
  5
105D
  8
3
 66
     1
 10
0.0
 20
0.0
 30
0.0
  0
VERTEX
  5
14F3
  8
3
 10
42.5
 20
26.76425576260002
 30
0.0
  0
VERTEX
  5
14F4
  8
3
 10
43.11803398870001
 20
26.7153122789
 30
0.0
  0
VERTEX
  5
14F5
  8
3
 10
43.67557050460005
 20
26.57327275700001
 30
0.0
  0
VERTEX
  5
14F6
  8
3
 10
44.11803398870001
 20
26.35204101490001
 30
0.0
  0
VERTEX
  5
14F7
  8
3
 10
44.40211303260003
 20
26.07327275700001
 30
0.0
  0
VERTEX
  5
14F8
  8
3
 10
44.5
 20
25.76425576260002
 30
0.0
  0
VERTEX
  5
14F9
  8
3
 10
44.40211303260003
 20
25.45523876820002
 30
0.0
  0
VERTEX
  5
14FA
  8
3
 10
44.11803398870001
 20
25.17647051030002
 30
0.0
  0
VERTEX
  5
14FB
  8
3
 10
43.67557050460005
 20
24.95523876820002
 30
0.0
  0
VERTEX
  5
14FC
  8
3
 10
43.11803398870001
 20
24.8131992463
 30
0.0
  0
VERTEX
  5
14FD
  8
3
 10
42.5
 20
24.76425576260002
 30
0.0
  0
VERTEX
  5
14FE
  8
3
 10
41.88196601120001
 20
24.8131992463
 30
0.0
  0
VERTEX
  5
14FF
  8
3
 10
41.32442949540001
 20
24.95523876820002
 30
0.0
  0
VERTEX
  5
1500
  8
3
 10
40.88196601120001
 20
25.17647051030002
 30
0.0
  0
VERTEX
  5
1501
  8
3
 10
40.59788696740003
 20
25.45523876820002
 30
0.0
  0
VERTEX
  5
1502
  8
3
 10
40.5
 20
25.76425576260002
 30
0.0
  0
VERTEX
  5
1503
  8
3
 10
40.59788696740003
 20
26.07327275700001
 30
0.0
  0
VERTEX
  5
1504
  8
3
 10
40.88196601120001
 20
26.35204101490001
 30
0.0
  0
VERTEX
  5
1505
  8
3
 10
41.32442949540001
 20
26.57327275700001
 30
0.0
  0
VERTEX
  5
1506
  8
3
 10
41.88196601120001
 20
26.7153122789
 30
0.0
  0
VERTEX
  5
1507
  8
3
 10
42.5
 20
26.76425576260002
 30
0.0
  0
SEQEND
  5
1679
  8
3
  0
POLYLINE
  5
105E
  8
3
 66
     1
 10
0.0
 20
0.0
 30
0.0
  0
VERTEX
  5
1508
  8
3
 10
42.5
 20
25.73973670980001
 30
0.0
  0
VERTEX
  5
1509
  8
3
 10
42.97835429040003
 20
25.6921614176
 30
0.0
  0
VERTEX
  5
150A
  8
3
 10
43.38388347650005
 20
25.55667844800001
 30
0.0
  0
VERTEX
  5
150B
  8
3
 10
43.65484941560004
 20
25.353913855
 30
0.0
  0
VERTEX
  5
150C
  8
3
 10
43.75
 20
25.11473670980001
 30
0.0
  0
VERTEX
  5
150D
  8
3
 10
43.65484941560004
 20
24.87555956450001
 30
0.0
  0
VERTEX
  5
150E
  8
3
 10
43.38388347650005
 20
24.67279497150002
 30
0.0
  0
VERTEX
  5
150F
  8
3
 10
42.97835429040003
 20
24.53731200190001
 30
0.0
  0
VERTEX
  5
1510
  8
3
 10
42.5
 20
24.48973670980001
 30
0.0
  0
VERTEX
  5
1511
  8
3
 10
42.02164570950004
 20
24.53731200190001
 30
0.0
  0
VERTEX
  5
1512
  8
3
 10
41.61611652350001
 20
24.67279497150002
 30
0.0
  0
VERTEX
  5
1513
  8
3
 10
41.34515058430003
 20
24.87555956450001
 30
0.0
  0
VERTEX
  5
1514
  8
3
 10
41.25
 20
25.11473670980001
 30
0.0
  0
VERTEX
  5
1515
  8
3
 10
41.34515058430003
 20
25.353913855
 30
0.0
  0
VERTEX
  5
1516
  8
3
 10
41.61611652350001
 20
25.55667844800001
 30
0.0
  0
VERTEX
  5
1517
  8
3
 10
42.02164570950004
 20
25.6921614176
 30
0.0
  0
VERTEX
  5
1518
  8
3
 10
42.5
 20
25.73973670980001
 30
0.0
  0
SEQEND
  5
1678
  8
3
  0
POLYLINE
  5
105F
  8
3
 66
     1
 10
0.0
 20
0.0
 30
0.0
  0
VERTEX
  5
1519
  8
3
 10
42.5
 20
32.84793994
 30
0.0
  0
VERTEX
  5
151A
  8
3
 10
43.11803398870001
 20
32.79899645630002
 30
0.0
  0
VERTEX
  5
151B
  8
3
 10
43.67557050460005
 20
32.6569569344
 30
0.0
  0
VERTEX
  5
151C
  8
3
 10
44.11803398870001
 20
32.43572519230003
 30
0.0
  0
VERTEX
  5
151D
  8
3
 10
44.40211303260003
 20
32.1569569344
 30
0.0
  0
VERTEX
  5
151E
  8
3
 10
44.5
 20
31.84793994
 30
0.0
  0
VERTEX
  5
151F
  8
3
 10
44.40211303260003
 20
31.53892294570002
 30
0.0
  0
VERTEX
  5
1520
  8
3
 10
44.11803398870001
 20
31.26015468770001
 30
0.0
  0
VERTEX
  5
1521
  8
3
 10
43.67557050460005
 20
31.03892294570002
 30
0.0
  0
VERTEX
  5
1522
  8
3
 10
43.11803398870001
 20
30.89688342370002
 30
0.0
  0
VERTEX
  5
1523
  8
3
 10
42.5
 20
30.84793994
 30
0.0
  0
VERTEX
  5
1524
  8
3
 10
41.88196601120001
 20
30.89688342370002
 30
0.0
  0
VERTEX
  5
1525
  8
3
 10
41.32442949540001
 20
31.03892294570002
 30
0.0
  0
VERTEX
  5
1526
  8
3
 10
40.88196601120001
 20
31.26015468770001
 30
0.0
  0
VERTEX
  5
1527
  8
3
 10
40.59788696740003
 20
31.53892294570002
 30
0.0
  0
VERTEX
  5
1528
  8
3
 10
40.5
 20
31.84793994
 30
0.0
  0
VERTEX
  5
1529
  8
3
 10
40.59788696740003
 20
32.1569569344
 30
0.0
  0
VERTEX
  5
152A
  8
3
 10
40.88196601120001
 20
32.43572519230003
 30
0.0
  0
VERTEX
  5
152B
  8
3
 10
41.32442949540001
 20
32.6569569344
 30
0.0
  0
VERTEX
  5
152C
  8
3
 10
41.88196601120001
 20
32.79899645630002
 30
0.0
  0
VERTEX
  5
152D
  8
3
 10
42.5
 20
32.84793994
 30
0.0
  0
SEQEND
  5
1677
  8
3
  0
LINE
  5
1060
  8
3
 10
42.5
 20
30.62843178050002
 30
0.0
 11
42.5
 21
32.62029020920002
 31
0.0
  0
LINE
  5
1061
  8
3
 10
41.5
 20
30.33975664590002
 30
0.0
 11
42.5
 21
30.62843178050002
 31
0.0
  0
LINE
  5
1062
  8
3
 10
43.5
 20
30.33975664590002
 30
0.0
 11
42.5
 21
30.62843178050002
 31
0.0
  0
LINE
  5
1063
  8
3
 10
43.5
 20
30.33975664590002
 30
0.0
 11
43.5
 21
29.7624063767
 31
0.0
  0
LINE
  5
1064
  8
3
 10
43.5
 20
30.33975664590002
 30
0.0
 11
43.5
 21
32.33161507460002
 31
0.0
  0
LINE
  5
1065
  8
3
 10
41.5
 20
30.33975664590002
 30
0.0
 11
41.5
 21
29.7624063767
 31
0.0
  0
LINE
  5
1066
  8
3
 10
41.5
 20
30.33975664590002
 30
0.0
 11
41.5
 21
32.33161507460002
 31
0.0
  0
POLYLINE
  5
1067
  8
3
 66
     1
 10
0.0
 20
0.0
 30
0.0
  0
VERTEX
  5
152E
  8
3
 10
42.5
 20
32.84793994
 30
0.0
  0
VERTEX
  5
152F
  8
3
 10
43.05065243070004
 20
32.79939249980001
 30
0.0
  0
VERTEX
  5
1530
  8
3
 10
43.53488805160003
 20
32.6596057168
 30
0.0
  0
VERTEX
  5
1531
  8
3
 10
43.89430090010001
 20
32.44543994
 30
0.0
  0
VERTEX
  5
1532
  8
3
 10
44.08554048230002
 20
32.18272672310002
 30
0.0
  0
VERTEX
  5
1533
  8
3
 10
44.08554048230002
 20
31.90315315700002
 30
0.0
  0
VERTEX
  5
1534
  8
3
 10
43.89430090010001
 20
31.64043994000002
 30
0.0
  0
VERTEX
  5
1535
  8
3
 10
43.53488805160003
 20
31.42627416330001
 30
0.0
  0
VERTEX
  5
1536
  8
3
 10
43.05065243070004
 20
31.2864873803
 30
0.0
  0
VERTEX
  5
1537
  8
3
 10
42.5
 20
31.23793994000002
 30
0.0
  0
VERTEX
  5
1538
  8
3
 10
41.94934756920003
 20
31.2864873803
 30
0.0
  0
VERTEX
  5
1539
  8
3
 10
41.46511194840002
 20
31.42627416330001
 30
0.0
  0
VERTEX
  5
153A
  8
3
 10
41.10569909990005
 20
31.64043994000002
 30
0.0
  0
VERTEX
  5
153B
  8
3
 10
40.91445951760005
 20
31.90315315700002
 30
0.0
  0
VERTEX
  5
153C
  8
3
 10
40.91445951760005
 20
32.18272672310002
 30
0.0
  0
VERTEX
  5
153D
  8
3
 10
41.10569909990005
 20
32.44543994
 30
0.0
  0
VERTEX
  5
153E
  8
3
 10
41.46511194840002
 20
32.6596057168
 30
0.0
  0
VERTEX
  5
153F
  8
3
 10
41.94934756920003
 20
32.79939249980001
 30
0.0
  0
VERTEX
  5
1540
  8
3
 10
42.5
 20
32.84793994
 30
0.0
  0
SEQEND
  5
1676
  8
3
  0
LINE
  5
1068
  8
3
 10
41.5
 20
32.33161507460002
 30
0.0
 11
42.5
 21
32.62029020920002
 31
0.0
  0
LINE
  5
1069
  8
3
 10
43.5
 20
32.33161507460002
 30
0.0
 11
42.5
 21
32.62029020920002
 31
0.0
  0
LINE
  5
106A
  8
3
 10
42.5
 20
29.4737312421
 30
0.0
 11
42.5
 21
30.62843178050002
 31
0.0
  0
LINE
  5
106B
  8
3
 10
41.5
 20
31.7542648054
 30
0.0
 11
42.5
 21
31.46558967090002
 31
0.0
  0
LINE
  5
106C
  8
3
 10
41.5
 20
29.7624063767
 30
0.0
 11
42.5
 21
29.4737312421
 31
0.0
  0
LINE
  5
106D
  8
3
 10
43.5
 20
31.7542648054
 30
0.0
 11
42.5
 21
31.46558967090002
 31
0.0
  0
LINE
  5
106E
  8
3
 10
43.5
 20
29.7624063767
 30
0.0
 11
42.5
 21
29.4737312421
 31
0.0
  0
POLYLINE
  5
106F
  8
3
 66
     1
 10
0.0
 20
0.0
 30
0.0
  0
VERTEX
  5
1541
  8
3
 10
44.75
 20
32.90896534380002
 30
0.0
  0
VERTEX
  5
1542
  8
3
 10
44.6234236729
 20
33.27466881270001
 30
0.0
  0
VERTEX
  5
1543
  8
3
 10
44.25808020900001
 20
33.5885685154
 30
0.0
  0
VERTEX
  5
1544
  8
3
 10
43.69441275900004
 20
33.82090708150002
 30
0.0
  0
VERTEX
  5
1545
  8
3
 10
42.99547963840001
 20
33.95141267710002
 30
0.0
  0
VERTEX
  5
1546
  8
3
 10
42.24137098470004
 20
33.96953386090001
 30
0.0
  0
VERTEX
  5
1547
  8
3
 10
41.51733937790004
 20
33.87428528090001
 30
0.0
  0
VERTEX
  5
1548
  8
3
 10
40.90349520610005
 20
33.67303766180001
 30
0.0
  0
VERTEX
  5
1549
  8
3
 10
40.4686443265
 20
33.38205654290002
 30
0.0
  0
VERTEX
  5
154A
  8
3
 10
40.26286312760004
 20
33.02843112240001
 30
0.0
  0
VERTEX
  5
154B
  8
3
 10
40.30928279760002
 20
32.64942192540002
 30
0.0
  0
VERTEX
  5
154C
  8
3
 10
40.6018441553
 20
32.28828023560001
 30
0.0
  0
VERTEX
  5
154D
  8
3
 10
41.1082143337
 20
31.9893868627
 30
0.0
  0
VERTEX
  5
154E
  8
3
 10
41.77220814870003
 20
31.79275204620001
 30
0.0
  0
VERTEX
  5
154F
  8
3
 10
42.51802354750004
 20
31.72626694910002
 30
0.0
  0
VERTEX
  5
1550
  8
3
 10
43.26069839110005
 20
31.79907822290002
 30
0.0
  0
VERTEX
  5
1551
  8
3
 10
43.91770169290004
 20
32.00057439230002
 30
0.0
  0
VERTEX
  5
1552
  8
3
 10
44.41598803670001
 20
32.30329825770002
 30
0.0
  0
VERTEX
  5
1553
  8
3
 10
44.69853647150001
 20
32.66711947490001
 30
0.0
  0
VERTEX
  5
1554
  8
3
 10
44.75
 20
32.90896534380002
 30
0.0
  0
SEQEND
  5
1675
  8
3
  0
POLYLINE
  5
1070
  8
3
 66
     1
 10
0.0
 20
0.0
 30
0.0
  0
VERTEX
  5
1555
  8
3
 10
44.75
 20
-32.90896534379999
 30
0.0
  0
VERTEX
  5
1556
  8
3
 10
44.6234236729
 20
-32.53064468309998
 30
0.0
  0
VERTEX
  5
1557
  8
3
 10
44.25808020900001
 20
-32.18441254869998
 30
0.0
  0
VERTEX
  5
1558
  8
3
 10
43.69441275900004
 20
-31.9141091999
 30
0.0
  0
VERTEX
  5
1559
  8
3
 10
42.99547963840001
 20
-31.75664619109997
 30
0.0
  0
VERTEX
  5
155A
  8
3
 10
42.24137098470004
 20
-31.73444750179999
 30
0.0
  0
VERTEX
  5
155B
  8
3
 10
41.51733937790004
 20
-31.85021065239999
 30
0.0
  0
VERTEX
  5
155C
  8
3
 10
40.90349520610005
 20
-32.0875811208
 30
0.0
  0
VERTEX
  5
155D
  8
3
 10
40.4686443265
 20
-32.41453696789998
 30
0.0
  0
VERTEX
  5
155E
  8
3
 10
40.26286312760004
 20
-32.78818413659999
 30
0.0
  0
VERTEX
  5
155F
  8
3
 10
40.30928279760002
 20
-33.1625087983
 30
0.0
  0
VERTEX
  5
1560
  8
3
 10
40.6018441553
 20
-33.49637973029999
 30
0.0
  0
VERTEX
  5
1561
  8
3
 10
41.1082143337
 20
-33.7572761859
 30
0.0
  0
VERTEX
  5
1562
  8
3
 10
41.77220814870003
 20
-33.92179385449998
 30
0.0
  0
VERTEX
  5
1563
  8
3
 10
42.51802354750004
 20
-33.97619475939999
 30
0.0
  0
VERTEX
  5
1564
  8
3
 10
43.26069839110005
 20
-33.91658570989998
 30
0.0
  0
VERTEX
  5
1565
  8
3
 10
43.91770169290004
 20
-33.74774980129999
 30
0.0
  0
VERTEX
  5
1566
  8
3
 10
44.41598803670001
 20
-33.482912535
 30
0.0
  0
VERTEX
  5
1567
  8
3
 10
44.69853647150001
 20
-33.14559349039999
 30
0.0
  0
VERTEX
  5
1568
  8
3
 10
44.75
 20
-32.90896534379999
 30
0.0
  0
SEQEND
  5
1674
  8
3
  0
CIRCLE
  5
1071
  8
3
 10
42.5
 20
0.0
 30
0.0
 40
1.650000000000006
  0
LINE
  5
1074
  8
3
 10
41.0
 20
-0.6873863541999867
 30
0.0
 11
41.0
 21
-2.0
 31
0.0
  0
LINE
  5
1075
  8
3
 10
41.0
 20
0.6873863543000027
 30
0.0
 11
41.20216691950003
 21
0.9809155044000022
 31
0.0
  0
POLYLINE
  5
1076
  8
3
 66
     1
 10
0.0
 20
0.0
 30
0.0
  0
VERTEX
  5
1569
  8
3
 10
44.13295895240003
 20
0.0839217967000252
 30
0.0
  0
VERTEX
  5
156A
  8
3
 10
44.13513885950005
 20
-0.220954543299996
 30
0.0
  0
VERTEX
  5
156B
  8
3
 10
44.10336803940004
 20
-0.3393254482999737
 30
0.0
  0
SEQEND
  5
1673
  8
3
  0
LINE
  5
1077
  8
3
 10
41.0
 20
2.0
 30
0.0
 11
41.0
 21
0.6873863543000027
 31
0.0
  0
LINE
  5
1081
  8
SK3
 10
-24.79583465889998
 20
0.0
 30
0.0
 11
-24.79583465889998
 21
-5.099999999999994
 31
0.0
  0
LINE
  5
1082
  8
SK3
 10
-24.79583465889998
 20
5.100000000000023
 30
0.0
 11
-24.79583465889998
 21
0.0
 31
0.0
  0
LINE
  5
1086
  8
3
 10
46.0
 20
6.0
 30
0.0
 11
46.0
 21
-6.0
 31
0.0
  0
ARC
  5
1087
  8
3
 10
42.5
 20
6.207307840800013
 30
0.0
 40
2.715759786134054
 50
241.1928257892003
 51
298.8071742107998
  0
POLYLINE
  5
1088
  8
3
 66
     1
 10
0.0
 20
0.0
 30
0.0
  0
VERTEX
  5
156C
  8
3
 10
43.80862523280001
 20
4.832620800000001
 30
0.0
  0
VERTEX
  5
156D
  8
3
 10
44.06388425590001
 20
4.656210833700015
 30
0.0
  0
VERTEX
  5
156E
  8
3
 10
44.14993440150005
 20
4.409354711100008
 30
0.0
  0
VERTEX
  5
156F
  8
3
 10
44.05972761770005
 20
4.122917573600006
 30
0.0
  0
VERTEX
  5
1570
  8
3
 10
43.80862523280001
 20
3.827633237900017
 30
0.0
  0
SEQEND
  5
1672
  8
3
  0
ARC
  5
1089
  8
3
 10
42.5
 20
-1.070517540799983
 30
0.0
 40
6.046448732177953
 50
77.50063862029975
 51
102.4993613796997
  0
POLYLINE
  5
108A
  8
3
 66
     1
 10
0.0
 20
0.0
 30
0.0
  0
VERTEX
  5
1571
  8
3
 10
41.1913747671
 20
3.827633237900017
 30
0.0
  0
VERTEX
  5
1572
  8
3
 10
40.93611574410005
 20
4.130125256900016
 30
0.0
  0
VERTEX
  5
1573
  8
3
 10
40.85006559840002
 20
4.424067648800019
 30
0.0
  0
VERTEX
  5
1574
  8
3
 10
40.94027238230001
 20
4.661201660800003
 30
0.0
  0
VERTEX
  5
1575
  8
3
 10
41.1913747671
 20
4.832620800000001
 30
0.0
  0
SEQEND
  5
1671
  8
3
  0
ARC
  5
108B
  8
3
 10
42.5
 20
1.073293649300012
 30
0.0
 40
6.049159072312685
 50
257.5063294943002
 51
282.4936705057004
  0
POLYLINE
  5
108C
  8
3
 66
     1
 10
0.0
 20
0.0
 30
0.0
  0
VERTEX
  5
1576
  8
3
 10
43.80862523280001
 20
-3.827633237899988
 30
0.0
  0
VERTEX
  5
1577
  8
3
 10
44.06388425590001
 20
-4.130125256899987
 30
0.0
  0
VERTEX
  5
1578
  8
3
 10
44.14993440150005
 20
-4.424067648799991
 30
0.0
  0
VERTEX
  5
1579
  8
3
 10
44.05972761770005
 20
-4.661201660799975
 30
0.0
  0
VERTEX
  5
157A
  8
3
 10
43.80862523280001
 20
-4.832620800000001
 30
0.0
  0
SEQEND
  5
1670
  8
3
  0
ARC
  5
108D
  8
3
 10
42.5
 20
-6.24608255679999
 30
0.0
 40
2.749799466943145
 50
61.58213754070023
 51
118.4178624592998
  0
POLYLINE
  5
108E
  8
3
 66
     1
 10
0.0
 20
0.0
 30
0.0
  0
VERTEX
  5
157B
  8
3
 10
41.1913747671
 20
-4.832620800000001
 30
0.0
  0
VERTEX
  5
157C
  8
3
 10
40.93611574410005
 20
-4.656210833699987
 30
0.0
  0
VERTEX
  5
157D
  8
3
 10
40.85006559840002
 20
-4.409354711099979
 30
0.0
  0
VERTEX
  5
157E
  8
3
 10
40.94027238230001
 20
-4.122917573599977
 30
0.0
  0
VERTEX
  5
157F
  8
3
 10
41.1913747671
 20
-3.827633237899988
 30
0.0
  0
SEQEND
  5
166F
  8
3
  0
ARC
  5
1091
  8
3
 10
42.5
 20
-6.236361734199988
 30
0.0
 40
2.741253904511153
 50
61.48544546989981
 51
118.5145545301002
  0
POLYLINE
  5
1092
  8
3
 66
     1
 10
0.0
 20
0.0
 30
0.0
  0
VERTEX
  5
1580
  8
3
 10
41.0
 20
-6.040504073899996
 30
0.0
  0
VERTEX
  5
1581
  8
3
 10
40.88524876620005
 20
-6.302252030099993
 30
0.0
  0
VERTEX
  5
1582
  8
3
 10
40.85176351710004
 20
-6.531908818099993
 30
0.0
  0
VERTEX
  5
1583
  8
3
 10
40.92997774960003
 20
-6.693667166599994
 30
0.0
  0
VERTEX
  5
1584
  8
3
 10
41.0
 20
-6.727890428199998
 30
0.0
  0
SEQEND
  5
166E
  8
3
  0
POLYLINE
  5
1093
  8
3
 66
     1
 10
0.0
 20
0.0
 30
0.0
  0
VERTEX
  5
1585
  8
3
 10
41.0
 20
-6.727890428199998
 30
0.0
  0
VERTEX
  5
1586
  8
3
 10
41.32301441190003
 20
-7.175736292300002
 30
0.0
  0
VERTEX
  5
1587
  8
3
 10
41.76614442610003
 20
-7.582583972999998
 30
0.0
  0
VERTEX
  5
1588
  8
3
 10
42.15056873900005
 20
-7.7924729442
 30
0.0
  0
VERTEX
  5
1589
  8
3
 10
42.4801164255
 20
-7.856685030599976
 30
0.0
  0
VERTEX
  5
158A
  8
3
 10
42.8129151096
 20
-7.805105042699978
 30
0.0
  0
VERTEX
  5
158B
  8
3
 10
43.22367930840005
 20
-7.58986454059999
 30
0.0
  0
VERTEX
  5
158C
  8
3
 10
43.71577067020002
 20
-7.130897018899987
 30
0.0
  0
VERTEX
  5
158D
  8
3
 10
44.00431617970003
 20
-6.720154653699979
 30
0.0
  0
VERTEX
  5
158E
  8
3
 10
44.13181212860002
 20
-6.413812679499983
 30
0.0
  0
VERTEX
  5
158F
  8
3
 10
44.13513885950005
 20
-6.178809393599977
 30
0.0
  0
VERTEX
  5
1590
  8
3
 10
44.02602111230004
 20
-6.052392430499992
 30
0.0
  0
VERTEX
  5
1591
  8
3
 10
43.81145774450005
 20
-6.010735538599988
 30
0.0
  0
VERTEX
  5
1592
  8
3
 10
43.36312592620004
 20
-6.07600386339999
 30
0.0
  0
VERTEX
  5
1593
  8
3
 10
42.9243338563
 20
-6.167935910099999
 30
0.0
  0
VERTEX
  5
1594
  8
3
 10
42.59005042300004
 20
-6.205024220899986
 30
0.0
  0
VERTEX
  5
1595
  8
3
 10
42.24307751060002
 20
-6.191989058799976
 30
0.0
  0
VERTEX
  5
1596
  8
3
 10
41.85122694970005
 20
-6.123555165499994
 30
0.0
  0
VERTEX
  5
1597
  8
3
 10
41.35489889900003
 20
-6.023354763599997
 30
0.0
  0
VERTEX
  5
1598
  8
3
 10
41.0
 20
-6.040504073899996
 30
0.0
  0
SEQEND
  5
166D
  8
3
  0
ARC
  5
1094
  8
3
 10
42.5
 20
-2.423892303599985
 30
0.0
 40
2.741253904510878
 50
241.4854454699008
 51
298.5145545301005
  0
ARC
  5
1095
  8
3
 10
42.5
 20
6.236361734200017
 30
0.0
 40
2.741253904511435
 50
241.4854454699002
 51
298.5145545301011
  0
POLYLINE
  5
1096
  8
3
 66
     1
 10
0.0
 20
0.0
 30
0.0
  0
VERTEX
  5
1599
  8
3
 10
41.0
 20
6.727890428199998
 30
0.0
  0
VERTEX
  5
159A
  8
3
 10
40.88524876620005
 20
6.641484181999999
 30
0.0
  0
VERTEX
  5
159B
  8
3
 10
40.85176351710004
 20
6.455642859500017
 30
0.0
  0
VERTEX
  5
159C
  8
3
 10
40.92997774960003
 20
6.186192897900014
 30
0.0
  0
VERTEX
  5
159D
  8
3
 10
41.0
 20
6.040504073900024
 30
0.0
  0
SEQEND
  5
166C
  8
3
  0
POLYLINE
  5
1097
  8
3
 66
     1
 10
0.0
 20
0.0
 30
0.0
  0
VERTEX
  5
159E
  8
3
 10
41.0
 20
6.040504073900024
 30
0.0
  0
VERTEX
  5
159F
  8
3
 10
41.32301441190003
 20
6.019360520600003
 30
0.0
  0
VERTEX
  5
15A0
  8
3
 10
41.76614442610003
 20
6.104762604800015
 30
0.0
  0
VERTEX
  5
15A1
  8
3
 10
42.15056873900005
 20
6.179898048600023
 30
0.0
  0
VERTEX
  5
15A2
  8
3
 10
42.4801164255
 20
6.206804840000018
 30
0.0
  0
VERTEX
  5
15A3
  8
3
 10
42.8129151096
 20
6.185048212100014
 30
0.0
  0
VERTEX
  5
15A4
  8
3
 10
43.22367930840005
 20
6.107033377500017
 30
0.0
  0
VERTEX
  5
15A5
  8
3
 10
43.71577067020002
 20
6.015369485700006
 30
0.0
  0
VERTEX
  5
15A6
  8
3
 10
44.00431617970003
 20
6.042266144199999
 30
0.0
  0
VERTEX
  5
15A7
  8
3
 10
44.13181212860002
 20
6.1694989943
 30
0.0
  0
VERTEX
  5
15A8
  8
3
 10
44.13513885950005
 20
6.399763937000017
 30
0.0
  0
VERTEX
  5
15A9
  8
3
 10
44.02602111230004
 20
6.679895071800019
 30
0.0
  0
VERTEX
  5
15AA
  8
3
 10
43.81145774450005
 20
7.012024000700023
 30
0.0
  0
VERTEX
  5
15AB
  8
3
 10
43.36312592620004
 20
7.482244822700011
 30
0.0
  0
VERTEX
  5
15AC
  8
3
 10
42.9243338563
 20
7.762439211600025
 30
0.0
  0
VERTEX
  5
15AD
  8
3
 10
42.59005042300004
 20
7.852565091800017
 30
0.0
  0
VERTEX
  5
15AE
  8
3
 10
42.24307751060002
 20
7.821863543100022
 30
0.0
  0
VERTEX
  5
15AF
  8
3
 10
41.85122694970005
 20
7.640655534400025
 30
0.0
  0
VERTEX
  5
15B0
  8
3
 10
41.35489889900003
 20
7.211312451700024
 30
0.0
  0
VERTEX
  5
15B1
  8
3
 10
41.0
 20
6.727890428199998
 30
0.0
  0
SEQEND
  5
166B
  8
3
  0
ARC
  5
1098
  8
3
 10
42.5
 20
2.423892303700001
 30
0.0
 40
2.741253904510853
 50
61.48544546989934
 51
118.5145545300996
  0
POLYLINE
  5
1099
  8
3
 66
     1
 10
0.0
 20
0.0
 30
0.0
  0
VERTEX
  5
15B2
  8
3
 10
41.0
 20
-9.2935795418
 30
0.0
  0
VERTEX
  5
15B3
  8
3
 10
41.32301441190003
 20
-8.845733677699997
 30
0.0
  0
VERTEX
  5
15B4
  8
3
 10
41.76614442610003
 20
-8.438885996899984
 30
0.0
  0
VERTEX
  5
15B5
  8
3
 10
42.15056873900005
 20
-8.228997025799998
 30
0.0
  0
VERTEX
  5
15B6
  8
3
 10
42.4801164255
 20
-8.164784939399993
 30
0.0
  0
VERTEX
  5
15B7
  8
3
 10
42.8129151096
 20
-8.216364927299992
 30
0.0
  0
VERTEX
  5
15B8
  8
3
 10
43.22367930840005
 20
-8.431605429299992
 30
0.0
  0
VERTEX
  5
15B9
  8
3
 10
43.71577067020002
 20
-8.890572951099983
 30
0.0
  0
VERTEX
  5
15BA
  8
3
 10
44.00431617970003
 20
-9.301315316299991
 30
0.0
  0
VERTEX
  5
15BB
  8
3
 10
44.13181212860002
 20
-9.607657290499986
 30
0.0
  0
VERTEX
  5
15BC
  8
3
 10
44.13513885950005
 20
-9.842660576299977
 30
0.0
  0
VERTEX
  5
15BD
  8
3
 10
44.02602111230004
 20
-9.969077539499978
 30
0.0
  0
VERTEX
  5
15BE
  8
3
 10
43.81145774450005
 20
-10.01073443139998
 30
0.0
  0
VERTEX
  5
15BF
  8
3
 10
43.36312592620004
 20
-9.94546610659998
 30
0.0
  0
VERTEX
  5
15C0
  8
3
 10
42.9243338563
 20
-9.8535340599
 30
0.0
  0
VERTEX
  5
15C1
  8
3
 10
42.59005042300004
 20
-9.816445749099984
 30
0.0
  0
VERTEX
  5
15C2
  8
3
 10
42.24307751060002
 20
-9.829480911199994
 30
0.0
  0
VERTEX
  5
15C3
  8
3
 10
41.85122694970005
 20
-9.897914804499976
 30
0.0
  0
VERTEX
  5
15C4
  8
3
 10
41.35489889900003
 20
-9.998115206400001
 30
0.0
  0
VERTEX
  5
15C5
  8
3
 10
41.0
 20
-9.980965896099974
 30
0.0
  0
SEQEND
  5
166A
  8
3
  0
LINE
  5
109A
  8
3
 10
41.0
 20
-6.727890428199998
 30
0.0
 11
41.0
 21
-6.040504073899996
 31
0.0
  0
LINE
  5
109B
  8
3
 10
41.0
 20
-6.010734984999999
 30
0.0
 11
41.0
 21
-6.040504073899996
 31
0.0
  0
LINE
  5
109C
  8
3
 10
41.0
 20
-6.727890428199998
 30
0.0
 11
41.0
 21
-10.010734985
 31
0.0
  0
POLYLINE
  5
109D
  8
3
 66
     1
 10
0.0
 20
0.0
 30
0.0
  0
VERTEX
  5
15C6
  8
3
 10
41.0
 20
-9.980965896099974
 30
0.0
  0
VERTEX
  5
15C7
  8
3
 10
40.88524876620005
 20
-9.719217939899977
 30
0.0
  0
VERTEX
  5
15C8
  8
3
 10
40.85176351710004
 20
-9.48956115179999
 30
0.0
  0
VERTEX
  5
15C9
  8
3
 10
40.92997774960003
 20
-9.327802803399976
 30
0.0
  0
VERTEX
  5
15CA
  8
3
 10
41.0
 20
-9.2935795418
 30
0.0
  0
SEQEND
  5
1669
  8
3
  0
POLYLINE
  5
109E
  8
3
 66
     1
 10
0.0
 20
0.0
 30
0.0
  0
VERTEX
  5
15CB
  8
3
 10
41.0
 20
9.980965896100003
 30
0.0
  0
VERTEX
  5
15CC
  8
3
 10
41.32301441190003
 20
10.00210944950001
 30
0.0
  0
VERTEX
  5
15CD
  8
3
 10
41.76614442610003
 20
9.916707365299999
 30
0.0
  0
VERTEX
  5
15CE
  8
3
 10
42.15056873900005
 20
9.841571921400003
 30
0.0
  0
VERTEX
  5
15CF
  8
3
 10
42.4801164255
 20
9.814665130000009
 30
0.0
  0
VERTEX
  5
15D0
  8
3
 10
42.8129151096
 20
9.836421757900013
 30
0.0
  0
VERTEX
  5
15D1
  8
3
 10
43.22367930840005
 20
9.914436592600026
 30
0.0
  0
VERTEX
  5
15D2
  8
3
 10
43.71577067020002
 20
10.00610048440001
 30
0.0
  0
VERTEX
  5
15D3
  8
3
 10
44.00431617970003
 20
9.979203825799999
 30
0.0
  0
VERTEX
  5
15D4
  8
3
 10
44.13181212860002
 20
9.851970975699999
 30
0.0
  0
VERTEX
  5
15D5
  8
3
 10
44.13513885950005
 20
9.62170603300001
 30
0.0
  0
VERTEX
  5
15D6
  8
3
 10
44.02602111230004
 20
9.341574898200008
 30
0.0
  0
VERTEX
  5
15D7
  8
3
 10
43.81145774450005
 20
9.00944596940002
 30
0.0
  0
VERTEX
  5
15D8
  8
3
 10
43.36312592620004
 20
8.539225147400003
 30
0.0
  0
VERTEX
  5
15D9
  8
3
 10
42.9243338563
 20
8.259030758500018
 30
0.0
  0
VERTEX
  5
15DA
  8
3
 10
42.59005042300004
 20
8.16890487820001
 30
0.0
  0
VERTEX
  5
15DB
  8
3
 10
42.24307751060002
 20
8.199606426900004
 30
0.0
  0
VERTEX
  5
15DC
  8
3
 10
41.85122694970005
 20
8.380814435600001
 30
0.0
  0
VERTEX
  5
15DD
  8
3
 10
41.35489889900003
 20
8.810157518400018
 30
0.0
  0
VERTEX
  5
15DE
  8
3
 10
41.0
 20
9.293579541900016
 30
0.0
  0
SEQEND
  5
1668
  8
3
  0
LINE
  5
109F
  8
3
 10
41.0
 20
10.010734985
 30
0.0
 11
41.0
 21
6.727890428199998
 31
0.0
  0
LINE
  5
10A0
  8
3
 10
41.0
 20
6.040504073900024
 30
0.0
 11
41.0
 21
6.010734984999999
 31
0.0
  0
LINE
  5
10A1
  8
3
 10
41.0
 20
6.040504073900024
 30
0.0
 11
41.0
 21
6.727890428199998
 31
0.0
  0
POLYLINE
  5
10A2
  8
3
 66
     1
 10
0.0
 20
0.0
 30
0.0
  0
VERTEX
  5
15DF
  8
3
 10
41.0
 20
9.293579541900016
 30
0.0
  0
VERTEX
  5
15E0
  8
3
 10
40.88524876620005
 20
9.379985787999999
 30
0.0
  0
VERTEX
  5
15E1
  8
3
 10
40.85176351710004
 20
9.56582711050001
 30
0.0
  0
VERTEX
  5
15E2
  8
3
 10
40.92997774960003
 20
9.8352770722
 30
0.0
  0
VERTEX
  5
15E3
  8
3
 10
41.0
 20
9.980965896100003
 30
0.0
  0
SEQEND
  5
1667
  8
3
  0
POLYLINE
  5
10A3
  8
3
 66
     1
 10
0.0
 20
0.0
 30
0.0
  0
VERTEX
  5
15E4
  8
3
 10
42.5
 20
32.5431804136
 30
0.0
  0
VERTEX
  5
15E5
  8
3
 10
43.06433323650003
 20
32.49342682580001
 30
0.0
  0
VERTEX
  5
15E6
  8
3
 10
43.560599556
 20
32.35016707920002
 30
0.0
  0
VERTEX
  5
15E7
  8
3
 10
43.92894191620002
 20
32.1306804136
 30
0.0
  0
VERTEX
  5
15E8
  8
3
 10
44.12493279240005
 20
31.8614401602
 30
0.0
  0
VERTEX
  5
15E9
  8
3
 10
44.12493279240005
 20
31.57492066700001
 30
0.0
  0
VERTEX
  5
15EA
  8
3
 10
43.92894191620002
 20
31.30568041360002
 30
0.0
  0
VERTEX
  5
15EB
  8
3
 10
43.560599556
 20
31.086193748
 30
0.0
  0
VERTEX
  5
15EC
  8
3
 10
43.06433323650003
 20
30.94293400150002
 30
0.0
  0
VERTEX
  5
15ED
  8
3
 10
42.5
 20
30.89318041360002
 30
0.0
  0
VERTEX
  5
15EE
  8
3
 10
41.93566676350002
 20
30.94293400150002
 30
0.0
  0
VERTEX
  5
15EF
  8
3
 10
41.439400444
 20
31.086193748
 30
0.0
  0
VERTEX
  5
15F0
  8
3
 10
41.0710580837
 20
31.30568041360002
 30
0.0
  0
VERTEX
  5
15F1
  8
3
 10
40.87506720750002
 20
31.57492066700001
 30
0.0
  0
VERTEX
  5
15F2
  8
3
 10
40.87506720750002
 20
31.8614401602
 30
0.0
  0
VERTEX
  5
15F3
  8
3
 10
41.0710580837
 20
32.1306804136
 30
0.0
  0
VERTEX
  5
15F4
  8
3
 10
41.439400444
 20
32.35016707920002
 30
0.0
  0
VERTEX
  5
15F5
  8
3
 10
41.93566676350002
 20
32.49342682580001
 30
0.0
  0
VERTEX
  5
15F6
  8
3
 10
42.5
 20
32.5431804136
 30
0.0
  0
SEQEND
  5
1666
  8
3
  0
POLYLINE
  5
10A4
  8
3
 66
     1
 10
0.0
 20
0.0
 30
0.0
  0
VERTEX
  5
15F7
  8
3
 10
42.5
 20
-30.89318041359999
 30
0.0
  0
VERTEX
  5
15F8
  8
3
 10
43.06433323650003
 20
-30.94293400139998
 30
0.0
  0
VERTEX
  5
15F9
  8
3
 10
43.560599556
 20
-31.086193748
 30
0.0
  0
VERTEX
  5
15FA
  8
3
 10
43.92894191620002
 20
-31.30568041359999
 30
0.0
  0
VERTEX
  5
15FB
  8
3
 10
44.12493279240005
 20
-31.57492066699999
 30
0.0
  0
VERTEX
  5
15FC
  8
3
 10
44.12493279240005
 20
-31.86144016019998
 30
0.0
  0
VERTEX
  5
15FD
  8
3
 10
43.92894191620002
 20
-32.13068041359998
 30
0.0
  0
VERTEX
  5
15FE
  8
3
 10
43.560599556
 20
-32.35016707919999
 30
0.0
  0
VERTEX
  5
15FF
  8
3
 10
43.06433323650003
 20
-32.4934268257
 30
0.0
  0
VERTEX
  5
1600
  8
3
 10
42.5
 20
-32.5431804136
 30
0.0
  0
VERTEX
  5
1601
  8
3
 10
41.93566676350002
 20
-32.4934268257
 30
0.0
  0
VERTEX
  5
1602
  8
3
 10
41.439400444
 20
-32.35016707919999
 30
0.0
  0
VERTEX
  5
1603
  8
3
 10
41.0710580837
 20
-32.13068041359998
 30
0.0
  0
VERTEX
  5
1604
  8
3
 10
40.87506720750002
 20
-31.86144016019998
 30
0.0
  0
VERTEX
  5
1605
  8
3
 10
40.87506720750002
 20
-31.57492066699999
 30
0.0
  0
VERTEX
  5
1606
  8
3
 10
41.0710580837
 20
-31.30568041359999
 30
0.0
  0
VERTEX
  5
1607
  8
3
 10
41.439400444
 20
-31.086193748
 30
0.0
  0
VERTEX
  5
1608
  8
3
 10
41.93566676350002
 20
-30.94293400139998
 30
0.0
  0
VERTEX
  5
1609
  8
3
 10
42.5
 20
-30.89318041359999
 30
0.0
  0
SEQEND
  5
1665
  8
3
  0
POLYLINE
  5
10A5
  8
3
 66
     1
 10
0.0
 20
0.0
 30
0.0
  0
VERTEX
  5
160A
  8
3
 10
44.75
 20
-32.04293994
 30
0.0
  0
VERTEX
  5
160B
  8
3
 10
44.65003881300004
 20
-32.3745395112
 30
0.0
  0
VERTEX
  5
160C
  8
3
 10
44.35903724220003
 20
-32.67667500529998
 30
0.0
  0
VERTEX
  5
160D
  8
3
 10
43.90285205420003
 20
-32.92250035779998
 30
0.0
  0
VERTEX
  5
160E
  8
3
 10
43.3220173048
 20
-33.09017290719999
 30
0.0
  0
VERTEX
  5
160F
  8
3
 10
42.66814271050004
 20
-33.1647942118
 30
0.0
  0
VERTEX
  5
1610
  8
3
 10
41.99932789860003
 20
-33.13973384119998
 30
0.0
  0
VERTEX
  5
1611
  8
3
 10
41.375
 20
-33.01721851929997
 30
0.0
  0
VERTEX
  5
1612
  8
3
 10
40.85063328840005
 20
-32.80813426999998
 30
0.0
  0
VERTEX
  5
1613
  8
3
 10
40.4728200472
 20
-32.53105914649998
 30
0.0
  0
VERTEX
  5
1614
  8
3
 10
40.27513064100003
 20
-32.21061248949999
 30
0.0
  0
VERTEX
  5
1615
  8
3
 10
40.27513064100003
 20
-31.87526739059999
 30
0.0
  0
VERTEX
  5
1616
  8
3
 10
40.4728200472
 20
-31.55482073349998
 30
0.0
  0
VERTEX
  5
1617
  8
3
 10
40.85063328840005
 20
-31.27774560999998
 30
0.0
  0
VERTEX
  5
1618
  8
3
 10
41.375
 20
-31.06866136079998
 30
0.0
  0
VERTEX
  5
1619
  8
3
 10
41.99932789860003
 20
-30.94614603879998
 30
0.0
  0
VERTEX
  5
161A
  8
3
 10
42.66814271050004
 20
-30.92108566819999
 30
0.0
  0
VERTEX
  5
161B
  8
3
 10
43.3220173048
 20
-30.99570697279998
 30
0.0
  0
VERTEX
  5
161C
  8
3
 10
43.90285205420003
 20
-31.16337952219999
 30
0.0
  0
VERTEX
  5
161D
  8
3
 10
44.35903724220003
 20
-31.40920487469998
 30
0.0
  0
VERTEX
  5
161E
  8
3
 10
44.65003881300004
 20
-31.71134036879999
 30
0.0
  0
VERTEX
  5
161F
  8
3
 10
44.75
 20
-32.04293994
 30
0.0
  0
SEQEND
  5
1664
  8
3
  0
POLYLINE
  5
10A6
  8
3
 66
     1
 10
0.0
 20
0.0
 30
0.0
  0
VERTEX
  5
1620
  8
3
 10
44.75
 20
32.04293994000002
 30
0.0
  0
VERTEX
  5
1621
  8
3
 10
44.65003881300004
 20
31.71134036880002
 30
0.0
  0
VERTEX
  5
1622
  8
3
 10
44.35903724220003
 20
31.40920487470001
 30
0.0
  0
VERTEX
  5
1623
  8
3
 10
43.90285205420003
 20
31.1633795223
 30
0.0
  0
VERTEX
  5
1624
  8
3
 10
43.3220173048
 20
30.99570697280001
 30
0.0
  0
VERTEX
  5
1625
  8
3
 10
42.66814271050004
 20
30.92108566820002
 30
0.0
  0
VERTEX
  5
1626
  8
3
 10
41.99932789860003
 20
30.94614603880001
 30
0.0
  0
VERTEX
  5
1627
  8
3
 10
41.375
 20
31.06866136080001
 30
0.0
  0
VERTEX
  5
1628
  8
3
 10
40.85063328840005
 20
31.27774561000001
 30
0.0
  0
VERTEX
  5
1629
  8
3
 10
40.4728200472
 20
31.55482073350001
 30
0.0
  0
VERTEX
  5
162A
  8
3
 10
40.27513064100003
 20
31.87526739060002
 30
0.0
  0
VERTEX
  5
162B
  8
3
 10
40.27513064100003
 20
32.21061248950002
 30
0.0
  0
VERTEX
  5
162C
  8
3
 10
40.4728200472
 20
32.53105914650001
 30
0.0
  0
VERTEX
  5
162D
  8
3
 10
40.85063328840005
 20
32.80813427000001
 30
0.0
  0
VERTEX
  5
162E
  8
3
 10
41.375
 20
33.0172185193
 30
0.0
  0
VERTEX
  5
162F
  8
3
 10
41.99932789860003
 20
33.13973384120001
 30
0.0
  0
VERTEX
  5
1630
  8
3
 10
42.66814271050004
 20
33.16479421190002
 30
0.0
  0
VERTEX
  5
1631
  8
3
 10
43.3220173048
 20
33.0901729073
 30
0.0
  0
VERTEX
  5
1632
  8
3
 10
43.90285205420003
 20
32.9225003578
 30
0.0
  0
VERTEX
  5
1633
  8
3
 10
44.35903724220003
 20
32.6766750054
 30
0.0
  0
VERTEX
  5
1634
  8
3
 10
44.65003881300004
 20
32.37453951130001
 30
0.0
  0
VERTEX
  5
1635
  8
3
 10
44.75
 20
32.04293994000002
 30
0.0
  0
SEQEND
  5
1663
  8
3
  0
POLYLINE
  5
10A7
  8
3
 66
     1
 10
0.0
 20
0.0
 30
0.0
  0
VERTEX
  5
1636
  8
3
 10
42.5
 20
-31.03043993999998
 30
0.0
  0
VERTEX
  5
1637
  8
3
 10
43.12575941360001
 20
-31.0799952173
 30
0.0
  0
VERTEX
  5
1638
  8
3
 10
43.69026513590001
 20
-31.2238102332
 30
0.0
  0
VERTEX
  5
1639
  8
3
 10
44.1382594136
 20
-31.44780737209999
 30
0.0
  0
VERTEX
  5
163A
  8
3
 10
44.42588944550005
 20
-31.73006023319999
 30
0.0
  0
VERTEX
  5
163B
  8
3
 10
44.52500000000003
 20
-32.04293994
 30
0.0
  0
VERTEX
  5
163C
  8
3
 10
44.42588944550005
 20
-32.3558196468
 30
0.0
  0
VERTEX
  5
163D
  8
3
 10
44.1382594136
 20
-32.63807250799999
 30
0.0
  0
VERTEX
  5
163E
  8
3
 10
43.69026513590001
 20
-32.86206964679999
 30
0.0
  0
VERTEX
  5
163F
  8
3
 10
43.12575941360001
 20
-33.00588466279999
 30
0.0
  0
VERTEX
  5
1640
  8
3
 10
42.5
 20
-33.05543993999999
 30
0.0
  0
VERTEX
  5
1641
  8
3
 10
41.87424058640005
 20
-33.00588466279999
 30
0.0
  0
VERTEX
  5
1642
  8
3
 10
41.30973486410005
 20
-32.86206964679999
 30
0.0
  0
VERTEX
  5
1643
  8
3
 10
40.8617405864
 20
-32.63807250799999
 30
0.0
  0
VERTEX
  5
1644
  8
3
 10
40.57411055450001
 20
-32.3558196468
 30
0.0
  0
VERTEX
  5
1645
  8
3
 10
40.47500000000002
 20
-32.04293994
 30
0.0
  0
VERTEX
  5
1646
  8
3
 10
40.57411055450001
 20
-31.73006023319999
 30
0.0
  0
VERTEX
  5
1647
  8
3
 10
40.8617405864
 20
-31.44780737209999
 30
0.0
  0
VERTEX
  5
1648
  8
3
 10
41.30973486410005
 20
-31.2238102332
 30
0.0
  0
VERTEX
  5
1649
  8
3
 10
41.87424058640005
 20
-31.0799952173
 30
0.0
  0
VERTEX
  5
164A
  8
3
 10
42.5
 20
-31.03043993999998
 30
0.0
  0
SEQEND
  5
1662
  8
3
  0
POLYLINE
  5
10A8
  8
3
 66
     1
 10
0.0
 20
0.0
 30
0.0
  0
VERTEX
  5
164B
  8
3
 10
42.5
 20
33.05543994000001
 30
0.0
  0
VERTEX
  5
164C
  8
3
 10
43.12575941360001
 20
33.00588466280001
 30
0.0
  0
VERTEX
  5
164D
  8
3
 10
43.69026513590001
 20
32.86206964680002
 30
0.0
  0
VERTEX
  5
164E
  8
3
 10
44.1382594136
 20
32.63807250800002
 30
0.0
  0
VERTEX
  5
164F
  8
3
 10
44.42588944550005
 20
32.3558196468
 30
0.0
  0
VERTEX
  5
1650
  8
3
 10
44.52500000000003
 20
32.04293994000002
 30
0.0
  0
VERTEX
  5
1651
  8
3
 10
44.42588944550005
 20
31.73006023320002
 30
0.0
  0
VERTEX
  5
1652
  8
3
 10
44.1382594136
 20
31.44780737210002
 30
0.0
  0
VERTEX
  5
1653
  8
3
 10
43.69026513590001
 20
31.2238102332
 30
0.0
  0
VERTEX
  5
1654
  8
3
 10
43.12575941360001
 20
31.07999521730002
 30
0.0
  0
VERTEX
  5
1655
  8
3
 10
42.5
 20
31.03043994000001
 30
0.0
  0
VERTEX
  5
1656
  8
3
 10
41.87424058640005
 20
31.07999521730002
 30
0.0
  0
VERTEX
  5
1657
  8
3
 10
41.30973486410005
 20
31.2238102332
 30
0.0
  0
VERTEX
  5
1658
  8
3
 10
40.8617405864
 20
31.44780737210002
 30
0.0
  0
VERTEX
  5
1659
  8
3
 10
40.57411055450001
 20
31.73006023320002
 30
0.0
  0
VERTEX
  5
165A
  8
3
 10
40.47500000000002
 20
32.04293994000002
 30
0.0
  0
VERTEX
  5
165B
  8
3
 10
40.57411055450001
 20
32.3558196468
 30
0.0
  0
VERTEX
  5
165C
  8
3
 10
40.8617405864
 20
32.63807250800002
 30
0.0
  0
VERTEX
  5
165D
  8
3
 10
41.30973486410005
 20
32.86206964680002
 30
0.0
  0
VERTEX
  5
165E
  8
3
 10
41.87424058640005
 20
33.00588466280001
 30
0.0
  0
VERTEX
  5
165F
  8
3
 10
42.5
 20
33.05543994000001
 30
0.0
  0
SEQEND
  5
1661
  8
3
  0
ARC
  5
10AF
  8
3
 10
38.70000000000005
 20
35.19837000000001
 30
0.0
 40
0.2000000000000171
 50
270.0
 51
288.1948723387932
  0
ARC
  5
10B0
  8
3
 10
38.70000000000005
 20
22.80163000000002
 30
0.0
 40
0.2000000000000284
 50
71.80512766120675
 51
90.0
  0
LINE
  5
10B1
  8
3
 10
50.0
 20
35.00837000000001
 30
0.0
 11
38.76244998000004
 21
35.00837000000001
 31
0.0
  0
LINE
  5
10B2
  8
3
 10
38.76244998000004
 20
22.99163000000001
 30
0.0
 11
50.0
 21
22.99163000000001
 31
0.0
  0
LINE
  5
10B3
  8
3
 10
38.12692945910004
 20
34.99837000000002
 30
0.0
 11
37.20000000000005
 21
34.75
 31
0.0
  0
LINE
  5
10B4
  8
3
 10
37.20000000000005
 20
23.25
 30
0.0
 11
38.12692945910004
 21
23.00163000000001
 31
0.0
  0
LINE
  5
10B5
  8
3
 10
38.70000000000005
 20
34.99837000000002
 30
0.0
 11
38.12692945910004
 21
34.99837000000002
 31
0.0
  0
LINE
  5
10B6
  8
3
 10
38.12692945910004
 20
23.00163000000001
 30
0.0
 11
38.70000000000005
 21
23.00163000000001
 31
0.0
  0
ARC
  5
10B7
  8
3
 10
38.70000000000005
 20
-22.80162999999999
 30
0.0
 40
0.2000000000000284
 50
270.0
 51
288.1948723387932
  0
ARC
  5
10B8
  8
3
 10
38.70000000000005
 20
-35.19836999999998
 30
0.0
 40
0.2000000000000171
 50
71.80512766120549
 51
90.0
  0
LINE
  5
10B9
  8
3
 10
50.0
 20
-22.99162999999999
 30
0.0
 11
38.76244998000004
 21
-22.99162999999999
 31
0.0
  0
LINE
  5
10BA
  8
3
 10
38.76244998000004
 20
-35.00836999999999
 30
0.0
 11
50.0
 21
-35.00836999999999
 31
0.0
  0
LINE
  5
10BB
  8
3
 10
38.70000000000005
 20
-23.00162999999998
 30
0.0
 11
38.12692945910004
 21
-23.00162999999998
 31
0.0
  0
LINE
  5
10BC
  8
3
 10
38.12692945910004
 20
-34.99836999999999
 30
0.0
 11
38.70000000000005
 21
-34.99836999999999
 31
0.0
  0
LINE
  5
10BD
  8
3
 10
38.12692945910004
 20
-23.00162999999998
 30
0.0
 11
37.20000000000005
 21
-23.25
 31
0.0
  0
LINE
  5
10BE
  8
3
 10
37.20000000000005
 20
-34.75
 30
0.0
 11
38.12692945910004
 21
-34.99836999999999
 31
0.0
  0
LINE
  5
10BF
  8
3
 10
44.13299316180002
 20
-25.18690549339999
 30
0.0
 11
43.52062072610005
 21
-24.75389279149999
 31
0.0
  0
LINE
  5
10C0
  8
3
 10
41.47937927380002
 20
-24.75389279149999
 30
0.0
 11
40.8670068381
 21
-25.18690549339999
 31
0.0
  0
LINE
  5
10C1
  8
3
 10
44.5
 20
-31.84793993999997
 30
0.0
 11
44.5
 21
-25.76425576259999
 31
0.0
  0
LINE
  5
10C2
  8
3
 10
40.5
 20
-25.76425576259999
 30
0.0
 11
40.5
 21
-31.84793993999997
 31
0.0
  0
LINE
  5
10C3
  8
3
 10
40.8670068381
 20
25.18690549340002
 30
0.0
 11
41.47937927380002
 21
24.75389279150002
 31
0.0
  0
LINE
  5
10C4
  8
3
 10
43.52062072610005
 20
24.75389279150002
 30
0.0
 11
44.13299316180002
 21
25.18690549340002
 31
0.0
  0
LINE
  5
10C5
  8
3
 10
40.5
 20
31.84793994
 30
0.0
 11
40.5
 21
25.76425576260002
 31
0.0
  0
LINE
  5
10C6
  8
3
 10
44.5
 20
25.76425576260002
 30
0.0
 11
44.5
 21
31.84793994
 31
0.0
  0
LINE
  5
10CA
  8
3
 10
50.0
 20
14.49907116060001
 30
0.0
 11
49.81362966950002
 21
13.80352761810002
 31
0.0
  0
LINE
  5
10CB
  8
3
 10
49.81362966950002
 20
-13.80352761799998
 30
0.0
 11
50.0
 21
-14.49907116049999
 31
0.0
  0
ARC
  5
10CC
  8
3
 10
50.20000000000005
 20
-13.69999999999999
 30
0.0
 40
0.4000000000000371
 50
166.8750000000019
 51
195.0000000000015
  0
ARC
  5
10CD
  8
3
 10
50.20000000000005
 20
-13.69999999999999
 30
0.0
 40
0.4000000000000211
 50
120.0000000000058
 51
166.875000000001
  0
ARC
  5
10CE
  8
3
 10
50.20000000000005
 20
13.70000000000002
 30
0.0
 40
0.4000000000000371
 50
164.9999999999985
 51
180.0
  0
ARC
  5
10CF
  8
3
 10
50.20000000000005
 20
13.70000000000002
 30
0.0
 40
0.4000000000000211
 50
180.0
 51
239.9999999999942
  0
LINE
  5
10D0
  8
3
 10
49.80000000000001
 20
13.70000000000002
 30
0.0
 11
49.80000000000001
 21
-13.69999999999999
 31
0.0
  0
LINE
  5
10D1
  8
3
 10
50.0
 20
2.0
 30
0.0
 11
41.0
 21
2.0
 31
0.0
  0
LINE
  5
10D2
  8
3
 10
41.0
 20
-2.0
 30
0.0
 11
50.0
 21
-2.0
 31
0.0
  0
LINE
  5
10D3
  8
3
 10
41.0
 20
2.0
 30
0.0
 11
39.79827876190001
 21
0.0
 31
0.0
  0
LINE
  5
10D4
  8
3
 10
39.79827876190001
 20
0.0
 30
0.0
 11
41.0
 21
-2.0
 31
0.0
  0
LINE
  5
10DD
  8
SK3
 10
-25.74999999999997
 20
-6.687997799999977
 30
0.0
 11
-24.79583465889998
 21
-5.099999999999994
 31
0.0
  0
LINE
  5
10DE
  8
SK3
 10
-24.79583465889998
 20
5.100000000000023
 30
0.0
 11
-25.74999999999997
 21
6.687997800000005
 31
0.0
  0
LINE
  5
10E3
  8
3
 10
50.0
 20
35.0
 30
0.0
 11
35.05000000000001
 21
35.0
 31
0.0
  0
LINE
  5
10E4
  8
3
 10
35.05000000000001
 20
23.0
 30
0.0
 11
50.0
 21
23.0
 31
0.0
  0
LINE
  5
10E5
  8
3
 10
50.0
 20
-23.0
 30
0.0
 11
35.05000000000001
 21
-23.0
 31
0.0
  0
LINE
  5
10E6
  8
3
 10
35.05000000000001
 20
-35.0
 30
0.0
 11
50.0
 21
-35.0
 31
0.0
  0
LINE
  5
10E7
  8
3
 10
50.0
 20
6.0
 30
0.0
 11
46.0
 21
6.0
 31
0.0
  0
LINE
  5
10E8
  8
3
 10
46.0
 20
-6.0
 30
0.0
 11
50.0
 21
-6.0
 31
0.0
  0
LINE
  5
10E9
  8
3
 10
45.99999999999997
 20
5.100000000000023
 30
0.0
 11
0.0000000000000142
 21
5.100000000000023
 31
0.0
  0
LINE
  5
10EA
  8
3
 10
-0.0000000000000071
 20
-5.099999999999994
 30
0.0
 11
45.99999999999997
 21
-5.099999999999994
 31
0.0
  0
LINE
  5
10EF
  8
3
 10
44.15000000000003
 20
-6.290411179499984
 30
0.0
 11
44.15000000000003
 21
-4.416086925899975
 31
0.0
  0
LINE
  5
10F0
  8
3
 10
40.85000000000002
 20
-4.416086925899975
 30
0.0
 11
40.85000000000002
 21
-6.489788000999994
 31
0.0
  0
LINE
  5
10F1
  8
3
 10
40.85000000000002
 20
6.489788001000022
 30
0.0
 11
40.85000000000002
 21
4.41608692600002
 31
0.0
  0
LINE
  5
10F2
  8
3
 10
44.15000000000003
 20
4.41608692600002
 30
0.0
 11
44.15000000000003
 21
6.290411179500012
 31
0.0
  0
LINE
  5
10F3
  8
3
 10
41.21513047080003
 20
-6.010734984999999
 30
0.0
 11
41.0
 21
-6.010734984999999
 31
0.0
  0
LINE
  5
10F4
  8
3
 10
50.0
 20
-6.010734984999999
 30
0.0
 11
43.81223304170004
 21
-6.010734984999999
 31
0.0
  0
LINE
  5
10F5
  8
3
 10
43.81223304170004
 20
-10.010734985
 30
0.0
 11
50.0
 21
-10.010734985
 31
0.0
  0
LINE
  5
10F6
  8
3
 10
41.0
 20
-10.010734985
 30
0.0
 11
41.21513047080003
 21
-10.010734985
 31
0.0
  0
LINE
  5
10F7
  8
3
 10
41.0
 20
-6.010734984999999
 30
0.0
 11
39.79827876190001
 21
-8.010734985
 31
0.0
  0
LINE
  5
10F8
  8
3
 10
39.79827876190001
 20
-8.010734985
 30
0.0
 11
41.0
 21
-10.010734985
 31
0.0
  0
LINE
  5
10F9
  8
3
 10
41.21017886280003
 20
10.010734985
 30
0.0
 11
41.0
 21
10.010734985
 31
0.0
  0
LINE
  5
10FA
  8
3
 10
50.0
 20
10.010734985
 30
0.0
 11
43.79554129420001
 21
10.010734985
 31
0.0
  0
LINE
  5
10FB
  8
3
 10
43.79554129420001
 20
6.010734984999999
 30
0.0
 11
50.0
 21
6.010734984999999
 31
0.0
  0
LINE
  5
10FC
  8
3
 10
41.0
 20
6.010734984999999
 30
0.0
 11
41.21017886280003
 21
6.010734984999999
 31
0.0
  0
LINE
  5
10FD
  8
3
 10
41.0
 20
10.010734985
 30
0.0
 11
39.79827876190001
 21
8.010734985
 31
0.0
  0
LINE
  5
10FE
  8
3
 10
39.79827876190001
 20
8.010734985
 30
0.0
 11
41.0
 21
6.010734984999999
 31
0.0
  0
LINE
  5
10FF
  8
3
 10
42.04296310030003
 20
3.53740744800001
 30
0.0
 11
42.09401500140001
 21
3.5300490443
 31
0.0
  0
LINE
  5
1100
  8
3
 10
42.90562015020004
 20
3.529996456600003
 30
0.0
 11
42.95703689970003
 21
3.53740744800001
 31
0.0
  0
LINE
  5
1101
  8
3
 10
42.95703689970003
 20
-3.537407447999982
 30
0.0
 11
42.9051390592
 21
-3.529927114199978
 31
0.0
  0
LINE
  5
1102
  8
3
 10
42.09283055340001
 20
-3.530219765599981
 30
0.0
 11
42.04296310030003
 21
-3.537407447999982
 31
0.0
  0
LINE
  5
1103
  8
3
 10
40.85000000000002
 20
31.71818041360001
 30
0.0
 11
40.85000000000002
 21
9.531681969000005
 31
0.0
  0
LINE
  5
1104
  8
3
 10
44.15000000000003
 20
9.731058790500015
 30
0.0
 11
44.15000000000003
 21
31.71818041360001
 31
0.0
  0
LINE
  5
1105
  8
3
 10
44.15000000000003
 20
-31.71818041359998
 30
0.0
 11
44.15000000000003
 21
-9.731058790499986
 31
0.0
  0
LINE
  5
1106
  8
3
 10
40.85000000000002
 20
-9.531681968999976
 30
0.0
 11
40.85000000000002
 21
-31.71818041359998
 31
0.0
  0
LINE
  5
1107
  8
3
 10
44.75
 20
-32.90896534379999
 30
0.0
 11
44.75
 21
-32.04293994
 31
0.0
  0
LINE
  5
1108
  8
3
 10
40.25
 20
-32.04293994
 30
0.0
 11
40.25
 21
-32.9075659335
 31
0.0
  0
LINE
  5
1109
  8
3
 10
40.25
 20
32.90756593350002
 30
0.0
 11
40.25
 21
32.04293994000002
 31
0.0
  0
LINE
  5
110A
  8
3
 10
44.75
 20
32.04293994000002
 30
0.0
 11
44.75
 21
32.90896534380002
 31
0.0
  0
LINE
  5
110B
  8
3
 10
44.15340557640002
 20
-31.4583727925
 30
0.0
 11
43.84721935850001
 21
-31.24186644149998
 31
0.0
  0
LINE
  5
110C
  8
3
 10
41.1527806414
 20
-31.24186644149998
 30
0.0
 11
40.84659442360004
 21
-31.4583727925
 31
0.0
  0
LINE
  5
110D
  8
3
 10
40.84659442360004
 20
31.4583727925
 30
0.0
 11
41.1527806414
 21
31.24186644150001
 31
0.0
  0
LINE
  5
110E
  8
3
 10
43.84721935850001
 20
31.24186644150001
 30
0.0
 11
44.15340557640002
 21
31.4583727925
 31
0.0
  0
LINE
  5
1115
  8
SK3
 10
-25.75000000000003
 20
6.700000000000003
 30
0.0
 11
-25.75000000000003
 21
-6.700000000000003
 31
0.0
  0
LINE
  5
1116
  8
SK3
 10
-24.79583465889998
 20
5.100000000000023
 30
0.0
 11
0.0000000000000142
 21
5.100000000000023
 31
0.0
  0
LINE
  5
1117
  8
SK3
 10
-24.79583465889998
 20
-5.099999999999994
 30
0.0
 11
-0.0000000000000071
 21
-5.099999999999994
 31
0.0
  0
ARC
  5
1119
  8
NOCUT
 10
49.0
 20
37.0
 30
0.0
 40
1.0
 50
0.0
 51
90.0
  0
LINE
  5
111B
  8
NOCUT
 10
49.0
 20
38.0
 30
0.0
 11
36.05000000000001
 21
38.0
 31
0.0
  0
ARC
  5
111C
  8
NOCUT
 10
36.05000000000001
 20
37.0
 30
0.0
 40
1.0
 50
90.0
 51
180.0
  0
LINE
  5
111D
  8
NOCUT
 10
50.0
 20
0.0
 30
0.0
 11
50.0
 21
37.0
 31
0.0
  0
ARC
  5
111E
  8
NOCUT
 10
34.65000000000003
 20
22.625
 30
0.0
 40
0.4000000000000057
 50
270.0
 51
0.0
  0
LINE
  5
1121
  8
NOCUT
 10
35.05000000000001
 20
37.0
 30
0.0
 11
35.05000000000004
 21
22.625
 31
0.0
  0
LINE
  5
1124
  8
SK1
 10
85.80000000000001
 20
9.0
 30
0.0
 11
75.0
 21
9.0
 31
0.0
  0
LINE
  5
1126
  8
SK1
 10
75.0
 20
-9.0
 30
0.0
 11
85.80000000000001
 21
-9.0
 31
0.0
  0
ARC
  5
1127
  8
SK1
 10
85.80000000000001
 20
7.800000000000011
 30
0.0
 40
1.199999999999989
 50
0.0
 51
90.0
  0
ARC
  5
1128
  8
SK1
 10
85.80000000000001
 20
-7.799999999999983
 30
0.0
 40
1.199999999999989
 50
270.0
 51
0.0
  0
ARC
  5
1129
  8
SK1
 10
74.40000000000003
 20
-6.599999999999994
 30
0.0
 40
0.5999999999999943
 50
0.0
 51
90.0
  0
ARC
  5
112A
  8
SK1
 10
74.40000000000003
 20
6.600000000000023
 30
0.0
 40
0.5999999999999943
 50
270.0
 51
0.0
  0
LINE
  5
112B
  8
SK1
 10
74.40000000000003
 20
6.0
 30
0.0
 11
70.0
 21
6.0
 31
0.0
  0
LINE
  5
112C
  8
SK1
 10
70.0
 20
-6.0
 30
0.0
 11
74.40000000000003
 21
-6.0
 31
0.0
  0
ARC
  5
1141
  8
SK1
 10
50.20000000000005
 20
-13.69999999999999
 30
0.0
 40
0.4000000000000211
 50
74.99999999999747
 51
120.0000000000058
  0
ARC
  5
1142
  8
SK1
 10
50.20000000000005
 20
13.70000000000002
 30
0.0
 40
0.4000000000000211
 50
239.9999999999942
 51
285.0000000000026
  0
LINE
  5
1143
  8
SK1
 10
50.99907116050002
 20
13.5
 30
0.0
 11
50.30352761800003
 21
13.31362966950002
 31
0.0
  0
LINE
  5
1144
  8
SK1
 10
50.30352761800003
 20
-13.31362966949999
 30
0.0
 11
50.99907116050002
 21
-13.5
 31
0.0
  0
LINE
  5
1145
  8
SK1
 10
50.99907116050002
 20
-13.5
 30
0.0
 11
68.5
 21
-13.5
 31
0.0
  0
LINE
  5
1146
  8
SK1
 10
68.5
 20
13.5
 30
0.0
 11
50.99907116050002
 21
13.5
 31
0.0
  0
ARC
  5
1147
  8
SK1
 10
68.5
 20
-12.0
 30
0.0
 40
1.5
 50
270.0
 51
0.0
  0
ARC
  5
1148
  8
SK1
 10
68.5
 20
12.0
 30
0.0
 40
1.5
 50
0.0
 51
90.0
  0
LINE
  5
114B
  8
SK1
 10
75.0
 20
9.0
 30
0.0
 11
75.0
 21
-9.0
 31
0.0
  0
LINE
  5
114C
  8
SK1
 10
87.0
 20
7.800000000000011
 30
0.0
 11
87.0
 21
-7.799999999999983
 31
0.0
  0
LINE
  5
114D
  8
SK1
 10
56.0
 20
34.99948000000001
 30
0.0
 11
50.0
 21
34.99948000000001
 31
0.0
  0
LINE
  5
114E
  8
SK1
 10
56.0
 20
34.99948000000001
 30
0.0
 11
56.0
 21
23.00052000000002
 31
0.0
  0
LINE
  5
114F
  8
SK1
 10
56.0
 20
23.00052000000002
 30
0.0
 11
50.0
 21
23.00052000000002
 31
0.0
  0
LINE
  5
1150
  8
SK1
 10
56.0
 20
-34.99947999999998
 30
0.0
 11
50.0
 21
-34.99947999999998
 31
0.0
  0
LINE
  5
1151
  8
SK1
 10
56.0
 20
-23.00051999999999
 30
0.0
 11
50.0
 21
-23.00051999999999
 31
0.0
  0
LINE
  5
1152
  8
SK1
 10
56.0
 20
-23.00051999999999
 30
0.0
 11
56.0
 21
-34.99947999999998
 31
0.0
  0
LINE
  5
117D
  8
SK1
 10
50.99907116050002
 20
0.0
 30
0.0
 11
50.99907116050002
 21
13.5
 31
0.0
  0
LINE
  5
117E
  8
SK1
 10
50.99907116050002
 20
-13.5
 30
0.0
 11
50.99907116050002
 21
0.0
 31
0.0
  0
LINE
  5
117F
  8
SK1
 10
70.0
 20
0.0
 30
0.0
 11
70.0
 21
12.0
 31
0.0
  0
LINE
  5
1180
  8
SK1
 10
70.0
 20
-12.0
 30
0.0
 11
70.0
 21
0.0
 31
0.0
  0
LINE
  5
1183
  8
SK3
 10
50.964
 20
6.0
 30
0.0
 11
50.964
 21
-6.0
 31
0.0
  0
LINE
  5
1186
  8
SK3
 10
81.0
 20
2.893968224300011
 30
0.0
 11
87.0
 21
2.893968224300011
 31
0.0
  0
LINE
  5
1187
  8
SK3
 10
81.0
 20
2.893968224300011
 30
0.0
 11
81.0
 21
0.0
 31
0.0
  0
LINE
  5
1188
  8
SK3
 10
81.0
 20
4.34095233650001
 30
0.0
 11
81.0
 21
2.893968224300011
 31
0.0
  0
LINE
  5
1189
  8
SK3
 10
81.0
 20
0.0
 30
0.0
 11
81.0
 21
-2.893968224299982
 31
0.0
  0
LINE
  5
118A
  8
SK3
 10
81.0
 20
-4.340952336499981
 30
0.0
 11
81.0
 21
-2.893968224299982
 31
0.0
  0
LINE
  5
118B
  8
SK3
 10
81.0
 20
-2.893968224299982
 30
0.0
 11
87.0
 21
-2.893968224299982
 31
0.0
  0
LINE
  5
118C
  8
SK3
 10
81.0
 20
5.787936448600021
 30
0.0
 11
81.0
 21
4.34095233650001
 31
0.0
  0
LINE
  5
118D
  8
SK3
 10
81.0
 20
-5.787936448599993
 30
0.0
 11
81.0
 21
-4.340952336499981
 31
0.0
  0
LINE
  5
118E
  8
SK3
 10
81.0
 20
5.787936448600021
 30
0.0
 11
87.0
 21
5.787936448600021
 31
0.0
  0
LINE
  5
118F
  8
SK3
 10
81.0
 20
-5.787936448599993
 30
0.0
 11
87.0
 21
-5.787936448599993
 31
0.0
  0
LINE
  5
11CB
  8
SK3
 10
69.1339745962
 20
-6.5
 30
0.0
 11
69.1339745962
 21
6.5
 31
0.0
  0
LINE
  5
11D0
  8
SK3
 10
67.0
 20
6.5
 30
0.0
 11
67.0
 21
-6.5
 31
0.0
  0
LINE
  5
11F6
  8
SK3
 10
70.0
 20
6.0
 30
0.0
 11
50.964
 21
6.0
 31
0.0
  0
LINE
  5
11F7
  8
SK3
 10
50.964
 20
-6.0
 30
0.0
 11
70.0
 21
-6.0
 31
0.0
  0
LINE
  5
11F8
  8
SK3
 10
50.964
 20
6.0
 30
0.0
 11
50.0
 21
5.036000000000001
 31
0.0
  0
LINE
  5
11F9
  8
SK3
 10
50.0
 20
-5.036000000000001
 30
0.0
 11
50.964
 21
-6.0
 31
0.0
  0
LINE
  5
11FA
  8
SK3
 10
81.0
 20
5.012500000000017
 30
0.0
 11
78.10603177570005
 21
0.0
 31
0.0
  0
LINE
  5
11FB
  8
SK3
 10
78.10603177570005
 20
0.0
 30
0.0
 11
81.0
 21
-5.012499999999989
 31
0.0
  0
LINE
  5
121E
  8
SK3
 10
70.0
 20
2.0
 30
0.0
 11
50.0
 21
2.0
 31
0.0
  0
LINE
  5
121F
  8
SK3
 10
50.0
 20
-2.0
 30
0.0
 11
70.0
 21
-2.0
 31
0.0
  0
LINE
  5
1226
  8
SK3
 10
70.0
 20
7.0
 30
0.0
 11
69.1339745962
 21
6.5
 31
0.0
  0
LINE
  5
1227
  8
SK3
 10
69.1339745962
 20
-6.5
 30
0.0
 11
70.0
 21
-7.0
 31
0.0
  0
LINE
  5
122C
  8
SK3
 10
69.1339745962
 20
6.5
 30
0.0
 11
67.0
 21
6.5
 31
0.0
  0
LINE
  5
122D
  8
SK3
 10
67.0
 20
-6.5
 30
0.0
 11
69.1339745962
 21
-6.5
 31
0.0
  0
LINE
  5
1234
  8
SK3
 10
67.0
 20
6.0
 30
0.0
 11
50.0
 21
6.0
 31
0.0
  0
LINE
  5
1235
  8
SK3
 10
50.0
 20
-6.0
 30
0.0
 11
67.0
 21
-6.0
 31
0.0
  0
LINE
  5
1241
  8
SK3
 10
70.0
 20
-6.010734984999999
 30
0.0
 11
50.0
 21
-6.010734984999999
 31
0.0
  0
LINE
  5
1242
  8
SK3
 10
50.0
 20
-10.010734985
 30
0.0
 11
70.0
 21
-10.010734985
 31
0.0
  0
LINE
  5
1247
  8
SK3
 10
70.0
 20
10.010734985
 30
0.0
 11
50.0
 21
10.010734985
 31
0.0
  0
LINE
  5
1248
  8
SK3
 10
50.0
 20
6.010734984999999
 30
0.0
 11
70.0
 21
6.010734984999999
 31
0.0
  0
LINE
  5
1267
  8
SK4
 10
50.0
 20
0.0
 30
0.0
 11
87.0
 21
0.0000000000000142
 31
0.0
  0
DIMENSION
  5
1269
  8
SK2
  2
*D4
 10
98.88350917431192
 20
-13.5
 30
0.0
 11
97.00850917431192
 21
-0.0000000000000018
 31
0.0
 70
    32
  3
ISO-25
 13
68.5
 23
13.5
 33
0.0
 14
68.5
 24
-13.5
 34
0.0
 50
90.0
1001
ACAD
1000
DSTYLE
1002
{
1070
   287
1070
     5
1070
   271
1070
     3
1070
   272
1070
     3
1070
   279
1070
     2
1002
}
  0
DIMENSION
  5
1278
  8
SK2
  2
*D5
 10
115.1871330275229
 20
-38.00000000000001
 30
0.0
 11
113.3121330275229
 21
-0.0000000000000071
 31
0.0
 70
    32
  3
ISO-25
 13
49.0
 23
38.0
 33
0.0
 14
49.0
 24
-38.0
 34
0.0
 50
90.0
1001
ACAD
1000
DSTYLE
1002
{
1070
   287
1070
     5
1070
   271
1070
     3
1070
   272
1070
     3
1070
   279
1070
     2
1002
}
  0
ENDSEC
  0
EOF
