  0
SECTION
  2
HEADER
  9
$ACADVER
  1
AC1009
  9
$DWGCODEPAGE
  3
ansi_1252
  9
$INSBASE
 10
0.0
 20
0.0
 30
0.0
  9
$EXTMIN
 10
-2.846827171807717
 20
-1.249997499999984
 30
0.0
  9
$EXTMAX
 10
3.963664113448174
 20
2.523447414892712
 30
0.0
  9
$LIMMIN
 10
0.0
 20
0.0
  9
$LIMMAX
 10
12.0
 20
9.0
  9
$ORTHOMODE
 70
     1
  9
$REGENMODE
 70
     1
  9
$FILLMODE
 70
     1
  9
$QTEXTMODE
 70
     0
  9
$MIRRTEXT
 70
     1
  9
$DRAGMODE
 70
     2
  9
$LTSCALE
 40
10.0
  9
$OSMODE
 70
   511
  9
$ATTMODE
 70
     1
  9
$TEXTSIZE
 40
0.2
  9
$TRACEWID
 40
0.05
  9
$TEXTSTYLE
  7
STYLE1
  9
$CLAYER
  8
240
  9
$CELTYPE
  6
BYLAYER
  9
$CECOLOR
 62
   256
  9
$DIMSCALE
 40
1.0
  9
$DIMASZ
 40
0.12
  9
$DIMEXO
 40
0.0625
  9
$DIMDLI
 40
0.38
  9
$DIMRND
 40
0.0
  9
$DIMDLE
 40
0.0
  9
$DIMEXE
 40
0.0625
  9
$DIMTP
 40
0.0
  9
$DIMTM
 40
0.0
  9
$DIMTXT
 40
0.125
  9
$DIMCEN
 40
0.0
  9
$DIMTSZ
 40
0.0
  9
$DIMTOL
 70
     0
  9
$DIMLIM
 70
     0
  9
$DIMTIH
 70
     0
  9
$DIMTOH
 70
     0
  9
$DIMSE1
 70
     0
  9
$DIMSE2
 70
     0
  9
$DIMTAD
 70
     1
  9
$DIMZIN
 70
     0
  9
$DIMBLK
  1

  9
$DIMASO
 70
     1
  9
$DIMSHO
 70
     1
  9
$DIMPOST
  1

  9
$DIMAPOST
  1

  9
$DIMALT
 70
     0
  9
$DIMALTD
 70
     2
  9
$DIMALTF
 40
25.4
  9
$DIMLFAC
 40
1.0
  9
$DIMTOFL
 70
     1
  9
$DIMTVP
 40
0.0
  9
$DIMTIX
 70
     0
  9
$DIMSOXD
 70
     0
  9
$DIMSAH
 70
     0
  9
$DIMBLK1
  1

  9
$DIMBLK2
  1

  9
$DIMSTYLE
  2
STANDARD
  9
$DIMCLRD
 70
     0
  9
$DIMCLRE
 70
     0
  9
$DIMCLRT
 70
     0
  9
$DIMTFAC
 40
1.0
  9
$DIMGAP
 40
0.05
  9
$LUNITS
 70
     2
  9
$LUPREC
 70
     4
  9
$SKETCHINC
 40
0.1
  9
$FILLETRAD
 40
0.0
  9
$AUNITS
 70
     0
  9
$AUPREC
 70
     0
  9
$MENU
  1
acad
  9
$ELEVATION
 40
0.0
  9
$PELEVATION
 40
0.0
  9
$THICKNESS
 40
0.0
  9
$LIMCHECK
 70
     0
  9
$CHAMFERA
 40
0.04
  9
$CHAMFERB
 40
0.04
  9
$SKPOLY
 70
     0
  9
$TDCREATE
 40
2452594.605310116
  9
$TDUPDATE
 40
2452852.613606505
  9
$TDINDWG
 40
0.0121688542
  9
$TDUSRTIMER
 40
2458339.802440926
  9
$USRTIMER
 70
     1
  9
$ANGBASE
 50
0.0
  9
$ANGDIR
 70
     0
  9
$PDMODE
 70
    65
  9
$PDSIZE
 40
-2.0
  9
$PLINEWID
 40
0.0
  9
$COORDS
 70
     1
  9
$SPLFRAME
 70
     0
  9
$SPLINETYPE
 70
     6
  9
$SPLINESEGS
 70
     8
  9
$ATTDIA
 70
     0
  9
$ATTREQ
 70
     1
  9
$HANDLING
 70
     1
  9
$HANDSEED
  5
12AA
  9
$SURFTAB1
 70
     6
  9
$SURFTAB2
 70
     6
  9
$SURFTYPE
 70
     6
  9
$SURFU
 70
     6
  9
$SURFV
 70
     6
  9
$UCSNAME
  2

  9
$UCSORG
 10
0.0
 20
0.0
 30
0.0
  9
$UCSXDIR
 10
1.0
 20
0.0
 30
0.0
  9
$UCSYDIR
 10
0.0
 20
1.0
 30
0.0
  9
$PUCSNAME
  2

  9
$PUCSORG
 10
0.0
 20
0.0
 30
0.0
  9
$PUCSXDIR
 10
1.0
 20
0.0
 30
0.0
  9
$PUCSYDIR
 10
0.0
 20
1.0
 30
0.0
  9
$USERI1
 70
     0
  9
$USERI2
 70
     0
  9
$USERI3
 70
     0
  9
$USERI4
 70
     0
  9
$USERI5
 70
     0
  9
$USERR1
 40
0.0
  9
$USERR2
 40
0.0
  9
$USERR3
 40
0.0
  9
$USERR4
 40
0.0
  9
$USERR5
 40
0.0
  9
$WORLDVIEW
 70
     1
  9
$SHADEDGE
 70
     3
  9
$SHADEDIF
 70
    70
  9
$TILEMODE
 70
     1
  9
$MAXACTVP
 70
    16
  9
$PLIMCHECK
 70
     0
  9
$PEXTMIN
 10
0.0
 20
0.0
 30
0.0
  9
$PEXTMAX
 10
0.0
 20
0.0
 30
0.0
  9
$PLIMMIN
 10
0.0
 20
0.0
  9
$PLIMMAX
 10
12.0
 20
9.0
  9
$UNITMODE
 70
     0
  9
$VISRETAIN
 70
     0
  9
$PLINEGEN
 70
     0
  9
$PSLTSCALE
 70
     1
  0
ENDSEC
  0
SECTION
  2
TABLES
  0
TABLE
  2
VPORT
 70
     1
  0
VPORT
  2
*ACTIVE
 70
     0
 10
0.0
 20
0.0
 11
1.0
 21
1.0
 12
-236.5294465636182
 22
-239.8765306247886
 13
0.0
 23
0.0
 14
1.0
 24
1.0
 15
0.0
 25
0.0
 16
0.0
 26
0.0
 36
1.0
 17
248.9596517691353
 27
245.8997127951677
 37
0.0
 40
130.0917052406747
 41
1.328822733423545
 42
50.0
 43
0.0
 44
0.0
 50
0.0
 51
0.0
 71
    16
 72
  1000
 73
     1
 74
     0
 75
     0
 76
     0
 77
     0
 78
     0
  0
ENDTAB
  0
TABLE
  2
LTYPE
 70
    13
  0
LTYPE
  2
CONTINUOUS
 70
     0
  3
Solid line
 72
    65
 73
     0
 40
0.0
  0
LTYPE
  2
HIDDEN
 70
     0
  3
__ __ __ __ __ __ __ __ __ __ __ __ __ __ __ __
 72
    65
 73
     2
 40
0.375
 49
0.25
 49
-0.125
  0
LTYPE
  2
CENTER
 70
     0
  3
____ _ ____ _ ____ _ ____ _ ____ _ ____ _ ____
 72
    65
 73
     4
 40
2.0
 49
1.25
 49
-0.25
 49
0.25
 49
-0.25
  0
ENDTAB
  0
TABLE
  2
LAYER
 70
     6
  0
LAYER
  2
0
 70
     0
 62
     7
  6
CONTINUOUS
  0
LAYER
  2
240
 70
     0
 62
     4
  6
CONTINUOUS
  0
LAYER
  2
243
 70
     0
 62
     6
  6
HIDDEN
  0
LAYER
  2
250
 70
     0
 62
     3
  6
CONTINUOUS
  0
LAYER
  2
245
 70
     0
 62
     2
  6
CENTER
  0
LAYER
  2
DEFPOINTS
 70
     0
 62
     7
  6
CONTINUOUS
  0
ENDTAB
  0
TABLE
  2
STYLE
 70
     7
  0
STYLE
  2
STANDARD
 70
     0
 40
0.0
 41
1.0
 50
0.0
 71
     0
 42
0.2
  3
ROMANS.SHX
  4

  0
STYLE
  2
ROMANS
 70
     0
 40
0.0
 41
1.0
 50
0.0
 71
     0
 42
0.24
  3
romans
  4

  0
STYLE
  2
STYLE1
 70
     0
 40
0.0
 41
1.0
 50
0.0
 71
     0
 42
0.2
  3
romans.shx
  4

  0
ENDTAB
  0
TABLE
  2
VIEW
 70
     0
  0
ENDTAB
  0
TABLE
  2
UCS
 70
     0
  0
ENDTAB
  0
TABLE
  2
APPID
 70
    13
  0
APPID
  2
ACAD
 70
     0
  0
APPID
  2
GENIUS_GENDIM_13
 70
     0
  0
APPID
  2
GENIUS_GENDTOL_13
 70
     0
  0
APPID
  2
GENIUS_GE3DTOL_13
 70
     0
  0
APPID
  2
MCAD_NO_VIS
 70
     0
  0
APPID
  2
ACAD_TEMP_GRAPHIC
 70
     0
  0
APPID
  2
AD_DRAW
 70
     0
  0
APPID
  2
ACATTRIBSERVICES
 70
     0
  0
APPID
  2
ASURF_PCURVE_APPNAME
 70
     0
  0
APPID
  2
AMG_3D2D_5_0
 70
     0
  0
APPID
  2
DESIGNERASSEMBLIES
 70
     0
  0
APPID
  2
ACADM_DIM_EDIT
 70
     0
  0
APPID
  2
AMDT_DM_ADJ
 70
     0
  0
ENDTAB
  0
TABLE
  2
DIMSTYLE
 70
    14
  0
DIMSTYLE
  2
STANDARD
 70
     0
  3

  4

  5

  6

  7

 40
1.0
 41
0.12
 42
0.0625
 43
0.38
 44
0.0625
 45
0.0
 46
0.0
 47
0.0
 48
0.0
140
0.125
141
0.0
142
0.0
143
25.4
144
1.0
145
0.0
146
1.0
147
0.05
 71
     0
 72
     0
 73
     0
 74
     0
 75
     0
 76
     0
 77
     1
 78
     0
170
     0
171
     2
172
     1
173
     0
174
     0
175
     0
176
     0
177
     0
178
     0
  0
ENDTAB
  0
ENDSEC
  0
SECTION
  2
BLOCKS
  0
BLOCK
  8
0
  2
$MODEL_SPACE
 70
     0
 10
0.0
 20
0.0
 30
0.0
  3
$MODEL_SPACE
  1

  0
ENDBLK
  5
1C
  8
0
  0
BLOCK
 67
     1
  8
0
  2
$PAPER_SPACE
 70
     0
 10
0.0
 20
0.0
 30
0.0
  3
$PAPER_SPACE
  1

  0
ENDBLK
  5
4B3
 67
     1
  8
0
  0
BLOCK
  8
0
  2
*D2
 70
     1
 10
0.0
 20
0.0
 30
0.0
  3
*D2
  1

  0
LINE
  5
747
  8
250
 62
     0
 10
67.98763652499986
 20
9.5625
 30
0.0
 11
67.98763652499986
 21
49.24960380100398
 31
0.0
  0
LINE
  5
748
  8
250
 62
     0
 10
49.98763652499982
 20
29.0625
 30
0.0
 11
49.98763652499982
 21
49.24960380100398
 31
0.0
  0
LINE
  5
749
  8
250
 62
     0
 10
64.98763652499986
 20
49.18710380100398
 30
0.0
 11
52.98763652499982
 21
49.18710380100398
 31
0.0
  0
SOLID
  5
74A
  8
250
 62
     0
 10
64.98763652499986
 20
48.68710380100398
 30
0.0
 11
64.98763652499986
 21
49.68710380100398
 31
0.0
 12
67.98763652499986
 22
49.18710380100398
 32
0.0
 13
67.98763652499986
 23
49.18710380100398
 33
0.0
  0
SOLID
  5
74B
  8
250
 62
     0
 10
52.98763652499982
 20
49.68710380100398
 30
0.0
 11
52.98763652499982
 21
48.68710380100398
 31
0.0
 12
49.98763652499982
 22
49.18710380100398
 32
0.0
 13
49.98763652499982
 23
49.18710380100398
 33
0.0
  0
TEXT
  5
74C
  8
250
  6
CONTINUOUS
 62
     0
 10
53.77558295357127
 20
50.18710380100398
 30
0.0
 40
3.0
  1
18.0
  7
ROMANS
  0
POINT
  5
74D
  8
DEFPOINTS
 62
     0
 10
67.98763652499986
 20
9.5
 30
0.0
  0
POINT
  5
74E
  8
DEFPOINTS
 62
     0
 10
49.98763652499982
 20
29.0
 30
0.0
  0
POINT
  5
74F
  8
DEFPOINTS
 62
     0
 10
49.98763652499982
 20
49.18710380100398
 30
0.0
  0
ENDBLK
  5
6C3
  8
0
  0
BLOCK
  8
0
  2
*D3
 70
     1
 10
0.0
 20
0.0
 30
0.0
  3
*D3
  1

  0
LINE
  5
735
  8
250
 62
     0
 10
0.0
 20
22.28745555000011
 30
0.0
 11
0.0
 21
49.35311595302691
 31
0.0
  0
LINE
  5
736
  8
250
 62
     0
 10
49.98763652499982
 20
29.0625
 30
0.0
 11
49.98763652499982
 21
49.35311595302691
 31
0.0
  0
LINE
  5
737
  8
250
 62
     0
 10
3.0
 20
49.29061595302691
 30
0.0
 11
46.98763652499982
 21
49.29061595302691
 31
0.0
  0
SOLID
  5
738
  8
250
 62
     0
 10
3.0
 20
49.79061595302691
 30
0.0
 11
3.0
 21
48.79061595302691
 31
0.0
 12
0.0
 22
49.29061595302691
 32
0.0
 13
0.0
 23
49.29061595302691
 33
0.0
  0
SOLID
  5
739
  8
250
 62
     0
 10
46.98763652499982
 20
48.79061595302691
 30
0.0
 11
46.98763652499982
 21
49.79061595302691
 31
0.0
 12
49.98763652499982
 22
49.29061595302691
 32
0.0
 13
49.98763652499982
 23
49.29061595302691
 33
0.0
  0
TEXT
  5
73A
  8
250
  6
CONTINUOUS
 62
     0
 10
19.98488969107134
 20
50.29061595302691
 30
0.0
 40
3.0
  1
50.0
  7
ROMANS
  0
POINT
  5
73B
  8
DEFPOINTS
 62
     0
 10
0.0
 20
22.22495555000011
 30
0.0
  0
POINT
  5
73C
  8
DEFPOINTS
 62
     0
 10
49.98763652499982
 20
29.0
 30
0.0
  0
POINT
  5
73D
  8
DEFPOINTS
 62
     0
 10
49.98763652499982
 20
49.29061595302691
 30
0.0
  0
ENDBLK
  5
6D0
  8
0
  0
BLOCK
  8
0
  2
*D4
 70
     1
 10
0.0
 20
0.0
 30
0.0
  3
*D4
  1

  0
LINE
  5
73E
  8
250
 62
     0
 10
19.0499619000001
 20
31.05043802400061
 30
0.0
 11
19.0499619000001
 21
38.74048539834249
 31
0.0
  0
LINE
  5
73F
  8
250
 62
     0
 10
49.98763652499982
 20
29.0625
 30
0.0
 11
49.98763652499982
 21
38.74048539834249
 31
0.0
  0
LINE
  5
740
  8
250
 62
     0
 10
22.0499619000001
 20
38.67798539834249
 30
0.0
 11
46.98763652499982
 21
38.67798539834249
 31
0.0
  0
SOLID
  5
741
  8
250
 62
     0
 10
22.0499619000001
 20
39.17798539834249
 30
0.0
 11
22.0499619000001
 21
38.17798539834249
 31
0.0
 12
19.0499619000001
 22
38.67798539834249
 32
0.0
 13
19.0499619000001
 23
38.67798539834249
 33
0.0
  0
SOLID
  5
742
  8
250
 62
     0
 10
46.98763652499982
 20
38.17798539834249
 30
0.0
 11
46.98763652499982
 21
39.17798539834249
 31
0.0
 12
49.98763652499982
 22
38.67798539834249
 32
0.0
 13
49.98763652499982
 23
38.67798539834249
 33
0.0
  0
TEXT
  5
743
  8
250
  6
CONTINUOUS
 62
     0
 10
29.58799564107139
 20
39.67798539834249
 30
0.0
 40
3.0
  1
30.9
  7
ROMANS
  0
POINT
  5
744
  8
DEFPOINTS
 62
     0
 10
19.0499619000001
 20
30.98793802400061
 30
0.0
  0
POINT
  5
745
  8
DEFPOINTS
 62
     0
 10
49.98763652499982
 20
29.0
 30
0.0
  0
POINT
  5
746
  8
DEFPOINTS
 62
     0
 10
49.98763652499982
 20
38.67798539834249
 30
0.0
  0
ENDBLK
  5
6DD
  8
0
  0
BLOCK
  8
0
  2
*D5
 70
     1
 10
0.0
 20
0.0
 30
0.0
  3
*D5
  1

  0
LINE
  5
750
  8
250
 62
     0
 10
66.55013652499983
 20
11.0
 30
0.0
 11
81.60997854997501
 21
11.0
 31
0.0
  0
LINE
  5
751
  8
250
 62
     0
 10
66.55013652499983
 20
-11.0
 30
0.0
 11
81.60997854997501
 21
-11.0
 31
0.0
  0
LINE
  5
752
  8
250
 62
     0
 10
81.54747854997501
 20
7.999999999999998
 30
0.0
 11
81.54747854997501
 21
-8.000000000000002
 31
0.0
  0
SOLID
  5
753
  8
250
 62
     0
 10
82.04747854997501
 20
7.999999999999998
 30
0.0
 11
81.04747854997501
 21
7.999999999999998
 31
0.0
 12
81.54747854997501
 22
11.0
 32
0.0
 13
81.54747854997501
 23
11.0
 33
0.0
  0
SOLID
  5
754
  8
250
 62
     0
 10
81.04747854997501
 20
-8.000000000000002
 30
0.0
 11
82.04747854997501
 21
-8.000000000000002
 31
0.0
 12
81.54747854997501
 22
-11.0
 32
0.0
 13
81.54747854997501
 23
-11.0
 33
0.0
  0
INSERT
  5
755
  8
250
 62
     0
  2
*X8
 10
0.0
 20
0.0
 30
0.0
  0
POINT
  5
756
  8
DEFPOINTS
 62
     0
 10
66.48763652499983
 20
11.0
 30
0.0
  0
POINT
  5
757
  8
DEFPOINTS
 62
     0
 10
66.48763652499983
 20
-11.0
 30
0.0
  0
POINT
  5
758
  8
DEFPOINTS
 62
     0
 10
81.54747854997501
 20
-11.0
 30
0.0
  0
ENDBLK
  5
6EA
  8
0
  0
BLOCK
  8
0
  2
*D6
 70
     1
 10
0.0
 20
0.0
 30
0.0
  3
*D6
  1

  0
LINE
  5
11EA
  8
250
 62
     0
 10
54.98763652499982
 20
-25.06249999999999
 30
0.0
 11
54.98763652499982
 21
-40.80675161226871
 31
0.0
  0
LINE
  5
11EB
  8
250
 62
     0
 10
49.98763652499982
 20
-29.06249999999999
 30
0.0
 11
49.98763652499982
 21
-40.80675161226871
 31
0.0
  0
LINE
  5
11EC
  8
250
 62
     0
 10
54.98763652499982
 20
-40.74425161226871
 30
0.0
 11
69.2733508107141
 21
-40.74425161226871
 31
0.0
  0
LINE
  5
11ED
  8
250
 62
     0
 10
54.98763652499982
 20
-40.74425161226871
 30
0.0
 11
49.98763652499982
 21
-40.74425161226871
 31
0.0
  0
LINE
  5
11EE
  8
250
 62
     0
 10
54.98763652499982
 20
-40.74425161226871
 30
0.0
 11
60.98763652499982
 21
-40.74425161226871
 31
0.0
  0
LINE
  5
11EF
  8
250
 62
     0
 10
49.98763652499982
 20
-40.74425161226871
 30
0.0
 11
43.98763652499982
 21
-40.74425161226871
 31
0.0
  0
SOLID
  5
11F0
  8
250
 62
     0
 10
57.98763652499982
 20
-40.24425161226871
 30
0.0
 11
57.98763652499982
 21
-41.24425161226871
 31
0.0
 12
54.98763652499982
 22
-40.74425161226871
 32
0.0
 13
54.98763652499982
 23
-40.74425161226871
 33
0.0
  0
SOLID
  5
11F1
  8
250
 62
     0
 10
46.98763652499982
 20
-41.24425161226871
 30
0.0
 11
46.98763652499982
 21
-40.24425161226871
 31
0.0
 12
49.98763652499982
 22
-40.74425161226871
 32
0.0
 13
49.98763652499982
 23
-40.74425161226871
 33
0.0
  0
TEXT
  5
11F2
  8
250
  6
CONTINUOUS
 62
     0
 10
61.55013652499983
 20
-39.74425161226871
 30
0.0
 40
3.0
  1
5.0
  7
ROMANS
  0
POINT
  5
11F4
  8
DEFPOINTS
 62
     0
 10
54.98763652499982
 20
-24.99999999999999
 30
0.0
  0
POINT
  5
11F5
  8
DEFPOINTS
 62
     0
 10
49.98763652499982
 20
-28.99999999999999
 30
0.0
  0
POINT
  5
11F6
  8
DEFPOINTS
 62
     0
 10
49.98763652499982
 20
-40.74425161226871
 30
0.0
  0
ENDBLK
  5
11F3
  8
0
  0
BLOCK
  8
0
  2
*D7
 70
     1
 10
0.0
 20
0.0
 30
0.0
  3
*D7
  1

  0
LINE
  5
11FE
  8
250
 62
     0
 10
49.05013652499982
 20
30.0
 30
0.0
 11
96.7323205749502
 21
30.0
 31
0.0
  0
LINE
  5
11FF
  8
250
 62
     0
 10
49.05013652499982
 20
-29.99999999999999
 30
0.0
 11
96.7323205749502
 21
-30.0
 31
0.0
  0
LINE
  5
1200
  8
250
 62
     0
 10
96.6698205749502
 20
27.0
 30
0.0
 11
96.6698205749502
 21
-27.0
 31
0.0
  0
SOLID
  5
1201
  8
250
 62
     0
 10
97.1698205749502
 20
27.0
 30
0.0
 11
96.1698205749502
 21
27.0
 31
0.0
 12
96.6698205749502
 22
30.0
 32
0.0
 13
96.6698205749502
 23
30.0
 33
0.0
  0
SOLID
  5
1202
  8
250
 62
     0
 10
96.1698205749502
 20
-27.0
 30
0.0
 11
97.1698205749502
 21
-27.0
 31
0.0
 12
96.6698205749502
 22
-30.0
 32
0.0
 13
96.6698205749502
 23
-30.0
 33
0.0
  0
INSERT
  5
1203
  8
250
 62
     0
  2
*X9
 10
0.0
 20
0.0
 30
0.0
  0
POINT
  5
1204
  8
DEFPOINTS
 62
     0
 10
48.98763652499982
 20
30.0
 30
0.0
  0
POINT
  5
1205
  8
DEFPOINTS
 62
     0
 10
48.98763652499982
 20
-29.99999999999999
 30
0.0
  0
POINT
  5
1206
  8
DEFPOINTS
 62
     0
 10
96.6698205749502
 20
-30.0
 30
0.0
  0
ENDBLK
  5
1207
  8
0
  0
BLOCK
  8
0
  2
*X8
 70
     1
 10
0.0
 20
0.0
 30
0.0
  3
*X8
  1

  0
TEXT
  5
1209
  8
250
  6
CONTINUOUS
 62
     0
 10
80.54747854997501
 20
-6.4375
 30
0.0
 40
3.0
  1
ø
 50
90.0
  7
ROMANS
  0
TEXT
  5
120A
  8
250
  6
CONTINUOUS
 62
     0
 10
80.54747854997501
 20
-3.580357142857139
 30
0.0
 40
3.0
  1
22.0
 50
90.0
  7
ROMANS
  0
ENDBLK
  5
120F
  8
0
  0
BLOCK
  8
0
  2
*X9
 70
     1
 10
0.0
 20
0.0
 30
0.0
  3
*X9
  1

  0
TEXT
  5
120C
  8
250
  6
CONTINUOUS
 62
     0
 10
95.6698205749502
 20
-6.4375
 30
0.0
 40
3.0
  1
ø
 50
90.0
  7
ROMANS
  0
TEXT
  5
120D
  8
250
  6
CONTINUOUS
 62
     0
 10
95.6698205749502
 20
-3.580357142857139
 30
0.0
 40
3.0
  1
60.0
 50
90.0
  7
ROMANS
  0
ENDBLK
  5
1211
  8
0
  0
ENDSEC
  0
SECTION
  2
ENTITIES
  0
LINE
  5
67B
  8
240
 10
0.0
 20
22.22495555000011
 30
0.0
 11
0.0
 21
-22.22495554999938
 31
0.0
  0
LINE
  5
67C
  8
240
 10
7.594584810799812
 20
31.7499365000001
 30
0.0
 11
7.594584810799812
 21
-31.74993649999941
 31
0.0
  0
LINE
  5
67D
  8
240
 10
9.19478161040015
 20
28.18124363740035
 30
0.0
 11
9.19478161040015
 21
-28.18124363739967
 31
0.0
  0
LINE
  5
67E
  8
240
 10
14.64307071379955
 20
31.7499365000001
 30
0.0
 11
14.64307071379955
 21
-31.74993649999941
 31
0.0
  0
LINE
  5
67F
  8
240
 10
13.03017393959924
 20
-28.18124363739967
 30
0.0
 11
13.03017393959924
 21
28.18124363740035
 31
0.0
  0
LINE
  5
680
  8
240
 10
0.0
 20
22.22495555000011
 30
0.0
 11
1.0
 21
22.22495555000011
 31
0.0
  0
LINE
  5
681
  8
240
 10
0.9999999999999999
 20
-22.22495554999938
 30
0.0
 11
0.0
 21
-22.22495554999938
 31
0.0
  0
LINE
  5
684
  8
240
 10
19.0499619000001
 20
30.98793802400061
 30
0.0
 11
19.0499619000001
 21
-30.98793802399987
 31
0.0
  0
LINE
  5
685
  8
240
 10
1.0
 20
30.98793802400035
 30
0.0
 11
1.0
 21
-30.98793802400002
 31
0.0
  0
LINE
  5
686
  8
240
 10
1.761998476001234
 20
31.7499365000001
 30
0.0
 11
7.594584810799812
 21
31.7499365000001
 31
0.0
  0
LINE
  5
687
  8
240
 10
18.28796342400056
 20
31.7499365000001
 30
0.0
 11
19.0499619000001
 21
30.98793802400061
 31
0.0
  0
LINE
  5
688
  8
240
 10
1.761998476000985
 20
31.74993649999985
 30
0.0
 11
1.0
 21
30.98793802400035
 31
0.0
  0
LINE
  5
68B
  8
240
 10
14.64307071379955
 20
31.7499365000001
 30
0.0
 11
18.28796342400056
 21
31.7499365000001
 31
0.0
  0
LINE
  5
68C
  8
240
 10
9.19478161040015
 20
28.18124363740035
 30
0.0
 11
13.03017393959924
 21
28.18124363740035
 31
0.0
  0
LINE
  5
68D
  8
240
 10
7.594584810799812
 20
31.7499365000001
 30
0.0
 11
9.19478161040015
 21
28.97831434098423
 31
0.0
  0
LINE
  5
68E
  8
240
 10
14.64307071379955
 20
31.7499365000001
 30
0.0
 11
13.03111549430075
 21
28.95794816030141
 31
0.0
  0
LINE
  5
68F
  8
240
 10
13.03017393959924
 20
28.18124363740035
 30
0.0
 11
13.03017393959924
 21
28.95849176716159
 31
0.0
  0
LINE
  5
690
  8
240
 10
9.19478161040015
 20
28.18124363740035
 30
0.0
 11
9.19478161040015
 21
28.97831434098423
 31
0.0
  0
LINE
  5
691
  8
240
 10
7.594584810799812
 20
-31.74993649999941
 30
0.0
 11
9.19478161040015
 21
-28.97831434098337
 31
0.0
  0
LINE
  5
692
  8
240
 10
9.19478161040015
 20
-28.18124363739967
 30
0.0
 11
9.19478161040015
 21
-28.97831434098337
 31
0.0
  0
LINE
  5
693
  8
240
 10
9.19478161040015
 20
-28.18124363739967
 30
0.0
 11
13.03017393959924
 21
-28.18124363739967
 31
0.0
  0
LINE
  5
694
  8
240
 10
13.03017393959924
 20
-28.18124363739967
 30
0.0
 11
13.03017393959924
 21
-28.9584917671609
 31
0.0
  0
LINE
  5
695
  8
240
 10
14.64307071379955
 20
-31.74993649999941
 30
0.0
 11
13.03111549430075
 21
-28.95794816030141
 31
0.0
  0
LINE
  5
697
  8
240
 10
0.0
 20
22.22495555000011
 30
0.0
 11
-66.9582897881721
 21
12.46020495689039
 31
0.0
  0
ARC
  5
698
  8
240
 10
-66.73836652300018
 20
10.95215970984323
 30
0.0
 40
1.523996952
 50
98.29714496899872
 51
180.0
  0
ARC
  5
69D
  8
240
 10
-66.73836652300018
 20
-10.95215970984323
 30
0.0
 40
1.523996952
 50
180.0
 51
261.7028550310013
  0
LINE
  5
69E
  8
240
 10
0.0
 20
-22.22495554999938
 30
0.0
 11
-66.9582897881721
 21
-12.46020495689039
 31
0.0
  0
LINE
  5
6A2
  8
245
 10
-72.30941016391601
 20
0.0
 30
0.0
 11
71.16239574225571
 21
0.0
 31
0.0
  0
LINE
  5
6AD
  8
240
 10
14.64307071379955
 20
-31.74993649999941
 30
0.0
 11
18.10714247660335
 21
-31.74993649999941
 31
0.0
  0
LINE
  5
6AE
  8
240
 10
1.761998476000742
 20
-31.74993649999936
 30
0.0
 11
7.594584810799812
 21
-31.74993649999941
 31
0.0
  0
LINE
  5
6AF
  8
240
 10
18.10714247660335
 20
-31.74993649999941
 30
0.0
 11
18.33187992211749
 21
-31.74993649999941
 31
0.0
  0
LINE
  5
6B0
  8
240
 10
1.761998476000985
 20
-31.7499364999996
 30
0.0
 11
1.0
 21
-30.98793802400002
 31
0.0
  0
LINE
  5
6B1
  8
240
 10
18.10714247660335
 20
-31.74993649999941
 30
0.0
 11
18.33187992211749
 21
-31.74993649999941
 31
0.0
  0
LINE
  5
6B2
  8
240
 10
18.10714247660335
 20
-31.74993649999941
 30
0.0
 11
18.33187992211749
 21
-31.74993649999941
 31
0.0
  0
LINE
  5
6B3
  8
240
 10
18.28796342400056
 20
-31.74993649999941
 30
0.0
 11
19.0499619000001
 21
-30.98793802399987
 31
0.0
  0
DIMENSION
  5
6B6
  8
250
  2
*D2
 10
49.98763652499982
 20
49.18710380100398
 30
0.0
 11
58.98763652499984
 21
49.18710380100398
 31
0.0
 70
   160
  3
STANDARD
 13
67.98763652499986
 23
9.5
 33
0.0
 14
49.98763652499982
 24
29.0
 34
0.0
1001
ACAD
1000
DSTYLE
1002
{
1070
   271
1070
     1
1070
   147
1040
1.0
1070
   140
1040
3.0
1070
    41
1040
3.0
1002
}
  0
DIMENSION
  5
6C4
  8
250
  2
*D3
 10
49.98763652499982
 20
49.29061595302691
 30
0.0
 11
24.99381826249991
 21
51.79061595302691
 31
0.0
 70
    32
  3
STANDARD
 13
0.0
 23
22.22495555000011
 33
0.0
 14
49.98763652499982
 24
29.0
 34
0.0
1001
ACAD
1000
DSTYLE
1002
{
1070
   271
1070
     1
1070
   147
1040
1.0
1070
   140
1040
3.0
1070
    41
1040
3.0
1002
}
  0
DIMENSION
  5
6D1
  8
250
  2
*D4
 10
49.98763652499982
 20
38.67798539834249
 30
0.0
 11
34.51879921249996
 21
41.17798539834249
 31
0.0
 70
    32
  3
STANDARD
 13
19.0499619000001
 23
30.98793802400061
 33
0.0
 14
49.98763652499982
 24
29.0
 34
0.0
1001
ACAD
1000
DSTYLE
1002
{
1070
   271
1070
     1
1070
   147
1040
1.0
1070
   140
1040
3.0
1070
    41
1040
3.0
1002
}
  0
DIMENSION
  5
6DE
  8
250
  2
*D5
 10
81.54747854997501
 20
-11.0
 30
0.0
 11
79.04747854997501
 21
-0.0000000000000018
 31
0.0
 70
    32
  1
%%c<>
  3
STANDARD
 13
66.48763652499983
 23
11.0
 33
0.0
 14
66.48763652499983
 24
-11.0
 34
0.0
 50
90.0
1001
ACAD
1000
DSTYLE
1002
{
1070
   271
1070
     1
1070
   147
1040
1.0
1070
   140
1040
3.0
1070
    41
1040
3.0
1002
}
  0
LINE
  5
6EB
  8
243
 10
1.0
 20
25.01994995999999
 30
0.0
 11
19.04996190000001
 21
25.01994995999999
 31
0.0
  0
LINE
  5
6EC
  8
243
 10
15.86246827500002
 20
25.01994995999999
 30
0.0
 11
11.11247777500001
 21
22.27754166617683
 31
0.0
  0
LINE
  5
6ED
  8
243
 10
6.362487275000005
 20
25.01994995999999
 30
0.0
 11
11.11247777500001
 21
22.27754166617683
 31
0.0
  0
LINE
  5
6EE
  8
243
 10
1.0
 20
-22.5999548
 30
0.0
 11
19.04996190000001
 21
-22.5999548
 31
0.0
  0
LINE
  5
910
  8
250
 10
-27.78399148954736
 20
33.36654024037155
 30
0.0
 11
-26.48296188992139
 21
33.36654024037155
 31
0.0
  0
LINE
  5
911
  8
250
 10
-27.78399148954772
 20
24.63105578574014
 30
0.0
 11
-26.48296188992139
 21
24.63105578574014
 31
0.0
  0
LINE
  5
912
  8
250
 10
-27.78399148954736
 20
24.63105578574014
 30
0.0
 11
-27.78399148954736
 21
33.36654024037155
 31
0.0
  0
LINE
  5
913
  8
250
 10
-29.69223375835915
 20
24.63105578573996
 30
0.0
 11
-31.72056838264968
 21
31.04827443137825
 31
0.0
  0
LINE
  5
914
  8
250
 10
-30.63893947815856
 20
33.36654024037155
 30
0.0
 11
-28.29827347304547
 21
24.63105578573996
 31
0.0
  0
LINE
  5
915
  8
250
 10
-36.14729797663974
 20
24.63105578574014
 30
0.0
 11
-37.29730739788513
 21
27.51239860192
 31
0.0
  0
LINE
  5
916
  8
250
 10
-38.05400675484324
 20
25.88965159417887
 30
0.0
 11
-37.29730739788513
 21
27.51239860192
 31
0.0
  0
ARC
  5
917
  8
250
 10
-44.97055858071283
 20
27.1053352921717
 30
0.0
 40
1.485852152860833
 50
180.0
 51
242.0588959302373
  0
ARC
  5
918
  8
250
 10
-45.22913102966984
 20
27.1053352921717
 30
0.0
 40
2.621239989217093
 50
180.0
 51
250.7232073317389
  0
ARC
  5
919
  8
250
 10
-45.55972770627547
 20
27.1053352921717
 30
0.0
 40
1.485852152860833
 50
297.9411040697624
 51
0.0
  0
ARC
  5
91A
  8
250
 10
-45.37022175540561
 20
27.1053352921717
 30
0.0
 40
2.621239989217035
 50
289.2767926682573
 51
0.0
  0
LINE
  5
91B
  8
250
 10
-34.5674763199513
 20
24.63105578573996
 30
0.0
 11
-36.44607436511001
 21
29.33787373167221
 31
0.0
  0
LINE
  5
91C
  8
250
 10
-39.63382841153168
 20
33.36654024037155
 30
0.0
 11
-39.63382841153168
 21
24.63105578574014
 31
0.0
  0
LINE
  5
91D
  8
250
 10
-50.12639086855156
 20
24.63105578574014
 30
0.0
 11
-50.12639086855156
 21
33.36654024037155
 31
0.0
  0
LINE
  5
91E
  8
250
 10
-48.82536126892559
 20
33.36654024037155
 30
0.0
 11
-48.82536126892559
 21
24.63105578574014
 31
0.0
  0
ARC
  5
91F
  8
250
 10
-53.91212705867699
 20
27.1053352921717
 30
0.0
 40
1.485852152860833
 50
297.9411040697624
 51
62.05889593023692
  0
LINE
  5
920
  8
250
 10
-54.80881008597517
 20
25.79268935683465
 30
0.0
 11
-54.80881008597517
 21
28.41798122750858
 31
0.0
  0
ARC
  5
921
  8
250
 10
-53.72262110780748
 20
27.1053352921717
 30
0.0
 40
2.621239989217035
 50
289.2767926682573
 51
46.24915972781781
  0
LINE
  5
922
  8
250
 10
-34.15132483908735
 20
24.63105578573996
 30
0.0
 11
-32.4533186703286
 21
33.36654024037155
 31
0.0
  0
LINE
  5
923
  8
250
 10
-56.20277037128867
 20
24.63105578574014
 30
0.0
 11
-56.20277037128867
 21
33.36654024037155
 31
0.0
  0
LINE
  5
924
  8
250
 10
-32.74215063413893
 20
25.79268935683465
 30
0.0
 11
-31.72056838264968
 21
31.04827443137825
 31
0.0
  0
LINE
  5
925
  8
250
 10
-54.43708734322497
 20
24.63105578574014
 30
0.0
 11
-52.85726568653651
 21
24.63105578574014
 31
0.0
  0
LINE
  5
926
  8
250
 10
-54.80881008597517
 20
25.79268935683465
 30
0.0
 11
-53.21591066372171
 21
25.79268935683465
 31
0.0
  0
LINE
  5
927
  8
250
 10
-56.20277037128867
 20
24.63105578574014
 30
0.0
 11
-52.85726568653651
 21
24.63105578574014
 31
0.0
  0
LINE
  5
928
  8
250
 10
-39.63382841153168
 20
24.63105578574014
 30
0.0
 11
-38.05400675484324
 21
24.63105578574014
 31
0.0
  0
LINE
  5
929
  8
250
 10
-50.12639086855156
 20
24.63105578574014
 30
0.0
 11
-48.82536126892559
 21
24.63105578574014
 31
0.0
  0
LINE
  5
92A
  8
250
 10
-46.08468799082306
 20
24.63105578574014
 30
0.0
 11
-44.50486633413429
 21
24.63105578574014
 31
0.0
  0
LINE
  5
92B
  8
250
 10
-46.09448645094152
 20
24.63105578574014
 30
0.0
 11
-44.50486633413429
 21
24.63105578574014
 31
0.0
  0
LINE
  5
92C
  8
250
 10
-45.66677497566827
 20
25.79268935683465
 30
0.0
 11
-44.8635113113202
 21
25.79268935683465
 31
0.0
  0
LINE
  5
92D
  8
250
 10
-28.29827347304547
 20
24.63105578573996
 30
0.0
 11
-29.69223375835915
 21
24.63105578573996
 31
0.0
  0
LINE
  5
92E
  8
250
 10
-30.80582015433555
 20
24.63105578573996
 30
0.0
 11
-31.11707893161122
 21
25.79268935683465
 31
0.0
  0
LINE
  5
92F
  8
250
 10
-38.05400675484324
 20
24.63105578574014
 30
0.0
 11
-38.05400675484324
 21
25.88965159417887
 31
0.0
  0
LINE
  5
930
  8
250
 10
-36.14729797663974
 20
24.63105578574014
 30
0.0
 11
-34.5674763199513
 21
24.63105578574014
 31
0.0
  0
LINE
  5
931
  8
250
 10
-32.74215063413893
 20
25.79268935683465
 30
0.0
 11
-31.11707893161122
 21
25.79268935683465
 31
0.0
  0
LINE
  5
932
  8
250
 10
-34.15132483908735
 20
24.63105578573996
 30
0.0
 11
-30.80582015433555
 21
24.63105578573996
 31
0.0
  0
ARC
  5
933
  8
250
 10
-53.72262110780748
 20
30.89226073394015
 30
0.0
 40
2.621239989217093
 50
313.750840272182
 51
70.72320733173918
  0
ARC
  5
934
  8
250
 10
-53.91212705867699
 20
30.89226073394015
 30
0.0
 40
1.485852152860833
 50
297.9411040697625
 51
62.05889593023698
  0
LINE
  5
935
  8
250
 10
-54.80881008597517
 20
29.57961479860309
 30
0.0
 11
-54.80881008597517
 21
32.20490666927702
 31
0.0
  0
LINE
  5
936
  8
250
 10
-53.21591066372171
 20
28.41798122750858
 30
0.0
 11
-54.80881008597517
 21
28.41798122750858
 31
0.0
  0
LINE
  5
937
  8
250
 10
-53.21591066372171
 20
29.57961479860309
 30
0.0
 11
-54.80881008597517
 21
29.57961479860309
 31
0.0
  0
LINE
  5
938
  8
250
 10
-54.80881008597517
 20
32.20490666927702
 30
0.0
 11
-53.21591066372171
 21
32.20490666927702
 31
0.0
  0
LINE
  5
939
  8
250
 10
-54.43708734322497
 20
33.36654024037155
 30
0.0
 11
-52.85726568653651
 21
33.36654024037155
 31
0.0
  0
LINE
  5
93A
  8
250
 10
-56.20277037128867
 20
33.36654024037155
 30
0.0
 11
-52.85726568653651
 21
33.36654024037155
 31
0.0
  0
LINE
  5
93B
  8
250
 10
-39.63382841153168
 20
33.36654024037155
 30
0.0
 11
-38.05400675484324
 21
33.36654024037155
 31
0.0
  0
ARC
  5
93C
  8
250
 10
-45.22913102966984
 20
30.89226073394015
 30
0.0
 40
2.621239989217093
 50
109.2767926682608
 51
180.0
  0
ARC
  5
93D
  8
250
 10
-44.97055858071283
 20
30.89226073394015
 30
0.0
 40
1.485852152860833
 50
117.9411040697626
 51
180.0
  0
LINE
  5
93E
  8
250
 10
-45.26514314349406
 20
28.41798122750858
 30
0.0
 11
-45.26514314349406
 21
29.57961479860309
 31
0.0
  0
LINE
  5
93F
  8
250
 10
-46.45641073357347
 20
28.41798122750858
 30
0.0
 11
-46.45641073357347
 21
30.89226073394015
 31
0.0
  0
LINE
  5
940
  8
250
 10
-44.07387555341463
 20
28.41798122750858
 30
0.0
 11
-45.26514314349406
 21
28.41798122750858
 31
0.0
  0
LINE
  5
941
  8
250
 10
-45.66677497566827
 20
32.20490666927702
 30
0.0
 11
-44.8635113113202
 21
32.20490666927702
 31
0.0
  0
LINE
  5
942
  8
250
 10
-50.12639086855156
 20
33.36654024037155
 30
0.0
 11
-48.82536126892559
 21
33.36654024037155
 31
0.0
  0
LINE
  5
943
  8
250
 10
-46.09448645094152
 20
33.36654024037155
 30
0.0
 11
-44.50486633413429
 21
33.36654024037155
 31
0.0
  0
LINE
  5
944
  8
250
 10
-46.08468799082306
 20
33.36654024037155
 30
0.0
 11
-44.50486633413429
 21
33.36654024037155
 31
0.0
  0
ARC
  5
945
  8
250
 10
-45.55972770627547
 20
30.89226073394015
 30
0.0
 40
1.485852152860833
 50
0.0
 51
62.05889593023722
  0
ARC
  5
946
  8
250
 10
-45.37022175540596
 20
30.89226073394015
 30
0.0
 40
2.621239989217093
 50
0.0
 51
70.72320733173918
  0
LINE
  5
947
  8
250
 10
-44.07387555341463
 20
30.89226073394015
 30
0.0
 11
-42.74898176618901
 21
30.89226073394015
 31
0.0
  0
LINE
  5
948
  8
250
 10
-42.74898176618901
 20
29.57961479860309
 30
0.0
 11
-45.26514314349406
 21
29.57961479860309
 31
0.0
  0
LINE
  5
949
  8
250
 10
-47.8503710188868
 20
27.1053352921717
 30
0.0
 11
-47.8503710188868
 21
30.89226073394015
 31
0.0
  0
LINE
  5
94A
  8
250
 10
-44.07387555341463
 20
27.1053352921717
 30
0.0
 11
-44.07387555341463
 21
28.41798122750858
 31
0.0
  0
LINE
  5
94B
  8
250
 10
-46.45641073357347
 20
27.1053352921717
 30
0.0
 11
-46.45641073357347
 21
28.41798122750858
 31
0.0
  0
LINE
  5
94C
  8
250
 10
-42.74898176618901
 20
27.1053352921717
 30
0.0
 11
-42.74898176618901
 21
29.57961479860309
 31
0.0
  0
LINE
  5
94D
  8
250
 10
-36.44607436511001
 20
29.33787373167221
 30
0.0
 11
-34.5674763199513
 21
33.36654024037155
 31
0.0
  0
LINE
  5
94E
  8
250
 10
-38.05400675484324
 20
29.27759007011842
 30
0.0
 11
-36.14729797663974
 21
33.36654024037155
 31
0.0
  0
LINE
  5
94F
  8
250
 10
-38.05400675484324
 20
33.36654024037155
 30
0.0
 11
-38.05400675484324
 21
29.27759007011842
 31
0.0
  0
LINE
  5
950
  8
250
 10
-36.14729797663974
 20
33.36654024037155
 30
0.0
 11
-34.5674763199513
 21
33.36654024037155
 31
0.0
  0
LINE
  5
951
  8
250
 10
-32.4533186703286
 20
33.36654024037155
 30
0.0
 11
-30.63893947815856
 21
33.36654024037155
 31
0.0
  0
LINE
  5
952
  8
250
 10
-12.45042835109937
 20
25.18016579099847
 30
0.0
 11
-12.45042835109937
 21
27.83716444196124
 31
0.0
  0
LINE
  5
953
  8
250
 10
-13.84438863641232
 20
27.58160505632058
 30
0.0
 11
-13.84438863641232
 21
25.09221326147845
 31
0.0
  0
LINE
  5
954
  8
250
 10
-15.33127960741375
 20
24.63105578574014
 30
0.0
 11
-15.33127960741375
 21
28.41798122750858
 31
0.0
  0
LINE
  5
955
  8
250
 10
-16.72523989272725
 20
24.63105578574014
 30
0.0
 11
-16.72523989272725
 21
33.36654024037155
 31
0.0
  0
LINE
  5
956
  8
250
 10
-19.51316046335443
 20
25.79268935683465
 30
0.0
 11
-19.51316046335443
 21
28.41798122750858
 31
0.0
  0
LINE
  5
957
  8
250
 10
-20.90712074866758
 20
24.63105578574014
 30
0.0
 11
-20.90712074866758
 21
33.36654024037155
 31
0.0
  0
LINE
  5
958
  8
250
 10
-26.48296188992139
 20
33.36654024037155
 30
0.0
 11
-26.48296188992139
 21
24.63105578574014
 31
0.0
  0
LINE
  5
959
  8
250
 10
-21.78639358703849
 20
26.69345207808952
 30
0.0
 11
-24.0481863059723
 21
31.54388221660057
 31
0.0
  0
LINE
  5
95A
  8
250
 10
-23.11012912859176
 20
26.45371380951074
 30
0.0
 11
-25.37192184752484
 21
31.30414394802196
 31
0.0
  0
LINE
  5
95B
  8
250
 10
-17.56161606391525
 20
24.63105578574014
 30
0.0
 11
-17.56161606391525
 21
25.79268935683465
 31
0.0
  0
LINE
  5
95C
  8
250
 10
-19.51316046335443
 20
25.79268935683465
 30
0.0
 11
-17.56161606391525
 21
25.79268935683465
 31
0.0
  0
LINE
  5
95D
  8
250
 10
-16.72523989272725
 20
24.63105578574014
 30
0.0
 11
-15.33127960741375
 21
24.63105578574014
 31
0.0
  0
ARC
  5
95E
  8
250
 10
-23.53124814905777
 20
26.25734278527262
 30
0.0
 40
0.4646534284378376
 50
270.0
 51
24.99999999999865
  0
ARC
  5
95F
  8
250
 10
-23.10028493089384
 20
26.08077448246647
 30
0.0
 40
1.449718696726048
 50
270.0
 51
24.99999999999873
  0
LINE
  5
960
  8
250
 10
-25.55365503304621
 20
24.63105578574014
 30
0.0
 11
-23.10028493089384
 21
24.63105578574014
 31
0.0
  0
LINE
  5
961
  8
250
 10
-25.55365503304621
 20
25.79268935683465
 30
0.0
 11
-23.53124814905777
 21
25.79268935683465
 31
0.0
  0
LINE
  5
962
  8
250
 10
-25.55365503304621
 20
25.79268935683465
 30
0.0
 11
-25.55365503304621
 21
24.63105578574014
 31
0.0
  0
LINE
  5
963
  8
250
 10
-20.90712074866758
 20
24.63105578574014
 30
0.0
 11
-17.56161606391525
 21
24.63105578574014
 31
0.0
  0
LINE
  5
964
  8
250
 10
-13.78626894362004
 20
24.63105578574014
 30
0.0
 11
-12.30586734486503
 21
24.63105578574014
 31
0.0
  0
ARC
  5
965
  8
250
 10
-11.98577492266106
 20
25.09221326147845
 30
0.0
 40
1.858613713751346
 50
180.0
 51
194.3662353416889
  0
ARC
  5
966
  8
250
 10
-11.33526012284853
 20
25.18016579099847
 30
0.0
 40
1.115168228250807
 50
180.0
 51
209.4985180895031
  0
LINE
  5
967
  8
250
 10
-14.40197275053766
 20
29.57961479860309
 30
0.0
 11
-15.33127960741375
 21
29.57961479860309
 31
0.0
  0
LINE
  5
968
  8
250
 10
-15.33127960741375
 20
32.20490666927702
 30
0.0
 11
-14.40197275053766
 21
32.20490666927702
 31
0.0
  0
LINE
  5
969
  8
250
 10
-16.72523989272725
 20
33.36654024037155
 30
0.0
 11
-13.90014704782464
 21
33.36654024037155
 31
0.0
  0
ARC
  5
96A
  8
250
 10
-14.6807648076005
 20
27.58160505632058
 30
0.0
 40
0.8363761711881044
 50
0.0
 51
90.0
  0
LINE
  5
96B
  8
250
 10
-15.33127960741375
 20
29.57961479860309
 30
0.0
 11
-15.33127960741375
 21
32.20490666927702
 31
0.0
  0
LINE
  5
96C
  8
250
 10
-19.51316046335443
 20
29.57961479860309
 30
0.0
 11
-19.51316046335443
 21
32.20490666927702
 31
0.0
  0
LINE
  5
96D
  8
250
 10
-17.56161606391525
 20
28.41798122750858
 30
0.0
 11
-17.56161606391525
 21
29.57961479860309
 31
0.0
  0
LINE
  5
96E
  8
250
 10
-17.56161606391525
 20
28.41798122750858
 30
0.0
 11
-19.51316046335443
 21
28.41798122750858
 31
0.0
  0
LINE
  5
96F
  8
250
 10
-14.6807648076005
 20
28.41798122750858
 30
0.0
 11
-15.33127960741375
 21
28.41798122750858
 31
0.0
  0
LINE
  5
970
  8
250
 10
-17.56161606391525
 20
29.57961479860309
 30
0.0
 11
-19.51316046335443
 21
29.57961479860309
 31
0.0
  0
LINE
  5
971
  8
250
 10
-17.56161606391525
 20
32.20490666927702
 30
0.0
 11
-17.56161606391525
 21
33.36654024037155
 31
0.0
  0
LINE
  5
972
  8
250
 10
-19.51316046335443
 20
32.20490666927702
 30
0.0
 11
-17.56161606391525
 21
32.20490666927702
 31
0.0
  0
LINE
  5
973
  8
250
 10
-22.02228897691841
 20
33.36654024037155
 30
0.0
 11
-22.02228897691841
 21
32.20490666927702
 31
0.0
  0
ARC
  5
974
  8
250
 10
-24.05803050366915
 20
31.91682154364555
 30
0.0
 40
1.449718696726048
 50
90.0
 51
204.9999999999986
  0
ARC
  5
975
  8
250
 10
-23.62706728550575
 20
31.74025324083907
 30
0.0
 40
0.4646534284378376
 50
90.0
 51
204.9999999999988
  0
LINE
  5
976
  8
250
 10
-22.02228897691841
 20
32.20490666927702
 30
0.0
 11
-23.62706728550575
 21
32.20490666927666
 31
0.0
  0
LINE
  5
977
  8
250
 10
-22.02228897691841
 20
33.36654024037155
 30
0.0
 11
-24.05803050366915
 21
33.36654024037155
 31
0.0
  0
LINE
  5
978
  8
250
 10
-20.90712074866758
 20
33.36654024037155
 30
0.0
 11
-17.56161606391525
 21
33.36654024037155
 31
0.0
  0
LINE
  5
979
  8
250
 10
-13.84438863641232
 20
30.13719891272861
 30
0.0
 11
-13.84438863641232
 21
31.64732255515134
 31
0.0
  0
LINE
  5
97A
  8
250
 10
-12.45042835109937
 20
31.91682154364555
 30
0.0
 11
-12.45042835109937
 21
30.16043158415045
 31
0.0
  0
ARC
  5
97B
  8
250
 10
-14.40197275053766
 20
30.13719891272861
 30
0.0
 40
0.5575841141254037
 50
270.0
 51
0.0
  0
ARC
  5
97C
  8
250
 10
-13.61206192219335
 20
30.16043158415045
 30
0.0
 40
1.161633571094592
 50
270.0
 51
0.0
  0
ARC
  5
97D
  8
250
 10
-13.90014704782464
 20
31.91682154364555
 30
0.0
 40
1.449718696726048
 50
0.0
 51
90.0
  0
ARC
  5
97E
  8
250
 10
-14.40197275053766
 20
31.64732255515134
 30
0.0
 40
0.5575841141254037
 50
0.0
 51
90.0
  0
ARC
  5
97F
  8
250
 10
-13.61206192219335
 20
27.83716444196124
 30
0.0
 40
1.161633571094592
 50
0.0
 51
90.0
  0
LINE
  5
C34
  8
240
 10
-68.26236347500014
 20
10.95215970984323
 30
0.0
 11
-68.26236347500019
 21
-10.95215970984323
 31
0.0
  0
ARC
  5
CF1
  8
240
 10
19.53763652499984
 20
-22.72500000000002
 30
0.0
 40
0.5
 50
90.0
 51
180.0
  0
ARC
  5
CF2
  8
240
 10
19.53763652499984
 20
22.72499999999999
 30
0.0
 40
0.5
 50
180.0
 51
270.0
  0
LINE
  5
CFB
  8
240
 10
19.53763652499984
 20
-22.22500000000002
 30
0.0
 11
34.04999999999997
 21
-22.22500000000002
 31
0.0
  0
LINE
  5
CFC
  8
240
 10
34.04999999999997
 20
22.22499999999999
 30
0.0
 11
19.53763652499984
 21
22.22499999999999
 31
0.0
  0
LINE
  5
10D0
  8
240
 10
36.03763652499983
 20
-29.99999999999999
 30
0.0
 11
48.98763652499982
 21
-29.99999999999999
 31
0.0
  0
LINE
  5
10D2
  8
240
 10
48.98763652499982
 20
30.0
 30
0.0
 11
36.03763652499983
 21
30.0
 31
0.0
  0
ARC
  5
10D3
  8
240
 10
36.03763652499983
 20
29.0
 30
0.0
 40
1.0
 50
90.0
 51
180.0
  0
ARC
  5
10D4
  8
240
 10
36.03763652499983
 20
-28.99999999999999
 30
0.0
 40
1.000000000000007
 50
180.0
 51
270.0
  0
ARC
  5
10D5
  8
240
 10
48.98763652499982
 20
-28.99999999999999
 30
0.0
 40
1.000000000000007
 50
270.0
 51
0.0
  0
ARC
  5
10D6
  8
240
 10
48.98763652499982
 20
29.0
 30
0.0
 40
1.0
 50
0.0
 51
90.0
  0
ARC
  5
10D7
  8
240
 10
34.03763652499983
 20
23.22500000000001
 30
0.0
 40
1.000000000000002
 50
270.0
 51
0.0
  0
ARC
  5
10D8
  8
240
 10
34.03763652499983
 20
-23.22499999999999
 30
0.0
 40
1.0
 50
0.0
 51
90.0
  0
ARC
  5
10E7
  8
240
 10
50.18763652499984
 20
-11.2
 30
0.0
 40
0.4000000000000069
 50
75.0000000000014
 51
120.0000000000014
  0
ARC
  5
10E8
  8
240
 10
50.18763652499984
 20
11.2
 30
0.0
 40
0.4000000000000063
 50
239.9999999999978
 51
284.9999999999985
  0
ARC
  5
10E9
  8
240
 10
66.48763652499983
 20
-9.5
 30
0.0
 40
1.500000000000011
 50
270.0
 51
0.0
  0
ARC
  5
10EA
  8
240
 10
66.48763652499983
 20
9.5
 30
0.0
 40
1.500000000000014
 50
0.0
 51
90.0
  0
LINE
  5
10EB
  8
240
 10
50.98670768549982
 20
11.0
 30
0.0
 11
50.29116414299983
 21
10.8136296695
 31
0.0
  0
LINE
  5
10EC
  8
240
 10
50.29116414299983
 20
-10.8136296695
 30
0.0
 11
50.98670768549982
 21
-11.0
 31
0.0
  0
LINE
  5
10ED
  8
240
 10
50.98670768549982
 20
-11.0
 30
0.0
 11
66.48763652499983
 21
-11.0
 31
0.0
  0
LINE
  5
10EE
  8
240
 10
66.48763652499983
 20
11.0
 30
0.0
 11
50.98670768549982
 21
11.0
 31
0.0
  0
CIRCLE
  5
1103
  8
240
 10
42.48763652499982
 20
0.0
 30
0.0
 40
1.624999999999886
  0
LINE
  5
1104
  8
240
 10
35.03763652499983
 20
-28.99999999999999
 30
0.0
 11
35.03763652499983
 21
29.0
 31
0.0
  0
LINE
  5
1105
  8
240
 10
49.98763652499982
 20
0.0
 30
0.0
 11
49.98763652499982
 21
29.0
 31
0.0
  0
LINE
  5
1106
  8
240
 10
49.98763652499982
 20
-28.99999999999999
 30
0.0
 11
49.98763652499982
 21
0.0
 31
0.0
  0
LINE
  5
1113
  8
240
 10
67.98763652499983
 20
0.0
 30
0.0
 11
67.98763652499983
 21
9.5
 31
0.0
  0
LINE
  5
1114
  8
240
 10
67.98763652499983
 20
-9.5
 30
0.0
 11
67.98763652499983
 21
0.0
 31
0.0
  0
LINE
  5
1115
  8
240
 10
50.98670768549982
 20
0.0
 30
0.0
 11
50.98670768549982
 21
11.0
 31
0.0
  0
LINE
  5
1116
  8
240
 10
50.98670768549982
 20
-11.0
 30
0.0
 11
50.98670768549982
 21
0.0
 31
0.0
  0
LINE
  5
1117
  8
240
 10
54.98763652499982
 20
15.0
 30
0.0
 11
49.98763652499982
 21
15.0
 31
0.0
  0
LINE
  5
1118
  8
240
 10
54.98763652499982
 20
25.0
 30
0.0
 11
54.98763652499982
 21
15.0
 31
0.0
  0
LINE
  5
1119
  8
240
 10
54.98763652499982
 20
25.0
 30
0.0
 11
49.98763652499982
 21
25.0
 31
0.0
  0
LINE
  5
111A
  8
240
 10
54.98763652499982
 20
-15.0
 30
0.0
 11
54.98763652499982
 21
-24.99999999999999
 31
0.0
  0
LINE
  5
111B
  8
240
 10
54.98763652499982
 20
-24.99999999999999
 30
0.0
 11
49.98763652499982
 21
-24.99999999999999
 31
0.0
  0
LINE
  5
111C
  8
240
 10
54.98763652499982
 20
-15.0
 30
0.0
 11
49.98763652499982
 21
-15.0
 31
0.0
  0
LINE
  5
111D
  8
240
 10
42.92064922689982
 20
0.75
 30
0.0
 11
43.35366192879982
 21
0.0
 31
0.0
  0
LINE
  5
111E
  8
240
 10
42.05462382309982
 20
0.75
 30
0.0
 11
42.92064922689982
 21
0.75
 31
0.0
  0
LINE
  5
111F
  8
240
 10
42.05462382309982
 20
0.75
 30
0.0
 11
41.62161112119983
 21
0.0
 31
0.0
  0
LINE
  5
1120
  8
240
 10
42.05462382309982
 20
-0.75
 30
0.0
 11
41.62161112119983
 21
0.0
 31
0.0
  0
CIRCLE
  5
1121
  8
240
 10
42.48763652499982
 20
0.0
 30
0.0
 40
1.219500000000011
  0
LINE
  5
1122
  8
240
 10
42.92064922689982
 20
-0.75
 30
0.0
 11
43.35366192879982
 21
0.0
 31
0.0
  0
LINE
  5
1123
  8
240
 10
42.05462382309982
 20
-0.75
 30
0.0
 11
42.92064922689982
 21
-0.75
 31
0.0
  0
CIRCLE
  5
1124
  8
240
 10
42.48763652499982
 20
0.0
 30
0.0
 40
1.5
  0
CIRCLE
  5
1129
  8
243
 10
42.48763652499982
 20
0.0
 30
0.0
 40
1.25
  0
LINE
  5
112C
  8
243
 10
40.98763652499982
 20
1.25
 30
0.0
 11
40.98763652499982
 21
0.5771939796999987
 31
0.0
  0
LINE
  5
112D
  8
243
 10
40.98763652499982
 20
-0.5857407467999991
 30
0.0
 11
40.98763652499982
 21
-1.25
 31
0.0
  0
LINE
  5
112E
  8
243
 10
-66.53031266740018
 20
0.0
 30
0.0
 11
-66.53031266740018
 21
8.150000000000006
 31
0.0
  0
LINE
  5
112F
  8
243
 10
-66.53031266740018
 20
-8.149999999999991
 30
0.0
 11
-66.53031266740018
 21
0.0
 31
0.0
  0
LINE
  5
1130
  8
243
 10
-63.49236347500018
 20
0.0
 30
0.0
 11
-63.49236347500018
 21
8.150000000000006
 31
0.0
  0
LINE
  5
1131
  8
243
 10
-63.49236347500018
 20
-8.149999999999991
 30
0.0
 11
-63.49236347500018
 21
0.0
 31
0.0
  0
LINE
  5
1134
  8
243
 10
-8.262363475000178
 20
0.0
 30
0.0
 11
-8.262363475000178
 21
6.688000000000002
 31
0.0
  0
LINE
  5
1135
  8
243
 10
-8.262363475000178
 20
-6.688000000000002
 30
0.0
 11
-8.262363475000178
 21
0.0
 31
0.0
  0
LINE
  5
1136
  8
243
 10
-6.797465285800179
 20
0.0
 30
0.0
 11
-6.797465285800179
 21
-4.25
 31
0.0
  0
LINE
  5
1137
  8
243
 10
-6.797465285800179
 20
4.25
 30
0.0
 11
-6.797465285800179
 21
0.0
 31
0.0
  0
LINE
  5
113A
  8
243
 10
67.12161112119983
 20
0.0
 30
0.0
 11
67.12161112119983
 21
-5.5
 31
0.0
  0
LINE
  5
113B
  8
243
 10
67.12161112119983
 20
5.5
 30
0.0
 11
67.12161112119983
 21
0.0
 31
0.0
  0
LINE
  5
113C
  8
243
 10
64.98763652499983
 20
5.5
 30
0.0
 11
64.98763652499983
 21
-5.5
 31
0.0
  0
LINE
  5
113F
  8
243
 10
47.98763652499982
 20
5.0
 30
0.0
 11
47.98763652499982
 21
-5.0
 31
0.0
  0
CIRCLE
  5
1184
  8
243
 10
42.48763652499982
 20
0.0
 30
0.0
 40
1.0
  0
LINE
  5
1188
  8
243
 10
49.98763652499982
 20
11.99907116060001
 30
0.0
 11
49.80126619449984
 21
11.30352761810001
 31
0.0
  0
LINE
  5
1189
  8
243
 10
49.80126619449984
 20
-11.30352761799999
 30
0.0
 11
49.98763652499982
 21
-11.99907116049999
 31
0.0
  0
ARC
  5
118A
  8
243
 10
50.18763652499984
 20
-11.2
 30
0.0
 40
0.4000000000000051
 50
166.8749999999988
 51
194.9999999999986
  0
ARC
  5
118B
  8
243
 10
50.18763652499984
 20
-11.2
 30
0.0
 40
0.4000000000000069
 50
120.0000000000014
 51
166.8749999999988
  0
ARC
  5
118C
  8
243
 10
50.18763652499984
 20
11.2
 30
0.0
 40
0.4000000000000057
 50
164.9999999999995
 51
180.0
  0
ARC
  5
118D
  8
243
 10
50.18763652499984
 20
11.2
 30
0.0
 40
0.4000000000000063
 50
180.0
 51
239.9999999999978
  0
LINE
  5
118E
  8
243
 10
49.78763652499983
 20
11.2
 30
0.0
 11
49.78763652499983
 21
-11.2
 31
0.0
  0
LINE
  5
118F
  8
243
 10
42.48763652499982
 20
1.25
 30
0.0
 11
40.98763652499982
 21
1.25
 31
0.0
  0
LINE
  5
1190
  8
243
 10
40.98763652499982
 20
-1.25
 30
0.0
 11
42.48763652499982
 21
-1.25
 31
0.0
  0
LINE
  5
1191
  8
243
 10
67.98763652499983
 20
1.25
 30
0.0
 11
42.48763652499982
 21
1.25
 31
0.0
  0
LINE
  5
1192
  8
243
 10
42.48763652499982
 20
-1.25
 30
0.0
 11
67.98763652499983
 21
-1.25
 31
0.0
  0
LINE
  5
1193
  8
243
 10
40.98763652499982
 20
1.25
 30
0.0
 11
40.23656075119984
 21
0.0
 31
0.0
  0
LINE
  5
1194
  8
243
 10
40.23656075119984
 20
0.0
 30
0.0
 11
40.98763652499982
 21
-1.25
 31
0.0
  0
LINE
  5
1195
  8
243
 10
-68.26236347500017
 20
-9.149999999999991
 30
0.0
 11
-66.53031266740018
 21
-8.149999999999991
 31
0.0
  0
LINE
  5
1196
  8
243
 10
-66.53031266740018
 20
8.150000000000006
 30
0.0
 11
-68.26236347500017
 21
9.150000000000006
 31
0.0
  0
LINE
  5
1197
  8
243
 10
-66.53031266740018
 20
-8.149999999999991
 30
0.0
 11
-63.49236347500018
 21
-8.149999999999991
 31
0.0
  0
LINE
  5
1198
  8
243
 10
-63.49236347500018
 20
8.150000000000006
 30
0.0
 11
-66.53031266740018
 21
8.150000000000006
 31
0.0
  0
LINE
  5
1199
  8
243
 10
-63.49236347500018
 20
-6.688000000000002
 30
0.0
 11
-8.262363475000178
 21
-6.688000000000002
 31
0.0
  0
LINE
  5
119A
  8
243
 10
-8.262363475000178
 20
6.688000000000002
 30
0.0
 11
-63.49236347500018
 21
6.688000000000002
 31
0.0
  0
LINE
  5
119B
  8
243
 10
-8.262363475000178
 20
-6.688000000000002
 30
0.0
 11
-6.797465285800179
 21
-4.25
 31
0.0
  0
LINE
  5
119C
  8
243
 10
-6.797465285800179
 20
4.25
 30
0.0
 11
-8.262363475000178
 21
6.688000000000002
 31
0.0
  0
LINE
  5
119F
  8
243
 10
67.98763652499983
 20
6.0
 30
0.0
 11
67.12161112119983
 21
5.5
 31
0.0
  0
LINE
  5
11A0
  8
243
 10
67.12161112119983
 20
-5.5
 30
0.0
 11
67.98763652499983
 21
-6.0
 31
0.0
  0
LINE
  5
11A1
  8
243
 10
67.12161112119983
 20
5.5
 30
0.0
 11
64.98763652499983
 21
5.5
 31
0.0
  0
LINE
  5
11A2
  8
243
 10
64.98763652499983
 20
-5.5
 30
0.0
 11
67.12161112119983
 21
-5.5
 31
0.0
  0
LINE
  5
11A7
  8
243
 10
64.98763652499983
 20
5.0
 30
0.0
 11
47.98763652499982
 21
5.0
 31
0.0
  0
LINE
  5
11A8
  8
243
 10
47.98763652499982
 20
-5.0
 30
0.0
 11
64.98763652499983
 21
-5.0
 31
0.0
  0
LINE
  5
11AD
  8
243
 10
47.98763652499982
 20
4.25
 30
0.0
 11
-6.797465285800179
 21
4.25
 31
0.0
  0
LINE
  5
11AE
  8
243
 10
-6.797465285800179
 20
-4.25
 30
0.0
 11
47.98763652499982
 21
-4.25
 31
0.0
  0
DIMENSION
  5
11E3
  8
250
  2
*D6
 10
49.98763652499982
 20
-40.74425161226871
 30
0.0
 11
65.13049366785697
 21
-40.74425161226871
 31
0.0
 70
   160
  3
STANDARD
 13
54.98763652499982
 23
-24.99999999999999
 33
0.0
 14
49.98763652499982
 24
-28.99999999999999
 34
0.0
1001
ACAD
1000
DSTYLE
1002
{
1070
   271
1070
     1
1070
   147
1040
1.0
1070
   140
1040
3.0
1070
    41
1040
3.0
1002
}
  0
DIMENSION
  5
11F7
  8
250
  2
*D7
 10
96.6698205749502
 20
-30.0
 30
0.0
 11
94.1698205749502
 21
0.0000000000000036
 31
0.0
 70
    32
  1
%%c<>
  3
STANDARD
 13
48.98763652499982
 23
30.0
 33
0.0
 14
48.98763652499982
 24
-29.99999999999999
 34
0.0
 50
90.0
1001
ACAD
1000
DSTYLE
1002
{
1070
   271
1070
     1
1070
   147
1040
1.0
1070
   140
1040
3.0
1070
    41
1040
3.0
1002
}
  0
ENDSEC
  0
EOF
