  0
SECTION
  2
HEADER
  9
$ACADVER
  1
AC1009
  9
$DWGCODEPAGE
  3
ansi_1252
  9
$INSBASE
 10
0.0
 20
0.0
 30
0.0
  9
$EXTMIN
 10
-68.25000000000003
 20
-48.27109509650273
 30
0.0
  9
$EXTMAX
 10
115.4900741643708
 20
50.83203563714093
 30
0.0
  9
$LIMMIN
 10
0.0
 20
0.0
  9
$LIMMAX
 10
420.0
 20
297.0
  9
$ORTHOMODE
 70
     1
  9
$REGENMODE
 70
     1
  9
$FILLMODE
 70
     1
  9
$QTEXTMODE
 70
     0
  9
$MIRRTEXT
 70
     0
  9
$DRAGMODE
 70
     2
  9
$LTSCALE
 40
1.0
  9
$OSMODE
 70
   511
  9
$ATTMODE
 70
     1
  9
$TEXTSIZE
 40
2.5
  9
$TRACEWID
 40
1.0
  9
$TEXTSTYLE
  7
STANDARD
  9
$CLAYER
  8
0
  9
$CELTYPE
  6
BYLAYER
  9
$CECOLOR
 62
   256
  9
$DIMSCALE
 40
1.0
  9
$DIMASZ
 40
2.5
  9
$DIMEXO
 40
0.625
  9
$DIMDLI
 40
3.75
  9
$DIMRND
 40
0.0
  9
$DIMDLE
 40
0.0
  9
$DIMEXE
 40
1.25
  9
$DIMTP
 40
0.0
  9
$DIMTM
 40
0.0
  9
$DIMTXT
 40
2.5
  9
$DIMCEN
 40
2.5
  9
$DIMTSZ
 40
0.0
  9
$DIMTOL
 70
     0
  9
$DIMLIM
 70
     0
  9
$DIMTIH
 70
     0
  9
$DIMTOH
 70
     0
  9
$DIMSE1
 70
     0
  9
$DIMSE2
 70
     0
  9
$DIMTAD
 70
     1
  9
$DIMZIN
 70
     8
  9
$DIMBLK
  1

  9
$DIMASO
 70
     1
  9
$DIMSHO
 70
     1
  9
$DIMPOST
  1

  9
$DIMAPOST
  1

  9
$DIMALT
 70
     0
  9
$DIMALTD
 70
     3
  9
$DIMALTF
 40
0.03937007874016
  9
$DIMLFAC
 40
1.0
  9
$DIMTOFL
 70
     1
  9
$DIMTVP
 40
0.0
  9
$DIMTIX
 70
     0
  9
$DIMSOXD
 70
     0
  9
$DIMSAH
 70
     0
  9
$DIMBLK1
  1

  9
$DIMBLK2
  1

  9
$DIMSTYLE
  2
ISO-25
  9
$DIMCLRD
 70
     0
  9
$DIMCLRE
 70
     0
  9
$DIMCLRT
 70
     0
  9
$DIMTFAC
 40
1.0
  9
$DIMGAP
 40
0.625
  9
$LUNITS
 70
     2
  9
$LUPREC
 70
     3
  9
$SKETCHINC
 40
1.0
  9
$FILLETRAD
 40
10.0
  9
$AUNITS
 70
     0
  9
$AUPREC
 70
     0
  9
$MENU
  1
.
  9
$ELEVATION
 40
0.0
  9
$PELEVATION
 40
0.0
  9
$THICKNESS
 40
0.0
  9
$LIMCHECK
 70
     0
  9
$CHAMFERA
 40
10.0
  9
$CHAMFERB
 40
10.0
  9
$SKPOLY
 70
     0
  9
$TDCREATE
 40
2455022.429026158
  9
$TDUPDATE
 40
2458696.64149794
  9
$TDINDWG
 40
0.0034071875
  9
$TDUSRTIMER
 40
0.0010085995
  9
$USRTIMER
 70
     1
  9
$ANGBASE
 50
0.0
  9
$ANGDIR
 70
     0
  9
$PDMODE
 70
     0
  9
$PDSIZE
 40
0.0
  9
$PLINEWID
 40
0.0
  9
$COORDS
 70
     1
  9
$SPLFRAME
 70
     0
  9
$SPLINETYPE
 70
     6
  9
$SPLINESEGS
 70
     8
  9
$ATTDIA
 70
     0
  9
$ATTREQ
 70
     1
  9
$HANDLING
 70
     1
  9
$HANDSEED
  5
1DEF
  9
$SURFTAB1
 70
     6
  9
$SURFTAB2
 70
     6
  9
$SURFTYPE
 70
     6
  9
$SURFU
 70
     6
  9
$SURFV
 70
     6
  9
$UCSNAME
  2

  9
$UCSORG
 10
0.0
 20
0.0
 30
0.0
  9
$UCSXDIR
 10
1.0
 20
0.0
 30
0.0
  9
$UCSYDIR
 10
0.0
 20
1.0
 30
0.0
  9
$PUCSNAME
  2

  9
$PUCSORG
 10
0.0
 20
0.0
 30
0.0
  9
$PUCSXDIR
 10
1.0
 20
0.0
 30
0.0
  9
$PUCSYDIR
 10
0.0
 20
1.0
 30
0.0
  9
$USERI1
 70
     0
  9
$USERI2
 70
     0
  9
$USERI3
 70
     0
  9
$USERI4
 70
     0
  9
$USERI5
 70
     0
  9
$USERR1
 40
0.0
  9
$USERR2
 40
0.0
  9
$USERR3
 40
0.0
  9
$USERR4
 40
0.0
  9
$USERR5
 40
0.0
  9
$WORLDVIEW
 70
     1
  9
$SHADEDGE
 70
     3
  9
$SHADEDIF
 70
    70
  9
$TILEMODE
 70
     1
  9
$MAXACTVP
 70
    64
  9
$PLIMCHECK
 70
     0
  9
$PEXTMIN
 10
1.000000000000000E+20
 20
1.000000000000000E+20
 30
1.000000000000000E+20
  9
$PEXTMAX
 10
-1.000000000000000E+20
 20
-1.000000000000000E+20
 30
-1.000000000000000E+20
  9
$PLIMMIN
 10
0.0
 20
0.0
  9
$PLIMMAX
 10
0.0
 20
0.0
  9
$UNITMODE
 70
     0
  9
$VISRETAIN
 70
     1
  9
$PLINEGEN
 70
     0
  9
$PSLTSCALE
 70
     1
  0
ENDSEC
  0
SECTION
  2
TABLES
  0
TABLE
  2
VPORT
 70
     1
  0
VPORT
  2
*ACTIVE
 70
     0
 10
0.0
 20
0.0
 11
1.0
 21
1.0
 12
157.8069529700358
 22
1.280470270319107
 13
0.0
 23
0.0
 14
10.0
 24
10.0
 15
10.0
 25
10.0
 16
0.0
 26
0.0
 36
1.0
 17
-134.1869158878504
 27
0.0
 37
0.0
 40
101.0851933483165
 41
2.794759825327511
 42
50.0
 43
0.0
 44
0.0
 50
0.0
 51
0.0
 71
    16
 72
  1000
 73
     1
 74
     3
 75
     0
 76
     0
 77
     0
 78
     0
  0
ENDTAB
  0
TABLE
  2
LTYPE
 70
     6
  0
LTYPE
  2
CONTINUOUS
 70
     0
  3
Solid line
 72
    65
 73
     0
 40
0.0
  0
LTYPE
  2
CENTER
 70
     0
  3
 Center _____  _  _____  _  _____  _  _____  _ 
 72
    65
 73
     4
 40
50.8
 49
31.75
 49
-6.35
 49
6.35
 49
-6.35
  0
LTYPE
  2
DASHED
 70
     0
  3
Dashed __  __  __  __  __  __  __  __  __  __  
 72
    65
 73
     2
 40
19.05
 49
12.7
 49
-6.35
  0
LTYPE
  2
HIDDEN
 70
     0
  3
Hidden __ __ __ __ __ __ __ __ __ __ __ __ __ __
 72
    65
 73
     2
 40
1.905
 49
1.27
 49
-0.635
  0
LTYPE
  2
CENTERX2
 70
     0
  3
Center (2x) ________  __  ________  __  _____
 72
    65
 73
     4
 40
20.32
 49
12.7
 49
-2.54
 49
2.54
 49
-2.54
  0
LTYPE
  2
PHANTOM
 70
     0
  3
Phantom ______  __  __  ______  __  __  ______
 72
    65
 73
     6
 40
12.7
 49
6.35
 49
-1.27
 49
1.27
 49
-1.27
 49
1.27
 49
-1.27
  0
ENDTAB
  0
TABLE
  2
LAYER
 70
    26
  0
LAYER
  2
0
 70
     0
 62
     7
  6
CONTINUOUS
  0
LAYER
  2
1
 70
     0
 62
     4
  6
CONTINUOUS
  0
LAYER
  2
2
 70
     0
 62
     7
  6
CONTINUOUS
  0
LAYER
  2
3
 70
     0
 62
     1
  6
DASHED
  0
LAYER
  2
4
 70
     0
 62
     2
  6
CENTER
  0
LAYER
  2
6
 70
     0
 62
     5
  6
CONTINUOUS
  0
LAYER
  2
7
 70
     0
 62
     5
  6
CONTINUOUS
  0
LAYER
  2
11
 70
     0
 62
     4
  6
CONTINUOUS
  0
LAYER
  2
SK1
 70
     0
 62
     4
  6
CONTINUOUS
  0
LAYER
  2
SK2
 70
     0
 62
     7
  6
CONTINUOUS
  0
LAYER
  2
SK3
 70
     0
 62
     1
  6
DASHED
  0
LAYER
  2
SK4
 70
     0
 62
     2
  6
CENTER
  0
LAYER
  2
SK6
 70
     0
 62
     5
  6
CONTINUOUS
  0
LAYER
  2
SK7
 70
     0
 62
     5
  6
CONTINUOUS
  0
LAYER
  2
SK11
 70
     0
 62
     4
  6
CONTINUOUS
  0
LAYER
  2
CUT
 70
     0
 62
     1
  6
CONTINUOUS
  0
LAYER
  2
NOCUT
 70
     0
 62
    -7
  6
CONTINUOUS
  0
LAYER
  2
SKVIEW1
 70
     0
 62
     4
  6
CONTINUOUS
  0
LAYER
  2
SKVIEW2
 70
     0
 62
     7
  6
CONTINUOUS
  0
LAYER
  2
SKVIEW3
 70
     0
 62
     1
  6
DASHED
  0
LAYER
  2
SKVIEW4
 70
     0
 62
     2
  6
CENTER
  0
LAYER
  2
SKVIEW6
 70
     0
 62
     5
  6
CONTINUOUS
  0
LAYER
  2
SKVIEW7
 70
     0
 62
     5
  6
CONTINUOUS
  0
LAYER
  2
SKVIEW11
 70
     0
 62
     4
  6
CONTINUOUS
  0
LAYER
  2
INFTOTAL
 70
     0
 62
     9
  6
CONTINUOUS
  0
LAYER
  2
DEFPOINTS
 70
     0
 62
     7
  6
CONTINUOUS
  0
ENDTAB
  0
TABLE
  2
STYLE
 70
     1
  0
STYLE
  2
STANDARD
 70
     0
 40
0.0
 41
1.0
 50
0.0
 71
     0
 42
2.5
  3
txt
  4

  0
ENDTAB
  0
TABLE
  2
VIEW
 70
     0
  0
ENDTAB
  0
TABLE
  2
UCS
 70
     0
  0
ENDTAB
  0
TABLE
  2
APPID
 70
     2
  0
APPID
  2
ACAD
 70
     0
  0
APPID
  2
ACAECLAYERSTANDARD
 70
     0
  0
ENDTAB
  0
TABLE
  2
DIMSTYLE
 70
     1
  0
DIMSTYLE
  2
ISO-25
 70
     0
  3

  4

  5

  6

  7

 40
1.0
 41
2.5
 42
0.625
 43
3.75
 44
1.25
 45
0.0
 46
0.0
 47
0.0
 48
0.0
140
2.5
141
2.5
142
0.0
143
0.03937007874016
144
1.0
145
0.0
146
1.0
147
0.625
 71
     0
 72
     0
 73
     0
 74
     0
 75
     0
 76
     0
 77
     1
 78
     8
170
     0
171
     3
172
     1
173
     0
174
     0
175
     0
176
     0
177
     0
178
     0
  0
ENDTAB
  0
ENDSEC
  0
SECTION
  2
BLOCKS
  0
BLOCK
  8
0
  2
$MODEL_SPACE
 70
     0
 10
0.0
 20
0.0
 30
0.0
  3
$MODEL_SPACE
  1

  0
ENDBLK
  5
21
  8
0
  0
BLOCK
 67
     1
  8
0
  2
$PAPER_SPACE
 70
     0
 10
0.0
 20
0.0
 30
0.0
  3
$PAPER_SPACE
  1

  0
ENDBLK
  5
1D
 67
     1
  8
0
  0
BLOCK
  8
0
  2
_FILLED
 70
     0
 10
0.0
 20
0.0
 30
0.0
  3
_FILLED
  1

  0
SOLID
  5
1C4
  8
0
  6
BYBLOCK
 62
     0
 10
0.0
 20
0.0
 30
0.0
 11
-1.0
 21
0.2142857143
 31
0.0
 12
-1.0
 22
-0.2142857143
 32
0.0
 13
-1.0
 23
-0.2142857143
 33
0.0
  0
ENDBLK
  5
1C5
  8
0
  6
BYBLOCK
 62
     0
  0
BLOCK
  8
0
  2
*D5
 70
     1
 10
0.0
 20
0.0
 30
0.0
  3
*D5
  1

  0
LINE
  5
1D3
  8
2
 62
     0
 10
0.0
 20
22.84999999999999
 30
0.0
 11
0.0
 21
48.91573065769793
 31
0.0
  0
LINE
  5
1D4
  8
2
 62
     0
 10
49.99999999999999
 20
23.125
 30
0.0
 11
49.99999999999999
 21
48.91573065769793
 31
0.0
  0
LINE
  5
1D5
  8
2
 62
     0
 10
2.5
 20
47.66573065769793
 30
0.0
 11
47.49999999999999
 21
47.66573065769793
 31
0.0
  0
SOLID
  5
1D6
  8
2
 62
     0
 10
2.5
 20
48.08239732436459
 30
0.0
 11
2.5
 21
47.24906399103126
 31
0.0
 12
0.0
 22
47.66573065769793
 32
0.0
 13
0.0
 23
47.66573065769793
 33
0.0
  0
SOLID
  5
1D7
  8
2
 62
     0
 10
47.49999999999999
 20
47.24906399103126
 30
0.0
 11
47.49999999999999
 21
48.08239732436459
 31
0.0
 12
49.99999999999999
 22
47.66573065769793
 32
0.0
 13
49.99999999999999
 23
47.66573065769793
 33
0.0
  0
TEXT
  5
1D8
  8
2
  6
CONTINUOUS
 62
     0
 10
23.12499999999999
 20
48.29073065769793
 30
0.0
 40
2.5
  1
50
  0
POINT
  5
1D9
  8
DEFPOINTS
 62
     0
 10
0.0
 20
22.22499999999999
 30
0.0
  0
POINT
  5
1DA
  8
DEFPOINTS
 62
     0
 10
49.99999999999999
 20
22.5
 30
0.0
  0
POINT
  5
1DB
  8
DEFPOINTS
 62
     0
 10
49.99999999999999
 20
47.66573065769793
 30
0.0
  0
ENDBLK
  5
1DD
  8
0
  0
BLOCK
  8
0
  2
*D9
 70
     1
 10
0.0
 20
0.0
 30
0.0
  3
*D9
  1

  0
LINE
  5
211
  8
SK2
 62
     0
 10
0.0
 20
-22.84999999999999
 30
0.0
 11
0.0
 21
-48.27109509650273
 31
0.0
  0
LINE
  5
212
  8
SK2
 62
     0
 10
35.04999999999994
 20
-23.625
 30
0.0
 11
35.04999999999994
 21
-48.27109509650273
 31
0.0
  0
LINE
  5
213
  8
SK2
 62
     0
 10
2.5
 20
-47.02109509650273
 30
0.0
 11
32.54999999999994
 21
-47.02109509650273
 31
0.0
  0
SOLID
  5
214
  8
SK2
 62
     0
 10
2.5
 20
-46.60442842983606
 30
0.0
 11
2.5
 21
-47.43776176316939
 31
0.0
 12
0.0
 22
-47.02109509650273
 32
0.0
 13
0.0
 23
-47.02109509650273
 33
0.0
  0
SOLID
  5
215
  8
SK2
 62
     0
 10
32.54999999999994
 20
-47.43776176316939
 30
0.0
 11
32.54999999999994
 21
-46.60442842983606
 31
0.0
 12
35.04999999999994
 22
-47.02109509650273
 32
0.0
 13
35.04999999999994
 23
-47.02109509650273
 33
0.0
  0
TEXT
  5
216
  8
SK2
  6
CONTINUOUS
 62
     0
 10
12.7333333333333
 20
-46.39609509650273
 30
0.0
 40
2.5
  1
35.05
  0
POINT
  5
217
  8
DEFPOINTS
 62
     0
 10
0.0
 20
-22.22499999999999
 30
0.0
  0
POINT
  5
218
  8
DEFPOINTS
 62
     0
 10
35.04999999999994
 20
-23.0
 30
0.0
  0
POINT
  5
219
  8
DEFPOINTS
 62
     0
 10
35.04999999999994
 20
-47.02109509650273
 30
0.0
  0
ENDBLK
  5
21B
  8
0
  0
BLOCK
  8
0
  2
*D18
 70
     1
 10
0.0
 20
0.0
 30
0.0
  3
*D18
  1

  0
LINE
  5
119E
  8
SK2
 62
     0
 10
67.12499999999999
 20
11.0
 30
0.0
 11
99.74609208537532
 21
10.99999999999999
 31
0.0
  0
LINE
  5
119F
  8
SK2
 62
     0
 10
67.12499999999999
 20
-11.00000000000011
 30
0.0
 11
99.74609208537532
 21
-11.00000000000012
 31
0.0
  0
LINE
  5
11A0
  8
SK2
 62
     0
 10
98.49609208537532
 20
8.499999999999995
 30
0.0
 11
98.49609208537532
 21
-8.500000000000115
 31
0.0
  0
SOLID
  5
11A1
  8
SK2
 62
     0
 10
98.912758752042
 20
8.499999999999995
 30
0.0
 11
98.07942541870865
 21
8.499999999999995
 31
0.0
 12
98.49609208537532
 22
10.99999999999999
 32
0.0
 13
98.49609208537532
 23
10.99999999999999
 33
0.0
  0
SOLID
  5
11A2
  8
SK2
 62
     0
 10
98.07942541870865
 20
-8.500000000000115
 30
0.0
 11
98.912758752042
 21
-8.500000000000115
 31
0.0
 12
98.49609208537532
 22
-11.00000000000012
 32
0.0
 13
98.49609208537532
 23
-11.00000000000012
 33
0.0
  0
TEXT
  5
11A3
  8
SK2
  6
CONTINUOUS
 62
     0
 10
97.87109208537532
 20
-2.083333333333385
 30
0.0
 40
2.5
  1
22
 50
90.0
  0
POINT
  5
11A4
  8
DEFPOINTS
 62
     0
 10
66.49999999999999
 20
11.0
 30
0.0
  0
POINT
  5
11A5
  8
DEFPOINTS
 62
     0
 10
66.49999999999999
 20
-11.00000000000011
 30
0.0
  0
POINT
  5
11A6
  8
DEFPOINTS
 62
     0
 10
98.49609208537532
 20
-11.00000000000012
 30
0.0
  0
ENDBLK
  5
119D
  8
0
  0
BLOCK
  8
0
  2
*D19
 70
     1
 10
0.0
 20
0.0
 30
0.0
  3
*D19
  1

  0
LINE
  5
11AD
  8
SK2
 62
     0
 10
49.62499999999999
 20
23.5
 30
0.0
 11
115.4900741643708
 21
23.49999999999999
 31
0.0
  0
LINE
  5
11AE
  8
SK2
 62
     0
 10
49.62499999999999
 20
-23.5
 30
0.0
 11
115.4900741643708
 21
-23.5
 31
0.0
  0
LINE
  5
11AF
  8
SK2
 62
     0
 10
114.2400741643708
 20
20.99999999999999
 30
0.0
 11
114.2400741643708
 21
-21.0
 31
0.0
  0
SOLID
  5
11B0
  8
SK2
 62
     0
 10
114.6567408310374
 20
20.99999999999999
 30
0.0
 11
113.8234074977041
 21
20.99999999999999
 31
0.0
 12
114.2400741643708
 22
23.49999999999999
 32
0.0
 13
114.2400741643708
 23
23.49999999999999
 33
0.0
  0
SOLID
  5
11B1
  8
SK2
 62
     0
 10
113.8234074977041
 20
-21.0
 30
0.0
 11
114.6567408310374
 21
-21.0
 31
0.0
 12
114.2400741643708
 22
-23.5
 32
0.0
 13
114.2400741643708
 23
-23.5
 33
0.0
  0
TEXT
  5
11B2
  8
SK2
  6
CONTINUOUS
 62
     0
 10
113.6150741643708
 20
-2.083333333333329
 30
0.0
 40
2.5
  1
47
 50
90.0
  0
POINT
  5
11B3
  8
DEFPOINTS
 62
     0
 10
48.99999999999999
 20
23.5
 30
0.0
  0
POINT
  5
11B4
  8
DEFPOINTS
 62
     0
 10
48.99999999999999
 20
-23.5
 30
0.0
  0
POINT
  5
11B5
  8
DEFPOINTS
 62
     0
 10
114.2400741643708
 20
-23.5
 30
0.0
  0
ENDBLK
  5
11AC
  8
0
  0
ENDSEC
  0
SECTION
  2
ENTITIES
  0
LINE
  5
1B2
  8
4
 10
49.99999999999999
 20
-0.0000000034308264
 30
0.0
 11
0.0
 21
0.0
 31
0.0
  0
DIMENSION
  5
1CF
  8
2
  2
*D5
 10
49.99999999999999
 20
47.66573065769793
 30
0.0
 11
24.99999999999999
 21
49.54073065769793
 31
0.0
 70
    32
  3
ISO-25
 13
0.0
 23
22.22499999999999
 33
0.0
 14
49.99999999999999
 24
22.5
 34
0.0
  0
DIMENSION
  5
20D
  8
SK2
  2
*D9
 10
35.04999999999994
 20
-47.02109509650273
 30
0.0
 11
17.52499999999997
 21
-45.14609509650273
 31
0.0
 70
    32
  3
ISO-25
 13
0.0
 23
-22.22499999999999
 33
0.0
 14
35.04999999999994
 24
-23.0
 34
0.0
  0
LINE
  5
364
  8
NOCUT
 10
49.99999999999999
 20
-0.0000000034308264
 30
0.0
 11
0.0
 21
0.0
 31
0.0
  0
LINE
  5
99D
  8
SK3
 10
-66.51794919240001
 20
0.0
 30
0.0
 11
-66.51794919240001
 21
8.149999999999991
 31
0.0
  0
LINE
  5
99E
  8
SK3
 10
-66.51794919240001
 20
-8.149999999999991
 30
0.0
 11
-66.51794919240001
 21
0.0
 31
0.0
  0
LINE
  5
99F
  8
SK3
 10
-63.48000000000002
 20
0.0
 30
0.0
 11
-63.48000000000002
 21
8.149999999999991
 31
0.0
  0
LINE
  5
9A0
  8
SK3
 10
-63.48000000000002
 20
-8.149999999999991
 30
0.0
 11
-63.48000000000002
 21
0.0
 31
0.0
  0
LINE
  5
9BF
  8
SK3
 10
-68.25000000000003
 20
-9.149999999999991
 30
0.0
 11
-66.51794919240001
 21
-8.149999999999991
 31
0.0
  0
LINE
  5
9C0
  8
SK3
 10
-66.51794919240001
 20
8.149999999999991
 30
0.0
 11
-68.25000000000003
 21
9.149999999999991
 31
0.0
  0
LINE
  5
9C1
  8
SK3
 10
-66.51794919240001
 20
-8.149999999999991
 30
0.0
 11
-63.48000000000002
 21
-8.149999999999991
 31
0.0
  0
LINE
  5
9C2
  8
SK3
 10
-63.48000000000002
 20
8.149999999999991
 30
0.0
 11
-66.51794919240001
 21
8.149999999999991
 31
0.0
  0
LINE
  5
9C3
  8
SK3
 10
-63.48000000000002
 20
-6.700000000000003
 30
0.0
 11
-24.95000000000006
 21
-6.700000000000003
 31
0.0
  0
LINE
  5
9E1
  8
0
 10
51.99999999999993
 20
2.0
 30
0.0
 11
48.00000000000003
 21
-2.0
 31
0.0
  0
LINE
  5
9E2
  8
0
 10
48.00000000000003
 20
2.0
 30
0.0
 11
51.99999999999993
 21
-2.0
 31
0.0
  0
CIRCLE
  5
9E3
  8
0
 10
50.00000000000003
 20
0.0
 30
0.0
 40
1.5
  0
LINE
  5
9E4
  8
0
 10
3.0
 20
3.0
 30
0.0
 11
-3.0
 21
-3.0
 31
0.0
  0
LINE
  5
9E5
  8
0
 10
-3.0
 20
3.0
 30
0.0
 11
3.0
 21
-3.0
 31
0.0
  0
CIRCLE
  5
9E6
  8
0
 10
0.0
 20
0.0
 30
0.0
 40
2.5
  0
LINE
  5
9E7
  8
SK3
 10
-63.48000000000005
 20
-7.937499999800011
 30
0.0
 11
-39.75000000000003
 21
-7.937499999800011
 31
0.0
  0
LINE
  5
9E8
  8
SK3
 10
-39.75000000000003
 20
7.937500000199975
 30
0.0
 11
-39.75000000000003
 21
-7.937499999800011
 31
0.0
  0
LINE
  5
9E9
  8
SK3
 10
-39.75000000000003
 20
7.937500000199975
 30
0.0
 11
-63.48000000000005
 21
7.937500000199975
 31
0.0
  0
ARC
  5
AA1
  8
NOCUT
 10
0.5
 20
22.72499999999999
 30
0.0
 40
0.5
 50
270.0
 51
0.0
  0
LINE
  5
AA4
  8
NOCUT
 10
0.5
 20
22.22499999999999
 30
0.0
 11
0.0
 21
22.22499999999999
 31
0.0
  0
LINE
  5
AA5
  8
NOCUT
 10
34.64999999999996
 20
22.22499999999999
 30
0.0
 11
20.04999999999998
 21
22.22499999999999
 31
0.0
  0
LINE
  5
AA7
  8
NOCUT
 10
14.65616676909997
 20
30.7125381562
 30
0.0
 11
18.54999999999995
 21
30.7125381562
 31
0.0
  0
POLYLINE
  5
AA8
  8
NOCUT
 66
     1
 10
0.0
 20
0.0
 30
0.0
  0
VERTEX
  5
1BF7
  8
NOCUT
 10
18.54999999999995
 20
30.7125381562
 30
0.0
  0
VERTEX
  5
1BF8
  8
NOCUT
 10
18.57284145939997
 20
30.6889245341
 30
0.0
  0
VERTEX
  5
1BF9
  8
NOCUT
 10
19.04999999999995
 20
30.1953638825
 30
0.0
  0
SEQEND
  5
1DD0
  8
NOCUT
  0
POLYLINE
  5
AA9
  8
NOCUT
 66
     1
 10
0.0
 20
0.0
 30
0.0
  0
VERTEX
  5
1BFA
  8
NOCUT
 10
1.0
 20
30.1953638825
 30
0.0
  0
VERTEX
  5
1BFB
  8
NOCUT
 10
1.477158540600044
 20
30.6889245341
 30
0.0
  0
VERTEX
  5
1BFC
  8
NOCUT
 10
1.5
 20
30.7125381562
 30
0.0
  0
SEQEND
  5
1DD1
  8
NOCUT
  0
LINE
  5
AAA
  8
NOCUT
 10
1.499999999999996
 20
30.7125381562
 30
0.0
 11
7.603833230899966
 21
30.7125381562
 31
0.0
  0
POLYLINE
  5
AAB
  8
NOCUT
 66
     1
 10
0.0
 20
0.0
 30
0.0
  0
VERTEX
  5
1BFD
  8
NOCUT
 10
7.603833230899966
 20
30.7125381562
 30
0.0
  0
VERTEX
  5
1BFE
  8
NOCUT
 10
9.140787278000005
 20
27.9518236359
 30
0.0
  0
VERTEX
  5
1BFF
  8
NOCUT
 10
9.204999999999984
 20
27.8360650174
 30
0.0
  0
SEQEND
  5
1DD2
  8
NOCUT
  0
POLYLINE
  5
AAC
  8
NOCUT
 66
     1
 10
0.0
 20
0.0
 30
0.0
  0
VERTEX
  5
1C00
  8
NOCUT
 10
13.05499999999995
 20
27.8360650174
 30
0.0
  0
VERTEX
  5
1C01
  8
NOCUT
 10
13.1192127219
 20
27.9518236359
 30
0.0
  0
VERTEX
  5
1C02
  8
NOCUT
 10
14.65616676909997
 20
30.7125381562
 30
0.0
  0
SEQEND
  5
1DD3
  8
NOCUT
  0
ARC
  5
AAD
  8
NOCUT
 10
12.54226966779999
 20
27.51838423379999
 30
0.0
 40
0.512803993977288
 50
271.4225108534019
 51
0.9711541378997977
  0
ARC
  5
AAE
  8
NOCUT
 10
9.716236145599964
 20
27.5169512018
 30
0.0
 40
0.5113363895821054
 50
178.8654582714003
 51
268.7408767374973
  0
LINE
  5
AAF
  8
NOCUT
 10
9.704999999999984
 20
27.0057382791
 30
0.0
 11
12.55499999999995
 21
27.0057382791
 31
0.0
  0
LINE
  5
AB0
  8
NOCUT
 10
0.0
 20
0.0
 30
0.0
 11
0.0
 21
22.22499999999999
 31
0.0
  0
LINE
  5
ACA
  8
NOCUT
 10
1.0
 20
22.72499999999999
 30
0.0
 11
1.0
 21
30.1953638825
 31
0.0
  0
LINE
  5
ACB
  8
NOCUT
 10
9.204999999999984
 20
27.8360650174
 30
0.0
 11
9.20489975601786
 21
27.5169512018
 31
0.0
  0
LINE
  5
ACC
  8
NOCUT
 10
13.05499999999995
 20
27.8360650174
 30
0.0
 11
13.05507366177728
 21
27.51838423379999
 31
0.0
  0
LINE
  5
ACD
  8
NOCUT
 10
19.04999999999995
 20
30.1953638825
 30
0.0
 11
19.04999999999995
 21
23.22499999999999
 31
0.0
  0
ARC
  5
B91
  8
1
 10
20.04999999999998
 20
-23.22499999999999
 30
0.0
 40
1.0
 50
90.0
 51
180.0
  0
ARC
  5
B93
  8
1
 10
20.04999999999998
 20
23.22499999999999
 30
0.0
 40
1.0
 50
180.0
 51
270.0
  0
ARC
  5
B94
  8
1
 10
0.799999999999983
 20
-22.42500000000001
 30
0.0
 40
0.5
 50
66.42182152179994
 51
90.0
  0
ARC
  5
B95
  8
1
 10
0.799999999999983
 20
22.42499999999998
 30
0.0
 40
0.5
 50
270.0
 51
293.5781784782001
  0
LINE
  5
B96
  8
1
 10
20.04999999999998
 20
-22.22499999999999
 30
0.0
 11
34.64999999999996
 21
-22.22499999999999
 31
0.0
  0
LINE
  5
B97
  8
1
 10
34.64999999999996
 20
22.22499999999999
 30
0.0
 11
20.04999999999998
 21
22.22499999999999
 31
0.0
  0
LINE
  5
B98
  8
1
 10
0.0
 20
-22.22499999999999
 30
0.0
 11
0.2999999999999829
 21
-21.92500000000001
 31
0.0
  0
LINE
  5
B99
  8
1
 10
0.2999999999999829
 20
21.92499999999998
 30
0.0
 11
0.0
 21
22.22499999999999
 31
0.0
  0
LINE
  5
B9C
  8
SK1
 10
0.0
 20
22.22499999999999
 30
0.0
 11
-67.3943082273
 21
12.39657058259999
 31
0.0
  0
LINE
  5
B9D
  8
SK1
 10
-67.3943082273
 20
-12.39657058270001
 30
0.0
 11
0.0
 21
-22.22499999999999
 31
0.0
  0
LINE
  5
B9E
  8
1
 10
0.2999999999999829
 20
-21.92500000000001
 30
0.0
 11
0.799999999999983
 21
-21.92500000000001
 31
0.0
  0
LINE
  5
B9F
  8
1
 10
0.799999999999983
 20
21.92499999999998
 30
0.0
 11
0.2999999999999829
 21
21.92499999999998
 31
0.0
  0
ARC
  5
BA0
  8
SK1
 10
-67.25
 20
-11.4070377962
 30
0.0
 40
1.000000000000014
 50
180.0
 51
261.7027777778003
  0
ARC
  5
BA1
  8
SK1
 10
-67.25
 20
11.40703779609998
 30
0.0
 40
1.000000000000014
 50
98.29722222219964
 51
180.0
  0
LINE
  5
BA2
  8
1
 10
14.6561667922
 20
30.49243725150001
 30
0.0
 11
13.05500004409998
 21
27.5903849293
 31
0.0
  0
LINE
  5
BA3
  8
1
 10
14.65616676899998
 20
-30.51805114620001
 30
0.0
 11
14.65616676899998
 21
30.49243720799998
 31
0.0
  0
LINE
  5
BA4
  8
1
 10
13.05500002099998
 20
-27.61768172550001
 30
0.0
 11
14.65616678619998
 21
-30.51748284710001
 31
0.0
  0
LINE
  5
BA5
  8
1
 10
13.05499999999998
 20
-27.61768156150001
 30
0.0
 11
13.05499999999998
 21
27.5896745586
 31
0.0
  0
LINE
  5
BA6
  8
1
 10
14.65616729029998
 20
-30.5174828113
 30
0.0
 11
14.76217597669998
 21
-30.54092502470002
 31
0.0
  0
LINE
  5
BA7
  8
1
 10
14.69253150219998
 20
30.50268419069999
 30
0.0
 11
14.65616753799998
 21
30.49243719839998
 31
0.0
  0
LINE
  5
BA8
  8
1
 10
18.54999999999998
 20
30.50268419069999
 30
0.0
 11
14.69253150219998
 21
30.50268419069999
 31
0.0
  0
LINE
  5
BA9
  8
1
 10
14.76217597669998
 20
-30.54092502470002
 30
0.0
 11
18.54999999999998
 21
-30.54092502470002
 31
0.0
  0
LINE
  5
BAA
  8
1
 10
9.204999955799991
 20
27.5903849293
 30
0.0
 11
7.603833207699978
 21
30.49243725150001
 31
0.0
  0
LINE
  5
BAB
  8
1
 10
9.204999999999984
 20
-27.6182445954
 30
0.0
 11
9.204999999999984
 21
27.5903848518
 31
0.0
  0
LINE
  5
BAC
  8
1
 10
7.6038332137
 20
-30.51748284710001
 30
0.0
 11
9.204999978799975
 21
-27.61768172539999
 31
0.0
  0
LINE
  5
BAD
  8
1
 10
7.603833230899994
 20
-30.5174828113
 30
0.0
 11
7.603833230899994
 21
30.49194635059999
 31
0.0
  0
LINE
  5
BAE
  8
1
 10
1.0
 20
-29.20362428180002
 30
0.0
 11
1.0
 21
29.22527756419998
 31
0.0
  0
ARC
  5
BAF
  8
1
 10
1.736068826500002
 20
28.83956144390001
 30
0.0
 40
0.8318485490646366
 50
106.4871262675995
 51
152.2338518675996
  0
POLYLINE
  5
BB0
  8
1
 66
     1
 10
0.0
 20
0.0
 30
0.0
  0
VERTEX
  5
1C03
  8
1
 10
1.499991175799977
 20
-29.70136738420001
 30
0.0
  0
VERTEX
  5
1C04
  8
1
 10
1.31486147779998
 20
-29.6078136875
 30
0.0
  0
VERTEX
  5
1C05
  8
1
 10
1.220960437199977
 20
-29.54106786380001
 30
0.0
  0
VERTEX
  5
1C06
  8
1
 10
1.131120186599986
 20
-29.45918995790001
 30
0.0
  0
VERTEX
  5
1C07
  8
1
 10
1.068966655699995
 20
-29.38420485969999
 30
0.0
  0
VERTEX
  5
1C08
  8
1
 10
1.029912598300001
 20
-29.3189781797
 30
0.0
  0
VERTEX
  5
1C09
  8
1
 10
1.001757060399996
 20
-29.23060659110001
 30
0.0
  0
VERTEX
  5
1C0A
  8
1
 10
1.000001938499992
 20
-29.2054619834
 30
0.0
  0
SEQEND
  5
1DD4
  8
1
  0
LINE
  5
BB1
  8
1
 10
7.5674684974
 20
30.50268419069999
 30
0.0
 11
4.03465638199998
 21
30.50268419069999
 31
0.0
  0
LINE
  5
BB2
  8
1
 10
7.603832461599978
 20
30.49243719839998
 30
0.0
 11
7.5674684974
 21
30.50268419069999
 31
0.0
  0
LINE
  5
BB3
  8
1
 10
7.497824022700001
 20
-30.54092502470002
 30
0.0
 11
7.603832709099976
 21
-30.5174828113
 31
0.0
  0
LINE
  5
BB4
  8
1
 10
3.987796517999982
 20
-30.54092502470002
 30
0.0
 11
7.497824022700001
 21
-30.54092502470002
 31
0.0
  0
LINE
  5
BB5
  8
1
 10
1.500000037399985
 20
-29.70136454339999
 30
0.0
 11
3.987796517999982
 21
-30.54092512950001
 31
0.0
  0
LINE
  5
BB6
  8
1
 10
4.03465638199998
 20
30.5026843142
 30
0.0
 11
1.499999999899984
 21
29.6372041155
 31
0.0
  0
POLYLINE
  5
BB7
  8
1
 66
     1
 10
0.0
 20
0.0
 30
0.0
  0
VERTEX
  5
1C0B
  8
1
 10
18.81621828999999
 20
-30.4787564463
 30
0.0
  0
VERTEX
  5
1C0C
  8
1
 10
18.6790188139
 20
-30.52721612650001
 30
0.0
  0
VERTEX
  5
1C0D
  8
1
 10
18.54999999999998
 20
-30.54092502470002
 30
0.0
  0
SEQEND
  5
1DD5
  8
1
  0
ARC
  5
BB8
  8
1
 10
18.55943835959999
 20
29.86640550269999
 30
0.0
 40
0.6363486869715145
 50
60.60134603479981
 51
90.84984539750005
  0
ARC
  5
BB9
  8
1
 10
18.35098180669999
 20
29.95429978019999
 30
0.0
 40
0.6992094391558102
 50
1.340108450200791
 51
41.85091720829973
  0
LINE
  5
BBA
  8
1
 10
19.04999999999998
 20
29.97065231189998
 30
0.0
 11
19.04999999999998
 21
-29.97065231190001
 31
0.0
  0
ARC
  5
BBB
  8
1
 10
18.33294041069999
 20
-29.9485632036
 30
0.0
 40
0.7173997374297006
 50
312.3495695874001
 51
358.2355544919003
  0
ARC
  5
BBC
  8
1
 10
9.7449695926
 20
27.30906555679999
 30
0.0
 40
0.5407677835436584
 50
176.8865704259999
 51
265.761250323199
  0
ARC
  5
BBD
  8
1
 10
9.7179331838
 20
-27.29360212969999
 30
0.0
 40
0.4775741781478385
 50
91.55181642760164
 51
147.4596417165987
  0
ARC
  5
BBE
  8
1
 10
12.52505146019999
 20
27.30025443439999
 30
0.0
 40
0.5313222205439724
 50
273.2312498579008
 51
4.120929392898505
  0
ARC
  5
BBF
  8
1
 10
12.53972316129997
 20
-27.2977060387
 30
0.0
 40
0.4817452194643697
 50
32.86161398089808
 51
88.18276318630117
  0
LINE
  5
BC0
  8
1
 10
12.55499999999998
 20
26.7697769259
 30
0.0
 11
9.704999999999984
 21
26.7697769259
 31
0.0
  0
LINE
  5
BC1
  8
1
 10
9.704999999999984
 20
-26.81620310549999
 30
0.0
 11
12.55499999999998
 21
-26.81620310549999
 31
0.0
  0
LINE
  5
BC4
  8
1
 10
0.2999999999999829
 20
0.0
 30
0.0
 11
0.2999999999999829
 21
21.92499999999998
 31
0.0
  0
LINE
  5
BC5
  8
1
 10
0.2999999999999829
 20
-21.92500000000001
 30
0.0
 11
0.2999999999999829
 21
0.0
 31
0.0
  0
LINE
  5
BC6
  8
1
 10
0.0
 20
0.0
 30
0.0
 11
0.0
 21
22.22499999999999
 31
0.0
  0
LINE
  5
BC7
  8
1
 10
0.0
 20
-22.22499999999999
 30
0.0
 11
0.0
 21
0.0
 31
0.0
  0
LINE
  5
BCA
  8
SK1
 10
-68.25
 20
0.0
 30
0.0
 11
-68.25
 21
11.40703779609998
 31
0.0
  0
LINE
  5
BCB
  8
SK1
 10
-68.25
 20
-11.4070377962
 30
0.0
 11
-68.25
 21
0.0
 31
0.0
  0
LINE
  5
BCC
  8
1
 10
7.567468496899977
 20
30.50268419069999
 30
0.0
 11
7.6038324612
 21
30.49243719839998
 31
0.0
  0
LINE
  5
BCD
  8
1
 10
3.987796517999982
 20
-30.54092512950001
 30
0.0
 11
1.499999999899984
 21
-29.7013645289
 31
0.0
  0
LINE
  5
BDE
  8
3
 10
1.0
 20
-22.59999999999999
 30
0.0
 11
3.699999999999989
 21
-22.59999999999999
 31
0.0
  0
LINE
  5
BDF
  8
3
 10
1.0
 20
25.02000000000001
 30
0.0
 11
3.699999999999989
 21
25.02000000000001
 31
0.0
  0
LINE
  5
BE8
  8
3
 10
18.25
 20
25.02000000000001
 30
0.0
 11
19.04999999999998
 21
25.02000000000001
 31
0.0
  0
LINE
  5
BFE
  8
3
 10
3.699999999999989
 20
-22.59999999999999
 30
0.0
 11
18.25
 21
-22.59999999999999
 31
0.0
  0
LINE
  5
C08
  8
3
 10
3.699999999999989
 20
25.02000000000001
 30
0.0
 11
18.25
 21
25.02000000000001
 31
0.0
  0
LINE
  5
C10
  8
3
 10
11.13
 20
21.22
 30
0.0
 11
17.47999999999999
 21
21.22
 31
0.0
  0
LINE
  5
C11
  8
3
 10
4.780000000000001
 20
21.22
 30
0.0
 11
11.13
 21
21.22
 31
0.0
  0
LINE
  5
C12
  8
3
 10
11.13
 20
21.21000000000001
 30
0.0
 11
15.88
 21
21.21000000000001
 31
0.0
  0
LINE
  5
C13
  8
3
 10
6.379999999999995
 20
21.21000000000001
 30
0.0
 11
11.13
 21
21.21000000000001
 31
0.0
  0
LINE
  5
C26
  8
3
 10
4.780000000000001
 20
25.02000000000001
 30
0.0
 11
4.780000000000001
 21
21.22
 31
0.0
  0
LINE
  5
C27
  8
3
 10
17.47999999999999
 20
21.22
 30
0.0
 11
17.47999999999999
 21
25.02000000000001
 31
0.0
  0
LINE
  5
C28
  8
3
 10
6.379999999999995
 20
21.22
 30
0.0
 11
6.379999999999995
 21
21.21000000000001
 31
0.0
  0
LINE
  5
C29
  8
3
 10
15.88
 20
21.21000000000001
 30
0.0
 11
15.88
 21
21.22
 31
0.0
  0
LINE
  5
C2A
  8
3
 10
6.379999999999995
 20
21.21000000000001
 30
0.0
 11
11.13
 21
18.3559120596
 31
0.0
  0
LINE
  5
C2B
  8
3
 10
11.13
 20
18.3559120596
 30
0.0
 11
15.88
 21
21.21000000000001
 31
0.0
  0
LINE
  5
C2C
  8
1
 10
20.04999999999998
 20
22.22499999999999
 30
0.0
 11
20.04999999999998
 21
-22.22499999999999
 31
0.0
  0
LINE
  5
C2D
  8
1
 10
0.799999999999983
 20
21.92499999999998
 30
0.0
 11
0.799999999999983
 21
-21.92500000000001
 31
0.0
  0
LINE
  5
C2F
  8
1
 10
9.704999999999984
 20
26.26568698759999
 30
0.0
 11
9.704999999999984
 21
-26.08092552630001
 31
0.0
  0
LINE
  5
C30
  8
1
 10
12.55499999999998
 20
26.26578903699999
 30
0.0
 11
12.55499999999998
 21
-26.08072526110001
 31
0.0
  0
LINE
  5
C31
  8
1
 10
18.54999999999998
 20
30.50268419069999
 30
0.0
 11
18.54999999999998
 21
-30.54092502470002
 31
0.0
  0
LINE
  5
C32
  8
1
 10
1.5
 20
-29.7013645289
 30
0.0
 11
1.5
 21
29.6372041155
 31
0.0
  0
LINE
  5
C92
  8
SK4
 10
0.0
 20
0.0
 30
0.0
 11
-68.25
 21
0.0
 31
0.0
  0
TEXT
  5
D44
  8
SK6
 10
-66.17909534664395
 20
47.33203563714093
 30
0.0
 40
3.5
  1
BIG KAISER
 41
0.85
  0
TEXT
  5
D45
  8
SK6
 10
-66.17909534664395
 20
42.08203563714093
 30
0.0
 40
3.5
  1
BCV40-FMH22-47-50
 41
0.85
  0
INSERT
  5
D46
  8
SK6
  2
_FILLED
 10
-17.9836627818344
 20
-19.60235774778011
 30
0.0
 41
3.5
 42
3.5
 43
3.5
 50
55.49325986033524
  0
POLYLINE
  5
D47
  8
SK6
 66
     1
 10
0.0
 20
0.0
 30
0.0
  0
VERTEX
  5
1C0E
  8
SK6
 10
-19.966423916232
 20
-22.48656618059532
 30
0.0
  0
VERTEX
  5
1C0F
  8
SK6
 10
-33.4822656830344
 20
-42.14728280658011
 30
0.0
  0
VERTEX
  5
1C10
  8
SK6
 10
-35.35726568303438
 20
-40.39728280658011
 30
0.0
  0
VERTEX
  5
1C11
  8
SK6
 10
-38.85726568303438
 20
-40.39728280658011
 30
0.0
  0
SEQEND
  5
1DD6
  8
SK6
  0
TEXT
  5
D48
  8
SK6
 10
-53.86143234970106
 20
-43.89728280658011
 30
0.0
 40
3.5
  1
BCV40
 41
0.85
  0
ARC
  5
E7B
  8
NOCUT
 10
20.04999999999998
 20
23.22499999999999
 30
0.0
 40
1.0
 50
180.0
 51
270.0
  0
ARC
  5
1072
  8
1
 10
48.99999999999999
 20
-22.5
 30
0.0
 40
1.0
 50
270.0
 51
0.0
  0
ARC
  5
1073
  8
1
 10
48.99999999999999
 20
22.5
 30
0.0
 40
1.0
 50
0.0
 51
90.0
  0
ARC
  5
1074
  8
1
 10
35.54999999999994
 20
23.0
 30
0.0
 40
0.5000000000000568
 50
90.0
 51
180.0
  0
ARC
  5
1075
  8
1
 10
35.54999999999994
 20
-23.0
 30
0.0
 40
0.5000000000000568
 50
180.0
 51
270.0
  0
LINE
  5
1076
  8
1
 10
35.54999999999994
 20
-23.5
 30
0.0
 11
48.99999999999999
 21
-23.5
 31
0.0
  0
LINE
  5
1077
  8
1
 10
48.99999999999999
 20
23.5
 30
0.0
 11
35.54999999999994
 21
23.5
 31
0.0
  0
ARC
  5
1078
  8
1
 10
34.64999999999996
 20
22.625
 30
0.0
 40
0.4000000000000341
 50
270.0
 51
0.0
  0
ARC
  5
1079
  8
1
 10
34.64999999999996
 20
-22.625
 30
0.0
 40
0.3999999999999773
 50
0.0
 51
90.0
  0
LINE
  5
1085
  8
1
 10
49.99999999999999
 20
22.25
 30
0.0
 11
49.99999999999999
 21
21.93741096849999
 31
0.0
  0
LINE
  5
108B
  8
1
 10
49.99999999999999
 20
-21.93741096850005
 30
0.0
 11
49.99999999999999
 21
-22.25
 31
0.0
  0
LINE
  5
108C
  8
1
 10
49.99999999999999
 20
0.0
 30
0.0
 11
49.99999999999999
 21
21.93741096849999
 31
0.0
  0
LINE
  5
108D
  8
1
 10
49.99999999999999
 20
22.25749999999999
 30
0.0
 11
49.99999999999999
 21
22.5
 31
0.0
  0
LINE
  5
108E
  8
1
 10
49.99999999999999
 20
-22.5
 30
0.0
 11
49.99999999999999
 21
-22.25749999999999
 31
0.0
  0
LINE
  5
108F
  8
1
 10
49.99999999999999
 20
-21.93741096850005
 30
0.0
 11
49.99999999999999
 21
0.0
 31
0.0
  0
LINE
  5
1090
  8
1
 10
35.04999999999994
 20
-23.0
 30
0.0
 11
35.04999999999994
 21
23.0
 31
0.0
  0
CIRCLE
  5
1091
  8
1
 10
42.49999999999993
 20
0.0
 30
0.0
 40
1.624999999999886
  0
LINE
  5
1096
  8
1
 10
43.24999999999993
 20
0.4330127018999974
 30
0.0
 11
42.49999999999993
 21
0.8660254037999948
 31
0.0
  0
LINE
  5
1097
  8
1
 10
41.74999999999993
 20
0.4330127018999974
 30
0.0
 11
42.49999999999993
 21
0.8660254037999948
 31
0.0
  0
LINE
  5
1098
  8
1
 10
41.74999999999993
 20
-0.4330127018999974
 30
0.0
 11
41.74999999999993
 21
0.4330127018999974
 31
0.0
  0
LINE
  5
1099
  8
1
 10
43.24999999999993
 20
-0.4330127018999974
 30
0.0
 11
42.49999999999993
 21
-0.8660254037999948
 31
0.0
  0
LINE
  5
109A
  8
1
 10
43.24999999999993
 20
-0.4330127018999974
 30
0.0
 11
43.24999999999993
 21
0.4330127018999974
 31
0.0
  0
CIRCLE
  5
109B
  8
1
 10
42.49999999999993
 20
0.0
 30
0.0
 40
1.219499999999982
  0
LINE
  5
109C
  8
1
 10
41.74999999999993
 20
-0.4330127018999974
 30
0.0
 11
42.49999999999993
 21
-0.8660254037999948
 31
0.0
  0
CIRCLE
  5
109D
  8
1
 10
42.49999999999993
 20
0.0
 30
0.0
 40
1.5
  0
LINE
  5
10AA
  8
3
 10
39.56296030499992
 20
22.25749999999999
 30
0.0
 11
39.56296030499992
 21
12.24250000000001
 31
0.0
  0
LINE
  5
10AB
  8
3
 10
38.92368257489993
 20
22.2475
 30
0.0
 11
38.92368257489993
 21
12.2525
 31
0.0
  0
LINE
  5
10AC
  8
3
 10
37.99999999999993
 20
22.0
 30
0.0
 11
37.99999999999993
 21
12.5
 31
0.0
  0
LINE
  5
10AD
  8
3
 10
39.56296030499992
 20
-12.24250000000001
 30
0.0
 11
39.56296030499992
 21
-22.25749999999999
 31
0.0
  0
LINE
  5
10AE
  8
3
 10
38.92368257489993
 20
-12.2525
 30
0.0
 11
38.92368257489993
 21
-22.2475
 31
0.0
  0
LINE
  5
10AF
  8
3
 10
37.99999999999993
 20
-12.5
 30
0.0
 11
37.99999999999993
 21
-22.0
 31
0.0
  0
POLYLINE
  5
10B0
  8
3
 66
     1
 10
0.0
 20
0.0
 30
0.0
 70
   128
  0
VERTEX
  5
1C12
  8
3
 10
42.49999999999993
 20
21.11538233849996
 30
0.0
  0
VERTEX
  5
1C13
  8
3
 10
41.96284477219994
 20
21.07503710729998
 30
0.0
  0
VERTEX
  5
1C14
  8
3
 10
41.48625892179994
 20
20.95686548339995
 30
0.0
  0
VERTEX
  5
1C15
  8
3
 10
41.12315634769992
 20
20.76941192620001
 30
0.0
  0
VERTEX
  5
1C16
  8
3
 10
40.91498420489994
 20
20.52836165819997
 30
0.0
  0
VERTEX
  5
1C17
  8
3
 10
40.88571319969991
 20
20.25781366109999
 30
0.0
  0
VERTEX
  5
1C18
  8
3
 10
41.03779629069992
 20
19.9878679496
 30
0.0
  0
VERTEX
  5
1C19
  8
3
 10
41.35414763909993
 20
19.75100103569997
 30
0.0
  0
VERTEX
  5
1C1A
  8
3
 10
41.80024278829994
 20
19.57861608589997
 30
0.0
  0
VERTEX
  5
1C1B
  8
3
 10
42.32548748559991
 20
19.4956437495
 30
0.0
  0
VERTEX
  5
1C1C
  8
3
 10
42.86939614259994
 20
19.51417380649997
 30
0.0
  0
VERTEX
  5
1C1D
  8
3
 10
43.37118465809992
 20
19.63102727819995
 30
0.0
  0
VERTEX
  5
1C1E
  8
3
 10
43.77572328109993
 20
19.82964191729997
 30
0.0
  0
VERTEX
  5
1C1F
  8
3
 10
44.03710515589994
 20
20.08287850249997
 30
0.0
  0
VERTEX
  5
1C20
  8
3
 10
44.12496015039993
 20
20.35728472009998
 30
0.0
  0
VERTEX
  5
1C21
  8
3
 10
44.02995994019993
 20
20.61986292629996
 30
0.0
  0
VERTEX
  5
1C22
  8
3
 10
43.76327567799994
 20
20.8434044631
 30
0.0
  0
VERTEX
  5
1C23
  8
3
 10
43.35393005329995
 20
21.00761844099998
 30
0.0
  0
VERTEX
  5
1C24
  8
3
 10
42.84772771309996
 20
21.0987953321
 30
0.0
  0
VERTEX
  5
1C25
  8
3
 10
42.49999999999993
 20
21.11538233849996
 30
0.0
  0
SEQEND
  5
1DD7
  8
3
  0
POLYLINE
  5
10B1
  8
3
 66
     1
 10
0.0
 20
0.0
 30
0.0
 70
   128
  0
VERTEX
  5
1C26
  8
3
 10
42.49999999999993
 20
-19.49038233850001
 30
0.0
  0
VERTEX
  5
1C27
  8
3
 10
41.96284477219994
 20
-19.54138484510003
 30
0.0
  0
VERTEX
  5
1C28
  8
3
 10
41.48625892179994
 20
-19.68684421340004
 30
0.0
  0
VERTEX
  5
1C29
  8
3
 10
41.12315634769992
 20
-19.90632064660002
 30
0.0
  0
VERTEX
  5
1C2A
  8
3
 10
40.91498420489994
 20
-20.17010207460004
 30
0.0
  0
VERTEX
  5
1C2B
  8
3
 10
40.88571319969991
 20
-20.4441014121
 30
0.0
  0
VERTEX
  5
1C2C
  8
3
 10
41.03779629069992
 20
-20.69680046569999
 30
0.0
  0
VERTEX
  5
1C2D
  8
3
 10
41.35414763909993
 20
-20.90323684790002
 30
0.0
  0
VERTEX
  5
1C2E
  8
3
 10
41.80024278829994
 20
-21.04523288820002
 30
0.0
  0
VERTEX
  5
1C2F
  8
3
 10
42.32548748559991
 20
-21.11124592280004
 30
0.0
  0
VERTEX
  5
1C30
  8
3
 10
42.86939614259994
 20
-21.09663122770002
 30
0.0
  0
VERTEX
  5
1C31
  8
3
 10
43.37118465809992
 20
-21.00276423970001
 30
0.0
  0
VERTEX
  5
1C32
  8
3
 10
43.77572328109993
 20
-20.83619798140001
 30
0.0
  0
VERTEX
  5
1C33
  8
3
 10
44.03710515589994
 20
-20.61007176880003
 30
0.0
  0
VERTEX
  5
1C34
  8
3
 10
44.12496015039993
 20
-20.34590448509999
 30
0.0
  0
VERTEX
  5
1C35
  8
3
 10
44.02995994019993
 20
-20.07227952480002
 30
0.0
  0
VERTEX
  5
1C36
  8
3
 10
43.76327567799994
 20
-19.82126965720005
 30
0.0
  0
VERTEX
  5
1C37
  8
3
 10
43.35393005329995
 20
-19.62507424130001
 30
0.0
  0
VERTEX
  5
1C38
  8
3
 10
42.84772771309996
 20
-19.51143575170005
 30
0.0
  0
VERTEX
  5
1C39
  8
3
 10
42.49999999999993
 20
-19.49038233850001
 30
0.0
  0
SEQEND
  5
1DD8
  8
3
  0
CIRCLE
  5
10B2
  8
3
 10
42.49999999999993
 20
0.0
 30
0.0
 40
1.249999999999943
  0
LINE
  5
10B3
  8
3
 10
40.99999999999993
 20
1.25
 30
0.0
 11
40.99999999999993
 21
0.5771163297000044
 31
0.0
  0
LINE
  5
10B4
  8
3
 10
40.99999999999993
 20
-0.5851023806000057
 30
0.0
 11
40.99999999999993
 21
-1.25
 31
0.0
  0
LINE
  5
10B8
  8
3
 10
47.99999999999999
 20
5.0
 30
0.0
 11
47.99999999999999
 21
-5.0
 31
0.0
  0
LINE
  5
10B9
  8
3
 10
36.49999999999993
 20
-12.25
 30
0.0
 11
36.49999999999993
 21
-22.25
 31
0.0
  0
LINE
  5
10BA
  8
3
 10
36.49999999999993
 20
22.25
 30
0.0
 11
36.49999999999993
 21
12.25
 31
0.0
  0
POLYLINE
  5
10BB
  8
3
 66
     1
 10
0.0
 20
0.0
 30
0.0
 70
   128
  0
VERTEX
  5
1C3A
  8
3
 10
42.49999999999993
 20
4.142811819899975
 30
0.0
  0
VERTEX
  5
1C3B
  8
3
 10
42.90349081049992
 20
4.126667839800007
 30
0.0
  0
VERTEX
  5
1C3C
  8
3
 10
43.26128628429994
 20
4.074777055999959
 30
0.0
  0
VERTEX
  5
1C3D
  8
3
 10
43.54438788559996
 20
3.975646882299998
 30
0.0
  0
VERTEX
  5
1C3E
  8
3
 10
43.71440877819991
 20
3.819741077499998
 30
0.0
  0
VERTEX
  5
1C3F
  8
3
 10
43.74429662039994
 20
3.61952203589999
 30
0.0
  0
VERTEX
  5
1C40
  8
3
 10
43.64171773039992
 20
3.399675675799983
 30
0.0
  0
VERTEX
  5
1C41
  8
3
 10
43.41909910599996
 20
3.183135120700001
 30
0.0
  0
VERTEX
  5
1C42
  8
3
 10
43.08707597369992
 20
3.002583272799995
 30
0.0
  0
VERTEX
  5
1C43
  8
3
 10
42.68270634789995
 20
2.903080880000005
 30
0.0
  0
VERTEX
  5
1C44
  8
3
 10
42.27080639239993
 20
2.909002813999962
 30
0.0
  0
VERTEX
  5
1C45
  8
3
 10
41.89427786129993
 20
3.009990742199989
 30
0.0
  0
VERTEX
  5
1C46
  8
3
 10
41.57426924239995
 20
3.188032619599994
 30
0.0
  0
VERTEX
  5
1C47
  8
3
 10
41.34690957939993
 20
3.415514182799996
 30
0.0
  0
VERTEX
  5
1C48
  8
3
 10
41.25198303249992
 20
3.644912146499962
 30
0.0
  0
VERTEX
  5
1C49
  8
3
 10
41.29578565419995
 20
3.836748012399994
 30
0.0
  0
VERTEX
  5
1C4A
  8
3
 10
41.46430935239992
 20
3.980301512499977
 30
0.0
  0
VERTEX
  5
1C4B
  8
3
 10
41.74839957059991
 20
4.076922757999967
 30
0.0
  0
VERTEX
  5
1C4C
  8
3
 10
42.12680160559994
 20
4.129122145799954
 30
0.0
  0
VERTEX
  5
1C4D
  8
3
 10
42.49999999999993
 20
4.142811819899975
 30
0.0
  0
SEQEND
  5
1DD9
  8
3
  0
POLYLINE
  5
10BC
  8
3
 66
     1
 10
0.0
 20
0.0
 30
0.0
 70
   128
  0
VERTEX
  5
1C4E
  8
3
 10
42.49999999999993
 20
-2.892811819900032
 30
0.0
  0
VERTEX
  5
1C4F
  8
3
 10
42.90349081049992
 20
-2.943580706200009
 30
0.0
  0
VERTEX
  5
1C50
  8
3
 10
43.26128628429994
 20
-3.083342139699994
 30
0.0
  0
VERTEX
  5
1C51
  8
3
 10
43.54438788559996
 20
-3.288803418000043
 30
0.0
  0
VERTEX
  5
1C52
  8
3
 10
43.71440877819991
 20
-3.523580108500028
 30
0.0
  0
VERTEX
  5
1C53
  8
3
 10
43.74429662039994
 20
-3.73879449970002
 30
0.0
  0
VERTEX
  5
1C54
  8
3
 10
43.64171773039992
 20
-3.908577065200006
 30
0.0
  0
VERTEX
  5
1C55
  8
3
 10
43.41909910599996
 20
-4.03034042850004
 30
0.0
  0
VERTEX
  5
1C56
  8
3
 10
43.08707597369992
 20
-4.106141971400007
 30
0.0
  0
VERTEX
  5
1C57
  8
3
 10
42.68270634789995
 20
-4.139656146800007
 30
0.0
  0
VERTEX
  5
1C58
  8
3
 10
42.27080639239993
 20
-4.137811298000031
 30
0.0
  0
VERTEX
  5
1C59
  8
3
 10
41.89427786129993
 20
-4.103426012600039
 30
0.0
  0
VERTEX
  5
1C5A
  8
3
 10
41.57426924239995
 20
-4.027986525800031
 30
0.0
  0
VERTEX
  5
1C5B
  8
3
 10
41.34690957939993
 20
-3.898093173000007
 30
0.0
  0
VERTEX
  5
1C5C
  8
3
 10
41.25198303249992
 20
-3.715294308000011
 30
0.0
  0
VERTEX
  5
1C5D
  8
3
 10
41.29578565419995
 20
-3.501534932000027
 30
0.0
  0
VERTEX
  5
1C5E
  8
3
 10
41.46430935239992
 20
-3.280412319700019
 30
0.0
  0
VERTEX
  5
1C5F
  8
3
 10
41.74839957059991
 20
-3.078125083600014
 30
0.0
  0
VERTEX
  5
1C60
  8
3
 10
42.12680160559994
 20
-2.936133060200007
 30
0.0
  0
VERTEX
  5
1C61
  8
3
 10
42.49999999999993
 20
-2.892811819900032
 30
0.0
  0
SEQEND
  5
1DDA
  8
3
  0
POLYLINE
  5
10BD
  8
3
 66
     1
 10
0.0
 20
0.0
 30
0.0
 70
   128
  0
VERTEX
  5
1C62
  8
3
 10
42.49999999999993
 20
6.303203230299971
 30
0.0
  0
VERTEX
  5
1C63
  8
3
 10
42.72968689729991
 20
6.114930354999956
 30
0.0
  0
VERTEX
  5
1C64
  8
3
 10
42.95155208279992
 20
5.954352512100002
 30
0.0
  0
VERTEX
  5
1C65
  8
3
 10
43.15804020359995
 20
5.826937987399958
 30
0.0
  0
VERTEX
  5
1C66
  8
3
 10
43.34211955459993
 20
5.737025729699951
 30
0.0
  0
VERTEX
  5
1C67
  8
3
 10
43.49752153409996
 20
5.687677593199965
 30
0.0
  0
VERTEX
  5
1C68
  8
3
 10
43.61895411419992
 20
5.680574069299951
 30
0.0
  0
VERTEX
  5
1C69
  8
3
 10
43.70228205399995
 20
5.715957060199969
 30
0.0
  0
VERTEX
  5
1C6A
  8
3
 10
43.74466772039993
 20
5.792621640499988
 30
0.0
  0
VERTEX
  5
1C6B
  8
3
 10
43.74466772039993
 20
5.907957089799993
 30
0.0
  0
VERTEX
  5
1C6C
  8
3
 10
43.70228205399995
 20
6.05803579779996
 30
0.0
  0
VERTEX
  5
1C6D
  8
3
 10
43.61895411419992
 20
6.237747014099966
 30
0.0
  0
VERTEX
  5
1C6E
  8
3
 10
43.49752153409996
 20
6.440970888599963
 30
0.0
  0
VERTEX
  5
1C6F
  8
3
 10
43.34211955459993
 20
6.660786876299994
 30
0.0
  0
VERTEX
  5
1C70
  8
3
 10
43.15804020359995
 20
6.889709407099986
 30
0.0
  0
VERTEX
  5
1C71
  8
3
 10
42.95155208279992
 20
7.119942798899956
 30
0.0
  0
VERTEX
  5
1C72
  8
3
 10
42.72968689729991
 20
7.343646729599982
 30
0.0
  0
VERTEX
  5
1C73
  8
3
 10
42.49999999999993
 20
7.553203230299971
 30
0.0
  0
SEQEND
  5
1DDB
  8
3
  0
POLYLINE
  5
10BE
  8
3
 66
     1
 10
0.0
 20
0.0
 30
0.0
 70
   128
  0
VERTEX
  5
1C74
  8
3
 10
42.49999999999993
 20
7.553203230299971
 30
0.0
  0
VERTEX
  5
1C75
  8
3
 10
42.28293977799994
 20
7.355728409400001
 30
0.0
  0
VERTEX
  5
1C76
  8
3
 10
42.07247482089996
 20
7.145263452299957
 30
0.0
  0
VERTEX
  5
1C77
  8
3
 10
41.87499999999993
 20
6.928203230299971
 30
0.0
  0
VERTEX
  5
1C78
  8
3
 10
41.69651548789993
 20
6.711143008199997
 30
0.0
  0
VERTEX
  5
1C79
  8
3
 10
41.54244444609991
 20
6.500678051099953
 30
0.0
  0
VERTEX
  5
1C7A
  8
3
 10
41.41746824529996
 20
6.303203230299971
 30
0.0
  0
VERTEX
  5
1C7B
  8
3
 10
41.32538422409992
 20
6.124718718199972
 30
0.0
  0
VERTEX
  5
1C7C
  8
3
 10
41.26899030879996
 20
5.970647676400006
 30
0.0
  0
VERTEX
  5
1C7D
  8
3
 10
41.24999999999993
 20
5.845671475499955
 30
0.0
  0
VERTEX
  5
1C7E
  8
3
 10
41.26899030879996
 20
5.753587454299975
 30
0.0
  0
VERTEX
  5
1C7F
  8
3
 10
41.32538422409992
 20
5.697193538999954
 30
0.0
  0
VERTEX
  5
1C80
  8
3
 10
41.41746824529996
 20
5.678203230299971
 30
0.0
  0
VERTEX
  5
1C81
  8
3
 10
41.54244444609991
 20
5.697193538999954
 30
0.0
  0
VERTEX
  5
1C82
  8
3
 10
41.69651548789993
 20
5.753587454299975
 30
0.0
  0
VERTEX
  5
1C83
  8
3
 10
41.87499999999993
 20
5.845671475499955
 30
0.0
  0
VERTEX
  5
1C84
  8
3
 10
42.07247482089996
 20
5.970647676400006
 30
0.0
  0
VERTEX
  5
1C85
  8
3
 10
42.28293977799994
 20
6.124718718199972
 30
0.0
  0
VERTEX
  5
1C86
  8
3
 10
42.49999999999993
 20
6.303203230299971
 30
0.0
  0
SEQEND
  5
1DDC
  8
3
  0
POLYLINE
  5
10BF
  8
3
 66
     1
 10
0.0
 20
0.0
 30
0.0
 70
   128
  0
VERTEX
  5
1C87
  8
3
 10
42.49999999999993
 20
-7.553203230300028
 30
0.0
  0
VERTEX
  5
1C88
  8
3
 10
42.72968689729991
 20
-7.343646729600039
 30
0.0
  0
VERTEX
  5
1C89
  8
3
 10
42.95155208279992
 20
-7.119942798900013
 30
0.0
  0
VERTEX
  5
1C8A
  8
3
 10
43.15804020359995
 20
-6.889709407100042
 30
0.0
  0
VERTEX
  5
1C8B
  8
3
 10
43.34211955459993
 20
-6.660786876299994
 30
0.0
  0
VERTEX
  5
1C8C
  8
3
 10
43.49752153409996
 20
-6.440970888700008
 30
0.0
  0
VERTEX
  5
1C8D
  8
3
 10
43.61895411419992
 20
-6.237747014100023
 30
0.0
  0
VERTEX
  5
1C8E
  8
3
 10
43.70228205399995
 20
-6.058035797800017
 30
0.0
  0
VERTEX
  5
1C8F
  8
3
 10
43.74466772039993
 20
-5.907957089799993
 30
0.0
  0
VERTEX
  5
1C90
  8
3
 10
43.74466772039993
 20
-5.792621640500045
 30
0.0
  0
VERTEX
  5
1C91
  8
3
 10
43.70228205399995
 20
-5.715957060200026
 30
0.0
  0
VERTEX
  5
1C92
  8
3
 10
43.61895411419992
 20
-5.680574069399995
 30
0.0
  0
VERTEX
  5
1C93
  8
3
 10
43.49752153409996
 20
-5.687677593200021
 30
0.0
  0
VERTEX
  5
1C94
  8
3
 10
43.34211955459993
 20
-5.737025729799996
 30
0.0
  0
VERTEX
  5
1C95
  8
3
 10
43.15804020359995
 20
-5.826937987400015
 30
0.0
  0
VERTEX
  5
1C96
  8
3
 10
42.95155208279992
 20
-5.954352512100002
 30
0.0
  0
VERTEX
  5
1C97
  8
3
 10
42.72968689729991
 20
-6.114930355000013
 30
0.0
  0
VERTEX
  5
1C98
  8
3
 10
42.49999999999993
 20
-6.303203230300028
 30
0.0
  0
SEQEND
  5
1DDD
  8
3
  0
POLYLINE
  5
10C0
  8
3
 66
     1
 10
0.0
 20
0.0
 30
0.0
 70
   128
  0
VERTEX
  5
1C99
  8
3
 10
42.49999999999993
 20
-6.303203230300028
 30
0.0
  0
VERTEX
  5
1C9A
  8
3
 10
42.28293977799994
 20
-6.124718718200029
 30
0.0
  0
VERTEX
  5
1C9B
  8
3
 10
42.07247482089996
 20
-5.970647676400006
 30
0.0
  0
VERTEX
  5
1C9C
  8
3
 10
41.87499999999993
 20
-5.8456714756
 30
0.0
  0
VERTEX
  5
1C9D
  8
3
 10
41.69651548789993
 20
-5.753587454300032
 30
0.0
  0
VERTEX
  5
1C9E
  8
3
 10
41.54244444609991
 20
-5.697193539000011
 30
0.0
  0
VERTEX
  5
1C9F
  8
3
 10
41.41746824529996
 20
-5.678203230300028
 30
0.0
  0
VERTEX
  5
1CA0
  8
3
 10
41.32538422409992
 20
-5.697193539000011
 30
0.0
  0
VERTEX
  5
1CA1
  8
3
 10
41.26899030879996
 20
-5.753587454300032
 30
0.0
  0
VERTEX
  5
1CA2
  8
3
 10
41.24999999999993
 20
-5.8456714756
 30
0.0
  0
VERTEX
  5
1CA3
  8
3
 10
41.26899030879996
 20
-5.970647676400006
 30
0.0
  0
VERTEX
  5
1CA4
  8
3
 10
41.32538422409992
 20
-6.124718718200029
 30
0.0
  0
VERTEX
  5
1CA5
  8
3
 10
41.41746824529996
 20
-6.303203230300028
 30
0.0
  0
VERTEX
  5
1CA6
  8
3
 10
41.54244444609991
 20
-6.50067805110001
 30
0.0
  0
VERTEX
  5
1CA7
  8
3
 10
41.69651548789993
 20
-6.711143008199997
 30
0.0
  0
VERTEX
  5
1CA8
  8
3
 10
41.87499999999993
 20
-6.928203230300028
 30
0.0
  0
VERTEX
  5
1CA9
  8
3
 10
42.07247482089996
 20
-7.145263452400002
 30
0.0
  0
VERTEX
  5
1CAA
  8
3
 10
42.28293977799994
 20
-7.355728409400001
 30
0.0
  0
VERTEX
  5
1CAB
  8
3
 10
42.49999999999993
 20
-7.553203230300028
 30
0.0
  0
SEQEND
  5
1DDE
  8
3
  0
POLYLINE
  5
10C1
  8
3
 66
     1
 10
0.0
 20
0.0
 30
0.0
 70
   128
  0
VERTEX
  5
1CAC
  8
3
 10
42.49999999999993
 20
-6.303203230300028
 30
0.0
  0
VERTEX
  5
1CAD
  8
3
 10
42.72968689729991
 20
-6.512759730900029
 30
0.0
  0
VERTEX
  5
1CAE
  8
3
 10
42.95155208279992
 20
-6.736463661700043
 30
0.0
  0
VERTEX
  5
1CAF
  8
3
 10
43.15804020359995
 20
-6.966697053500013
 30
0.0
  0
VERTEX
  5
1CB0
  8
3
 10
43.34211955459993
 20
-7.195619584300005
 30
0.0
  0
VERTEX
  5
1CB1
  8
3
 10
43.49752153409996
 20
-7.415435571900048
 30
0.0
  0
VERTEX
  5
1CB2
  8
3
 10
43.61895411419992
 20
-7.618659446500033
 30
0.0
  0
VERTEX
  5
1CB3
  8
3
 10
43.70228205399995
 20
-7.798370662699995
 30
0.0
  0
VERTEX
  5
1CB4
  8
3
 10
43.74466772039993
 20
-7.948449370700018
 30
0.0
  0
VERTEX
  5
1CB5
  8
3
 10
43.74466772039993
 20
-8.063784820100011
 30
0.0
  0
VERTEX
  5
1CB6
  8
3
 10
43.70228205399995
 20
-8.140449400300042
 30
0.0
  0
VERTEX
  5
1CB7
  8
3
 10
43.61895411419992
 20
-8.175832391200004
 30
0.0
  0
VERTEX
  5
1CB8
  8
3
 10
43.49752153409996
 20
-8.168728867400034
 30
0.0
  0
VERTEX
  5
1CB9
  8
3
 10
43.34211955459993
 20
-8.119380730800003
 30
0.0
  0
VERTEX
  5
1CBA
  8
3
 10
43.15804020359995
 20
-8.029468473099996
 30
0.0
  0
VERTEX
  5
1CBB
  8
3
 10
42.95155208279992
 20
-7.90205394840001
 30
0.0
  0
VERTEX
  5
1CBC
  8
3
 10
42.72968689729991
 20
-7.741476105499999
 30
0.0
  0
VERTEX
  5
1CBD
  8
3
 10
42.49999999999993
 20
-7.553203230300028
 30
0.0
  0
SEQEND
  5
1DDF
  8
3
  0
LINE
  5
10C2
  8
3
 10
40.99999999999993
 20
-5.678203230300028
 30
0.0
 11
40.99999999999993
 21
-8.178203230300028
 31
0.0
  0
POLYLINE
  5
10C3
  8
3
 66
     1
 10
0.0
 20
0.0
 30
0.0
 70
   128
  0
VERTEX
  5
1CBE
  8
3
 10
42.49999999999993
 20
-7.553203230300028
 30
0.0
  0
VERTEX
  5
1CBF
  8
3
 10
42.28293977799994
 20
-7.731687742400027
 30
0.0
  0
VERTEX
  5
1CC0
  8
3
 10
42.07247482089996
 20
-7.885758784199993
 30
0.0
  0
VERTEX
  5
1CC1
  8
3
 10
41.87499999999993
 20
-8.010734985
 30
0.0
  0
VERTEX
  5
1CC2
  8
3
 10
41.69651548789993
 20
-8.102819006300024
 30
0.0
  0
VERTEX
  5
1CC3
  8
3
 10
41.54244444609991
 20
-8.159212921600044
 30
0.0
  0
VERTEX
  5
1CC4
  8
3
 10
41.41746824529996
 20
-8.178203230300028
 30
0.0
  0
VERTEX
  5
1CC5
  8
3
 10
41.32538422409992
 20
-8.159212921600044
 30
0.0
  0
VERTEX
  5
1CC6
  8
3
 10
41.26899030879996
 20
-8.102819006300024
 30
0.0
  0
VERTEX
  5
1CC7
  8
3
 10
41.24999999999993
 20
-8.010734985
 30
0.0
  0
VERTEX
  5
1CC8
  8
3
 10
41.26899030879996
 20
-7.885758784199993
 30
0.0
  0
VERTEX
  5
1CC9
  8
3
 10
41.32538422409992
 20
-7.731687742400027
 30
0.0
  0
VERTEX
  5
1CCA
  8
3
 10
41.41746824529996
 20
-7.553203230300028
 30
0.0
  0
VERTEX
  5
1CCB
  8
3
 10
41.54244444609991
 20
-7.355728409400001
 30
0.0
  0
VERTEX
  5
1CCC
  8
3
 10
41.69651548789993
 20
-7.145263452400002
 30
0.0
  0
VERTEX
  5
1CCD
  8
3
 10
41.87499999999993
 20
-6.928203230300028
 30
0.0
  0
VERTEX
  5
1CCE
  8
3
 10
42.07247482089996
 20
-6.711143008199997
 30
0.0
  0
VERTEX
  5
1CCF
  8
3
 10
42.28293977799994
 20
-6.50067805110001
 30
0.0
  0
VERTEX
  5
1CD0
  8
3
 10
42.49999999999993
 20
-6.303203230300028
 30
0.0
  0
SEQEND
  5
1DE0
  8
3
  0
LINE
  5
10C4
  8
3
 10
40.99999999999993
 20
8.178203230299971
 30
0.0
 11
40.99999999999993
 21
5.678203230299971
 31
0.0
  0
POLYLINE
  5
10C5
  8
3
 66
     1
 10
0.0
 20
0.0
 30
0.0
 70
   128
  0
VERTEX
  5
1CD1
  8
3
 10
42.49999999999993
 20
6.303203230299971
 30
0.0
  0
VERTEX
  5
1CD2
  8
3
 10
42.28293977799994
 20
6.500678051099953
 30
0.0
  0
VERTEX
  5
1CD3
  8
3
 10
42.07247482089996
 20
6.711143008199997
 30
0.0
  0
VERTEX
  5
1CD4
  8
3
 10
41.87499999999993
 20
6.928203230299971
 30
0.0
  0
VERTEX
  5
1CD5
  8
3
 10
41.69651548789993
 20
7.145263452299957
 30
0.0
  0
VERTEX
  5
1CD6
  8
3
 10
41.54244444609991
 20
7.355728409400001
 30
0.0
  0
VERTEX
  5
1CD7
  8
3
 10
41.41746824529996
 20
7.553203230299971
 30
0.0
  0
VERTEX
  5
1CD8
  8
3
 10
41.32538422409992
 20
7.73168774239997
 30
0.0
  0
VERTEX
  5
1CD9
  8
3
 10
41.26899030879996
 20
7.885758784199993
 30
0.0
  0
VERTEX
  5
1CDA
  8
3
 10
41.24999999999993
 20
8.010734985
 30
0.0
  0
VERTEX
  5
1CDB
  8
3
 10
41.26899030879996
 20
8.10281900619998
 30
0.0
  0
VERTEX
  5
1CDC
  8
3
 10
41.32538422409992
 20
8.1592129215
 30
0.0
  0
VERTEX
  5
1CDD
  8
3
 10
41.41746824529996
 20
8.178203230299971
 30
0.0
  0
VERTEX
  5
1CDE
  8
3
 10
41.54244444609991
 20
8.1592129215
 30
0.0
  0
VERTEX
  5
1CDF
  8
3
 10
41.69651548789993
 20
8.10281900619998
 30
0.0
  0
VERTEX
  5
1CE0
  8
3
 10
41.87499999999993
 20
8.010734985
 30
0.0
  0
VERTEX
  5
1CE1
  8
3
 10
42.07247482089996
 20
7.885758784199993
 30
0.0
  0
VERTEX
  5
1CE2
  8
3
 10
42.28293977799994
 20
7.73168774239997
 30
0.0
  0
VERTEX
  5
1CE3
  8
3
 10
42.49999999999993
 20
7.553203230299971
 30
0.0
  0
SEQEND
  5
1DE1
  8
3
  0
POLYLINE
  5
10C6
  8
3
 66
     1
 10
0.0
 20
0.0
 30
0.0
 70
   128
  0
VERTEX
  5
1CE4
  8
3
 10
42.49999999999993
 20
7.553203230299971
 30
0.0
  0
VERTEX
  5
1CE5
  8
3
 10
42.72968689729991
 20
7.741476105499999
 30
0.0
  0
VERTEX
  5
1CE6
  8
3
 10
42.95155208279992
 20
7.902053948399953
 30
0.0
  0
VERTEX
  5
1CE7
  8
3
 10
43.15804020359995
 20
8.029468473099996
 30
0.0
  0
VERTEX
  5
1CE8
  8
3
 10
43.34211955459993
 20
8.119380730800003
 30
0.0
  0
VERTEX
  5
1CE9
  8
3
 10
43.49752153409996
 20
8.168728867399977
 30
0.0
  0
VERTEX
  5
1CEA
  8
3
 10
43.61895411419992
 20
8.175832391200004
 30
0.0
  0
VERTEX
  5
1CEB
  8
3
 10
43.70228205399995
 20
8.140449400299985
 30
0.0
  0
VERTEX
  5
1CEC
  8
3
 10
43.74466772039993
 20
8.063784819999967
 30
0.0
  0
VERTEX
  5
1CED
  8
3
 10
43.74466772039993
 20
7.948449370699961
 30
0.0
  0
VERTEX
  5
1CEE
  8
3
 10
43.70228205399995
 20
7.798370662699995
 30
0.0
  0
VERTEX
  5
1CEF
  8
3
 10
43.61895411419992
 20
7.618659446499976
 30
0.0
  0
VERTEX
  5
1CF0
  8
3
 10
43.49752153409996
 20
7.415435571899991
 30
0.0
  0
VERTEX
  5
1CF1
  8
3
 10
43.34211955459993
 20
7.195619584300005
 30
0.0
  0
VERTEX
  5
1CF2
  8
3
 10
43.15804020359995
 20
6.966697053499956
 30
0.0
  0
VERTEX
  5
1CF3
  8
3
 10
42.95155208279992
 20
6.736463661699986
 30
0.0
  0
VERTEX
  5
1CF4
  8
3
 10
42.72968689729991
 20
6.512759730899973
 30
0.0
  0
VERTEX
  5
1CF5
  8
3
 10
42.49999999999993
 20
6.303203230299971
 30
0.0
  0
SEQEND
  5
1DE2
  8
3
  0
POLYLINE
  5
10C7
  8
3
 66
     1
 10
0.0
 20
0.0
 30
0.0
 70
   128
  0
VERTEX
  5
1CF6
  8
3
 10
42.49999999999993
 20
-18.5358120587
 30
0.0
  0
VERTEX
  5
1CF7
  8
3
 10
42.97835429049995
 20
-18.58338735090001
 30
0.0
  0
VERTEX
  5
1CF8
  8
3
 10
43.38388347649992
 20
-18.7188703205
 30
0.0
  0
VERTEX
  5
1CF9
  8
3
 10
43.65484941569996
 20
-18.92163491350004
 30
0.0
  0
VERTEX
  5
1CFA
  8
3
 10
43.74999999999993
 20
-19.1608120587
 30
0.0
  0
VERTEX
  5
1CFB
  8
3
 10
43.65484941569996
 20
-19.39998920400001
 30
0.0
  0
VERTEX
  5
1CFC
  8
3
 10
43.38388347649992
 20
-19.60275379700005
 30
0.0
  0
VERTEX
  5
1CFD
  8
3
 10
42.97835429049995
 20
-19.73823676660004
 30
0.0
  0
VERTEX
  5
1CFE
  8
3
 10
42.49999999999993
 20
-19.7858120587
 30
0.0
  0
VERTEX
  5
1CFF
  8
3
 10
42.02164570959995
 20
-19.73823676660004
 30
0.0
  0
VERTEX
  5
1D00
  8
3
 10
41.61611652359993
 20
-19.60275379700005
 30
0.0
  0
VERTEX
  5
1D01
  8
3
 10
41.34515058439995
 20
-19.39998920400001
 30
0.0
  0
VERTEX
  5
1D02
  8
3
 10
41.24999999999993
 20
-19.1608120587
 30
0.0
  0
VERTEX
  5
1D03
  8
3
 10
41.34515058439995
 20
-18.92163491350004
 30
0.0
  0
VERTEX
  5
1D04
  8
3
 10
41.61611652359993
 20
-18.7188703205
 30
0.0
  0
VERTEX
  5
1D05
  8
3
 10
42.02164570959995
 20
-18.58338735090001
 30
0.0
  0
VERTEX
  5
1D06
  8
3
 10
42.49999999999993
 20
-18.5358120587
 30
0.0
  0
SEQEND
  5
1DE3
  8
3
  0
POLYLINE
  5
10C8
  8
3
 66
     1
 10
0.0
 20
0.0
 30
0.0
 70
   128
  0
VERTEX
  5
1D07
  8
3
 10
42.49999999999993
 20
19.7858120587
 30
0.0
  0
VERTEX
  5
1D08
  8
3
 10
42.97835429049995
 20
19.73823676649999
 30
0.0
  0
VERTEX
  5
1D09
  8
3
 10
43.38388347649992
 20
19.60275379699999
 30
0.0
  0
VERTEX
  5
1D0A
  8
3
 10
43.65484941569996
 20
19.39998920389996
 30
0.0
  0
VERTEX
  5
1D0B
  8
3
 10
43.74999999999993
 20
19.1608120587
 30
0.0
  0
VERTEX
  5
1D0C
  8
3
 10
43.65484941569996
 20
18.92163491349999
 30
0.0
  0
VERTEX
  5
1D0D
  8
3
 10
43.38388347649992
 20
18.7188703205
 30
0.0
  0
VERTEX
  5
1D0E
  8
3
 10
42.97835429049995
 20
18.58338735089995
 30
0.0
  0
VERTEX
  5
1D0F
  8
3
 10
42.49999999999993
 20
18.5358120587
 30
0.0
  0
VERTEX
  5
1D10
  8
3
 10
42.02164570959995
 20
18.58338735089995
 30
0.0
  0
VERTEX
  5
1D11
  8
3
 10
41.61611652359993
 20
18.7188703205
 30
0.0
  0
VERTEX
  5
1D12
  8
3
 10
41.34515058439995
 20
18.92163491349999
 30
0.0
  0
VERTEX
  5
1D13
  8
3
 10
41.24999999999993
 20
19.1608120587
 30
0.0
  0
VERTEX
  5
1D14
  8
3
 10
41.34515058439995
 20
19.39998920389996
 30
0.0
  0
VERTEX
  5
1D15
  8
3
 10
41.61611652359993
 20
19.60275379699999
 30
0.0
  0
VERTEX
  5
1D16
  8
3
 10
42.02164570959995
 20
19.73823676649999
 30
0.0
  0
VERTEX
  5
1D17
  8
3
 10
42.49999999999993
 20
19.7858120587
 30
0.0
  0
SEQEND
  5
1DE4
  8
3
  0
POLYLINE
  5
10C9
  8
3
 66
     1
 10
0.0
 20
0.0
 30
0.0
 70
   128
  0
VERTEX
  5
1D18
  8
3
 10
42.49999999999993
 20
-18.67307158520003
 30
0.0
  0
VERTEX
  5
1D19
  8
3
 10
43.02763663749992
 20
-18.71709507630004
 30
0.0
  0
VERTEX
  5
1D1A
  8
3
 10
43.49809565819992
 20
-18.84439492130002
 30
0.0
  0
VERTEX
  5
1D1B
  8
3
 10
43.86039552719994
 20
-19.04117620670002
 30
0.0
  0
VERTEX
  5
1D1C
  8
3
 10
44.07527543219992
 20
-19.28611462690003
 30
0.0
  0
VERTEX
  5
1D1D
  8
3
 10
44.11944980119993
 20
-19.55266730340003
 30
0.0
  0
VERTEX
  5
1D1E
  8
3
 10
43.98813165589995
 20
-19.81194911770001
 30
0.0
  0
VERTEX
  5
1D1F
  8
3
 10
43.69555135489996
 20
-20.03586286210003
 30
0.0
  0
VERTEX
  5
1D20
  8
3
 10
43.27341451369993
 20
-20.200144008
 30
0.0
  0
VERTEX
  5
1D21
  8
3
 10
42.76746620929991
 20
-20.28699014420005
 30
0.0
  0
VERTEX
  5
1D22
  8
3
 10
42.23253379079993
 20
-20.28699014420005
 30
0.0
  0
VERTEX
  5
1D23
  8
3
 10
41.72658548639991
 20
-20.200144008
 30
0.0
  0
VERTEX
  5
1D24
  8
3
 10
41.30444864519994
 20
-20.03586286210003
 30
0.0
  0
VERTEX
  5
1D25
  8
3
 10
41.01186834419995
 20
-19.81194911770001
 30
0.0
  0
VERTEX
  5
1D26
  8
3
 10
40.88055019889991
 20
-19.55266730340003
 30
0.0
  0
VERTEX
  5
1D27
  8
3
 10
40.92472456789993
 20
-19.28611462690003
 30
0.0
  0
VERTEX
  5
1D28
  8
3
 10
41.13960447289996
 20
-19.04117620670002
 30
0.0
  0
VERTEX
  5
1D29
  8
3
 10
41.50190434189993
 20
-18.84439492130002
 30
0.0
  0
VERTEX
  5
1D2A
  8
3
 10
41.97236336259992
 20
-18.71709507630004
 30
0.0
  0
VERTEX
  5
1D2B
  8
3
 10
42.49999999999993
 20
-18.67307158520003
 30
0.0
  0
SEQEND
  5
1DE5
  8
3
  0
POLYLINE
  5
10CA
  8
3
 66
     1
 10
0.0
 20
0.0
 30
0.0
 70
   128
  0
VERTEX
  5
1D2C
  8
3
 10
42.49999999999993
 20
20.29807158509999
 30
0.0
  0
VERTEX
  5
1D2D
  8
3
 10
43.02763663749992
 20
20.25404809399998
 30
0.0
  0
VERTEX
  5
1D2E
  8
3
 10
43.49809565819992
 20
20.126748249
 30
0.0
  0
VERTEX
  5
1D2F
  8
3
 10
43.86039552719994
 20
19.92996696359995
 30
0.0
  0
VERTEX
  5
1D30
  8
3
 10
44.07527543219992
 20
19.68502854339999
 30
0.0
  0
VERTEX
  5
1D31
  8
3
 10
44.11944980119993
 20
19.4184758669
 30
0.0
  0
VERTEX
  5
1D32
  8
3
 10
43.98813165589995
 20
19.15919405259996
 30
0.0
  0
VERTEX
  5
1D33
  8
3
 10
43.69555135489996
 20
18.93528030819999
 30
0.0
  0
VERTEX
  5
1D34
  8
3
 10
43.27341451369993
 20
18.77099916229997
 30
0.0
  0
VERTEX
  5
1D35
  8
3
 10
42.76746620929991
 20
18.68415302609998
 30
0.0
  0
VERTEX
  5
1D36
  8
3
 10
42.23253379079993
 20
18.68415302609998
 30
0.0
  0
VERTEX
  5
1D37
  8
3
 10
41.72658548639991
 20
18.77099916229997
 30
0.0
  0
VERTEX
  5
1D38
  8
3
 10
41.30444864519994
 20
18.93528030819999
 30
0.0
  0
VERTEX
  5
1D39
  8
3
 10
41.01186834419995
 20
19.15919405259996
 30
0.0
  0
VERTEX
  5
1D3A
  8
3
 10
40.88055019889991
 20
19.4184758669
 30
0.0
  0
VERTEX
  5
1D3B
  8
3
 10
40.92472456789993
 20
19.68502854339999
 30
0.0
  0
VERTEX
  5
1D3C
  8
3
 10
41.13960447289996
 20
19.92996696359995
 30
0.0
  0
VERTEX
  5
1D3D
  8
3
 10
41.50190434189993
 20
20.126748249
 30
0.0
  0
VERTEX
  5
1D3E
  8
3
 10
41.97236336259992
 20
20.25404809399998
 30
0.0
  0
VERTEX
  5
1D3F
  8
3
 10
42.49999999999993
 20
20.29807158509999
 30
0.0
  0
SEQEND
  5
1DE6
  8
3
  0
POLYLINE
  5
10CB
  8
3
 66
     1
 10
0.0
 20
0.0
 30
0.0
 70
   128
  0
VERTEX
  5
1D40
  8
3
 10
42.49999999999993
 20
-14.8384572681
 30
0.0
  0
VERTEX
  5
1D41
  8
3
 10
43.01303021499994
 20
-14.88368780250005
 30
0.0
  0
VERTEX
  5
1D42
  8
3
 10
43.46418141459996
 20
-15.01392393579999
 30
0.0
  0
VERTEX
  5
1D43
  8
3
 10
43.79903810569992
 20
-15.2134572681
 30
0.0
  0
VERTEX
  5
1D44
  8
3
 10
43.97721162959992
 20
-15.45822113490004
 30
0.0
  0
VERTEX
  5
1D45
  8
3
 10
43.97721162959992
 20
-15.7186934014
 30
0.0
  0
VERTEX
  5
1D46
  8
3
 10
43.79903810569992
 20
-15.9634572681
 30
0.0
  0
VERTEX
  5
1D47
  8
3
 10
43.46418141459996
 20
-16.1629906005
 30
0.0
  0
VERTEX
  5
1D48
  8
3
 10
43.01303021499994
 20
-16.29322673370001
 30
0.0
  0
VERTEX
  5
1D49
  8
3
 10
42.49999999999993
 20
-16.3384572681
 30
0.0
  0
VERTEX
  5
1D4A
  8
3
 10
41.98696978509996
 20
-16.29322673370001
 30
0.0
  0
VERTEX
  5
1D4B
  8
3
 10
41.53581858549994
 20
-16.1629906005
 30
0.0
  0
VERTEX
  5
1D4C
  8
3
 10
41.20096189439992
 20
-15.9634572681
 30
0.0
  0
VERTEX
  5
1D4D
  8
3
 10
41.02278837049992
 20
-15.7186934014
 30
0.0
  0
VERTEX
  5
1D4E
  8
3
 10
41.02278837049992
 20
-15.45822113490004
 30
0.0
  0
VERTEX
  5
1D4F
  8
3
 10
41.20096189439992
 20
-15.2134572681
 30
0.0
  0
VERTEX
  5
1D50
  8
3
 10
41.53581858549994
 20
-15.01392393579999
 30
0.0
  0
VERTEX
  5
1D51
  8
3
 10
41.98696978509996
 20
-14.88368780250005
 30
0.0
  0
VERTEX
  5
1D52
  8
3
 10
42.49999999999993
 20
-14.8384572681
 30
0.0
  0
SEQEND
  5
1DE7
  8
3
  0
POLYLINE
  5
10CC
  8
3
 66
     1
 10
0.0
 20
0.0
 30
0.0
 70
   128
  0
VERTEX
  5
1D53
  8
3
 10
42.49999999999993
 20
-14.6554445662
 30
0.0
  0
VERTEX
  5
1D54
  8
3
 10
42.88268343239996
 20
-14.69350480000003
 30
0.0
  0
VERTEX
  5
1D55
  8
3
 10
43.20710678119995
 20
-14.80189117560002
 30
0.0
  0
VERTEX
  5
1D56
  8
3
 10
43.42387953259991
 20
-14.96410285010001
 30
0.0
  0
VERTEX
  5
1D57
  8
3
 10
43.49999999999993
 20
-15.1554445662
 30
0.0
  0
VERTEX
  5
1D58
  8
3
 10
43.42387953259991
 20
-15.34678628240005
 30
0.0
  0
VERTEX
  5
1D59
  8
3
 10
43.20710678119995
 20
-15.50899795680004
 30
0.0
  0
VERTEX
  5
1D5A
  8
3
 10
42.88268343239996
 20
-15.61738433250002
 30
0.0
  0
VERTEX
  5
1D5B
  8
3
 10
42.49999999999993
 20
-15.6554445662
 30
0.0
  0
VERTEX
  5
1D5C
  8
3
 10
42.11731656769994
 20
-15.61738433250002
 30
0.0
  0
VERTEX
  5
1D5D
  8
3
 10
41.79289321889995
 20
-15.50899795680004
 30
0.0
  0
VERTEX
  5
1D5E
  8
3
 10
41.57612046749993
 20
-15.34678628240005
 30
0.0
  0
VERTEX
  5
1D5F
  8
3
 10
41.49999999999993
 20
-15.1554445662
 30
0.0
  0
VERTEX
  5
1D60
  8
3
 10
41.57612046749993
 20
-14.96410285010001
 30
0.0
  0
VERTEX
  5
1D61
  8
3
 10
41.79289321889995
 20
-14.80189117560002
 30
0.0
  0
VERTEX
  5
1D62
  8
3
 10
42.11731656769994
 20
-14.69350480000003
 30
0.0
  0
VERTEX
  5
1D63
  8
3
 10
42.49999999999993
 20
-14.6554445662
 30
0.0
  0
SEQEND
  5
1DE8
  8
3
  0
POLYLINE
  5
10CD
  8
3
 66
     1
 10
0.0
 20
0.0
 30
0.0
 70
   128
  0
VERTEX
  5
1D64
  8
3
 10
42.49999999999993
 20
-18.5953215852
 30
0.0
  0
VERTEX
  5
1D65
  8
3
 10
43.01303021499994
 20
-18.64055211960004
 30
0.0
  0
VERTEX
  5
1D66
  8
3
 10
43.46418141459996
 20
-18.7707882528
 30
0.0
  0
VERTEX
  5
1D67
  8
3
 10
43.79903810569992
 20
-18.9703215852
 30
0.0
  0
VERTEX
  5
1D68
  8
3
 10
43.97721162959992
 20
-19.21508545189999
 30
0.0
  0
VERTEX
  5
1D69
  8
3
 10
43.97721162959992
 20
-19.47555771840001
 30
0.0
  0
VERTEX
  5
1D6A
  8
3
 10
43.79903810569992
 20
-19.7203215852
 30
0.0
  0
VERTEX
  5
1D6B
  8
3
 10
43.46418141459996
 20
-19.9198549175
 30
0.0
  0
VERTEX
  5
1D6C
  8
3
 10
43.01303021499994
 20
-20.05009105070002
 30
0.0
  0
VERTEX
  5
1D6D
  8
3
 10
42.49999999999993
 20
-20.0953215852
 30
0.0
  0
VERTEX
  5
1D6E
  8
3
 10
41.98696978509996
 20
-20.05009105070002
 30
0.0
  0
VERTEX
  5
1D6F
  8
3
 10
41.53581858549994
 20
-19.9198549175
 30
0.0
  0
VERTEX
  5
1D70
  8
3
 10
41.20096189439992
 20
-19.7203215852
 30
0.0
  0
VERTEX
  5
1D71
  8
3
 10
41.02278837049992
 20
-19.47555771840001
 30
0.0
  0
VERTEX
  5
1D72
  8
3
 10
41.02278837049992
 20
-19.21508545189999
 30
0.0
  0
VERTEX
  5
1D73
  8
3
 10
41.20096189439992
 20
-18.9703215852
 30
0.0
  0
VERTEX
  5
1D74
  8
3
 10
41.53581858549994
 20
-18.7707882528
 30
0.0
  0
VERTEX
  5
1D75
  8
3
 10
41.98696978509996
 20
-18.64055211960004
 30
0.0
  0
VERTEX
  5
1D76
  8
3
 10
42.49999999999993
 20
-18.5953215852
 30
0.0
  0
SEQEND
  5
1DE9
  8
3
  0
LINE
  5
10CE
  8
3
 10
43.24999999999993
 20
-17.8834245882
 30
0.0
 11
42.49999999999993
 21
-18.09993093910003
 31
0.0
  0
LINE
  5
10CF
  8
3
 10
42.49999999999993
 20
-18.09993093910003
 30
0.0
 11
42.49999999999993
 21
-19.91858428710003
 31
0.0
  0
LINE
  5
10D0
  8
3
 10
41.74999999999993
 20
-17.8834245882
 30
0.0
 11
42.49999999999993
 21
-18.09993093910003
 31
0.0
  0
LINE
  5
10D1
  8
3
 10
41.74999999999993
 20
-17.8834245882
 30
0.0
 11
41.74999999999993
 21
-19.70207793610001
 31
0.0
  0
LINE
  5
10D2
  8
3
 10
41.74999999999993
 20
-17.4504118863
 30
0.0
 11
41.74999999999993
 21
-17.8834245882
 31
0.0
  0
LINE
  5
10D3
  8
3
 10
43.24999999999993
 20
-17.8834245882
 30
0.0
 11
43.24999999999993
 21
-19.70207793610001
 31
0.0
  0
LINE
  5
10D4
  8
3
 10
43.24999999999993
 20
-17.4504118863
 30
0.0
 11
43.24999999999993
 21
-17.8834245882
 31
0.0
  0
POLYLINE
  5
10D5
  8
3
 66
     1
 10
0.0
 20
0.0
 30
0.0
 70
   128
  0
VERTEX
  5
1D77
  8
3
 10
42.49999999999993
 20
-18.87582158520001
 30
0.0
  0
VERTEX
  5
1D78
  8
3
 10
42.96668244579995
 20
-18.9222360402
 30
0.0
  0
VERTEX
  5
1D79
  8
3
 10
43.36231671969993
 20
-19.05441322530004
 30
0.0
  0
VERTEX
  5
1D7A
  8
3
 10
43.62667108989994
 20
-19.2522303623
 30
0.0
  0
VERTEX
  5
1D7B
  8
3
 10
43.71949999999991
 20
-19.48557158520003
 30
0.0
  0
VERTEX
  5
1D7C
  8
3
 10
43.62667108989994
 20
-19.71891280800003
 30
0.0
  0
VERTEX
  5
1D7D
  8
3
 10
43.36231671969993
 20
-19.91672994500004
 30
0.0
  0
VERTEX
  5
1D7E
  8
3
 10
42.96668244579995
 20
-20.04890713010002
 30
0.0
  0
VERTEX
  5
1D7F
  8
3
 10
42.49999999999993
 20
-20.0953215852
 30
0.0
  0
VERTEX
  5
1D80
  8
3
 10
42.03331755429996
 20
-20.04890713010002
 30
0.0
  0
VERTEX
  5
1D81
  8
3
 10
41.63768328039991
 20
-19.91672994500004
 30
0.0
  0
VERTEX
  5
1D82
  8
3
 10
41.37332891009991
 20
-19.71891280800003
 30
0.0
  0
VERTEX
  5
1D83
  8
3
 10
41.28049999999995
 20
-19.48557158520003
 30
0.0
  0
VERTEX
  5
1D84
  8
3
 10
41.37332891009991
 20
-19.2522303623
 30
0.0
  0
VERTEX
  5
1D85
  8
3
 10
41.63768328039991
 20
-19.05441322530004
 30
0.0
  0
VERTEX
  5
1D86
  8
3
 10
42.03331755429996
 20
-18.9222360402
 30
0.0
  0
VERTEX
  5
1D87
  8
3
 10
42.49999999999993
 20
-18.87582158520001
 30
0.0
  0
SEQEND
  5
1DEA
  8
3
  0
LINE
  5
10D6
  8
3
 10
41.74999999999993
 20
-19.70207793610001
 30
0.0
 11
42.49999999999993
 21
-19.91858428710003
 31
0.0
  0
LINE
  5
10D7
  8
3
 10
43.24999999999993
 20
-19.70207793610001
 30
0.0
 11
42.49999999999993
 21
-19.91858428710003
 31
0.0
  0
LINE
  5
10D8
  8
3
 10
42.49999999999993
 20
-17.23390553530004
 30
0.0
 11
42.49999999999993
 21
-18.09993093910003
 31
0.0
  0
LINE
  5
10D9
  8
3
 10
43.24999999999993
 20
-19.26906523420001
 30
0.0
 11
42.49999999999993
 21
-19.05255888330004
 31
0.0
  0
LINE
  5
10DA
  8
3
 10
43.24999999999993
 20
-17.4504118863
 30
0.0
 11
42.49999999999993
 21
-17.23390553530004
 31
0.0
  0
LINE
  5
10DB
  8
3
 10
41.74999999999993
 20
-19.26906523420001
 30
0.0
 11
42.49999999999993
 21
-19.05255888330004
 31
0.0
  0
LINE
  5
10DC
  8
3
 10
41.74999999999993
 20
-17.4504118863
 30
0.0
 11
42.49999999999993
 21
-17.23390553530004
 31
0.0
  0
POLYLINE
  5
10DD
  8
3
 66
     1
 10
0.0
 20
0.0
 30
0.0
 70
   128
  0
VERTEX
  5
1D88
  8
3
 10
42.49999999999993
 20
16.3384572681
 30
0.0
  0
VERTEX
  5
1D89
  8
3
 10
43.01303021499994
 20
16.29322673369995
 30
0.0
  0
VERTEX
  5
1D8A
  8
3
 10
43.46418141459996
 20
16.16299060039995
 30
0.0
  0
VERTEX
  5
1D8B
  8
3
 10
43.79903810569992
 20
15.9634572681
 30
0.0
  0
VERTEX
  5
1D8C
  8
3
 10
43.97721162959992
 20
15.7186934014
 30
0.0
  0
VERTEX
  5
1D8D
  8
3
 10
43.97721162959992
 20
15.45822113489999
 30
0.0
  0
VERTEX
  5
1D8E
  8
3
 10
43.79903810569992
 20
15.2134572681
 30
0.0
  0
VERTEX
  5
1D8F
  8
3
 10
43.46418141459996
 20
15.01392393579999
 30
0.0
  0
VERTEX
  5
1D90
  8
3
 10
43.01303021499994
 20
14.88368780249999
 30
0.0
  0
VERTEX
  5
1D91
  8
3
 10
42.49999999999993
 20
14.8384572681
 30
0.0
  0
VERTEX
  5
1D92
  8
3
 10
41.98696978509996
 20
14.88368780249999
 30
0.0
  0
VERTEX
  5
1D93
  8
3
 10
41.53581858549994
 20
15.01392393579999
 30
0.0
  0
VERTEX
  5
1D94
  8
3
 10
41.20096189439992
 20
15.2134572681
 30
0.0
  0
VERTEX
  5
1D95
  8
3
 10
41.02278837049992
 20
15.45822113489999
 30
0.0
  0
VERTEX
  5
1D96
  8
3
 10
41.02278837049992
 20
15.7186934014
 30
0.0
  0
VERTEX
  5
1D97
  8
3
 10
41.20096189439992
 20
15.9634572681
 30
0.0
  0
VERTEX
  5
1D98
  8
3
 10
41.53581858549994
 20
16.16299060039995
 30
0.0
  0
VERTEX
  5
1D99
  8
3
 10
41.98696978509996
 20
16.29322673369995
 30
0.0
  0
VERTEX
  5
1D9A
  8
3
 10
42.49999999999993
 20
16.3384572681
 30
0.0
  0
SEQEND
  5
1DEB
  8
3
  0
POLYLINE
  5
10DE
  8
3
 66
     1
 10
0.0
 20
0.0
 30
0.0
 70
   128
  0
VERTEX
  5
1D9B
  8
3
 10
42.49999999999993
 20
15.6554445662
 30
0.0
  0
VERTEX
  5
1D9C
  8
3
 10
42.88268343239996
 20
15.61738433249997
 30
0.0
  0
VERTEX
  5
1D9D
  8
3
 10
43.20710678119995
 20
15.50899795679999
 30
0.0
  0
VERTEX
  5
1D9E
  8
3
 10
43.42387953259991
 20
15.34678628239999
 30
0.0
  0
VERTEX
  5
1D9F
  8
3
 10
43.49999999999993
 20
15.1554445662
 30
0.0
  0
VERTEX
  5
1DA0
  8
3
 10
43.42387953259991
 20
14.96410284999996
 30
0.0
  0
VERTEX
  5
1DA1
  8
3
 10
43.20710678119995
 20
14.80189117559996
 30
0.0
  0
VERTEX
  5
1DA2
  8
3
 10
42.88268343239996
 20
14.69350479999997
 30
0.0
  0
VERTEX
  5
1DA3
  8
3
 10
42.49999999999993
 20
14.6554445662
 30
0.0
  0
VERTEX
  5
1DA4
  8
3
 10
42.11731656769994
 20
14.69350479999997
 30
0.0
  0
VERTEX
  5
1DA5
  8
3
 10
41.79289321889995
 20
14.80189117559996
 30
0.0
  0
VERTEX
  5
1DA6
  8
3
 10
41.57612046749993
 20
14.96410284999996
 30
0.0
  0
VERTEX
  5
1DA7
  8
3
 10
41.49999999999993
 20
15.1554445662
 30
0.0
  0
VERTEX
  5
1DA8
  8
3
 10
41.57612046749993
 20
15.34678628239999
 30
0.0
  0
VERTEX
  5
1DA9
  8
3
 10
41.79289321889995
 20
15.50899795679999
 30
0.0
  0
VERTEX
  5
1DAA
  8
3
 10
42.11731656769994
 20
15.61738433249997
 30
0.0
  0
VERTEX
  5
1DAB
  8
3
 10
42.49999999999993
 20
15.6554445662
 30
0.0
  0
SEQEND
  5
1DEC
  8
3
  0
POLYLINE
  5
10DF
  8
3
 66
     1
 10
0.0
 20
0.0
 30
0.0
 70
   128
  0
VERTEX
  5
1DAC
  8
3
 10
42.49999999999993
 20
20.09532158509995
 30
0.0
  0
VERTEX
  5
1DAD
  8
3
 10
43.01303021499994
 20
20.05009105069996
 30
0.0
  0
VERTEX
  5
1DAE
  8
3
 10
43.46418141459996
 20
19.9198549175
 30
0.0
  0
VERTEX
  5
1DAF
  8
3
 10
43.79903810569992
 20
19.72032158509995
 30
0.0
  0
VERTEX
  5
1DB0
  8
3
 10
43.97721162959992
 20
19.47555771839995
 30
0.0
  0
VERTEX
  5
1DB1
  8
3
 10
43.97721162959992
 20
19.21508545189999
 30
0.0
  0
VERTEX
  5
1DB2
  8
3
 10
43.79903810569992
 20
18.97032158509995
 30
0.0
  0
VERTEX
  5
1DB3
  8
3
 10
43.46418141459996
 20
18.7707882528
 30
0.0
  0
VERTEX
  5
1DB4
  8
3
 10
43.01303021499994
 20
18.6405521195
 30
0.0
  0
VERTEX
  5
1DB5
  8
3
 10
42.49999999999993
 20
18.59532158509995
 30
0.0
  0
VERTEX
  5
1DB6
  8
3
 10
41.98696978509996
 20
18.6405521195
 30
0.0
  0
VERTEX
  5
1DB7
  8
3
 10
41.53581858549994
 20
18.7707882528
 30
0.0
  0
VERTEX
  5
1DB8
  8
3
 10
41.20096189439992
 20
18.97032158509995
 30
0.0
  0
VERTEX
  5
1DB9
  8
3
 10
41.02278837049992
 20
19.21508545189999
 30
0.0
  0
VERTEX
  5
1DBA
  8
3
 10
41.02278837049992
 20
19.47555771839995
 30
0.0
  0
VERTEX
  5
1DBB
  8
3
 10
41.20096189439992
 20
19.72032158509995
 30
0.0
  0
VERTEX
  5
1DBC
  8
3
 10
41.53581858549994
 20
19.9198549175
 30
0.0
  0
VERTEX
  5
1DBD
  8
3
 10
41.98696978509996
 20
20.05009105069996
 30
0.0
  0
VERTEX
  5
1DBE
  8
3
 10
42.49999999999993
 20
20.09532158509995
 30
0.0
  0
SEQEND
  5
1DED
  8
3
  0
LINE
  5
10E0
  8
3
 10
42.49999999999993
 20
18.09993093909998
 30
0.0
 11
42.49999999999993
 21
19.91858428699999
 31
0.0
  0
LINE
  5
10E1
  8
3
 10
41.74999999999993
 20
17.88342458809996
 30
0.0
 11
42.49999999999993
 21
18.09993093909998
 31
0.0
  0
LINE
  5
10E2
  8
3
 10
43.24999999999993
 20
17.88342458809996
 30
0.0
 11
42.49999999999993
 21
18.09993093909998
 31
0.0
  0
LINE
  5
10E3
  8
3
 10
41.74999999999993
 20
17.88342458809996
 30
0.0
 11
41.74999999999993
 21
17.45041188619996
 31
0.0
  0
LINE
  5
10E4
  8
3
 10
41.74999999999993
 20
17.88342458809996
 30
0.0
 11
41.74999999999993
 21
19.70207793609995
 31
0.0
  0
LINE
  5
10E5
  8
3
 10
43.24999999999993
 20
17.88342458809996
 30
0.0
 11
43.24999999999993
 21
17.45041188619996
 31
0.0
  0
LINE
  5
10E6
  8
3
 10
43.24999999999993
 20
17.88342458809996
 30
0.0
 11
43.24999999999993
 21
19.70207793609995
 31
0.0
  0
POLYLINE
  5
10E7
  8
3
 66
     1
 10
0.0
 20
0.0
 30
0.0
 70
   128
  0
VERTEX
  5
1DBF
  8
3
 10
42.49999999999993
 20
20.09532158509995
 30
0.0
  0
VERTEX
  5
1DC0
  8
3
 10
42.96668244579995
 20
20.04890713009996
 30
0.0
  0
VERTEX
  5
1DC1
  8
3
 10
43.36231671969993
 20
19.91672994499999
 30
0.0
  0
VERTEX
  5
1DC2
  8
3
 10
43.62667108989994
 20
19.71891280799997
 30
0.0
  0
VERTEX
  5
1DC3
  8
3
 10
43.71949999999991
 20
19.48557158509999
 30
0.0
  0
VERTEX
  5
1DC4
  8
3
 10
43.62667108989994
 20
19.2522303623
 30
0.0
  0
VERTEX
  5
1DC5
  8
3
 10
43.36231671969993
 20
19.05441322529998
 30
0.0
  0
VERTEX
  5
1DC6
  8
3
 10
42.96668244579995
 20
18.9222360402
 30
0.0
  0
VERTEX
  5
1DC7
  8
3
 10
42.49999999999993
 20
18.87582158509997
 30
0.0
  0
VERTEX
  5
1DC8
  8
3
 10
42.03331755429996
 20
18.9222360402
 30
0.0
  0
VERTEX
  5
1DC9
  8
3
 10
41.63768328039991
 20
19.05441322529998
 30
0.0
  0
VERTEX
  5
1DCA
  8
3
 10
41.37332891009991
 20
19.2522303623
 30
0.0
  0
VERTEX
  5
1DCB
  8
3
 10
41.28049999999995
 20
19.48557158509999
 30
0.0
  0
VERTEX
  5
1DCC
  8
3
 10
41.37332891009991
 20
19.71891280799997
 30
0.0
  0
VERTEX
  5
1DCD
  8
3
 10
41.63768328039991
 20
19.91672994499999
 30
0.0
  0
VERTEX
  5
1DCE
  8
3
 10
42.03331755429996
 20
20.04890713009996
 30
0.0
  0
VERTEX
  5
1DCF
  8
3
 10
42.49999999999993
 20
20.09532158509995
 30
0.0
  0
SEQEND
  5
1DEE
  8
3
  0
LINE
  5
10E8
  8
3
 10
41.74999999999993
 20
19.70207793609995
 30
0.0
 11
42.49999999999993
 21
19.91858428699999
 31
0.0
  0
LINE
  5
10E9
  8
3
 10
43.24999999999993
 20
19.70207793609995
 30
0.0
 11
42.49999999999993
 21
19.91858428699999
 31
0.0
  0
LINE
  5
10EA
  8
3
 10
42.49999999999993
 20
17.23390553529998
 30
0.0
 11
42.49999999999993
 21
18.09993093909998
 31
0.0
  0
LINE
  5
10EB
  8
3
 10
43.24999999999993
 20
19.26906523419996
 30
0.0
 11
42.49999999999993
 21
19.05255888319999
 31
0.0
  0
LINE
  5
10EC
  8
3
 10
43.24999999999993
 20
17.45041188619996
 30
0.0
 11
42.49999999999993
 21
17.23390553529998
 31
0.0
  0
LINE
  5
10ED
  8
3
 10
41.74999999999993
 20
19.26906523419996
 30
0.0
 11
42.49999999999993
 21
19.05255888319999
 31
0.0
  0
LINE
  5
10EE
  8
3
 10
41.74999999999993
 20
17.45041188619996
 30
0.0
 11
42.49999999999993
 21
17.23390553529998
 31
0.0
  0
CIRCLE
  5
10EF
  8
3
 10
42.49999999999993
 20
0.0
 30
0.0
 40
1.0
  0
LINE
  5
10F6
  8
3
 10
49.99999999999999
 20
22.25749999999999
 30
0.0
 11
39.56296030499992
 21
22.25749999999999
 31
0.0
  0
LINE
  5
10F7
  8
3
 10
39.56296030499992
 20
12.24250000000001
 30
0.0
 11
49.99999999999999
 21
12.24250000000001
 31
0.0
  0
ARC
  5
10F8
  8
3
 10
39.49999999999993
 20
22.45069999999998
 30
0.0
 40
0.203200000000038
 50
270.0
 51
288.0498306933012
  0
ARC
  5
10F9
  8
3
 10
39.49999999999993
 20
12.04929999999996
 30
0.0
 40
0.203200000000038
 50
71.95016930669875
 51
90.0
  0
LINE
  5
10FA
  8
3
 10
39.49999999999993
 20
22.2475
 30
0.0
 11
38.92368257489993
 21
22.2475
 31
0.0
  0
LINE
  5
10FB
  8
3
 10
38.92368257489993
 20
12.2525
 30
0.0
 11
39.49999999999993
 21
12.2525
 31
0.0
  0
LINE
  5
10FC
  8
3
 10
38.92368257489993
 20
22.2475
 30
0.0
 11
37.99999999999993
 21
22.0
 31
0.0
  0
LINE
  5
10FD
  8
3
 10
37.99999999999993
 20
12.5
 30
0.0
 11
38.92368257489993
 21
12.2525
 31
0.0
  0
LINE
  5
10FE
  8
3
 10
49.99999999999999
 20
-12.24250000000001
 30
0.0
 11
39.56296030499992
 21
-12.24250000000001
 31
0.0
  0
LINE
  5
10FF
  8
3
 10
39.56296030499992
 20
-22.25749999999999
 30
0.0
 11
49.99999999999999
 21
-22.25749999999999
 31
0.0
  0
ARC
  5
1100
  8
3
 10
39.49999999999993
 20
-12.04930000000002
 30
0.0
 40
0.2031999999999941
 50
270.0
 51
288.0498306932926
  0
ARC
  5
1101
  8
3
 10
39.49999999999993
 20
-22.45070000000004
 30
0.0
 40
0.2031999999999941
 50
71.9501693067074
 51
90.0
  0
LINE
  5
1102
  8
3
 10
39.49999999999993
 20
-12.2525
 30
0.0
 11
38.92368257489993
 21
-12.2525
 31
0.0
  0
LINE
  5
1103
  8
3
 10
38.92368257489993
 20
-22.2475
 30
0.0
 11
39.49999999999993
 21
-22.2475
 31
0.0
  0
LINE
  5
1104
  8
3
 10
38.92368257489993
 20
-12.2525
 30
0.0
 11
37.99999999999993
 21
-12.5
 31
0.0
  0
LINE
  5
1105
  8
3
 10
37.99999999999993
 20
-22.0
 30
0.0
 11
38.92368257489993
 21
-22.2475
 31
0.0
  0
LINE
  5
1106
  8
3
 10
49.99999999999999
 20
11.99907116049997
 30
0.0
 11
49.81362966949995
 21
11.30352761799998
 31
0.0
  0
LINE
  5
1107
  8
3
 10
49.81362966949995
 20
-11.30352761810002
 30
0.0
 11
49.99999999999999
 21
-11.99907116060001
 31
0.0
  0
ARC
  5
1108
  8
3
 10
50.19999999999992
 20
-11.20000000000005
 30
0.0
 40
0.3999999999999767
 50
166.875000000004
 51
195.0000000000016
  0
ARC
  5
1109
  8
3
 10
50.19999999999992
 20
-11.20000000000005
 30
0.0
 40
0.3999999999999965
 50
120.0000000000078
 51
166.8749999999961
  0
ARC
  5
110A
  8
3
 10
50.19999999999992
 20
11.19999999999999
 30
0.0
 40
0.3999999999999773
 50
165.0000000000003
 51
180.0
  0
ARC
  5
110B
  8
3
 10
50.19999999999992
 20
11.19999999999999
 30
0.0
 40
0.4000000000000457
 50
180.0
 51
239.9999999999963
  0
LINE
  5
110C
  8
3
 10
49.79999999999994
 20
11.19999999999999
 30
0.0
 11
49.79999999999994
 21
-11.20000000000005
 31
0.0
  0
LINE
  5
110D
  8
3
 10
42.49999999999993
 20
1.25
 30
0.0
 11
40.99999999999993
 21
1.25
 31
0.0
  0
LINE
  5
110E
  8
3
 10
40.99999999999993
 20
-1.25
 30
0.0
 11
42.49999999999993
 21
-1.25
 31
0.0
  0
LINE
  5
110F
  8
3
 10
49.99999999999999
 20
1.25
 30
0.0
 11
42.49999999999993
 21
1.25
 31
0.0
  0
LINE
  5
1110
  8
3
 10
42.49999999999993
 20
-1.25
 30
0.0
 11
49.99999999999999
 21
-1.25
 31
0.0
  0
LINE
  5
1111
  8
3
 10
40.99999999999993
 20
1.25
 30
0.0
 11
40.24892422629993
 21
0.0
 31
0.0
  0
LINE
  5
1112
  8
3
 10
40.24892422629993
 20
0.0
 30
0.0
 11
40.99999999999993
 21
-1.25
 31
0.0
  0
LINE
  5
1117
  8
3
 10
49.99999999999999
 20
5.0
 30
0.0
 11
47.99999999999999
 21
5.0
 31
0.0
  0
LINE
  5
1118
  8
3
 10
47.99999999999999
 20
-5.0
 30
0.0
 11
49.99999999999999
 21
-5.0
 31
0.0
  0
LINE
  5
1119
  8
3
 10
49.99999999999999
 20
-12.25
 30
0.0
 11
36.49999999999993
 21
-12.25
 31
0.0
  0
LINE
  5
111A
  8
3
 10
36.49999999999993
 20
-22.25
 30
0.0
 11
49.99999999999999
 21
-22.25
 31
0.0
  0
LINE
  5
111B
  8
3
 10
36.49999999999993
 20
-12.25
 30
0.0
 11
33.49569690489993
 21
-17.25
 31
0.0
  0
LINE
  5
111C
  8
3
 10
33.49569690489993
 20
-17.25
 30
0.0
 11
36.49999999999993
 21
-22.25
 31
0.0
  0
LINE
  5
111D
  8
3
 10
36.49999999999993
 20
22.25
 30
0.0
 11
33.49569690489993
 21
17.25
 31
0.0
  0
LINE
  5
111E
  8
3
 10
33.49569690489993
 20
17.25
 30
0.0
 11
36.49999999999993
 21
12.25
 31
0.0
  0
LINE
  5
111F
  8
3
 10
49.99999999999999
 20
22.25
 30
0.0
 11
36.49999999999993
 21
22.25
 31
0.0
  0
LINE
  5
1120
  8
3
 10
36.49999999999993
 20
12.25
 30
0.0
 11
49.99999999999999
 21
12.25
 31
0.0
  0
LINE
  5
1121
  8
3
 10
41.24999999999993
 20
5.845671475499955
 30
0.0
 11
41.24999999999993
 21
3.678228705699951
 31
0.0
  0
LINE
  5
1122
  8
3
 10
43.74999999999993
 20
3.677024109499996
 30
0.0
 11
43.74999999999993
 21
5.845671475499955
 31
0.0
  0
LINE
  5
1123
  8
3
 10
43.74999999999993
 20
-5.8456714756
 30
0.0
 11
43.74999999999993
 21
-3.677024109499996
 31
0.0
  0
LINE
  5
1124
  8
3
 10
41.24999999999993
 20
-3.678228705700008
 30
0.0
 11
41.24999999999993
 21
-5.8456714756
 31
0.0
  0
LINE
  5
1125
  8
3
 10
49.99999999999999
 20
-5.678203230300028
 30
0.0
 11
43.58253175479994
 21
-5.678203230300028
 31
0.0
  0
LINE
  5
1126
  8
3
 10
43.58253175479994
 20
-8.178203230300028
 30
0.0
 11
49.99999999999999
 21
-8.178203230300028
 31
0.0
  0
LINE
  5
1127
  8
3
 10
41.41746824529996
 20
-5.678203230300028
 30
0.0
 11
40.99999999999993
 21
-5.678203230300028
 31
0.0
  0
LINE
  5
1128
  8
3
 10
40.99999999999993
 20
-8.178203230300028
 30
0.0
 11
41.41746824529996
 21
-8.178203230300028
 31
0.0
  0
LINE
  5
1129
  8
3
 10
40.99999999999993
 20
-5.678203230300028
 30
0.0
 11
40.24892422629993
 21
-6.928203230300028
 31
0.0
  0
LINE
  5
112A
  8
3
 10
40.24892422629993
 20
-6.928203230300028
 30
0.0
 11
40.99999999999993
 21
-8.178203230300028
 31
0.0
  0
LINE
  5
112B
  8
3
 10
41.41746824529996
 20
8.178203230299971
 30
0.0
 11
40.99999999999993
 21
8.178203230299971
 31
0.0
  0
LINE
  5
112C
  8
3
 10
40.99999999999993
 20
5.678203230299971
 30
0.0
 11
41.41746824529996
 21
5.678203230299971
 31
0.0
  0
LINE
  5
112D
  8
3
 10
49.99999999999999
 20
8.178203230299971
 30
0.0
 11
43.58253175479994
 21
8.178203230299971
 31
0.0
  0
LINE
  5
112E
  8
3
 10
43.58253175479994
 20
5.678203230299971
 30
0.0
 11
49.99999999999999
 21
5.678203230299971
 31
0.0
  0
LINE
  5
112F
  8
3
 10
40.99999999999993
 20
8.178203230299971
 30
0.0
 11
40.24892422629993
 21
6.928203230299971
 31
0.0
  0
LINE
  5
1130
  8
3
 10
40.24892422629993
 20
6.928203230299971
 30
0.0
 11
40.99999999999993
 21
5.678203230299971
 31
0.0
  0
LINE
  5
1131
  8
3
 10
43.74999999999993
 20
-19.1608120587
 30
0.0
 11
43.74999999999993
 21
-8.010734985
 31
0.0
  0
LINE
  5
1132
  8
3
 10
41.24999999999993
 20
-8.010734985
 30
0.0
 11
41.24999999999993
 21
-19.1608120587
 31
0.0
  0
LINE
  5
1133
  8
3
 10
41.24999999999993
 20
19.1608120587
 30
0.0
 11
41.24999999999993
 21
8.010734985
 31
0.0
  0
LINE
  5
1134
  8
3
 10
43.74999999999993
 20
8.010734985
 30
0.0
 11
43.74999999999993
 21
19.1608120587
 31
0.0
  0
LINE
  5
1135
  8
3
 10
44.12499999999993
 20
-20.35148929070004
 30
0.0
 11
44.12499999999993
 21
-19.48557158520003
 31
0.0
  0
LINE
  5
1136
  8
3
 10
40.87499999999993
 20
-19.48557158520003
 30
0.0
 11
40.87499999999993
 21
-20.3503707113
 31
0.0
  0
LINE
  5
1137
  8
3
 10
43.82680694409991
 20
-19.0164744914
 30
0.0
 11
43.52062072619991
 21
-18.79996814050003
 31
0.0
  0
LINE
  5
1138
  8
3
 10
41.47937927389994
 20
-18.79996814050003
 30
0.0
 11
41.17319305599993
 21
-19.0164744914
 31
0.0
  0
LINE
  5
1139
  8
3
 10
41.17319305599993
 20
19.0164744914
 30
0.0
 11
41.47937927389994
 21
18.79996814049997
 31
0.0
  0
LINE
  5
113A
  8
3
 10
43.52062072619991
 20
18.79996814049997
 30
0.0
 11
43.82680694409991
 21
19.0164744914
 31
0.0
  0
LINE
  5
113B
  8
3
 10
40.87499999999993
 20
20.3503707113
 30
0.0
 11
40.87499999999993
 21
19.48557158509999
 31
0.0
  0
LINE
  5
113C
  8
3
 10
44.12499999999993
 20
19.48557158509999
 30
0.0
 11
44.12499999999993
 21
20.35148929069999
 31
0.0
  0
LINE
  5
113D
  8
3
 10
43.72474487139992
 20
-15.1554445662
 30
0.0
 11
43.31649658099995
 21
-14.86676943160001
 31
0.0
  0
LINE
  5
113E
  8
3
 10
41.68350341909995
 20
-14.86676943160001
 30
0.0
 11
41.27525512869992
 21
-15.1554445662
 31
0.0
  0
LINE
  5
113F
  8
3
 10
43.99999999999993
 20
-19.3453215852
 30
0.0
 11
43.99999999999993
 21
-15.5884572681
 31
0.0
  0
LINE
  5
1140
  8
3
 10
40.99999999999993
 20
-15.5884572681
 30
0.0
 11
40.99999999999993
 21
-19.3453215852
 31
0.0
  0
LINE
  5
1141
  8
3
 10
41.27525512869992
 20
15.1554445662
 30
0.0
 11
41.68350341909995
 21
14.86676943160001
 31
0.0
  0
LINE
  5
1142
  8
3
 10
43.31649658099995
 20
14.86676943160001
 30
0.0
 11
43.72474487139992
 21
15.1554445662
 31
0.0
  0
LINE
  5
1143
  8
3
 10
40.99999999999993
 20
19.34532158509995
 30
0.0
 11
40.99999999999993
 21
15.5884572681
 31
0.0
  0
LINE
  5
1144
  8
3
 10
43.99999999999993
 20
15.5884572681
 30
0.0
 11
43.99999999999993
 21
19.34532158509995
 31
0.0
  0
LINE
  5
114A
  8
1
 10
48.99999999999999
 20
23.5
 30
0.0
 11
48.99999999999999
 21
-23.5
 31
0.0
  0
LINE
  5
114B
  8
1
 10
35.54999999999994
 20
0.0
 30
0.0
 11
35.54999999999994
 21
23.5
 31
0.0
  0
LINE
  5
114C
  8
1
 10
35.54999999999994
 20
-23.5
 30
0.0
 11
35.54999999999994
 21
0.0
 31
0.0
  0
LINE
  5
114D
  8
1
 10
34.64999999999996
 20
0.0
 30
0.0
 11
34.64999999999996
 21
-22.22500000000002
 31
0.0
  0
LINE
  5
114E
  8
1
 10
34.64999999999996
 20
22.22499999999997
 30
0.0
 11
34.64999999999996
 21
0.0
 31
0.0
  0
LINE
  5
1153
  8
SK3
 10
-24.95000000000006
 20
-6.700000000000003
 30
0.0
 11
-24.95000000000006
 21
0.0
 31
0.0
  0
LINE
  5
1154
  8
SK3
 10
-23.48510313270005
 20
0.0
 30
0.0
 11
-23.48510313270005
 21
-4.25
 31
0.0
  0
LINE
  5
1155
  8
SK3
 10
-23.48510313270005
 20
4.25
 30
0.0
 11
-23.48510313270005
 21
0.0
 31
0.0
  0
LINE
  5
1156
  8
SK3
 10
-24.95000000000006
 20
-6.687997800000005
 30
0.0
 11
-23.48510313270005
 21
-4.25
 31
0.0
  0
LINE
  5
1157
  8
SK3
 10
-23.48510313270005
 20
4.25
 30
0.0
 11
-24.95000000000006
 21
6.687997800000005
 31
0.0
  0
LINE
  5
1189
  8
NOCUT
 10
34.64999999999996
 20
22.22499999999999
 30
0.0
 11
20.04999999999998
 21
22.22499999999999
 31
0.0
  0
LINE
  5
118A
  8
NOCUT
 10
34.64999999999996
 20
22.22499999999999
 30
0.0
 11
20.04999999999998
 21
22.22499999999999
 31
0.0
  0
ARC
  5
118B
  8
NOCUT
 10
48.99999999999999
 20
22.5
 30
0.0
 40
1.0
 50
0.0
 51
90.0
  0
ARC
  5
118C
  8
NOCUT
 10
35.54999999999994
 20
23.0
 30
0.0
 40
0.5000000000000568
 50
90.0
 51
180.0
  0
LINE
  5
118D
  8
NOCUT
 10
48.99999999999999
 20
23.5
 30
0.0
 11
35.54999999999994
 21
23.5
 31
0.0
  0
ARC
  5
118E
  8
NOCUT
 10
34.64999999999996
 20
22.625
 30
0.0
 40
0.4000000000000341
 50
270.0
 51
0.0
  0
LINE
  5
118F
  8
NOCUT
 10
49.99999999999999
 20
22.25
 30
0.0
 11
49.99999999999999
 21
21.93741096849999
 31
0.0
  0
LINE
  5
1190
  8
NOCUT
 10
49.99999999999999
 20
22.25749999999999
 30
0.0
 11
49.99999999999999
 21
22.5
 31
0.0
  0
LINE
  5
1191
  8
NOCUT
 10
49.99999999999999
 20
0.0
 30
0.0
 11
49.99999999999999
 21
21.93741096849999
 31
0.0
  0
LINE
  5
1194
  8
NOCUT
 10
35.04999999999988
 20
23.0
 30
0.0
 11
35.05
 21
22.625
 31
0.0
  0
DIMENSION
  5
1198
  8
SK2
  2
*D18
 10
98.49609208537532
 20
-11.00000000000012
 30
0.0
 11
96.62109208537532
 21
-0.0000000000000604
 31
0.0
 70
    32
  3
ISO-25
 13
66.49999999999999
 23
11.0
 33
0.0
 14
66.49999999999999
 24
-11.00000000000011
 34
0.0
 50
90.0
1001
ACAD
1000
DSTYLE
1002
{
1070
   287
1070
     5
1070
   144
1040
1.0
1070
   271
1070
     3
1070
   272
1070
     3
1070
   279
1070
     2
1002
}
  0
DIMENSION
  5
11A7
  8
SK2
  2
*D19
 10
114.2400741643708
 20
-23.5
 30
0.0
 11
112.3650741643708
 21
-0.0000000000000071
 31
0.0
 70
    32
  3
ISO-25
 13
48.99999999999999
 23
23.5
 33
0.0
 14
48.99999999999999
 24
-23.5
 34
0.0
 50
90.0
1001
ACAD
1000
DSTYLE
1002
{
1070
   287
1070
     5
1070
   144
1040
1.0
1070
   271
1070
     3
1070
   272
1070
     3
1070
   279
1070
     2
1002
}
  0
LINE
  5
13E3
  8
SK3
 10
-24.95000000000006
 20
6.700000000000003
 30
0.0
 11
-24.95000000000006
 21
0.0
 31
0.0
  0
LINE
  5
13E4
  8
SK3
 10
-63.48000000000002
 20
6.700000000000003
 30
0.0
 11
-24.95000000000006
 21
6.700000000000003
 31
0.0
  0
LINE
  5
13E6
  8
SK3
 10
-23.48510313270005
 20
4.25
 30
0.0
 11
0.0
 21
4.25
 31
0.0
  0
LINE
  5
13E7
  8
SK3
 10
-23.48510313270005
 20
-4.25
 30
0.0
 11
0.0
 21
-4.25
 31
0.0
  0
LINE
  5
13EA
  8
3
 10
0.0
 20
4.25
 30
0.0
 11
47.99999999999999
 21
4.249999999999996
 31
0.0
  0
LINE
  5
13EB
  8
3
 10
0.0
 20
-4.25
 30
0.0
 11
47.99999999999999
 21
-4.250000000000004
 31
0.0
  0
ARC
  5
1606
  8
SK1
 10
82.00000000000006
 20
6.974916108482155
 30
0.0
 40
1.0
 50
0.0
 51
90.0
  0
ARC
  5
1607
  8
SK1
 10
82.00000000000006
 20
-7.025083891517845
 30
0.0
 40
1.0
 50
270.0
 51
0.0
  0
LINE
  5
1608
  8
SK1
 10
82.00000000000006
 20
7.974916108482155
 30
0.0
 11
73.00000000000006
 21
7.974916108482155
 31
0.0
  0
LINE
  5
1609
  8
SK1
 10
73.00000000000006
 20
-8.025083891517845
 30
0.0
 11
82.00000000000006
 21
-8.025083891517845
 31
0.0
  0
LINE
  5
160C
  8
SK1
 10
72.59999999999997
 20
4.974916108482155
 30
0.0
 11
68.00000000000006
 21
4.974916108482155
 31
0.0
  0
LINE
  5
160D
  8
SK1
 10
68.00000000000006
 20
-5.025083891517845
 30
0.0
 11
72.59999999999997
 21
-5.025083891517845
 31
0.0
  0
ARC
  5
160E
  8
SK1
 10
50.19999999999999
 20
-11.22508389151789
 30
0.0
 40
0.3999999999999965
 50
75.00000000000121
 51
120.000000000022
  0
ARC
  5
160F
  8
SK1
 10
50.19999999999999
 20
11.1749161084822
 30
0.0
 40
0.4000000000000457
 50
240.0000000000008
 51
284.9999999999886
  0
LINE
  5
1610
  8
SK1
 10
50.99907116059995
 20
-11.02508389151784
 30
0.0
 11
66.50000000000006
 21
-11.02508389151784
 31
0.0
  0
LINE
  5
1611
  8
SK1
 10
66.50000000000006
 20
10.97491610848216
 30
0.0
 11
50.99907116059995
 21
10.97491610848216
 31
0.0
  0
ARC
  5
1612
  8
SK1
 10
66.50000000000006
 20
-9.525083891517845
 30
0.0
 40
1.500000000000114
 50
270.0
 51
0.0
  0
ARC
  5
1613
  8
SK1
 10
66.50000000000006
 20
9.474916108482155
 30
0.0
 40
1.500000000000114
 50
0.0
 51
90.0
  0
LINE
  5
1614
  8
SK1
 10
50.99907116059995
 20
10.97491610848216
 30
0.0
 11
50.30352761809996
 21
10.78854577798212
 31
0.0
  0
LINE
  5
1615
  8
SK1
 10
50.30352761809996
 20
-10.8387135610178
 30
0.0
 11
50.99907116059995
 21
-11.02508389151784
 31
0.0
  0
LINE
  5
1616
  8
SK1
 10
83.00000000000006
 20
6.974916108482155
 30
0.0
 11
83.00000000000006
 21
-7.025083891517845
 31
0.0
  0
LINE
  5
1617
  8
SK1
 10
73.00000000000006
 20
7.974916108482155
 30
0.0
 11
73.00000000000006
 21
-8.025083891517845
 31
0.0
  0
LINE
  5
1618
  8
SK1
 10
50.99907116059995
 20
-0.0250838915178448
 30
0.0
 11
50.99907116059995
 21
10.97491610848216
 31
0.0
  0
LINE
  5
1619
  8
SK1
 10
50.99907116059995
 20
-11.02508389151784
 30
0.0
 11
50.99907116059995
 21
-0.0250838915178448
 31
0.0
  0
LINE
  5
161A
  8
SK1
 10
68.00000000000006
 20
-0.0250838915178448
 30
0.0
 11
68.00000000000006
 21
9.474916108482155
 31
0.0
  0
LINE
  5
161B
  8
SK1
 10
68.00000000000006
 20
-9.525083891517845
 30
0.0
 11
68.00000000000006
 21
-0.0250838915178448
 31
0.0
  0
LINE
  5
161C
  8
SK1
 10
82.00000000000006
 20
-0.0250838915178448
 30
0.0
 11
82.00000000000006
 21
-8.025083891517845
 31
0.0
  0
LINE
  5
161D
  8
SK1
 10
82.00000000000006
 20
7.974916108482155
 30
0.0
 11
82.00000000000006
 21
-0.0250838915178448
 31
0.0
  0
LINE
  5
161F
  8
SK1
 10
50.30352761809996
 20
10.78854577798212
 30
0.0
 11
50.30352761809996
 21
-10.8387135610178
 31
0.0
  0
LINE
  5
1620
  8
SK1
 10
66.50000000000006
 20
10.97491610848216
 30
0.0
 11
66.50000000000006
 21
-11.02508389151784
 31
0.0
  0
LINE
  5
1626
  8
SK4
 10
83.00000000000006
 20
0.0
 30
0.0
 11
50.8
 21
0.0
 31
0.0
  0
LINE
  5
178E
  8
SK3
 10
52.32800000000003
 20
4.974916108482155
 30
0.0
 11
52.32800000000003
 21
-5.025083891517845
 31
0.0
  0
LINE
  5
178F
  8
SK3
 10
51.50000000000006
 20
4.146916108481953
 30
0.0
 11
51.50000000000006
 21
-4.19708389151787
 31
0.0
  0
LINE
  5
1790
  8
SK3
 10
78.00000000000006
 20
2.291534063582056
 30
0.0
 11
83.00000000000006
 21
2.291534063582056
 31
0.0
  0
LINE
  5
1791
  8
SK3
 10
78.00000000000006
 20
2.291534063582056
 30
0.0
 11
78.00000000000006
 21
-0.0250838915178448
 31
0.0
  0
LINE
  5
1792
  8
SK3
 10
78.00000000000006
 20
3.449843041182028
 30
0.0
 11
78.00000000000006
 21
2.291534063582056
 31
0.0
  0
LINE
  5
1793
  8
SK3
 10
78.00000000000006
 20
-0.0250838915178448
 30
0.0
 11
78.00000000000006
 21
-2.341701846617973
 31
0.0
  0
LINE
  5
1794
  8
SK3
 10
78.00000000000006
 20
-3.500010824217945
 30
0.0
 11
78.00000000000006
 21
-2.341701846617973
 31
0.0
  0
LINE
  5
1795
  8
SK3
 10
78.00000000000006
 20
-2.341701846617973
 30
0.0
 11
83.00000000000006
 21
-2.341701846617973
 31
0.0
  0
LINE
  5
1796
  8
SK3
 10
78.00000000000006
 20
4.608152018682183
 30
0.0
 11
78.00000000000006
 21
3.449843041182028
 31
0.0
  0
LINE
  5
1797
  8
SK3
 10
78.00000000000006
 20
-4.658319801817917
 30
0.0
 11
78.00000000000006
 21
-3.500010824217945
 31
0.0
  0
LINE
  5
1798
  8
SK3
 10
78.00000000000006
 20
4.608152018682183
 30
0.0
 11
83.00000000000006
 21
4.608152018682183
 31
0.0
  0
LINE
  5
1799
  8
SK3
 10
78.00000000000006
 20
-4.658319801817917
 30
0.0
 11
83.00000000000006
 21
-4.658319801817917
 31
0.0
  0
LINE
  5
179A
  8
SK3
 10
65.63397459629999
 20
-0.0250838915178448
 30
0.0
 11
65.63397459629999
 21
-5.525083891517845
 31
0.0
  0
LINE
  5
179B
  8
SK3
 10
65.63397459629999
 20
5.474916108482155
 30
0.0
 11
65.63397459629999
 21
-0.0250838915178448
 31
0.0
  0
LINE
  5
179C
  8
SK3
 10
63.50000000000006
 20
5.474916108482155
 30
0.0
 11
63.50000000000006
 21
-5.525083891517845
 31
0.0
  0
LINE
  5
179E
  8
SK3
 10
66.50000000000006
 20
4.974916108482155
 30
0.0
 11
52.32800000000003
 21
4.974916108482155
 31
0.0
  0
LINE
  5
179F
  8
SK3
 10
52.32800000000003
 20
-5.025083891517845
 30
0.0
 11
66.50000000000006
 21
-5.025083891517845
 31
0.0
  0
LINE
  5
17A0
  8
SK3
 10
52.32800000000003
 20
4.974916108482155
 30
0.0
 11
51.50000000000006
 21
4.146916108481953
 31
0.0
  0
LINE
  5
17A1
  8
SK3
 10
51.50000000000006
 20
-4.19708389151787
 30
0.0
 11
52.32800000000003
 21
-5.025083891517845
 31
0.0
  0
LINE
  5
17A2
  8
SK3
 10
78.00000000000006
 20
3.987416108482201
 30
0.0
 11
75.68338204490004
 21
-0.0250838915178448
 31
0.0
  0
LINE
  5
17A3
  8
SK3
 10
75.68338204490004
 20
-0.0250838915178448
 30
0.0
 11
78.00000000000006
 21
-4.03758389151789
 31
0.0
  0
LINE
  5
17A4
  8
SK3
 10
66.50000000000006
 20
5.974916108482155
 30
0.0
 11
65.63397459629999
 21
5.474916108482155
 31
0.0
  0
LINE
  5
17A5
  8
SK3
 10
65.63397459629999
 20
-5.525083891517845
 30
0.0
 11
66.50000000000006
 21
-6.025083891517845
 31
0.0
  0
LINE
  5
17A6
  8
SK3
 10
65.63397459629999
 20
5.474916108482155
 30
0.0
 11
63.50000000000006
 21
5.474916108482155
 31
0.0
  0
LINE
  5
17A7
  8
SK3
 10
63.50000000000006
 20
-5.525083891517845
 30
0.0
 11
65.63397459629999
 21
-5.525083891517845
 31
0.0
  0
LINE
  5
17A8
  8
SK3
 10
63.50000000000006
 20
4.974916108482155
 30
0.0
 11
49.99999999999999
 21
4.974916108482155
 31
0.0
  0
LINE
  5
17A9
  8
SK3
 10
49.99999999999999
 20
-5.025083891517845
 30
0.0
 11
63.50000000000006
 21
-5.025083891517845
 31
0.0
  0
LINE
  5
17AD
  8
SK3
 10
66.50000000000006
 20
1.224916108482155
 30
0.0
 11
49.99999999999999
 21
1.224916108482155
 31
0.0
  0
LINE
  5
17AE
  8
SK3
 10
49.99999999999999
 20
-1.275083891517845
 30
0.0
 11
66.50000000000006
 21
-1.275083891517845
 31
0.0
  0
LINE
  5
17AF
  8
SK3
 10
66.50000000000006
 20
-5.703287121817986
 30
0.0
 11
49.99999999999999
 21
-5.703287121817986
 31
0.0
  0
LINE
  5
17B0
  8
SK3
 10
42.08253175480002
 20
-8.203287121817983
 30
0.0
 11
66.50000000000006
 21
-8.203287121817983
 31
0.0
  0
LINE
  5
17B1
  8
SK3
 10
66.50000000000006
 20
8.15311933878207
 30
0.0
 11
49.99999999999999
 21
8.15311933878207
 31
0.0
  0
LINE
  5
17B2
  8
SK3
 10
49.99999999999999
 20
5.653119338782069
 30
0.0
 11
66.50000000000006
 21
5.653119338782069
 31
0.0
  0
ENDSEC
  0
EOF
