  0
SECTION
  2
HEADER
  9
$ACADVER
  1
AC1009
  9
$DWGCODEPAGE
  3
ansi_932
  9
$INSBASE
 10
0.0
 20
0.0
 30
0.0
  9
$EXTMIN
 10
-70.26496010124104
 20
-57.01080239844839
 30
-0.0015258207003583
  9
$EXTMAX
 10
85.6311881911604
 20
50.75134331098684
 30
0.0000000349246037
  9
$LIMMIN
 10
0.0
 20
0.0
  9
$LIMMAX
 10
420.0
 20
297.0
  9
$ORTHOMODE
 70
     1
  9
$REGENMODE
 70
     1
  9
$FILLMODE
 70
     1
  9
$QTEXTMODE
 70
     0
  9
$MIRRTEXT
 70
     1
  9
$DRAGMODE
 70
     2
  9
$LTSCALE
 40
1.0
  9
$OSMODE
 70
 16895
  9
$ATTMODE
 70
     1
  9
$TEXTSIZE
 40
0.5
  9
$TRACEWID
 40
1.0
  9
$TEXTSTYLE
  7
YOKO
  9
$CLAYER
  8
241
  9
$CELTYPE
  6
HIDDEN2
  9
$CECOLOR
 62
   256
  9
$DIMSCALE
 40
0.03937
  9
$DIMASZ
 40
2.229999999999999
  9
$DIMEXO
 40
0.5
  9
$DIMDLI
 40
2.5
  9
$DIMRND
 40
0.0
  9
$DIMDLE
 40
0.0
  9
$DIMEXE
 40
1.0
  9
$DIMTP
 40
0.0
  9
$DIMTM
 40
0.0
  9
$DIMTXT
 40
2.799999999999998
  9
$DIMCEN
 40
0.0
  9
$DIMTSZ
 40
0.0
  9
$DIMTOL
 70
     0
  9
$DIMLIM
 70
     0
  9
$DIMTIH
 70
     0
  9
$DIMTOH
 70
     0
  9
$DIMSE1
 70
     0
  9
$DIMSE2
 70
     0
  9
$DIMTAD
 70
     3
  9
$DIMZIN
 70
     8
  9
$DIMBLK
  1

  9
$DIMASO
 70
     1
  9
$DIMSHO
 70
     1
  9
$DIMPOST
  1

  9
$DIMAPOST
  1

  9
$DIMALT
 70
     0
  9
$DIMALTD
 70
     2
  9
$DIMALTF
 40
25.4
  9
$DIMLFAC
 40
1.0
  9
$DIMTOFL
 70
     1
  9
$DIMTVP
 40
0.0
  9
$DIMTIX
 70
     1
  9
$DIMSOXD
 70
     0
  9
$DIMSAH
 70
     1
  9
$DIMBLK1
  1
OPEN
  9
$DIMBLK2
  1
OPEN
  9
$DIMSTYLE
  2
BIGT
  9
$DIMCLRD
 70
   256
  9
$DIMCLRE
 70
   256
  9
$DIMCLRT
 70
    40
  9
$DIMTFAC
 40
1.0
  9
$DIMGAP
 40
1.0
  9
$LUNITS
 70
     2
  9
$LUPREC
 70
     3
  9
$SKETCHINC
 40
1.0
  9
$FILLETRAD
 40
0.0
  9
$AUNITS
 70
     0
  9
$AUPREC
 70
     3
  9
$MENU
  1
.
  9
$ELEVATION
 40
0.0
  9
$PELEVATION
 40
0.0
  9
$THICKNESS
 40
0.0
  9
$LIMCHECK
 70
     0
  9
$CHAMFERA
 40
10.0
  9
$CHAMFERB
 40
10.0
  9
$SKPOLY
 70
     0
  9
$TDCREATE
 40
2453200.661670255
  9
$TDUPDATE
 40
2453208.75659088
  9
$TDINDWG
 40
0.0652463079
  9
$TDUSRTIMER
 40
2455789.645635555
  9
$USRTIMER
 70
     1
  9
$ANGBASE
 50
0.0
  9
$ANGDIR
 70
     0
  9
$PDMODE
 70
     1
  9
$PDSIZE
 40
-5.0
  9
$PLINEWID
 40
0.0
  9
$COORDS
 70
     1
  9
$SPLFRAME
 70
     0
  9
$SPLINETYPE
 70
     6
  9
$SPLINESEGS
 70
     8
  9
$ATTDIA
 70
     0
  9
$ATTREQ
 70
     1
  9
$HANDLING
 70
     1
  9
$HANDSEED
  5
15A2
  9
$SURFTAB1
 70
     6
  9
$SURFTAB2
 70
     6
  9
$SURFTYPE
 70
     6
  9
$SURFU
 70
     6
  9
$SURFV
 70
     6
  9
$UCSNAME
  2

  9
$UCSORG
 10
0.0
 20
0.0
 30
0.0
  9
$UCSXDIR
 10
1.0
 20
0.0
 30
0.0
  9
$UCSYDIR
 10
0.0
 20
1.0
 30
0.0
  9
$PUCSNAME
  2

  9
$PUCSORG
 10
0.0
 20
0.0
 30
0.0
  9
$PUCSXDIR
 10
1.0
 20
0.0
 30
0.0
  9
$PUCSYDIR
 10
0.0
 20
1.0
 30
0.0
  9
$USERI1
 70
     1
  9
$USERI2
 70
     0
  9
$USERI3
 70
     0
  9
$USERI4
 70
     0
  9
$USERI5
 70
     0
  9
$USERR1
 40
0.0
  9
$USERR2
 40
0.0
  9
$USERR3
 40
0.0
  9
$USERR4
 40
0.0
  9
$USERR5
 40
0.0
  9
$WORLDVIEW
 70
     1
  9
$SHADEDGE
 70
     3
  9
$SHADEDIF
 70
    70
  9
$TILEMODE
 70
     1
  9
$MAXACTVP
 70
    16
  9
$PLIMCHECK
 70
     0
  9
$PEXTMIN
 10
1.000000000000000E+20
 20
1.000000000000000E+20
 30
1.000000000000000E+20
  9
$PEXTMAX
 10
-1.000000000000000E+20
 20
-1.000000000000000E+20
 30
-1.000000000000000E+20
  9
$PLIMMIN
 10
0.0
 20
0.0
  9
$PLIMMAX
 10
420.0
 20
297.0
  9
$UNITMODE
 70
     0
  9
$VISRETAIN
 70
     0
  9
$PLINEGEN
 70
     0
  9
$PSLTSCALE
 70
     1
  0
ENDSEC
  0
SECTION
  2
TABLES
  0
TABLE
  2
VPORT
 70
     1
  0
VPORT
  2
*ACTIVE
 70
     0
 10
0.0
 20
0.0
 11
1.0
 21
1.0
 12
3.35746510796382
 22
0.9942567147123772
 13
0.0
 23
0.0
 14
7.0
 24
7.0
 15
7.0
 25
7.0
 16
0.0
 26
0.0
 36
1.0
 17
0.0
 27
0.0
 37
0.0
 40
8.273844637890267
 41
2.046808510638298
 42
50.0
 43
0.0
 44
0.0
 50
0.0
 51
0.0
 71
    16
 72
  2000
 73
     1
 74
     0
 75
     0
 76
     0
 77
     0
 78
     0
  0
ENDTAB
  0
TABLE
  2
LTYPE
 70
     3
  0
LTYPE
  2
CONTINUOUS
 70
     0
  3
Solid line
 72
    65
 73
     0
 40
0.0
  0
LTYPE
  2
CENTER2
 70
     0
  3
___ _ ___ _ ___ _ ___ _ ___ _ ___ _ ___ _ ___ _
 72
    65
 73
     4
 40
1.125
 49
0.75
 49
-0.125
 49
0.125
 49
-0.125
  0
LTYPE
  2
HIDDEN2
 70
     0
  3
_ _ _ _ _ _ _ _ _ _ _ _ _ _ _ _ _ _ _ _ _ _ _ _
 72
    65
 73
     2
 40
0.1875
 49
0.125
 49
-0.0625
  0
ENDTAB
  0
TABLE
  2
LAYER
 70
     6
  0
LAYER
  2
0
 70
     0
 62
     7
  6
CONTINUOUS
  0
LAYER
  2
240
 70
     0
 62
     4
  6
CONTINUOUS
  0
LAYER
  2
241
 70
     0
 62
   211
  6
CONTINUOUS
  0
LAYER
  2
245
 70
     0
 62
     2
  6
CENTER2
  0
LAYER
  2
250
 70
     0
 62
     3
  6
CONTINUOUS
  0
LAYER
  2
DEFPOINTS
 70
     0
 62
     7
  6
CONTINUOUS
  0
ENDTAB
  0
TABLE
  2
STYLE
 70
     2
  0
STYLE
  2
STANDARD
 70
     0
 40
0.0
 41
1.0
 50
0.0
 71
     0
 42
3.0
  3
romans.shx
  4
BIGFONT.SHX
  0
STYLE
  2
YOKO
 70
     0
 40
0.0
 41
1.0
 50
0.0
 71
     0
 42
3.0
  3
romans.shx
  4
extfont.shx
  0
ENDTAB
  0
TABLE
  2
VIEW
 70
     0
  0
ENDTAB
  0
TABLE
  2
UCS
 70
     0
  0
ENDTAB
  0
TABLE
  2
APPID
 70
    10
  0
APPID
  2
ACAD
 70
     0
  0
APPID
  2
GLOBAL
 70
     0
  0
APPID
  2
DETAIL
 70
     0
  0
APPID
  2
GRPNAME
 70
     0
  0
APPID
  2
GPARA
 70
     0
  0
APPID
  2
DCO15
 70
     0
  0
APPID
  2
ITEMNAME
 70
     0
  0
APPID
  2
GRADE_0
 70
     0
  0
APPID
  2
KCAD_BASE
 70
     0
  0
APPID
  2
CONTENTBLOCKICON
 70
     0
  0
ENDTAB
  0
TABLE
  2
DIMSTYLE
 70
     1
  0
DIMSTYLE
  2
BIGT
 70
     0
  3

  4

  5

  6
OPEN
  7
OPEN
 40
1.0
 41
2.229999999999999
 42
0.5
 43
2.5
 44
1.0
 45
0.0
 46
0.0
 47
0.0
 48
0.0
140
2.799999999999998
141
0.0
142
0.0
143
25.4
144
1.0
145
0.0
146
1.0
147
1.0
 71
     0
 72
     0
 73
     0
 74
     0
 75
     0
 76
     0
 77
     3
 78
     8
170
     0
171
     2
172
     1
173
     1
174
     1
175
     0
176
   256
177
   256
178
    40
  0
ENDTAB
  0
ENDSEC
  0
SECTION
  2
BLOCKS
  0
BLOCK
  8
0
  2
$MODEL_SPACE
 70
     0
 10
0.0
 20
0.0
 30
0.0
  3
$MODEL_SPACE
  1

  0
ENDBLK
  5
1C
  8
0
  0
BLOCK
 67
     1
  8
0
  2
$PAPER_SPACE
 70
     0
 10
0.0
 20
0.0
 30
0.0
  3
$PAPER_SPACE
  1

  0
ENDBLK
  5
19
 67
     1
  8
0
  0
BLOCK
  8
0
  2
_OPEN
 70
     0
 10
0.0
 20
0.0
 30
0.0
  3
_OPEN
  1

  0
LINE
  5
595
  8
0
  6
BYBLOCK
 62
     0
 10
-1.0
 20
0.1666666666666666
 30
0.0
 11
0.0
 21
0.0
 31
0.0
  0
LINE
  5
596
  8
0
  6
BYBLOCK
 62
     0
 10
-1.0
 20
-0.1666666666666666
 30
0.0
 11
0.0
 21
0.0
 31
0.0
  0
LINE
  5
597
  8
0
  6
BYBLOCK
 62
     0
 10
0.0
 20
0.0
 30
0.0
 11
-1.0
 21
0.0
 31
0.0
  0
ENDBLK
  5
599
  8
0
  0
BLOCK
  8
0
  2
矢印なし
 70
     0
 10
0.0
 20
0.0
 30
0.0
  3
矢印なし
  1

  0
ENDBLK
  5
6E5
  8
0
  0
BLOCK
  8
0
  2
*D2
 70
     1
 10
0.0
 20
0.0
 30
0.0
  3
*D2
  1

  0
LINE
  5
1317
  8
250
 10
0.0393700000000103
 20
1.249997499999987
 30
0.0
 11
0.0393700000000106
 21
2.388871776833981
 31
0.0
  0
LINE
  5
1318
  8
250
 10
5.039370000000011
 20
1.249997499999987
 30
0.0
 11
5.039370000000011
 21
2.388871776833981
 31
0.0
  0
LINE
  5
1319
  8
250
 10
0.1271651000000105
 20
2.349501776833981
 30
0.0
 11
4.95157490000001
 21
2.349501776833981
 31
0.0
  0
INSERT
  5
131A
  8
250
  2
_OPEN
 10
0.0393700000000106
 20
2.349501776833981
 30
0.0
 41
0.0877951
 42
0.0877951
 43
0.0877951
 50
180.0
  0
INSERT
  5
131B
  8
250
  2
_OPEN
 10
5.039370000000011
 20
2.349501776833981
 30
0.0
 41
0.0877951
 42
0.0877951
 43
0.0877951
  0
TEXT
  5
131C
  8
250
  6
CONTINUOUS
 62
    40
 10
2.486548583333344
 20
2.388871776833981
 30
0.0
 40
0.1102359999999999
  1
5
  0
POINT
  5
131D
  8
DEFPOINTS
 62
     0
 10
0.0393700000000103
 20
1.230312499999987
 30
0.0
  0
POINT
  5
131E
  8
DEFPOINTS
 62
     0
 10
5.039370000000011
 20
1.230312499999987
 30
0.0
  0
POINT
  5
131F
  8
DEFPOINTS
 62
     0
 10
5.039370000000011
 20
2.349501776833981
 30
0.0
  0
ENDBLK
  5
1321
  8
0
  0
BLOCK
  8
0
  2
*D3
 70
     1
 10
0.0
 20
0.0
 30
0.0
  3
*D3
  1

  0
LINE
  5
1333
  8
250
 10
3.859484379871867
 20
0.3389480515292535
 30
0.0
 11
3.859484379871867
 21
1.585554254954295
 31
0.0
  0
LINE
  5
1334
  8
250
 10
5.039370000000011
 20
0.3321849999999856
 30
0.0
 11
5.039370000000011
 21
1.585554254954295
 31
0.0
  0
LINE
  5
1335
  8
250
 10
3.947279479871867
 20
1.546184254954295
 30
0.0
 11
4.95157490000001
 21
1.546184254954295
 31
0.0
  0
INSERT
  5
1336
  8
250
  2
_OPEN
 10
3.859484379871867
 20
1.546184254954295
 30
0.0
 41
0.0877951
 42
0.0877951
 43
0.0877951
 50
180.0
  0
INSERT
  5
1337
  8
250
  2
_OPEN
 10
5.039370000000011
 20
1.546184254954295
 30
0.0
 41
0.0877951
 42
0.0877951
 43
0.0877951
  0
TEXT
  5
1338
  8
250
  6
CONTINUOUS
 62
    40
 10
4.257908544102606
 20
1.585554254954295
 30
0.0
 40
0.1102359999999999
  1
1.18
  0
POINT
  5
1339
  8
DEFPOINTS
 62
     0
 10
3.859484379871867
 20
0.3192630515292535
 30
0.0
  0
POINT
  5
133A
  8
DEFPOINTS
 62
     0
 10
5.039370000000011
 20
0.3124999999999856
 30
0.0
  0
POINT
  5
133B
  8
DEFPOINTS
 62
     0
 10
5.039370000000011
 20
1.546184254954295
 30
0.0
  0
ENDBLK
  5
133D
  8
0
  0
BLOCK
  8
0
  2
*D4
 70
     1
 10
0.0
 20
0.0
 30
0.0
  3
*D4
  1

  0
LINE
  5
1342
  8
250
 10
5.059055000000011
 20
0.3124999999999856
 30
0.0
 11
6.282825594463224
 21
0.3124999999999854
 31
0.0
  0
LINE
  5
1343
  8
250
 10
5.059055000000011
 20
-0.3125000000000144
 30
0.0
 11
6.282825594463224
 21
-0.3125000000000145
 31
0.0
  0
LINE
  5
1344
  8
250
 10
6.243455594463224
 20
0.2247048999999854
 30
0.0
 11
6.243455594463224
 21
-0.2247049000000145
 31
0.0
  0
INSERT
  5
1345
  8
250
  2
_OPEN
 10
6.243455594463224
 20
0.3124999999999854
 30
0.0
 41
0.0877951
 42
0.0877951
 43
0.0877951
 50
90.0
  0
INSERT
  5
1346
  8
250
  2
_OPEN
 10
6.243455594463224
 20
-0.3125000000000145
 30
0.0
 41
0.0877951
 42
0.0877951
 43
0.0877951
 50
270.0
  0
TEXT
  5
1347
  8
250
  6
CONTINUOUS
 62
    40
 10
6.204085594463224
 20
-0.2339234166666806
 30
0.0
 40
0.1102359999999999
  1
\U+2205.625
 50
90.0
  0
POINT
  5
1348
  8
DEFPOINTS
 62
     0
 10
5.039370000000011
 20
0.3124999999999856
 30
0.0
  0
POINT
  5
1349
  8
DEFPOINTS
 62
     0
 10
5.039370000000011
 20
-0.3125000000000144
 30
0.0
  0
POINT
  5
134A
  8
DEFPOINTS
 62
     0
 10
6.243455594463224
 20
-0.3125000000000145
 30
0.0
  0
ENDBLK
  5
134C
  8
0
  0
BLOCK
  8
0
  2
*D5
 70
     1
 10
0.0
 20
0.0
 30
0.0
  3
*D5
  1

  0
LINE
  5
1351
  8
250
 10
2.020998722166062
 20
0.874999999999986
 30
0.0
 11
7.273144190059458
 21
0.8749999999999859
 31
0.0
  0
LINE
  5
1352
  8
250
 10
2.020998722166059
 20
-0.8750000000000178
 30
0.0
 11
7.273144190059458
 21
-0.8750000000000181
 31
0.0
  0
LINE
  5
1353
  8
250
 10
7.233774190059458
 20
0.7872048999999859
 30
0.0
 11
7.233774190059458
 21
-0.7872049000000181
 31
0.0
  0
INSERT
  5
1354
  8
250
  2
_OPEN
 10
7.233774190059458
 20
0.8749999999999859
 30
0.0
 41
0.0877951
 42
0.0877951
 43
0.0877951
 50
90.0
  0
INSERT
  5
1355
  8
250
  2
_OPEN
 10
7.233774190059458
 20
-0.8750000000000181
 30
0.0
 41
0.0877951
 42
0.0877951
 43
0.0877951
 50
270.0
  0
TEXT
  5
1356
  8
250
  6
CONTINUOUS
 62
    40
 10
7.194404190059458
 20
-0.1915186458333489
 30
0.0
 40
0.1102359999999999
  1
1.75
 50
90.0
  0
POINT
  5
1357
  8
DEFPOINTS
 62
     0
 10
2.001313722166062
 20
0.874999999999986
 30
0.0
  0
POINT
  5
1358
  8
DEFPOINTS
 62
     0
 10
2.001313722166059
 20
-0.8750000000000178
 30
0.0
  0
POINT
  5
1359
  8
DEFPOINTS
 62
     0
 10
7.233774190059458
 20
-0.8750000000000181
 30
0.0
  0
ENDBLK
  5
135B
  8
0
  0
BLOCK
  8
0
  2
*D6
 70
     1
 10
0.0
 20
0.0
 30
0.0
  3
*D6
  1

  0
LINE
  5
1368
  8
250
 10
4.840779308606526
 20
0.3482577743899143
 30
0.0
 11
4.840779308606526
 21
0.7105321523643254
 31
0.0
  0
LINE
  5
1369
  8
250
 10
5.039370000000011
 20
0.3518699999999855
 30
0.0
 11
5.039370000000011
 21
0.7105321523643254
 31
0.0
  0
LINE
  5
136A
  8
250
 10
4.840779308606526
 20
0.6711621523643254
 30
0.0
 11
5.039370000000011
 21
0.6711621523643254
 31
0.0
  0
LINE
  5
136B
  8
250
 10
4.752984208606525
 20
0.6711621523643254
 30
0.0
 11
4.665189108606525
 21
0.6711621523643254
 31
0.0
  0
LINE
  5
136C
  8
250
 10
5.127165100000011
 20
0.6711621523643254
 30
0.0
 11
5.214960200000011
 21
0.6711621523643254
 31
0.0
  0
INSERT
  5
136D
  8
250
  2
_OPEN
 10
4.840779308606526
 20
0.6711621523643254
 30
0.0
 41
0.0877951
 42
0.0877951
 43
0.0877951
  0
INSERT
  5
136E
  8
250
  2
_OPEN
 10
5.039370000000011
 20
0.6711621523643254
 30
0.0
 41
0.0877951
 42
0.0877951
 43
0.0877951
 50
180.0
  0
TEXT
  5
136F
  8
250
  6
CONTINUOUS
 62
    40
 10
4.751426737636602
 20
0.7105321523643255
 30
0.0
 40
0.1102359999999999
  1
.314
  0
POINT
  5
1370
  8
DEFPOINTS
 62
     0
 10
4.840779308606526
 20
0.3285727743899143
 30
0.0
  0
POINT
  5
1371
  8
DEFPOINTS
 62
     0
 10
5.039370000000011
 20
0.3321849999999855
 30
0.0
  0
POINT
  5
1372
  8
DEFPOINTS
 62
     0
 10
5.039370000000011
 20
0.6711621523643254
 30
0.0
  0
ENDBLK
  5
1374
  8
0
  0
ENDSEC
  0
SECTION
  2
ENTITIES
  0
INSERT
  5
6E6
  8
245
  2
矢印なし
 10
6.914310067668662
 20
3.565002150174575
 30
0.0
 41
0.03937
 42
0.03937
 43
0.03937
  0
LINE
  5
DFF
  8
250
  6
CONTINUOUS
 10
-1.452859250553823
 20
-0.6631229426275791
 30
0.0
 11
-1.726866407699271
 21
-1.137717260441003
 31
0.0
1001
ACAD
1000
DSTYLE
1002
{
1070
   341
1005
594
1070
     6
1000
OPEN
1070
   343
1005
594
1002
}
  0
TEXT
  5
E00
  8
250
  6
CONTINUOUS
 62
    40
 10
-2.390180604127842
 20
-1.098347260441003
 30
0.0
 40
0.11811
  1
BCV40
  7
YOKO
1001
ITEMNAME
1000
LNSP3
  0
LINE
  5
E01
  8
250
  6
CONTINUOUS
 10
-1.726866407699271
 20
-1.137717260441003
 30
0.0
 11
-2.486144979127842
 21
-1.137717260441003
 31
0.0
1001
ITEMNAME
1000
LNSP2
  0
LINE
  5
1144
  8
240
  6
CONTINUOUS
 10
0.0000000000000115
 20
-0.8749982500000141
 30
0.0
 11
-2.63646954357034
 21
-0.4905131082293364
 31
0.0
  0
LINE
  5
1145
  8
240
  6
CONTINUOUS
 10
0.0000000000000115
 20
0.8749982499999848
 30
0.0
 11
-2.636469543570339
 21
0.4905131082293078
 31
0.0
  0
LINE
  5
1147
  8
240
  6
CONTINUOUS
 10
-2.687002499999989
 20
-0.4320762380326439
 30
0.0
 11
-2.687002499999989
 21
0.4320762380326151
 31
0.0
  0
ARC
  5
1148
  8
240
  6
CONTINUOUS
 10
-2.627947499999989
 20
-0.4320762380326439
 30
0.0
 40
0.059055
 50
180.0
 51
261.7028550301632
  0
ARC
  5
1149
  8
240
  6
CONTINUOUS
 10
-2.627947499999989
 20
0.4320762380326151
 30
0.0
 40
0.0590550000000004
 50
98.2971449698369
 51
180.0
  0
LINE
  5
114A
  8
240
  6
CONTINUOUS
 10
0.7499985000000118
 20
-1.230312500000015
 30
0.0
 11
0.7499985000000118
 21
-0.0000000000000144
 31
0.0
  0
LINE
  5
114B
  8
241
  6
CONTINUOUS
 10
0.5766195856985172
 20
-1.249997500000015
 30
0.0
 11
0.5766195856985161
 21
-0.0000000000000144
 31
0.0
  0
LINE
  5
114C
  8
241
  6
CONTINUOUS
 10
0.2989692143015057
 20
-1.249997500000015
 30
0.0
 11
0.2989692143015057
 21
-0.0000000000000144
 31
0.0
  0
LINE
  5
114D
  8
241
  6
CONTINUOUS
 10
0.5133848000000097
 20
-1.140471638364477
 30
0.0
 11
0.513384800000009
 21
-0.0000000000000144
 31
0.0
  0
LINE
  5
114E
  8
241
  6
CONTINUOUS
 10
0.3622040000000111
 20
-1.14047163836447
 30
0.0
 11
0.3622040000000139
 21
-0.0000000000000144
 31
0.0
  0
LINE
  5
114F
  8
240
  6
CONTINUOUS
 10
0.0393700000000103
 20
-1.230312500000014
 30
0.0
 11
0.0393700000000097
 21
-0.0000000000000144
 31
0.0
  0
LINE
  5
1150
  8
245
  6
CENTER2
 10
0.4377944000000114
 20
-0.0000000000000144
 30
0.0
 11
0.4377944000000114
 21
-1.30587884567652
 31
0.0
  0
LINE
  5
1151
  8
240
  6
CONTINUOUS
 10
0.3622040000000111
 20
-1.109446600000015
 30
0.0
 11
0.5133848000000097
 21
-1.109446600000015
 31
0.0
  0
LINE
  5
1152
  8
240
  6
CONTINUOUS
 10
0.0590550000000103
 20
-1.249997500000015
 30
0.0
 11
0.2989692143015035
 21
-1.249997500000015
 31
0.0
  0
ARC
  5
1153
  8
240
  6
CONTINUOUS
 10
0.0590550000000103
 20
-1.230312500000014
 30
0.0
 40
0.019685
 50
180.0
 51
270.0
  0
LINE
  5
1154
  8
240
  6
CONTINUOUS
 10
0.2989692143015035
 20
-1.249997500000015
 30
0.0
 11
0.3622040000000111
 21
-1.14047163836447
 31
0.0
  0
LINE
  5
1155
  8
240
  6
CONTINUOUS
 10
0.5766195856985126
 20
-1.249997500000015
 30
0.0
 11
0.7303135000000117
 21
-1.249997500000015
 31
0.0
  0
LINE
  5
1156
  8
240
  6
CONTINUOUS
 10
0.5766195856985126
 20
-1.249997500000015
 30
0.0
 11
0.5133848000000097
 21
-1.140471638364477
 31
0.0
  0
ARC
  5
1157
  8
240
  6
CONTINUOUS
 10
0.7303135000000117
 20
-1.230312500000015
 30
0.0
 40
0.019685
 50
270.0
 51
0.0
  0
LINE
  5
115C
  8
240
  6
CONTINUOUS
 10
0.3624795900000112
 20
1.109446599999985
 30
0.0
 11
0.5136603900000102
 21
1.109446599999985
 31
0.0
  0
LINE
  5
1161
  8
241
  6
HIDDEN2
 10
0.0393700000000103
 20
-0.8885809000000141
 30
0.0
 11
0.7499985000000118
 21
-0.8885809000000141
 31
0.0
  0
LINE
  5
1162
  8
241
  6
CONTINUOUS
 10
0.0000000000000115
 20
-0.8749982500000133
 30
0.0
 11
0.0000000000000143
 21
-0.0000000000000145
 31
0.0
  0
LINE
  5
1163
  8
241
  6
CONTINUOUS
 10
0.0231803926805315
 20
-0.8631872500000133
 30
0.0
 11
0.0231803926805315
 21
-0.640781620541406
 31
0.0
  0
LINE
  5
1164
  8
240
  6
CONTINUOUS
 10
0.0000000000000092
 20
-0.8749982500000141
 30
0.0
 11
0.0231803926805315
 21
-0.8631872500000133
 31
0.0
  0
ARC
  5
1165
  8
240
  6
CONTINUOUS
 10
0.0314960000000108
 20
-0.8828722500000113
 30
0.0
 40
0.019685
 50
66.42182152179961
 51
90.0
  0
LINE
  5
1166
  8
240
  6
CONTINUOUS
 10
0.0231803926805315
 20
-0.8631872500000133
 30
0.0
 11
0.0314960000000108
 21
-0.8631872500000133
 31
0.0
  0
LINE
  5
1169
  8
240
  6
CONTINUOUS
 10
0.0231803926805337
 20
0.8631872499999844
 30
0.0
 11
0.0000000000000115
 21
0.8749982499999848
 31
0.0
  0
LINE
  5
116A
  8
240
  6
CONTINUOUS
 10
0.0231803926805337
 20
0.8631872499999844
 30
0.0
 11
0.0314960000000108
 21
0.8631872499999855
 31
0.0
  0
ARC
  5
116B
  8
240
  6
CONTINUOUS
 10
0.0314960000000108
 20
0.8828722499999849
 30
0.0
 40
0.019685
 50
270.0
 51
293.5781608781103
  0
LINE
  5
116D
  8
240
  6
CONTINUOUS
 10
0.3624795900000112
 20
1.14047163836445
 30
0.0
 11
0.2992448043015036
 21
1.249997499999985
 31
0.0
  0
LINE
  5
116E
  8
240
  6
CONTINUOUS
 10
0.0393699944579998
 20
0.8648306470702128
 30
0.0
 11
0.0393700000000103
 21
1.230312499999987
 31
0.0
  0
LINE
  5
116F
  8
240
  6
CONTINUOUS
 10
0.3624795900000112
 20
1.109446599999985
 30
0.0
 11
0.3624795900000112
 21
1.14047163836445
 31
0.0
  0
LINE
  5
1170
  8
240
  6
CONTINUOUS
 10
0.0590550000000103
 20
1.249997499999985
 30
0.0
 11
0.2992448043015036
 21
1.249997499999985
 31
0.0
  0
ARC
  5
1171
  8
240
  6
CONTINUOUS
 10
0.0590550000000103
 20
1.230312499999987
 30
0.0
 40
0.019685
 50
90.0
 51
180.0
  0
LINE
  5
1195
  8
240
  6
CONTINUOUS
 10
0.7499985000000118
 20
1.230312499999985
 30
0.0
 11
0.7499985000000018
 21
0.8749999999999856
 31
0.0
  0
LINE
  5
119A
  8
240
  6
CONTINUOUS
 10
0.5136603900000102
 20
1.140471638364446
 30
0.0
 11
0.5768951756985193
 21
1.249997499999985
 31
0.0
  0
LINE
  5
119B
  8
240
  6
CONTINUOUS
 10
0.5136603900000102
 20
1.109446599999985
 30
0.0
 11
0.5136603900000102
 21
1.140471638364446
 31
0.0
  0
LINE
  5
119C
  8
240
  6
CONTINUOUS
 10
0.5768951756985193
 20
1.249997499999985
 30
0.0
 11
0.7303135000000117
 21
1.249997499999985
 31
0.0
  0
ARC
  5
119D
  8
240
  6
CONTINUOUS
 10
0.7303135000000117
 20
1.230312499999985
 30
0.0
 40
0.019685
 50
0.0
 51
90.0
  0
DIMENSION
  5
1313
  8
250
  2
*D2
 10
5.039370000000011
 20
2.349501776833981
 30
0.0
 11
2.539370000000011
 21
2.443989776833981
 31
0.0
 70
    32
  3
BIGT
 13
0.0393700000000103
 23
1.230312499999987
 33
0.0
 14
5.039370000000011
 24
1.230312499999987
 34
0.0
1001
ACAD
1000
DSTYLE
1002
{
1070
   287
1070
     5
1070
   271
1070
     3
1070
   341
1005
0
1070
    40
1040
0.03937
1070
   272
1070
     3
1070
   279
1070
     2
1070
   340
1005
129F
1002
}
  0
LINE
  5
1322
  8
245
  6
CENTER2
 10
-2.687002499999989
 20
-0.0000000000000144
 30
0.0
 11
-2.687002499999989
 21
-0.0000000000000144
 31
0.0
  0
LINE
  5
1324
  8
240
 10
0.7499985000000118
 20
-0.8750000000000144
 30
0.0
 11
1.501313722166065
 21
-0.8750000000000145
 31
0.0
  0
LINE
  5
1325
  8
240
 10
0.7499985000000118
 20
0.8749999999999856
 30
0.0
 11
1.501313722166062
 21
0.8749999999999856
 31
0.0
  0
LINE
  5
1328
  8
240
 10
5.039370000000011
 20
-0.3125000000000144
 30
0.0
 11
5.039370000000011
 21
0.3124999999999856
 31
0.0
  0
LINE
  5
1329
  8
240
 10
4.834913116453499
 20
0.3124407459690886
 30
0.0
 11
3.859484379871929
 21
0.3121517866775263
 31
0.0
  0
LINE
  5
132A
  8
240
 10
5.239370000000072
 20
-0.3125000000000144
 30
0.0
 11
3.859484379871929
 21
-0.3128482133224737
 31
0.0
  0
ARC
  5
132B
  8
240
 10
4.837286978600831
 20
9.636078573837306
 30
0.0
 40
9.374711480605649
 50
249.1545686597518
 51
264.0130378447979
  0
ARC
  5
132E
  8
240
 10
4.165912594711633
 20
-6.825505208741881
 30
0.0
 40
6.519861915012862
 50
92.6938474757942
 51
114.1225355414312
  0
DIMENSION
  5
132F
  8
250
  2
*D3
 10
5.039370000000011
 20
1.546184254954295
 30
0.0
 11
4.449427189935939
 21
1.640672254954295
 31
0.0
 70
    32
  3
BIGT
 13
3.859484379871867
 23
0.3192630515292535
 33
0.0
 14
5.039370000000011
 24
0.3124999999999856
 34
0.0
1001
ACAD
1000
DSTYLE
1002
{
1070
   287
1070
     5
1070
   271
1070
     3
1070
   341
1005
0
1070
    40
1040
0.03937
1070
   272
1070
     3
1070
   279
1070
     2
1070
   340
1005
129F
1002
}
  0
DIMENSION
  5
133E
  8
250
  2
*D4
 10
6.243455594463224
 20
-0.3125000000000145
 30
0.0
 11
6.148967594463224
 21
-0.0000000000000145
 31
0.0
 70
    32
  1
\U+2205.625
  3
BIGT
 13
5.039370000000011
 23
0.3124999999999856
 33
0.0
 14
5.039370000000011
 24
-0.3125000000000144
 34
0.0
 50
90.0
1001
ACAD
1000
DSTYLE
1002
{
1070
   287
1070
     5
1070
   271
1070
     3
1070
   341
1005
0
1070
    40
1040
0.03937
1070
   272
1070
     3
1070
   279
1070
     2
1070
   340
1005
129F
1002
}
  0
DIMENSION
  5
134D
  8
250
  2
*D5
 10
7.233774190059458
 20
-0.8750000000000181
 30
0.0
 11
7.139286190059458
 21
-0.0000000000000161
 31
0.0
 70
    32
  3
BIGT
 13
2.001313722166062
 23
0.874999999999986
 33
0.0
 14
2.001313722166059
 24
-0.8750000000000178
 34
0.0
 50
90.0
1001
ACAD
1000
DSTYLE
1002
{
1070
   287
1070
     5
1070
   271
1070
     3
1070
   341
1005
0
1070
    40
1040
0.03937
1070
   272
1070
     3
1070
   279
1070
     2
1070
   340
1005
129F
1002
}
  0
LINE
  5
135C
  8
241
 10
4.325400955027847
 20
0.3124999999999856
 30
0.0
 11
4.370812493165125
 21
0.2569417389217751
 31
0.0
  0
LINE
  5
135D
  8
241
 10
4.370812493165125
 20
0.2569417389217751
 30
0.0
 11
4.797490718593951
 21
0.2095291518553306
 31
0.0
  0
LINE
  5
135E
  8
240
 10
4.797490718593951
 20
0.2095291518553306
 30
0.0
 11
4.840779308606526
 21
0.3285727743899143
 31
0.0
  0
LINE
  5
135F
  8
240
 10
4.840779308606526
 20
0.3285727743899143
 30
0.0
 11
5.040989037414692
 21
0.3285727743899143
 31
0.0
  0
LINE
  5
1360
  8
240
 10
5.040989037414692
 20
0.3285727743899143
 30
0.0
 11
5.035577963663119
 21
0.1824737830974704
 31
0.0
  0
CIRCLE
  5
1361
  8
240
 10
4.938178636134824
 20
0.2582288156194785
 30
0.0
 40
0.0641389159548684
  0
CIRCLE
  5
1363
  8
240
 10
4.938178636134824
 20
0.2582288156194785
 30
0.0
 40
0.0533937689941132
  0
DIMENSION
  5
1364
  8
250
  2
*D6
 10
5.039370000000011
 20
0.6711621523643254
 30
0.0
 11
4.940074654303269
 21
0.7656501523643254
 31
0.0
 70
    32
  1
.314
  3
BIGT
 13
4.840779308606526
 23
0.3285727743899143
 33
0.0
 14
5.039370000000011
 24
0.3321849999999855
 34
0.0
1001
ACAD
1000
DSTYLE
1002
{
1070
   287
1070
     5
1070
   271
1070
     3
1070
   341
1005
0
1070
    40
1040
0.03937
1070
   272
1070
     3
1070
   279
1070
     2
1070
   340
1005
129F
1002
}
  0
LINE
  5
1375
  8
240
 10
5.039608904685478
 20
-0.1368397735754956
 30
0.0
 11
4.758543125620353
 21
-0.1024235557307866
 31
0.0
  0
LINE
  5
1376
  8
240
 10
4.758543125620353
 20
-0.1024235557307866
 30
0.0
 11
4.752807089312901
 21
-0.1597839188053018
 31
0.0
  0
LINE
  5
1377
  8
240
 10
4.752807089312901
 20
-0.1597839188053018
 30
0.0
 11
5.053948995454105
 21
-0.2228803181872687
 31
0.0
  0
LINE
  5
1378
  8
240
 10
5.053948995454105
 20
-0.2228803181872687
 30
0.0
 11
5.039608904685478
 21
-0.1368397735754956
 31
0.0
  0
LINE
  5
1379
  8
241
 10
4.752807089312901
 20
-0.1597839188053018
 30
0.0
 11
4.648870111421879
 21
-0.1424381450115683
 31
0.0
  0
ARC
  5
137A
  8
241
 10
4.64386744093779
 20
-0.2283713529213399
 30
0.0
 40
0.0860787019746255
 50
86.66824080290807
 51
257.780976270207
  0
LINE
  5
137B
  8
241
 10
3.859484379871867
 20
-0.3128482133224736
 30
0.0
 11
3.859484379871867
 21
-0.0003482133224738
 31
0.0
  0
LINE
  5
137F
  8
240
 10
4.797490718593951
 20
0.2095291518553306
 30
0.0
 11
5.035577963663119
 21
0.1824737830974704
 31
0.0
  0
LINE
  5
140D
  8
245
  6
CENTER2
 10
-2.687002499999989
 20
-0.0000000000000144
 30
0.0
 11
-2.687002499999989
 21
-0.0000000000000144
 31
0.0
  0
LINE
  5
149F
  8
245
  6
CENTER2
 10
-3.220044285721907
 20
-0.0000000000000144
 30
0.0
 11
5.463057430452775
 21
-0.0000000000000144
 31
0.0
  0
TEXT
  5
14A0
  8
241
  6
CENTER2
 10
-3.134
 20
3.974
 30
0.0
 40
0.5
  1
BCV40-FCR.625-5
  7
YOKO
  0
LINE
  5
14A1
  8
241
  6
HIDDEN2
 10
-2.687002499999989
 20
0.3154275998379805
 30
0.0
 11
-2.286949941732597
 21
0.3154275998379805
 31
0.0
  0
LINE
  5
14A4
  8
241
  6
HIDDEN2
 10
-2.286949941732597
 20
0.0004275998379804
 30
0.0
 11
-2.286949941732597
 21
0.3154275998379805
 31
0.0
  0
LINE
  5
14A5
  8
241
  6
HIDDEN2
 10
-2.285938476771585
 20
0.2952818718831323
 30
0.0
 11
-1.408488480239818
 21
0.2952818718831323
 31
0.0
  0
LINE
  5
14A6
  8
241
  6
HIDDEN2
 10
-1.408488480239818
 20
0.2952818718831323
 30
0.0
 11
-1.408488480239818
 21
0.0004275998379804
 31
0.0
  0
LINE
  5
14A7
  8
241
  6
HIDDEN2
 10
-2.28662838867491
 20
0.279130239474827
 30
0.0
 11
-1.166319679149444
 21
0.279130239474827
 31
0.0
  0
LINE
  5
14A8
  8
241
  6
HIDDEN2
 10
-1.166319679149444
 20
0.279130239474827
 30
0.0
 11
-1.166319679149444
 21
-0.0000000000000144
 31
0.0
  0
LINE
  5
14A9
  8
241
  6
HIDDEN2
 10
-1.166319679149444
 20
0.279130239474827
 30
0.0
 11
-1.166319679149444
 21
0.0004275998379804
 31
0.0
  0
LINE
  5
14AB
  8
241
  6
HIDDEN2
 10
-1.167306522343782
 20
0.2678880480223181
 30
0.0
 11
-0.0112086486635792
 21
0.2678880480223181
 31
0.0
  0
LINE
  5
14AC
  8
241
  6
HIDDEN2
 10
-0.0112086486635792
 20
0.2678880480223181
 30
0.0
 11
-0.0112086486635792
 21
-0.0000000000000144
 31
0.0
  0
LINE
  5
14AE
  8
241
  6
HIDDEN2
 10
-0.0112086486635792
 20
0.2365360386981628
 30
0.0
 11
0.0844432798107403
 21
0.158564998781043
 31
0.0
  0
LINE
  5
14AF
  8
241
  6
HIDDEN2
 10
0.0844432798107403
 20
0.158564998781043
 30
0.0
 11
1.501313722166061
 21
0.158564998781043
 31
0.0
  0
LINE
  5
14B0
  8
241
  6
HIDDEN2
 10
1.501313722166061
 20
0.158564998781043
 30
0.0
 11
1.670581250004471
 21
-0.000247463796358
 31
0.0
  0
LINE
  5
14B1
  8
241
  6
HIDDEN2
 10
1.501313722166061
 20
0.158564998781043
 30
0.0
 11
1.50131372216606
 21
-0.0000000000000144
 31
0.0
  0
LINE
  5
14B2
  8
241
  6
HIDDEN2
 10
0.0393700000000103
 20
1.180382029858716
 30
0.0
 11
1.328511923900274
 21
0.1605193510185489
 31
0.0
  0
LINE
  5
14B3
  8
241
  6
HIDDEN2
 10
1.198193893871893
 20
0.1605193510185489
 30
0.0
 11
0.039369997461782
 21
1.062922640563444
 31
0.0
  0
LINE
  5
14B4
  8
241
  6
HIDDEN2
 10
3.859484379871867
 20
-0.0003482133224738
 30
0.0
 11
3.859484379871867
 21
0.3121517866775263
 31
0.0
  0
LINE
  5
14B5
  8
241
  6
HIDDEN2
 10
1.585947486085266
 20
0.0791587674923425
 30
0.0
 11
3.859369999999948
 21
0.2142082298425446
 31
0.0
  0
LINE
  5
14B6
  8
241
  6
HIDDEN2
 10
1.639869359144031
 20
0.0294999173560875
 30
0.0
 11
3.859369999999948
 21
0.1562499999999855
 31
0.0
  0
VIEWPORT
  5
22
 67
     1
  8
0
 10
261.5176991150442
 20
148.5
 30
0.0
 40
523.0353982300885
 41
297.0
 68
     1
 69
    -1
1001
ACAD
1000
MVIEW
1002
{
1070
    16
1010
0.0
1020
0.0
1030
0.0
1020
0.0
1030
0.0
1010
0.0
1020
0.0
1030
1.0
1020
0.0
1030
1.0
1040
0.0
1040
297.0
1040
261.5176991150442
1040
148.5
1040
50.0
1040
0.0
1040
0.0
1070
     0
1070
   100
1070
     1
1070
     1
1070
     0
1070
     0
1070
     0
1070
     0
1040
0.0
1040
0.0
1040
0.0
1040
1.0
1040
1.0
1040
10.0
1040
10.0
1070
     0
1002
{
1002
}
1002
}
  0
ENDSEC
  0
EOF
