  0
SECTION
  2
HEADER
  9
$ACADVER
  1
AC1014
  9
$ACADMAINTVER
 70
     9
  9
$DWGCODEPAGE
  3
ANSI_932
  9
$INSBASE
 10
0.0
 20
0.0
 30
0.0
  9
$EXTMIN
 10
-102.81595337
 20
-62.01095497
 30
-0.00152582
  9
$EXTMAX
 10
309.01189684
 20
89.01489317
 30
0.00000003
  9
$LIMMIN
 10
0.0
 20
0.0
  9
$LIMMAX
 10
420.0
 20
297.0
  9
$ORTHOMODE
 70
     0
  9
$REGENMODE
 70
     1
  9
$FILLMODE
 70
     1
  9
$QTEXTMODE
 70
     0
  9
$MIRRTEXT
 70
     1
  9
$DRAGMODE
 70
     2
  9
$LTSCALE
 40
10.0
  9
$OSMODE
 70
   549
  9
$ATTMODE
 70
     1
  9
$TEXTSIZE
 40
3.0
  9
$TRACEWID
 40
1.0
  9
$TEXTSTYLE
  7
YOKO
  9
$CLAYER
  8
245
  9
$CELTYPE
  6
BYLAYER
  9
$CECOLOR
 62
   256
  9
$CELTSCALE
 40
1.0
  9
$DELOBJ
 70
     1
  9
$DISPSILH
 70
     0
  9
$DIMSCALE
 40
1.0
  9
$DIMASZ
 40
2.23
  9
$DIMEXO
 40
0.5
  9
$DIMDLI
 40
2.5
  9
$DIMRND
 40
0.0
  9
$DIMDLE
 40
0.0
  9
$DIMEXE
 40
1.0
  9
$DIMTP
 40
0.0
  9
$DIMTM
 40
0.0
  9
$DIMTXT
 40
2.8
  9
$DIMCEN
 40
0.0
  9
$DIMTSZ
 40
0.0
  9
$DIMTOL
 70
     0
  9
$DIMLIM
 70
     0
  9
$DIMTIH
 70
     0
  9
$DIMTOH
 70
     0
  9
$DIMSE1
 70
     0
  9
$DIMSE2
 70
     0
  9
$DIMTAD
 70
     3
  9
$DIMZIN
 70
     8
  9
$DIMBLK
  1

  9
$DIMASO
 70
     1
  9
$DIMSHO
 70
     1
  9
$DIMPOST
  1

  9
$DIMAPOST
  1

  9
$DIMALT
 70
     0
  9
$DIMALTD
 70
     2
  9
$DIMALTF
 40
25.4
  9
$DIMLFAC
 40
1.0
  9
$DIMTOFL
 70
     1
  9
$DIMTVP
 40
0.0
  9
$DIMTIX
 70
     1
  9
$DIMSOXD
 70
     0
  9
$DIMSAH
 70
     1
  9
$DIMBLK1
  1
OPEN
  9
$DIMBLK2
  1
OPEN
  9
$DIMSTYLE
  2
BIGT
  9
$DIMCLRD
 70
   256
  9
$DIMCLRE
 70
   256
  9
$DIMCLRT
 70
    40
  9
$DIMTFAC
 40
1.0
  9
$DIMGAP
 40
1.0
  9
$DIMJUST
 70
     0
  9
$DIMSD1
 70
     0
  9
$DIMSD2
 70
     0
  9
$DIMTOLJ
 70
     1
  9
$DIMTZIN
 70
     8
  9
$DIMALTZ
 70
     0
  9
$DIMALTTZ
 70
     0
  9
$DIMFIT
 70
     3
  9
$DIMUPT
 70
     0
  9
$DIMUNIT
 70
     2
  9
$DIMDEC
 70
     3
  9
$DIMTDEC
 70
     3
  9
$DIMALTU
 70
     2
  9
$DIMALTTD
 70
     2
  9
$DIMTXSTY
  7
STANDARD
  9
$DIMAUNIT
 70
     0
  9
$LUNITS
 70
     2
  9
$LUPREC
 70
     3
  9
$SKETCHINC
 40
1.0
  9
$FILLETRAD
 40
0.0
  9
$AUNITS
 70
     0
  9
$AUPREC
 70
     3
  9
$MENU
  1
.
  9
$ELEVATION
 40
0.0
  9
$PELEVATION
 40
0.0
  9
$THICKNESS
 40
0.0
  9
$LIMCHECK
 70
     0
  9
$BLIPMODE
 70
     0
  9
$CHAMFERA
 40
10.0
  9
$CHAMFERB
 40
10.0
  9
$CHAMFERC
 40
0.0
  9
$CHAMFERD
 40
0.0
  9
$SKPOLY
 70
     0
  9
$TDCREATE
 40
2455107.575354629
  9
$TDUPDATE
 40
2455392.377453159
  9
$TDINDWG
 40
0.0185530556
  9
$TDUSRTIMER
 40
0.0185530556
  9
$USRTIMER
 70
     1
  9
$ANGBASE
 50
0.0
  9
$ANGDIR
 70
     0
  9
$PDMODE
 70
     1
  9
$PDSIZE
 40
-5.0
  9
$PLINEWID
 40
0.0
  9
$COORDS
 70
     1
  9
$SPLFRAME
 70
     0
  9
$SPLINETYPE
 70
     6
  9
$SPLINESEGS
 70
     8
  9
$ATTDIA
 70
     0
  9
$ATTREQ
 70
     1
  9
$HANDLING
 70
-16383
  9
$HANDSEED
  5
1ACA
  9
$SURFTAB1
 70
     6
  9
$SURFTAB2
 70
     6
  9
$SURFTYPE
 70
     6
  9
$SURFU
 70
     6
  9
$SURFV
 70
     6
  9
$UCSNAME
  2

  9
$UCSORG
 10
0.0
 20
0.0
 30
0.0
  9
$UCSXDIR
 10
1.0
 20
0.0
 30
0.0
  9
$UCSYDIR
 10
0.0
 20
1.0
 30
0.0
  9
$PUCSNAME
  2

  9
$PUCSORG
 10
0.0
 20
0.0
 30
0.0
  9
$PUCSXDIR
 10
1.0
 20
0.0
 30
0.0
  9
$PUCSYDIR
 10
0.0
 20
1.0
 30
0.0
  9
$USERI1
 70
     1
  9
$USERI2
 70
     0
  9
$USERI3
 70
     0
  9
$USERI4
 70
     0
  9
$USERI5
 70
     0
  9
$USERR1
 40
0.0
  9
$USERR2
 40
0.0
  9
$USERR3
 40
0.0
  9
$USERR4
 40
0.0
  9
$USERR5
 40
0.0
  9
$WORLDVIEW
 70
     1
  9
$SHADEDGE
 70
     3
  9
$SHADEDIF
 70
    70
  9
$TILEMODE
 70
     1
  9
$MAXACTVP
 70
    16
  9
$PINSBASE
 10
0.0
 20
0.0
 30
0.0
  9
$PLIMCHECK
 70
     0
  9
$PEXTMIN
 10
1.00000000E+20
 20
1.00000000E+20
 30
1.00000000E+20
  9
$PEXTMAX
 10
-1.00000000E+20
 20
-1.00000000E+20
 30
-1.00000000E+20
  9
$PLIMMIN
 10
0.0
 20
0.0
  9
$PLIMMAX
 10
420.0
 20
297.0
  9
$UNITMODE
 70
     0
  9
$VISRETAIN
 70
     0
  9
$PLINEGEN
 70
     0
  9
$PSLTSCALE
 70
     1
  9
$TREEDEPTH
 70
  3020
  9
$PICKSTYLE
 70
     0
  9
$CMLSTYLE
  2
STANDARD
  9
$CMLJUST
 70
     0
  9
$CMLSCALE
 40
1.0
  9
$PROXYGRAPHICS
 70
     1
  9
$MEASUREMENT
 70
     1
  0
ENDSEC
  0
SECTION
  2
CLASSES
  0
CLASS
  1
XRECORD
  2
AcDbXrecord
  3
AutoCAD 2000
 90
        0
280
     0
281
     0
  0
CLASS
  1
ACDBDICTIONARYWDFLT
  2
AcDbDictionaryWithDefault
  3
AutoCAD 2000
 90
        0
280
     0
281
     0
  0
CLASS
  1
ACDBPLACEHOLDER
  2
AcDbPlaceHolder
  3
AutoCAD 2000
 90
        0
280
     0
281
     0
  0
CLASS
  1
LAYOUT
  2
AcDbLayout
  3
AutoCAD 2000
 90
        0
280
     0
281
     0
  0
CLASS
  1
PLOTSETTINGS
  2
AcDbPlotSettings
  3
AutoCAD 2000
 90
        0
280
     0
281
     0
  0
CLASS
  1
LONG_TRANSACTION
  2
AcDbLongTransaction
  3
AutoCAD 2000
 90
        0
280
     0
281
     0
  0
CLASS
  1
LWPOLYLINE
  2
AcDbPolyline
  3
AutoCAD 2000
 90
        0
280
     0
281
     1
  0
CLASS
  1
HATCH
  2
AcDbHatch
  3
AutoCAD 2000
 90
        0
280
     0
281
     1
  0
CLASS
  1
XRECORD
  2
AcDbXrecord
  3
AutoCAD 2000
 90
        0
280
     0
281
     0
  0
CLASS
  1
LONG_TRANSACTION
  2
AcDbLongTransaction
  3
AutoCAD 2000
 90
        0
280
     0
281
     0
  0
CLASS
  1
LWPOLYLINE
  2
AcDbPolyline
  3
AutoCAD 2000
 90
        0
280
     0
281
     1
  0
CLASS
  1
HATCH
  2
AcDbHatch
  3
AutoCAD 2000
 90
        0
280
     0
281
     1
  0
CLASS
  1
XRECORD
  2
AcDbXrecord
  3
AutoCAD 2000
 90
        0
280
     0
281
     0
  0
ENDSEC
  0
SECTION
  2
TABLES
  0
TABLE
  2
VPORT
  5
8
330
0
100
AcDbSymbolTable
 70
     2
  0
VPORT
  5
1A9F
330
8
100
AcDbSymbolTableRecord
100
AcDbViewportTableRecord
  2
*ACTIVE
 70
     0
 10
0.0
 20
0.0
 11
1.0
 21
1.0
 12
103.09797173
 22
13.5019691
 13
0.0
 23
0.0
 14
7.0
 24
7.0
 15
7.0
 25
7.0
 16
0.0
 26
0.0
 36
1.0
 17
0.0
 27
0.0
 37
0.0
 40
284.36480956
 41
1.45595855
 42
50.0
 43
0.0
 44
0.0
 50
0.0
 51
0.0
 71
     0
 72
  2000
 73
     1
 74
     0
 75
     0
 76
     0
 77
     0
 78
     0
  0
ENDTAB
  0
TABLE
  2
LTYPE
  5
5
330
0
100
AcDbSymbolTable
 70
     4
  0
LTYPE
  5
14
330
5
100
AcDbSymbolTableRecord
100
AcDbLinetypeTableRecord
  2
BYBLOCK
 70
     0
  3

 72
    65
 73
     0
 40
0.0
  0
LTYPE
  5
15
330
5
100
AcDbSymbolTableRecord
100
AcDbLinetypeTableRecord
  2
BYLAYER
 70
     0
  3

 72
    65
 73
     0
 40
0.0
  0
LTYPE
  5
16
330
5
100
AcDbSymbolTableRecord
100
AcDbLinetypeTableRecord
  2
CONTINUOUS
 70
     0
  3
Solid line
 72
    65
 73
     0
 40
0.0
  0
LTYPE
  5
258
330
5
100
AcDbSymbolTableRecord
100
AcDbLinetypeTableRecord
  2
CENTER2
 70
     0
  3
___ _ ___ _ ___ _ ___ _ ___ _ ___ _ ___ _ ___ _
 72
    65
 73
     4
 40
1.125
 49
0.75
 74
     0
 49
-0.125
 74
     0
 49
0.125
 74
     0
 49
-0.125
 74
     0
  0
LTYPE
  5
25C
330
5
100
AcDbSymbolTableRecord
100
AcDbLinetypeTableRecord
  2
HIDDEN2
 70
     0
  3
_ _ _ _ _ _ _ _ _ _ _ _ _ _ _ _ _ _ _ _ _ _ _ _
 72
    65
 73
     2
 40
0.1875
 49
0.125
 74
     0
 49
-0.0625
 74
     0
  0
LTYPE
  5
25D
330
5
100
AcDbSymbolTableRecord
100
AcDbLinetypeTableRecord
  2
PHANTOM2
 70
     0
  3
___ _ _ ___ _ _ ___ _ _ ___ _ _ ___ _ _ ___ _ _
 72
    65
 73
     6
 40
1.25
 49
0.625
 74
     0
 49
-0.125
 74
     0
 49
0.125
 74
     0
 49
-0.125
 74
     0
 49
0.125
 74
     0
 49
-0.125
 74
     0
  0
ENDTAB
  0
TABLE
  2
LAYER
  5
2
330
0
100
AcDbSymbolTable
 70
     9
  0
LAYER
  5
F
330
2
100
AcDbSymbolTableRecord
100
AcDbLayerTableRecord
  2
0
 70
     0
 62
     7
  6
CONTINUOUS
  0
LAYER
  5
1AA
330
2
100
AcDbSymbolTableRecord
100
AcDbLayerTableRecord
  2
240
 70
     0
 62
     4
  6
CONTINUOUS
  0
LAYER
  5
1AB
330
2
100
AcDbSymbolTableRecord
100
AcDbLayerTableRecord
  2
241
 70
     0
 62
   211
  6
CONTINUOUS
  0
LAYER
  5
1AC
330
2
100
AcDbSymbolTableRecord
100
AcDbLayerTableRecord
  2
242
 70
     0
 62
     3
  6
CONTINUOUS
  0
LAYER
  5
1AF
330
2
100
AcDbSymbolTableRecord
100
AcDbLayerTableRecord
  2
245
 70
     0
 62
     2
  6
CENTER2
  0
LAYER
  5
21E
330
2
100
AcDbSymbolTableRecord
100
AcDbLayerTableRecord
  2
250
 70
     0
 62
     3
  6
CONTINUOUS
  0
LAYER
  5
21F
330
2
100
AcDbSymbolTableRecord
100
AcDbLayerTableRecord
  2
251
 70
     0
 62
    40
  6
CONTINUOUS
  0
LAYER
  5
5C4
330
2
100
AcDbSymbolTableRecord
100
AcDbLayerTableRecord
  2
DEFPOINTS
 70
     0
 62
     7
  6
CONTINUOUS
  0
ENDTAB
  0
TABLE
  2
STYLE
  5
3
330
0
100
AcDbSymbolTable
 70
     2
  0
STYLE
  5
10
330
3
100
AcDbSymbolTableRecord
100
AcDbTextStyleTableRecord
  2
STANDARD
 70
     0
 40
0.0
 41
1.0
 50
0.0
 71
     0
 42
3.0
  3
romans.shx
  4
BIGFONT.SHX
  0
STYLE
  5
339
330
3
100
AcDbSymbolTableRecord
100
AcDbTextStyleTableRecord
  2
YOKO
 70
     0
 40
0.0
 41
1.0
 50
0.0
 71
     0
 42
3.0
  3
romans.shx
  4
extfont.shx
  0
ENDTAB
  0
TABLE
  2
VIEW
  5
6
330
0
100
AcDbSymbolTable
 70
     0
  0
ENDTAB
  0
TABLE
  2
UCS
  5
7
330
0
100
AcDbSymbolTable
 70
     0
  0
ENDTAB
  0
TABLE
  2
APPID
  5
9
330
0
100
AcDbSymbolTable
 70
     9
  0
APPID
  5
11
330
9
100
AcDbSymbolTableRecord
100
AcDbRegAppTableRecord
  2
ACAD
 70
     0
  0
APPID
  5
1B1
330
9
100
AcDbSymbolTableRecord
100
AcDbRegAppTableRecord
  2
GLOBAL
 70
     0
  0
APPID
  5
2A4
330
9
100
AcDbSymbolTableRecord
100
AcDbRegAppTableRecord
  2
DETAIL
 70
     0
  0
APPID
  5
5FD
330
9
100
AcDbSymbolTableRecord
100
AcDbRegAppTableRecord
  2
GRPNAME
 70
     0
  0
APPID
  5
5FE
330
9
100
AcDbSymbolTableRecord
100
AcDbRegAppTableRecord
  2
GPARA
 70
     0
  0
APPID
  5
6C4
330
9
100
AcDbSymbolTableRecord
100
AcDbRegAppTableRecord
  2
DCO15
 70
     0
  0
APPID
  5
6C5
330
9
100
AcDbSymbolTableRecord
100
AcDbRegAppTableRecord
  2
ITEMNAME
 70
     0
  0
APPID
  5
6C6
330
9
100
AcDbSymbolTableRecord
100
AcDbRegAppTableRecord
  2
GRADE_0
 70
     0
  0
APPID
  5
18A2
330
9
100
AcDbSymbolTableRecord
100
AcDbRegAppTableRecord
  2
CONTENTBLOCKICON
 70
     0
  0
ENDTAB
  0
TABLE
  2
DIMSTYLE
  5
A
330
0
100
AcDbSymbolTable
 70
     1
  0
DIMSTYLE
105
725
102
{ACAD_REACTORS
330
148B
330
149A
330
14A9
330
1579
330
1588
330
159E
102
}
330
A
100
AcDbSymbolTableRecord
100
AcDbDimStyleTableRecord
  2
BIGT
 70
     0
  3

  4

  5

  6
OPEN
  7
OPEN
 40
1.0
 41
2.23
 42
0.5
 43
2.5
 44
1.0
 45
0.0
 46
0.0
 47
0.0
 48
0.0
140
2.8
141
0.0
142
0.0
143
25.4
144
1.0
145
0.0
146
1.0
147
1.0
 71
     0
 72
     0
 73
     0
 74
     0
 75
     0
 76
     0
 77
     3
 78
     8
170
     0
171
     2
172
     1
173
     1
174
     1
175
     0
176
   256
177
   256
178
    40
270
     2
271
     3
272
     3
273
     2
274
     2
340
10
275
     0
280
     0
281
     0
282
     0
283
     1
284
     8
285
     0
286
     0
287
     3
288
     0
  0
ENDTAB
  0
TABLE
  2
BLOCK_RECORD
  5
1
330
0
100
AcDbSymbolTable
 70
    10
  0
BLOCK_RECORD
  5
1A
102
{ACAD_XDICTIONARY
360
18A0
102
}
330
1
100
AcDbSymbolTableRecord
100
AcDbBlockTableRecord
  2
*MODEL_SPACE
  0
BLOCK_RECORD
  5
17
102
{ACAD_XDICTIONARY
360
189E
102
}
330
1
100
AcDbSymbolTableRecord
100
AcDbBlockTableRecord
  2
*PAPER_SPACE
  0
BLOCK_RECORD
  5
594
330
1
100
AcDbSymbolTableRecord
100
AcDbBlockTableRecord
  2
_OPEN
  0
BLOCK_RECORD
  5
6E3
330
1
100
AcDbSymbolTableRecord
100
AcDbBlockTableRecord
  2
矢印なし
  0
BLOCK_RECORD
  5
76C
330
1
100
AcDbSymbolTableRecord
100
AcDbBlockTableRecord
  2
1
1001
CONTENTBLOCKICON
1071
        0
1004
2800000020000000200000000100080000000000000400000000000000000000000000000000000000000000000080000080000000808000800000008000800080800000C0C0C000C0DCC000F0CAA6000020400000206000002080000020A0000020C0000020E00000400000004020000040400000406000004080000040A0
1004
000040C0000040E00000600000006020000060400000606000006080000060A0000060C0000060E00000800000008020000080400000806000008080000080A0000080C0000080E00000A0000000A0200000A0400000A0600000A0800000A0A00000A0C00000A0E00000C0000000C0200000C0400000C0600000C0800000C0
1004
A00000C0C00000C0E00000E0000000E0200000E0400000E0600000E0800000E0A00000E0C00000E0E00040000000400020004000400040006000400080004000A0004000C0004000E00040200000402020004020400040206000402080004020A0004020C0004020E000404000004040200040404000404060004040800040
1004
40A0004040C0004040E00040600000406020004060400040606000406080004060A0004060C0004060E00040800000408020004080400040806000408080004080A0004080C0004080E00040A0000040A0200040A0400040A0600040A0800040A0A00040A0C00040A0E00040C0000040C0200040C0400040C0600040C08000
1004
40C0A00040C0C00040C0E00040E0000040E0200040E0400040E0600040E0800040E0A00040E0C00040E0E00080000000800020008000400080006000800080008000A0008000C0008000E00080200000802020008020400080206000802080008020A0008020C0008020E00080400000804020008040400080406000804080
1004
008040A0008040C0008040E00080600000806020008060400080606000806080008060A0008060C0008060E00080800000808020008080400080806000808080008080A0008080C0008080E00080A0000080A0200080A0400080A0600080A0800080A0A00080A0C00080A0E00080C0000080C0200080C0400080C0600080C0
1004
800080C0A00080C0C00080C0E00080E0000080E0200080E0400080E0600080E0800080E0A00080E0C00080E0E000C0000000C0002000C0004000C0006000C0008000C000A000C000C000C000E000C0200000C0202000C0204000C0206000C0208000C020A000C020C000C020E000C0400000C0402000C0404000C0406000C0
1004
408000C040A000C040C000C040E000C0600000C0602000C0604000C0606000C0608000C060A000C060C000C060E000C0800000C0802000C0804000C0806000C0808000C080A000C080C000C080E000C0A00000C0A02000C0A04000C0A06000C0A08000C0A0A000C0A0C000C0A0E000C0C00000C0C02000C0C04000C0C06000
1004
C0C08000C0C0A000F0FBFF00A4A0A000808080000000FF0000FF000000FFFF00FF000000FF00FF00FFFF0000FFFFFF0000000000000000000000000000000000000000000000000000000000000000000000000000000000000000000000000000000000000000000000000000000000000000000000000000000000000000
1004
00000000000000000000000000000000000000000000000000000000000000000000000000000000000000000000000000000000000000000000000000000000000000000000000000000000000000000000000000000000000000000000000000000000000000000000000000000000000000000000000000000000000000
1004
00000000000000000000000000000000000000000000000000000000000000000000000000000000000000000000000000000000000000000000000000000000000000000000000000000000000000000000000000000000000000000000000000000000000000000000000000000000000000000000000000000000000000
1004
00000000000000000000000000000000000000000000000000000000000000E7FEFEFEFEFEFE000000000000FEFA0000000000000000000000000000FEFEE7E70000000000E700000000FEFEE7FEFEFA000000000000000000FEFEFEFEFEE7E70000000000FE000000FAFEE7FBE700FEFA000000FEFEFEFEFE0000E7E7E7E7
1004
E7E7E7FAFAFAFA000000E7E7E7E700E7E7FA000000FE000000000000E7E7E7E7E7E7E7E7E7E7FE0000FAFEE7E7FB00E7E7E7000000FEFBFBFBFBFBFBE7E7E7E7E7E7E7E7E7E7E70000FEFBFBFBFBFBE7E7FEFB0000FEFEFEFE000000E7E7E7E7E7E7E7E7E7E7E7000000FE00E7E7E7E700E700000000000000FEFEFEFEFEFE
1004
E7E7FAFBFAFAFBE7000000FEE7E7E700E7FEFA0000000000000000000000FEFEFEE7FEFBFBFEFBE700000000FEFEE7FEE7FE00000000000000000000000000000000000000000000000000000000FAFA0000000000000000000000000000000000000000000000000000000000000000000000000000000000000000000000
1004
00000000000000000000000000000000000000000000000000000000000000000000000000000000000000000000000000000000000000000000000000000000000000000000000000000000000000000000000000000000000000000000000000000000000000000000000000000000000000000000000000000000000000
1004
00000000000000000000000000000000000000000000000000000000000000000000000000000000000000000000000000000000000000000000000000000000000000000000000000000000000000000000000000000000000000000000000000000000000000000000000000000000000000000000000000000000000000
1004
0000000000000000000000000000000000000000000000000000000000000000000000000000000000000000000000000000000000000000
  0
BLOCK_RECORD
  5
148C
330
1
100
AcDbSymbolTableRecord
100
AcDbBlockTableRecord
  2
*D3
  0
BLOCK_RECORD
  5
149B
330
1
100
AcDbSymbolTableRecord
100
AcDbBlockTableRecord
  2
*D4
  0
BLOCK_RECORD
  5
14AA
330
1
100
AcDbSymbolTableRecord
100
AcDbBlockTableRecord
  2
*D5
  0
BLOCK_RECORD
  5
157A
330
1
100
AcDbSymbolTableRecord
100
AcDbBlockTableRecord
  2
*D6
  0
BLOCK_RECORD
  5
1589
330
1
100
AcDbSymbolTableRecord
100
AcDbBlockTableRecord
  2
*D7
  0
BLOCK_RECORD
  5
159F
330
1
100
AcDbSymbolTableRecord
100
AcDbBlockTableRecord
  2
*D8
  0
ENDTAB
  0
ENDSEC
  0
SECTION
  2
BLOCKS
  0
BLOCK
  5
1B
330
1A
100
AcDbEntity
  8
0
100
AcDbBlockBegin
  2
*MODEL_SPACE
 70
     0
 10
0.0
 20
0.0
 30
0.0
  3
*MODEL_SPACE
  1

  0
ENDBLK
  5
1C
330
1A
100
AcDbEntity
  8
0
100
AcDbBlockEnd
  0
BLOCK
  5
18
330
17
100
AcDbEntity
 67
     1
  8
0
100
AcDbBlockBegin
  2
*PAPER_SPACE
 70
     0
 10
0.0
 20
0.0
 30
0.0
  3
*PAPER_SPACE
  1

  0
ENDBLK
  5
19
330
17
100
AcDbEntity
 67
     1
  8
0
100
AcDbBlockEnd
  0
BLOCK
  5
598
330
594
100
AcDbEntity
  8
0
100
AcDbBlockBegin
  2
_OPEN
 70
     0
 10
0.0
 20
0.0
 30
0.0
  3
_OPEN
  1

  0
LINE
  5
595
330
594
100
AcDbEntity
  8
0
  6
BYBLOCK
 62
     0
100
AcDbLine
 10
-1.0
 20
0.16666667
 30
0.0
 11
0.0
 21
0.0
 31
0.0
  0
LINE
  5
596
330
594
100
AcDbEntity
  8
0
  6
BYBLOCK
 62
     0
100
AcDbLine
 10
-1.0
 20
-0.16666667
 30
0.0
 11
0.0
 21
0.0
 31
0.0
  0
LINE
  5
597
330
594
100
AcDbEntity
  8
0
  6
BYBLOCK
 62
     0
100
AcDbLine
 10
0.0
 20
0.0
 30
0.0
 11
-1.0
 21
0.0
 31
0.0
  0
ENDBLK
  5
599
330
594
100
AcDbEntity
  8
0
100
AcDbBlockEnd
  0
BLOCK
  5
6E4
330
6E3
100
AcDbEntity
  8
0
100
AcDbBlockBegin
  2
矢印なし
 70
     0
 10
0.0
 20
0.0
 30
0.0
  3
矢印なし
  1

  0
ENDBLK
  5
6E5
330
6E3
100
AcDbEntity
  8
0
100
AcDbBlockEnd
  0
BLOCK
  5
D2A
330
76C
100
AcDbEntity
  8
0
100
AcDbBlockBegin
  2
1
 70
     0
 10
0.0
 20
0.0
 30
0.0
  3
1
  1

  0
LINE
  5
1A06
330
76C
100
AcDbEntity
  8
240
100
AcDbLine
 10
0.0
 20
34.925
 30
0.0
 11
-99.23292068
 21
20.4535324
 31
0.0
  0
LINE
  5
1A07
330
76C
100
AcDbEntity
  8
240
100
AcDbLine
 10
0.0
 20
-34.925
 30
0.0
 11
-99.23292068
 21
-20.4535324
 31
0.0
  0
LINE
  5
1A08
330
76C
100
AcDbEntity
  8
245
100
AcDbLine
 10
-102.8
 20
0.0
 30
0.0
 11
141.0
 21
0.0
 31
0.0
  0
LINE
  5
1A09
330
76C
100
AcDbEntity
  8
240
100
AcDbLine
 10
-101.8
 20
17.48493346
 30
0.0
 11
-101.8
 21
0.0
 31
0.0
  0
LINE
  5
1A0A
330
76C
100
AcDbEntity
  8
240
100
AcDbLine
 10
-101.8
 20
-17.48493346
 30
0.0
 11
-101.8
 21
0.0
 31
0.0
  0
ARC
  5
1A0B
330
76C
100
AcDbEntity
  8
240
100
AcDbCircle
 10
-98.8
 20
-17.48493346
 30
0.0
 40
3.0
100
AcDbArc
 50
180.0
 51
261.70285503
  0
ARC
  5
1A0C
330
76C
100
AcDbEntity
  8
240
100
AcDbCircle
 10
-98.8
 20
17.48493346
 30
0.0
 40
3.0
100
AcDbArc
 50
98.29714497
 51
180.0
  0
LINE
  5
1A0D
330
76C
100
AcDbEntity
  8
240
100
AcDbLine
 10
140.0
 20
48.99999925
 30
0.0
 11
140.0
 21
0.0
 31
0.0
  0
LINE
  5
1A0E
330
76C
100
AcDbEntity
  8
241
100
AcDbLine
 10
42.00000256
 20
-50.0
 30
0.0
 11
42.00000256
 21
50.0
 31
0.0
  0
LINE
  5
1A0F
330
76C
100
AcDbEntity
  8
241
  6
CONTINUOUS
100
AcDbLine
 10
38.0
 20
50.0
 30
0.0
 11
38.0
 21
0.0
 31
0.0
  0
LINE
  5
1A10
330
76C
100
AcDbEntity
  8
241
100
AcDbLine
 10
0.0
 20
34.925
 30
0.0
 11
0.0
 21
0.0
 31
0.0
  0
LINE
  5
1A11
330
76C
100
AcDbEntity
  8
241
100
AcDbLine
 10
1.5
 20
34.925
 30
0.0
 11
1.5
 21
0.0
 31
0.0
  0
ARC
  5
1A12
330
76C
100
AcDbEntity
  8
241
100
AcDbCircle
 10
21.3
 20
0.0
 30
0.0
 40
12.7000000000001
100
AcDbArc
 50
0.0
 51
90.0000176
  0
LINE
  5
1A13
330
76C
100
AcDbEntity
  8
245
  6
CENTER2
100
AcDbLine
 10
23.2
 20
-50.0
 30
0.0
 11
23.2
 21
50.0
 31
0.0
  0
ARC
  5
1A14
330
76C
100
AcDbEntity
  8
241
100
AcDbCircle
 10
136.08394263
 20
-40.5503969
 30
0.0
 40
100.4182762592777
100
AcDbArc
 50
150.21863407
 51
156.4687348
  0
LWPOLYLINE
  5
1A15
330
76C
100
AcDbEntity
  8
241
100
AcDbPolyline
 90
       33
 70
   128
 43
0.0
 10
77.00000271
 20
-16.34820625
 10
78.00471723
 20
-16.39768369
 10
78.97082284
 20
-16.54421613
 10
79.86118957
 20
-16.78217091
 10
80.64160064
 20
-17.10240617
 10
81.28207117
 20
-17.49261171
 10
81.75798073
 20
-17.93779507
 10
82.0510456
 20
-18.42084788
 10
82.15000421
 20
-18.92320514
 10
82.0510456
 20
-19.42556426
 10
81.75798073
 20
-19.9086152
 10
81.28207117
 20
-20.35379857
 10
80.64160064
 20
-20.74400596
 10
79.86118957
 20
-21.06423937
 10
78.97082284
 20
-21.30219601
 10
78.00471723
 20
-21.44872844
 10
77.00000271
 20
-21.49820589
 10
75.99528819
 20
-21.44872844
 10
75.02918258
 20
-21.30219601
 10
74.13881585
 20
-21.06423937
 10
73.35840106
 20
-20.74400596
 10
72.71793425
 20
-20.35379857
 10
72.24202283
 20
-19.9086152
 10
71.94895796
 20
-19.42556426
 10
71.85000308
 20
-18.92320514
 10
71.94895796
 20
-18.42084788
 10
72.24202283
 20
-17.93779507
 10
72.71793425
 20
-17.49261171
 10
73.35840106
 20
-17.10240617
 10
74.13881585
 20
-16.78217091
 10
75.02918258
 20
-16.54421613
 10
75.99528819
 20
-16.39768369
 10
77.00000271
 20
-16.34820625
  0
ELLIPSE
  5
1A16
330
76C
100
AcDbEntity
  8
242
  6
CONTINUOUS
100
AcDbEllipse
 10
77.00000446
 20
-18.92320514
 30
0.0
 11
-6.149999999997987
 21
0.0
 31
0.0
210
0.0
220
0.0
230
1.0
 40
0.5
 41
0.0
 42
6.283185307179585
  0
LINE
  5
1A17
330
76C
100
AcDbEntity
  8
241
100
AcDbLine
 10
59.99900155
 20
-12.67320551
 30
0.0
 11
140.0
 21
-12.67320551
 31
0.0
  0
LINE
  5
1A18
330
76C
100
AcDbEntity
  8
241
100
AcDbLine
 10
59.99900155
 20
-25.17320663
 30
0.0
 11
135.00000477
 21
-25.17320663
 31
0.0
  0
LINE
  5
1A19
330
76C
100
AcDbEntity
  8
241
100
AcDbLine
 10
59.99900155
 20
-3.34936571
 30
0.0
 11
140.0
 21
-3.34936571
 31
0.0
  0
LINE
  5
1A1A
330
76C
100
AcDbEntity
  8
240
100
AcDbLine
 10
48.92820572
 20
-59.9999994
 30
0.0
 11
135.00000477
 21
-59.9999994
 31
0.0
  0
LINE
  5
1A1B
330
76C
100
AcDbEntity
  8
240
100
AcDbLine
 10
42.00000256
 20
-52.92820398
 30
0.0
 11
42.00000256
 21
-50.0
 31
0.0
  0
LWPOLYLINE
  5
1A1C
330
76C
100
AcDbEntity
  8
241
100
AcDbPolyline
 90
        3
 70
   128
 43
0.0
 10
43.73205335
 20
-55.11471331
 10
42.8977959
 20
-51.5480496
 10
42.53590094
 20
-47.27825266
  0
LWPOLYLINE
  5
1A1D
330
76C
100
AcDbEntity
  8
241
100
AcDbPolyline
 90
        6
 70
   128
 43
0.0
 10
44.75351457
 20
-57.31385648
 10
46.04871279
 20
-58.77364874
 10
47.52445022
 20
-59.68320072
 10
48.21425896
 20
-59.8969765
 10
48.91406359
 20
-59.98941958
 10
48.92820572
 20
-59.99002308
  0
ARC
  5
1A1E
330
76C
100
AcDbEntity
  8
240
100
AcDbCircle
 10
48.92820579
 20
-54.00000075
 30
0.0
 40
6.0
100
AcDbArc
 50
210.0
 51
270.0
  0
ARC
  5
1A1F
330
76C
100
AcDbEntity
  8
240
100
AcDbCircle
 10
46.00000256
 20
-52.92820398
 30
0.0
 40
4.0
100
AcDbArc
 50
180.0
 51
210.0
  0
LINE
  5
1A20
330
76C
100
AcDbEntity
  8
240
100
AcDbLine
 10
42.53590094
 20
-54.92820293
 30
0.0
 11
43.73205335
 21
-57.00000077
 31
0.0
  0
ARC
  5
1A21
330
76C
100
AcDbEntity
  8
241
100
AcDbCircle
 10
51.47590248
 20
-52.85876473
 30
0.0
 40
8.065761171102675
100
AcDbArc
 50
196.24196902
 51
213.54548167
  0
LINE
  5
1A22
330
76C
100
AcDbEntity
  8
241
100
AcDbLine
 10
48.92820572
 20
-59.9999994
 30
0.0
 11
48.92820572
 21
-59.99002308
 31
0.0
  0
LINE
  5
1A23
330
76C
100
AcDbEntity
  8
240
100
AcDbLine
 10
30.7
 20
-50.0
 30
0.0
 11
42.00000256
 21
-50.0
 31
0.0
  0
ARC
  5
1A24
330
76C
100
AcDbEntity
  8
241
100
AcDbCircle
 10
21.3
 20
0.0
 30
0.0
 40
12.7000000000001
100
AcDbArc
 50
269.9999824
 51
0.0
  0
LINE
  5
1A25
330
76C
100
AcDbEntity
  8
241
100
AcDbLine
 10
20.03012702
 20
-12.7
 30
0.0
 11
20.03012702
 21
-42.5
 31
0.0
  0
LINE
  5
1A26
330
76C
100
AcDbEntity
  8
241
100
AcDbLine
 10
26.36987298
 20
-11.64415682
 30
0.0
 11
26.36987298
 21
-42.5
 31
0.0
  0
LINE
  5
1A27
330
76C
100
AcDbEntity
  8
241
100
AcDbLine
 10
15.7
 20
-12.7
 30
0.0
 11
15.7
 21
-50.0
 31
0.0
  0
LINE
  5
1A28
330
76C
100
AcDbEntity
  8
241
100
AcDbLine
 10
30.7
 20
-8.53990632
 30
0.0
 11
30.7
 21
-50.0
 31
0.0
  0
LINE
  5
1A29
330
76C
100
AcDbEntity
  8
241
100
AcDbLine
 10
1.5
 20
-34.925
 30
0.0
 11
1.5
 21
0.0
 31
0.0
  0
LINE
  5
1A2A
330
76C
100
AcDbEntity
  8
241
100
AcDbLine
 10
0.0
 20
-34.925
 30
0.0
 11
0.0
 21
0.0
 31
0.0
  0
LINE
  5
1A2B
330
76C
100
AcDbEntity
  8
240
100
AcDbLine
 10
2.5
 20
-50.0
 30
0.0
 11
15.7
 21
-50.0
 31
0.0
  0
LINE
  5
1A2C
330
76C
100
AcDbEntity
  8
240
100
AcDbLine
 10
1.5
 20
-49.0
 30
0.0
 11
1.5
 21
-34.925
 31
0.0
  0
ARC
  5
1A2D
330
76C
100
AcDbEntity
  8
240
100
AcDbCircle
 10
2.5
 20
-49.0
 30
0.0
 40
1.0
100
AcDbArc
 50
180.0
 51
270.0
  0
LINE
  5
1A2E
330
76C
100
AcDbEntity
  8
240
100
AcDbLine
 10
0.0
 20
-34.925
 30
0.0
 11
1.5
 21
-34.925
 31
0.0
  0
LINE
  5
1A2F
330
76C
100
AcDbEntity
  8
240
100
AcDbLine
 10
26.36987298
 20
-42.5
 30
0.0
 11
20.03012702
 21
-42.5
 31
0.0
  0
LINE
  5
1A30
330
76C
100
AcDbEntity
  8
240
100
AcDbLine
 10
20.03012702
 20
-42.5
 30
0.0
 11
15.7
 21
-50.0
 31
0.0
  0
LINE
  5
1A31
330
76C
100
AcDbEntity
  8
240
100
AcDbLine
 10
26.36987298
 20
-42.5
 30
0.0
 11
30.7
 21
-50.0
 31
0.0
  0
LINE
  5
1A32
330
76C
100
AcDbEntity
  8
241
100
AcDbLine
 10
4.0
 20
-12.7
 30
0.0
 11
21.3
 21
-12.7
 31
0.0
  0
LINE
  5
1A33
330
76C
100
AcDbEntity
  8
241
100
AcDbLine
 10
4.0
 20
-12.7
 30
0.0
 11
1.5
 21
-15.2
 31
0.0
  0
LINE
  5
1A34
330
76C
100
AcDbEntity
  8
241
  6
CONTINUOUS
100
AcDbLine
 10
38.0
 20
-50.0
 30
0.0
 11
38.0
 21
0.0
 31
0.0
  0
LINE
  5
1A35
330
76C
100
AcDbEntity
  8
241
100
AcDbLine
 10
59.99900155
 20
-12.67320551
 30
0.0
 11
59.99900155
 21
-25.17320663
 31
0.0
  0
LINE
  5
1A36
330
76C
100
AcDbEntity
  8
241
100
AcDbLine
 10
50.00000294
 20
-3.43596824
 30
0.0
 11
50.00000294
 21
-25.08660294
 31
0.0
  0
LWPOLYLINE
  5
1A37
330
76C
100
AcDbEntity
  8
241
100
AcDbPolyline
 90
       17
 70
   128
 43
0.0
 10
50.00000294
 20
-25.08660294
 10
50.09486094
 20
-25.92605986
 10
50.37583537
 20
-26.73366368
 10
50.83226632
 20
-27.47877389
 10
51.44683398
 20
-28.13311741
 10
52.19622083
 20
-28.67186517
 10
53.05199172
 20
-29.07457836
 10
53.98167703
 20
-29.32597399
 10
54.95000012
 20
-29.41651344
 10
55.92022032
 20
-29.34276387
 10
56.85552523
 20
-29.1075211
 10
57.72042587
 20
-28.71971093
 10
58.48210432
 20
-28.19405012
 10
59.11165975
 20
-27.550482
 10
59.58520748
 20
-26.81342773
 10
59.8847767
 20
-26.01085119
 10
59.99900155
 20
-25.17320663
  0
ARC
  5
1A38
330
76C
100
AcDbEntity
  8
241
100
AcDbCircle
 10
267.40683105
 20
-26.04124393
 30
0.0
 40
225.8715248756779
100
AcDbArc
 50
183.70115044
 51
185.3950622
  0
LINE
  5
1A39
330
76C
100
AcDbEntity
  8
241
100
AcDbLine
 10
42.00640137
 20
-40.6217806
 30
0.0
 11
42.00000256
 21
-40.03482759
 31
0.0
  0
ARC
  5
1A3A
330
76C
100
AcDbEntity
  8
241
100
AcDbCircle
 10
55.00034957
 20
-4.48260252
 30
0.0
 40
5.419387874006103
100
AcDbArc
 50
47.22762684
 51
132.78237524
  0
LWPOLYLINE
  5
1A3B
330
76C
100
AcDbEntity
  8
241
100
AcDbPolyline
 90
       17
 70
   128
 43
0.0
 10
50.00000294
 20
-12.58660369
 10
50.09486094
 20
-13.42605967
 10
50.37583537
 20
-14.23366442
 10
50.83226632
 20
-14.97877371
 10
51.44683398
 20
-15.63311629
 10
52.19622083
 20
-16.17186591
 10
53.05199172
 20
-16.57457724
 10
53.98167703
 20
-16.82597287
 10
54.95000012
 20
-16.91651419
 10
55.92022032
 20
-16.84276275
 10
56.85552523
 20
-16.60751998
 10
57.72042587
 20
-16.21971168
 10
58.48210432
 20
-15.69405086
 10
59.11165975
 20
-15.05048275
 10
59.58520748
 20
-14.31342755
 10
59.8847767
 20
-13.510851
 10
59.99900155
 20
-12.67320551
  0
ARC
  5
1A3C
330
76C
100
AcDbEntity
  8
241
100
AcDbCircle
 10
59.64174079
 20
-9.62839377
 30
0.0
 40
17.64495249244849
100
AcDbArc
 50
165.80030061
 51
181.09364085
  0
LINE
  5
1A3D
330
76C
100
AcDbEntity
  8
241
100
AcDbLine
 10
42.53590094
 20
-5.30658457
 30
0.0
 11
43.73205335
 21
-1.29873496
 31
0.0
  0
LINE
  5
1A3E
330
76C
100
AcDbEntity
  8
241
100
AcDbLine
 10
43.73205335
 20
-1.29873496
 30
0.0
 11
44.01621442
 21
-0.50510331
 31
0.0
  0
ARC
  5
1A3F
330
76C
100
AcDbEntity
  8
241
100
AcDbCircle
 10
54.02048742
 20
-3.49542467
 30
0.0
 40
4.029615805306343
100
AcDbArc
 50
132.09058723
 51
176.14206627
  0
ARC
  5
1A40
330
76C
100
AcDbEntity
  8
241
100
AcDbCircle
 10
55.96947168
 20
-3.50109547
 30
0.0
 40
4.040559309325968
100
AcDbArc
 50
4.23440671
 51
47.85760482
  0
LINE
  5
1A41
330
76C
100
AcDbEntity
  8
240
100
AcDbLine
 10
140.0
 20
-54.99493814
 30
0.0
 11
140.0
 21
0.0
 31
0.0
  0
ARC
  5
1A42
330
76C
100
AcDbEntity
  8
240
100
AcDbCircle
 10
135.00000256
 20
-55.00000075
 30
0.0
 40
5.0
100
AcDbArc
 50
270.0
 51
0.05801321
  0
LINE
  5
1A43
330
76C
100
AcDbEntity
  8
241
100
AcDbLine
 10
140.0
 20
-55.00000045
 30
0.0
 11
140.0
 21
-54.99085486
 31
0.0
  0
LWPOLYLINE
  5
1A44
330
76C
100
AcDbEntity
  8
241
100
AcDbPolyline
 90
       33
 70
   128
 43
0.0
 10
102.00000122
 20
-16.34820625
 10
103.00471947
 20
-16.39768369
 10
103.97082135
 20
-16.54421613
 10
104.86119181
 20
-16.78217091
 10
105.64160287
 20
-17.10240617
 10
106.28206968
 20
-17.49261171
 10
106.75798297
 20
-17.93779507
 10
107.05104411
 20
-18.42084788
 10
107.15000272
 20
-18.92320514
 10
107.05104411
 20
-19.42556426
 10
106.75798297
 20
-19.9086152
 10
106.28206968
 20
-20.35379857
 10
105.64160287
 20
-20.74400596
 10
104.86119181
 20
-21.06423937
 10
103.97082135
 20
-21.30219601
 10
103.00471947
 20
-21.44872844
 10
102.00000122
 20
-21.49820589
 10
100.9952867
 20
-21.44872844
 10
100.02918109
 20
-21.30219601
 10
99.13881436
 20
-21.06423937
 10
98.3584033
 20
-20.74400596
 10
97.71793276
 20
-20.35379857
 10
97.2420232
 20
-19.9086152
 10
96.94895834
 20
-19.42556426
 10
96.85000345
 20
-18.92320514
 10
96.94895834
 20
-18.42084788
 10
97.2420232
 20
-17.93779507
 10
97.71793276
 20
-17.49261171
 10
98.3584033
 20
-17.10240617
 10
99.13881436
 20
-16.78217091
 10
100.02918109
 20
-16.54421613
 10
100.9952867
 20
-16.39768369
 10
102.00000122
 20
-16.34820625
  0
ELLIPSE
  5
1A45
330
76C
100
AcDbEntity
  8
242
  6
CONTINUOUS
100
AcDbEllipse
 10
102.00000446
 20
-18.92320514
 30
0.0
 11
-6.149999999997987
 21
0.0
 31
0.0
210
0.0
220
0.0
230
1.0
 40
0.5
 41
0.0
 42
6.283185307179585
  0
LWPOLYLINE
  5
1A46
330
76C
100
AcDbEntity
  8
241
100
AcDbPolyline
 90
        9
 70
   128
 43
0.0
 10
135.00000477
 20
-25.17320663
 10
135.97545713
 20
-25.12516901
 10
136.91341817
 20
-24.9829039
 10
137.77785689
 20
-24.75188002
 10
138.53553623
 20
-24.44097288
 10
139.15735424
 20
-24.06213135
 10
139.61940199
 20
-23.62991385
 10
139.90393221
 20
-23.16093147
 10
140.0
 20
-22.67320529
  0
LWPOLYLINE
  5
1A47
330
76C
100
AcDbEntity
  8
241
100
AcDbPolyline
 90
       33
 70
   128
 43
0.0
 10
127.00000346
 20
-16.34820625
 10
128.00471425
 20
-16.39768369
 10
128.97082359
 20
-16.54421613
 10
129.86119032
 20
-16.78217091
 10
130.64160138
 20
-17.10240617
 10
131.28206819
 20
-17.49261171
 10
131.75798148
 20
-17.93779507
 10
132.05105007
 20
-18.42084788
 10
132.15000123
 20
-18.92320514
 10
132.05105007
 20
-19.42556426
 10
131.75798148
 20
-19.9086152
 10
131.28206819
 20
-20.35379857
 10
130.64160138
 20
-20.74400596
 10
129.86119032
 20
-21.06423937
 10
128.97082359
 20
-21.30219601
 10
128.00471425
 20
-21.44872844
 10
127.00000346
 20
-21.49820589
 10
125.99528521
 20
-21.44872844
 10
125.02918333
 20
-21.30219601
 10
124.1388166
 20
-21.06423937
 10
123.35840553
 20
-20.74400596
 10
122.71793127
 20
-20.35379857
 10
122.24202543
 20
-19.9086152
 10
121.94895685
 20
-19.42556426
 10
121.85000569
 20
-18.92320514
 10
121.94895685
 20
-18.42084788
 10
122.24202543
 20
-17.93779507
 10
122.71793127
 20
-17.49261171
 10
123.35840553
 20
-17.10240617
 10
124.1388166
 20
-16.78217091
 10
125.02918333
 20
-16.54421613
 10
125.99528521
 20
-16.39768369
 10
127.00000346
 20
-16.34820625
  0
ELLIPSE
  5
1A48
330
76C
100
AcDbEntity
  8
242
  6
CONTINUOUS
100
AcDbEllipse
 10
127.00000446
 20
-18.92320514
 30
0.0
 11
-6.149999999997987
 21
0.0
 31
0.0
210
0.0
220
0.0
230
1.0
 40
0.5
 41
0.0
 42
6.283185307179585
  0
LINE
  5
1A49
330
76C
100
AcDbEntity
  8
240
100
AcDbLine
 10
30.7
 20
50.0
 30
0.0
 11
139.00000256
 21
50.0
 31
0.0
  0
LINE
  5
1A4A
330
76C
100
AcDbEntity
  8
245
100
AcDbLine
 10
134.25000256
 20
37.49999925
 30
0.0
 11
69.75000256
 21
37.49999925
 31
0.0
  0
CIRCLE
  5
1A4B
330
76C
100
AcDbEntity
  8
241
100
AcDbCircle
 10
77.00000256
 20
37.49999925
 30
0.0
 40
6.0
  0
CIRCLE
  5
1A4C
330
76C
100
AcDbEntity
  8
242
100
AcDbCircle
 10
77.00000256
 20
37.49999925
 30
0.0
 40
5.15
  0
LINE
  5
1A4D
330
76C
100
AcDbEntity
  8
241
100
AcDbLine
 10
48.92820572
 20
9.32652894
 30
0.0
 11
140.0
 21
9.32652894
 31
0.0
  0
LINE
  5
1A4E
330
76C
100
AcDbEntity
  8
241
  6
HIDDEN2
100
AcDbLine
 10
50.0
 20
25.0
 30
0.0
 11
140.0
 21
25.0
 31
0.0
  0
LINE
  5
1A4F
330
76C
100
AcDbEntity
  8
241
100
AcDbLine
 10
15.7
 20
12.7
 30
0.0
 11
15.7
 21
50.0
 31
0.0
  0
LINE
  5
1A50
330
76C
100
AcDbEntity
  8
241
100
AcDbLine
 10
26.36987298
 20
11.64415682
 30
0.0
 11
26.36987298
 21
42.5
 31
0.0
  0
LINE
  5
1A51
330
76C
100
AcDbEntity
  8
241
100
AcDbLine
 10
20.03012702
 20
12.7
 30
0.0
 11
20.03012702
 21
42.5
 31
0.0
  0
LINE
  5
1A52
330
76C
100
AcDbEntity
  8
241
100
AcDbLine
 10
30.7
 20
8.53990632
 30
0.0
 11
30.7
 21
50.0
 31
0.0
  0
LINE
  5
1A53
330
76C
100
AcDbEntity
  8
241
100
AcDbLine
 10
4.0
 20
12.7
 30
0.0
 11
21.3
 21
12.7
 31
0.0
  0
LINE
  5
1A54
330
76C
100
AcDbEntity
  8
241
100
AcDbLine
 10
4.0
 20
12.7
 30
0.0
 11
1.5
 21
15.2
 31
0.0
  0
LINE
  5
1A55
330
76C
100
AcDbEntity
  8
240
100
AcDbLine
 10
2.5
 20
50.0
 30
0.0
 11
15.7
 21
50.0
 31
0.0
  0
LINE
  5
1A56
330
76C
100
AcDbEntity
  8
240
100
AcDbLine
 10
1.5
 20
49.0
 30
0.0
 11
1.5
 21
34.925
 31
0.0
  0
LINE
  5
1A57
330
76C
100
AcDbEntity
  8
240
100
AcDbLine
 10
0.0
 20
34.925
 30
0.0
 11
1.5
 21
34.925
 31
0.0
  0
ARC
  5
1A58
330
76C
100
AcDbEntity
  8
240
100
AcDbCircle
 10
2.5
 20
49.0
 30
0.0
 40
1.0
100
AcDbArc
 50
90.0
 51
180.0
  0
LINE
  5
1A59
330
76C
100
AcDbEntity
  8
240
100
AcDbLine
 10
26.36987298
 20
42.5
 30
0.0
 11
30.7
 21
50.0
 31
0.0
  0
LINE
  5
1A5A
330
76C
100
AcDbEntity
  8
240
100
AcDbLine
 10
20.03012702
 20
42.5
 30
0.0
 11
15.7
 21
50.0
 31
0.0
  0
LINE
  5
1A5B
330
76C
100
AcDbEntity
  8
240
100
AcDbLine
 10
26.36987298
 20
42.5
 30
0.0
 11
20.03012702
 21
42.5
 31
0.0
  0
LINE
  5
1A5C
330
76C
100
AcDbEntity
  8
241
  6
HIDDEN2
100
AcDbLine
 10
50.0
 20
25.0
 30
0.0
 11
50.0
 21
50.0
 31
0.0
  0
LINE
  5
1A5D
330
76C
100
AcDbEntity
  8
245
100
AcDbLine
 10
102.00000256
 20
44.49999925
 30
0.0
 11
102.00000256
 21
30.49999925
 31
0.0
  0
LINE
  5
1A5E
330
76C
100
AcDbEntity
  8
245
100
AcDbLine
 10
77.00000256
 20
44.49999925
 30
0.0
 11
77.00000256
 21
30.49999925
 31
0.0
  0
CIRCLE
  5
1A5F
330
76C
100
AcDbEntity
  8
241
100
AcDbCircle
 10
102.00000256
 20
37.49999925
 30
0.0
 40
6.0
  0
CIRCLE
  5
1A60
330
76C
100
AcDbEntity
  8
242
100
AcDbCircle
 10
102.00000256
 20
37.49999925
 30
0.0
 40
5.15
  0
CIRCLE
  5
1A61
330
76C
100
AcDbEntity
  8
242
100
AcDbCircle
 10
127.00000256
 20
37.49999925
 30
0.0
 40
5.15
  0
CIRCLE
  5
1A62
330
76C
100
AcDbEntity
  8
241
100
AcDbCircle
 10
127.00000256
 20
37.49999925
 30
0.0
 40
6.0
  0
LINE
  5
1A63
330
76C
100
AcDbEntity
  8
245
100
AcDbLine
 10
127.00000256
 20
44.49999925
 30
0.0
 11
127.00000256
 21
30.49999925
 31
0.0
  0
ARC
  5
1A64
330
76C
100
AcDbEntity
  8
240
100
AcDbCircle
 10
139.00000256
 20
48.99999925
 30
0.0
 40
1.0
100
AcDbArc
 50
0.0
 51
90.0
  0
LINE
  5
1A65
330
76C
100
AcDbEntity
  8
241
100
AcDbLine
 10
139.99997765
 20
49.00675565
 30
0.0
 11
140.0
 21
48.9897944
 31
0.0
  0
LINE
  5
1A66
330
76C
100
AcDbEntity
  8
241
100
AcDbLine
 10
210.84936604
 20
9.15063545
 30
0.0
 11
189.19869758
 21
-3.34938374
 31
0.0
  0
LINE
  5
1A67
330
76C
100
AcDbEntity
  8
241
100
AcDbLine
 10
210.84936604
 20
9.15063545
 30
0.0
 11
223.44936513
 21
-12.67320477
 31
0.0
  0
LINE
  5
1A68
330
76C
100
AcDbEntity
  8
245
100
AcDbLine
 10
245.0
 20
-62.0
 30
0.0
 11
245.0
 21
62.0
 31
0.0
  0
CIRCLE
  5
1A69
330
76C
100
AcDbEntity
  8
242
  6
PHANTOM2
100
AcDbCircle
 10
245.0
 20
0.0
 30
0.0
 40
60.0
  0
ARC
  5
1A6A
330
76C
100
AcDbEntity
  8
240
100
AcDbCircle
 10
200.54699205
 20
6.99489931
 30
0.0
 40
15.00001548696249
100
AcDbArc
 50
171.05757615
 51
207.48623748
  0
ARC
  5
1A6B
330
76C
100
AcDbEntity
  8
241
100
AcDbCircle
 10
245.0
 20
0.0
 30
0.0
 40
55.00000000000003
100
AcDbArc
 50
148.95502437
 51
182.96430821
  0
LINE
  5
1A6C
330
76C
100
AcDbEntity
  8
241
100
AcDbLine
 10
295.00000075
 20
19.36491765
 30
0.0
 11
295.00000075
 21
0.62177825
 31
0.0
  0
LINE
  5
1A6D
330
76C
100
AcDbEntity
  8
240
100
AcDbLine
 10
299.9999997
 20
0.0
 30
0.0
 11
299.9999997
 21
19.3683694
 31
0.0
  0
ARC
  5
1A6E
330
76C
100
AcDbEntity
  8
241
100
AcDbCircle
 10
271.37916512
 20
-1.95096189
 30
0.0
 40
7.900418025899281
100
AcDbArc
 50
43.98610563
 51
256.01389437
  0
ARC
  5
1A6F
330
76C
100
AcDbEntity
  8
241
100
AcDbCircle
 10
244.27050983
 20
-39.9933475
 30
0.0
 40
15.0
100
AcDbArc
 50
240.0
 51
268.95502437
  0
ARC
  5
1A70
330
76C
100
AcDbEntity
  8
240
100
AcDbCircle
 10
244.27050983
 20
-39.9933475
 30
0.0
 40
20.00000000000001
100
AcDbArc
 50
240.0
 51
268.95502437
  0
LINE
  5
1A71
330
76C
100
AcDbEntity
  8
245
100
AcDbLine
 10
307.0
 20
0.0
 30
0.0
 11
183.0
 21
0.0
 31
0.0
  0
LINE
  5
1A72
330
76C
100
AcDbEntity
  8
240
100
AcDbLine
 10
218.03847596
 20
-47.94228449
 30
0.0
 11
234.27051015
 21
-57.31385574
 31
0.0
  0
LINE
  5
1A73
330
76C
100
AcDbEntity
  8
241
100
AcDbLine
 10
236.77050963
 20
-52.98372731
 30
0.0
 11
220.53847544
 21
-43.61215979
 31
0.0
  0
LINE
  5
1A74
330
76C
100
AcDbEntity
  8
240
100
AcDbLine
 10
210.73330489
 20
-40.64829614
 30
0.0
 11
187.26492367
 21
0.0
 31
0.0
  0
LINE
  5
1A75
330
76C
100
AcDbEntity
  8
241
100
AcDbLine
 10
223.44936513
 20
-12.67320477
 30
0.0
 11
201.79872806
 21
-25.17320557
 31
0.0
  0
ELLIPSE
  5
1A76
330
76C
100
AcDbEntity
  8
241
100
AcDbEllipse
 10
230.75
 20
-21.50629753
 30
0.0
 11
-8.000000000000085
 21
-4.618802153516978
 31
0.0
210
0.0
220
0.0
230
-1.0
 40
0.8660254
 41
5.032405837876207
 42
7.53396477648299
  0
ARC
  5
1A77
330
76C
100
AcDbEntity
  8
241
100
AcDbCircle
 10
230.12083488
 20
-21.86954618
 30
0.0
 40
7.900418025899252
100
AcDbArc
 50
283.98610563
 51
136.01389437
  0
LWPOLYLINE
  5
1A78
330
76C
100
AcDbEntity
  8
241
100
AcDbPolyline
 90
       36
 70
   128
 43
0.0
 10
227.9121232
 20
-23.1447462
 10
228.52011107
 20
-24.03080277
 10
229.25319046
 20
-24.80487712
 10
230.08780077
 20
-25.44208802
 10
230.99711712
 20
-25.92195757
 10
231.95191275
 20
-26.22905932
 10
232.92150058
 20
-26.35352686
 10
233.87471575
 20
-26.29135549
 10
234.78092242
 20
-26.0445457
 10
235.61099347
 20
-25.62102862
 10
236.33825023
 20
-25.03441833
 10
236.93931837
 20
-24.30356853
 10
237.39487899
 20
-23.45196716
 10
237.69028939
 20
-22.50698954
 10
237.81605473
 20
-21.49900422
 10
237.76813399
 20
-20.46041004
 10
237.54806619
 20
-19.42458935
 10
237.16292519
 20
-18.42483319
 10
236.6250892
 20
-17.49327406
 10
235.95184542
 20
-16.65985398
 10
235.16483128
 20
-15.95135778
 10
234.28934336
 20
-15.39056096
 10
233.3535197
 20
-14.99548461
 10
232.38743924
 20
-14.77882825
 10
231.42215226
 20
-14.74755537
 10
230.48868299
 20
-14.90266994
 10
229.6170349
 20
-15.23918845
 10
228.83522406
 20
-15.74629359
 10
228.16837661
 20
-16.40768535
 10
227.63792694
 20
-17.2021091
 10
227.26092383
 20
-18.10402982
 10
227.04948567
 20
-19.08445731
 10
227.01040551
 20
-20.11188306
 10
227.14494064
 20
-21.15328237
 10
227.44876973
 20
-22.17518538
 10
227.9121232
 20
-23.1447462
  0
LINE
  5
1A79
330
76C
100
AcDbEntity
  8
241
100
AcDbLine
 10
215.04809417
 20
-38.12177852
 30
0.0
 11
206.12885699
 21
-22.67320454
 31
0.0
  0
ARC
  5
1A7A
330
76C
100
AcDbEntity
  8
241
100
AcDbCircle
 10
228.03847577
 20
-30.62177826
 30
0.0
 40
15.0
100
AcDbArc
 50
210.0
 51
240.0
  0
ARC
  5
1A7B
330
76C
100
AcDbEntity
  8
240
100
AcDbCircle
 10
228.03847577
 20
-30.62177826
 30
0.0
 40
20.00000000000001
100
AcDbArc
 50
210.08774168
 51
240.0
  0
ARC
  5
1A7C
330
76C
100
AcDbEntity
  8
240
100
AcDbCircle
 10
261.1687621
 20
-41.99490407
 30
0.0
 40
14.99999028330758
100
AcDbArc
 50
291.05754302
 51
327.48626194
  0
ARC
  5
1A7D
330
76C
100
AcDbEntity
  8
241
100
AcDbCircle
 10
245.0
 20
0.0
 30
0.0
 40
55.00000000000003
100
AcDbArc
 50
268.95502437
 51
302.96430821
  0
ARC
  5
1A7E
330
76C
100
AcDbEntity
  8
240
100
AcDbCircle
 10
245.0
 20
0.0
 30
0.0
 40
60.00000000000003
100
AcDbArc
 50
268.95502437
 51
291.05755873
  0
LINE
  5
1A7F
330
76C
100
AcDbEntity
  8
241
100
AcDbLine
 10
266.75063453
 20
-12.32679468
 30
0.0
 11
288.40127045
 21
-24.826796
 31
0.0
  0
LINE
  5
1A80
330
76C
100
AcDbEntity
  8
240
100
AcDbLine
 10
275.80167034
 20
-46.64994963
 30
0.0
 11
297.32423604
 21
-9.37176193
 31
0.0
  0
LINE
  5
1A81
330
76C
100
AcDbEntity
  8
241
100
AcDbLine
 10
254.15063545
 20
-34.15063396
 30
0.0
 11
266.75063453
 21
-12.32679468
 31
0.0
  0
LINE
  5
1A82
330
76C
100
AcDbEntity
  8
241
100
AcDbLine
 10
254.15063545
 20
-34.15063396
 30
0.0
 11
275.8012734
 21
-46.65063714
 31
0.0
  0
LINE
  5
1A83
330
76C
100
AcDbEntity
  8
240
100
AcDbLine
 10
273.81769277
 20
-50.0574261
 30
0.0
 11
275.80167034
 21
-46.64994963
 31
0.0
  0
ELLIPSE
  5
1A84
330
76C
100
AcDbEntity
  8
241
100
AcDbEllipse
 10
270.75
 20
-1.58771324
 30
0.0
 11
-7.999999999999999
 21
4.618802153517035
 31
0.0
210
0.0
220
0.0
230
-1.0
 40
0.8660254
 41
1.890813184286401
 42
4.392372122893196
  0
LWPOLYLINE
  5
1A85
330
76C
100
AcDbEntity
  8
241
100
AcDbPolyline
 90
       36
 70
   128
 43
0.0
 10
273.58787775
 20
-3.2261624
 10
274.05123122
 20
-2.25660135
 10
274.35505845
 20
-1.23469869
 10
274.48959544
 20
-0.19329881
 10
274.45051529
 20
0.83412661
 10
274.23907526
 20
1.81455526
 10
273.86207215
 20
2.7164754
 10
273.33162248
 20
3.51089868
 10
272.66477689
 20
4.17229161
 10
271.88296512
 20
4.67939628
 10
271.01131611
 20
5.01591433
 10
270.07784776
 20
5.17102936
 10
269.11255985
 20
5.13975602
 10
268.14648032
 20
4.92309965
 10
267.21065573
 20
4.5280233
 10
266.33516781
 20
3.96722555
 10
265.54815553
 20
3.25873075
 10
264.87491176
 20
2.42531043
 10
264.33707483
 20
1.49375142
 10
263.95193383
 20
0.49399474
 10
263.73186603
 20
-0.54182648
 10
263.68394576
 20
-1.58042018
 10
263.80971156
 20
-2.58840504
 10
264.10512149
 20
-3.53338383
 10
264.56068166
 20
-4.3849838
 10
265.1617498
 20
-5.11583406
 10
265.88900656
 20
-5.70244435
 10
266.7190776
 20
-6.1259605
 10
267.62528427
 20
-6.37277076
 10
268.57850038
 20
-6.43494166
 10
269.54808727
 20
-6.31047599
 10
270.5028829
 20
-6.0033733
 10
271.41219832
 20
-5.52350422
 10
272.2468105
 20
-4.88629285
 10
272.97988988
 20
-4.11221897
 10
273.58787775
 20
-3.2261624
  0
ARC
  5
1A86
330
76C
100
AcDbEntity
  8
240
100
AcDbCircle
 10
280.0
 20
0.62177826
 30
0.0
 40
20.0
100
AcDbArc
 50
330.0
 51
0.0
  0
LINE
  5
1A87
330
76C
100
AcDbEntity
  8
241
100
AcDbLine
 10
292.99038172
 20
-6.87822187
 30
0.0
 11
284.07114267
 21
-22.32679538
 31
0.0
  0
ARC
  5
1A88
330
76C
100
AcDbEntity
  8
241
100
AcDbCircle
 10
280.0
 20
0.62177826
 30
0.0
 40
15.0
100
AcDbArc
 50
330.0
 51
0.0
  0
LINE
  5
1A89
330
76C
100
AcDbEntity
  8
241
100
AcDbLine
 10
226.96152411
 20
45.00000179
 30
0.0
 11
244.80000001
 21
45.00000179
 31
0.0
  0
ARC
  5
1A8A
330
76C
100
AcDbEntity
  8
241
100
AcDbCircle
 10
233.5
 20
23.82050808
 30
0.0
 40
7.900418025899293
100
AcDbArc
 50
163.98610563
 51
16.01389437
  0
LINE
  5
1A8B
330
76C
100
AcDbEntity
  8
240
100
AcDbLine
 10
226.96152423
 20
50.0
 30
0.0
 11
267.36067864
 21
50.0000007
 31
0.0
  0
ELLIPSE
  5
1A8C
330
76C
100
AcDbEntity
  8
241
100
AcDbEllipse
 10
233.5
 20
23.09401077
 30
0.0
 11
-0.0000000000000006
 21
-9.237604307034018
 31
0.0
210
0.0
220
0.0
230
-1.0
 40
0.8660254
 41
1.890813184286404
 42
4.392372122893194
  0
ARC
  5
1A8D
330
76C
100
AcDbEntity
  8
240
100
AcDbCircle
 10
210.72949017
 20
20.62843077
 30
0.0
 40
20.00000000000001
100
AcDbArc
 50
120.0
 51
148.95502437
  0
ARC
  5
1A8E
330
76C
100
AcDbEntity
  8
241
100
AcDbCircle
 10
210.72949017
 20
20.62843077
 30
0.0
 40
15.00000000000003
100
AcDbArc
 50
120.0
 51
148.95502437
  0
ARC
  5
1A8F
330
76C
100
AcDbEntity
  8
240
100
AcDbCircle
 10
245.0
 20
0.0
 30
0.0
 40
60.00000000000002
100
AcDbArc
 50
148.95502437
 51
171.05755873
  0
LWPOLYLINE
  5
1A90
330
76C
100
AcDbEntity
  8
241
100
AcDbPolyline
 90
       36
 70
   128
 43
0.0
 10
233.49999998
 20
26.37090907
 10
232.42865864
 20
26.28740482
 10
231.3917511
 20
26.03957616
 10
230.42260472
 20
25.63538775
 10
229.55236759
 20
25.08783154
 10
228.80901106
 20
24.41450395
 10
228.21642727
 20
23.63705076
 10
227.79366083
 20
22.78045565
 10
227.55430162
 20
21.87225409
 10
227.50604235
 20
20.94163187
 10
227.65043274
 20
20.01850493
 10
227.98283294
 20
19.13253963
 10
228.49256068
 20
18.31221208
 10
229.16323029
 20
17.58388989
 10
229.97328814
 20
16.97098091
 10
230.89669727
 20
16.49318449
 10
231.90377921
 20
16.16585813
 10
232.96216398
 20
15.99952206
 10
234.03783597
 20
15.99952206
 10
235.09622075
 20
16.16585813
 10
236.10330269
 20
16.49318449
 10
237.02671181
 20
16.97098091
 10
237.8367692
 20
17.58388989
 10
238.50743974
 20
18.31221208
 10
239.01716655
 20
19.13253963
 10
239.34956769
 20
20.01850493
 10
239.49395854
 20
20.94163187
 10
239.4456988
 20
21.87225409
 10
239.20633912
 20
22.78045565
 10
238.78357315
 20
23.63705076
 10
238.1909889
 20
24.41450395
 10
237.44763236
 20
25.08783154
 10
236.57739524
 20
25.63538775
 10
235.60824886
 20
26.03957616
 10
234.57134131
 20
26.28740482
 10
233.49999998
 20
26.37090907
  0
ARC
  5
1A91
330
76C
100
AcDbEntity
  8
241
100
AcDbCircle
 10
226.96152423
 20
30.0
 30
0.0
 40
15.0
100
AcDbArc
 50
90.0
 51
120.0
  0
ARC
  5
1A92
330
76C
100
AcDbEntity
  8
240
100
AcDbCircle
 10
226.96152423
 20
30.0
 30
0.0
 40
20.0
100
AcDbArc
 50
90.0
 51
120.01382707
  0
LINE
  5
1A93
330
76C
100
AcDbEntity
  8
241
100
AcDbLine
 10
203.22948962
 20
33.61881152
 30
0.0
 11
219.46152382
 21
42.99038276
 31
0.0
  0
LINE
  5
1A94
330
76C
100
AcDbEntity
  8
240
100
AcDbLine
 10
216.9573446
 20
47.31809429
 30
0.0
 11
200.72949201
 21
37.94893995
 31
0.0
  0
ARC
  5
1A95
330
76C
100
AcDbEntity
  8
240
100
AcDbCircle
 10
267.36067915
 20
20.0000007
 30
0.0
 40
30.0
100
AcDbArc
 50
41.81031668
 51
90.00000099
  0
ARC
  5
1A96
330
76C
100
AcDbEntity
  8
241
100
AcDbCircle
 10
245.0
 20
0.0
 30
0.0
 40
55.00000000000002
100
AcDbArc
 50
28.95502437
 51
62.96430821
  0
LINE
  5
1A97
330
76C
100
AcDbEntity
  8
241
100
AcDbLine
 10
244.80000001
 20
25.00000037
 30
0.0
 11
244.80000001
 21
50.00000031
 31
0.0
  0
LINE
  5
1A98
330
76C
100
AcDbEntity
  8
241
100
AcDbLine
 10
270.00000037
 20
25.00000037
 30
0.0
 11
270.00000037
 21
49.8836749
 31
0.0
  0
LINE
  5
1A99
330
76C
100
AcDbEntity
  8
241
100
AcDbLine
 10
270.00000037
 20
25.00000037
 30
0.0
 11
244.80000001
 21
25.00000037
 31
0.0
  0
ARC
  5
1A9A
330
76C
100
AcDbEntity
  8
240
100
AcDbCircle
 10
245.0
 20
0.0
 30
0.0
 40
60.0
100
AcDbArc
 50
28.95502437
 51
41.81031668
  0
LINE
  5
1A9B
330
76C
100
AcDbEntity
  8
240
100
AcDbLine
 10
299.9999997
 20
7.76279438
 30
0.0
 11
299.9999997
 21
19.36491765
 31
0.0
  0
ARC
  5
1A9C
330
76C
100
AcDbEntity
  8
240
100
AcDbCircle
 10
280.0
 20
19.36491673
 30
0.0
 40
20.0
100
AcDbArc
 50
0.0
 51
28.95502437
  0
ARC
  5
1A9D
330
76C
100
AcDbEntity
  8
241
100
AcDbCircle
 10
280.0
 20
19.36491673
 30
0.0
 40
15.0
100
AcDbArc
 50
0.0
 51
28.95502437
  0
ENDBLK
  5
D2B
330
76C
100
AcDbEntity
  8
0
100
AcDbBlockEnd
  0
BLOCK
  5
1496
330
148C
100
AcDbEntity
  8
0
100
AcDbBlockBegin
  2
*D3
 70
     1
 10
0.0
 20
0.0
 30
0.0
  3
*D3
  1

  0
LINE
  5
15E2
330
148C
100
AcDbEntity
  8
250
  6
CONTINUOUS
100
AcDbLine
 10
50.0
 20
50.5
 30
0.0
 11
50.0
 21
64.0
 31
0.0
  0
LINE
  5
15E3
330
148C
100
AcDbEntity
  8
250
  6
CONTINUOUS
100
AcDbLine
 10
140.0
 20
49.4897944
 30
0.0
 11
140.0
 21
64.0
 31
0.0
  0
LINE
  5
15E4
330
148C
100
AcDbEntity
  8
250
  6
CONTINUOUS
100
AcDbLine
 10
52.23
 20
63.0
 30
0.0
 11
137.77
 21
63.0
 31
0.0
  0
INSERT
  5
15E5
330
148C
100
AcDbEntity
  8
250
  6
CONTINUOUS
100
AcDbBlockReference
  2
_OPEN
 10
50.0
 20
63.0
 30
0.0
 41
2.23
 42
2.23
 43
2.23
 50
180.0
  0
INSERT
  5
15E6
330
148C
100
AcDbEntity
  8
250
  6
CONTINUOUS
100
AcDbBlockReference
  2
_OPEN
 10
140.0
 20
63.0
 30
0.0
 41
2.23
 42
2.23
 43
2.23
  0
MTEXT
  5
15E7
330
148C
100
AcDbEntity
  8
250
  6
CONTINUOUS
 62
    40
100
AcDbMText
 10
95.0
 20
65.4
 30
0.0
 40
2.8
 41
0.0
 71
     5
 72
     1
  1
\A1;90
1001
ACAD
1000
MTEXTBEGIN
1070
    73
1070
     1
1070
    44
1040
1.0
1070
    74
1070
     0
1000
MTEXTEND
1000
MTEXTBEGIN
1070
    73
1070
     1
1070
    44
1040
1.0
1070
    74
1070
     0
1000
MTEXTEND
  0
POINT
  5
15E8
330
148C
100
AcDbEntity
  8
DEFPOINTS
  6
CONTINUOUS
 62
     0
100
AcDbPoint
 10
50.0
 20
50.0
 30
0.0
  0
POINT
  5
15E9
330
148C
100
AcDbEntity
  8
DEFPOINTS
  6
CONTINUOUS
 62
     0
100
AcDbPoint
 10
140.0
 20
48.9897944
 30
0.0
  0
POINT
  5
15EA
330
148C
100
AcDbEntity
  8
DEFPOINTS
  6
CONTINUOUS
 62
     0
100
AcDbPoint
 10
140.0
 20
63.0
 30
0.0
  0
ENDBLK
  5
1497
330
148C
100
AcDbEntity
  8
0
100
AcDbBlockEnd
  0
BLOCK
  5
14A5
330
149B
100
AcDbEntity
  8
0
100
AcDbBlockBegin
  2
*D4
 70
     1
 10
0.0
 20
0.0
 30
0.0
  3
*D4
  1

  0
LINE
  5
15EB
330
149B
100
AcDbEntity
  8
250
  6
CONTINUOUS
100
AcDbLine
 10
0.0
 20
35.425
 30
0.0
 11
0.0
 21
71.0
 31
0.0
  0
LINE
  5
15EC
330
149B
100
AcDbEntity
  8
250
  6
CONTINUOUS
100
AcDbLine
 10
140.0
 20
49.4897944
 30
0.0
 11
140.0
 21
71.0
 31
0.0
  0
LINE
  5
15ED
330
149B
100
AcDbEntity
  8
250
  6
CONTINUOUS
100
AcDbLine
 10
2.23
 20
70.0
 30
0.0
 11
137.77
 21
70.0
 31
0.0
  0
INSERT
  5
15EE
330
149B
100
AcDbEntity
  8
250
  6
CONTINUOUS
100
AcDbBlockReference
  2
_OPEN
 10
0.0
 20
70.0
 30
0.0
 41
2.23
 42
2.23
 43
2.23
 50
180.0
  0
INSERT
  5
15EF
330
149B
100
AcDbEntity
  8
250
  6
CONTINUOUS
100
AcDbBlockReference
  2
_OPEN
 10
140.0
 20
70.0
 30
0.0
 41
2.23
 42
2.23
 43
2.23
  0
MTEXT
  5
15F0
330
149B
100
AcDbEntity
  8
250
  6
CONTINUOUS
 62
    40
100
AcDbMText
 10
70.0
 20
72.4
 30
0.0
 40
2.8
 41
0.0
 71
     5
 72
     1
  1
\A1;140
1001
ACAD
1000
MTEXTBEGIN
1070
    73
1070
     1
1070
    44
1040
1.0
1070
    74
1070
     0
1000
MTEXTEND
1000
MTEXTBEGIN
1070
    73
1070
     1
1070
    44
1040
1.0
1070
    74
1070
     0
1000
MTEXTEND
  0
POINT
  5
15F1
330
149B
100
AcDbEntity
  8
DEFPOINTS
  6
CONTINUOUS
 62
     0
100
AcDbPoint
 10
0.0
 20
34.925
 30
0.0
  0
POINT
  5
15F2
330
149B
100
AcDbEntity
  8
DEFPOINTS
  6
CONTINUOUS
 62
     0
100
AcDbPoint
 10
140.0
 20
48.9897944
 30
0.0
  0
POINT
  5
15F3
330
149B
100
AcDbEntity
  8
DEFPOINTS
  6
CONTINUOUS
 62
     0
100
AcDbPoint
 10
140.0
 20
70.0
 30
0.0
  0
ENDBLK
  5
14A6
330
149B
100
AcDbEntity
  8
0
100
AcDbBlockEnd
  0
BLOCK
  5
14B4
330
14AA
100
AcDbEntity
  8
0
100
AcDbBlockBegin
  2
*D5
 70
     1
 10
0.0
 20
0.0
 30
0.0
  3
*D5
  1

  0
LINE
  5
160C
330
14AA
100
AcDbEntity
  8
250
  6
CONTINUOUS
100
AcDbLine
 10
141.5
 20
0.0
 30
0.0
 11
155.0
 21
0.0
 31
0.0
  0
LINE
  5
160D
330
14AA
100
AcDbEntity
  8
250
  6
CONTINUOUS
100
AcDbLine
 10
139.50000256
 20
49.99999925
 30
0.0
 11
155.0
 21
49.99999925
 31
0.0
  0
LINE
  5
160E
330
14AA
100
AcDbEntity
  8
250
  6
CONTINUOUS
100
AcDbLine
 10
154.0
 20
2.23
 30
0.0
 11
154.0
 21
47.76999925
 31
0.0
  0
INSERT
  5
160F
330
14AA
100
AcDbEntity
  8
250
  6
CONTINUOUS
100
AcDbBlockReference
  2
_OPEN
 10
154.0
 20
0.0
 30
0.0
 41
2.23
 42
2.23
 43
2.23
 50
270.0
  0
INSERT
  5
1610
330
14AA
100
AcDbEntity
  8
250
  6
CONTINUOUS
100
AcDbBlockReference
  2
_OPEN
 10
154.0
 20
49.99999925
 30
0.0
 41
2.23
 42
2.23
 43
2.23
 50
90.0
  0
MTEXT
  5
1611
330
14AA
100
AcDbEntity
  8
250
  6
CONTINUOUS
 62
    40
100
AcDbMText
 10
151.6
 20
24.99999963
 30
0.0
 40
2.8
 41
0.0
 71
     5
 72
     1
  1
\A1;50
 11
0.0
 21
1.0
 31
0.0
1001
ACAD
1000
MTEXTBEGIN
1070
    73
1070
     1
1070
    44
1040
1.0
1070
    74
1070
     0
1000
MTEXTEND
1000
MTEXTBEGIN
1070
    73
1070
     1
1070
    44
1040
1.0
1070
    74
1070
     0
1000
MTEXTEND
  0
POINT
  5
1612
330
14AA
100
AcDbEntity
  8
DEFPOINTS
  6
CONTINUOUS
 62
     0
100
AcDbPoint
 10
141.0
 20
0.0
 30
0.0
  0
POINT
  5
1613
330
14AA
100
AcDbEntity
  8
DEFPOINTS
  6
CONTINUOUS
 62
     0
100
AcDbPoint
 10
139.00000256
 20
49.99999925
 30
0.0
  0
POINT
  5
1614
330
14AA
100
AcDbEntity
  8
DEFPOINTS
  6
CONTINUOUS
 62
     0
100
AcDbPoint
 10
154.0
 20
49.99999925
 30
0.0
  0
ENDBLK
  5
14B5
330
14AA
100
AcDbEntity
  8
0
100
AcDbBlockEnd
  0
BLOCK
  5
1584
330
157A
100
AcDbEntity
  8
0
100
AcDbBlockBegin
  2
*D6
 70
     1
 10
0.0
 20
0.0
 30
0.0
  3
*D6
  1

  0
LINE
  5
19F2
330
157A
100
AcDbEntity
  8
250
  6
CONTINUOUS
100
AcDbLine
 10
245.0
 20
62.5
 30
0.0
 11
245.0
 21
71.0
 31
0.0
  0
LINE
  5
19F3
330
157A
100
AcDbEntity
  8
250
  6
CONTINUOUS
100
AcDbLine
 10
270.00000037
 20
50.3836749
 30
0.0
 11
270.00000037
 21
71.0
 31
0.0
  0
LINE
  5
19F4
330
157A
100
AcDbEntity
  8
250
  6
CONTINUOUS
100
AcDbLine
 10
247.23
 20
70.0
 30
0.0
 11
267.77000037
 21
70.0
 31
0.0
  0
INSERT
  5
19F5
330
157A
100
AcDbEntity
  8
250
  6
CONTINUOUS
100
AcDbBlockReference
  2
_OPEN
 10
245.0
 20
70.0
 30
0.0
 41
2.23
 42
2.23
 43
2.23
 50
180.0
  0
INSERT
  5
19F6
330
157A
100
AcDbEntity
  8
250
  6
CONTINUOUS
100
AcDbBlockReference
  2
_OPEN
 10
270.00000037
 20
70.0
 30
0.0
 41
2.23
 42
2.23
 43
2.23
  0
MTEXT
  5
19F7
330
157A
100
AcDbEntity
  8
250
  6
CONTINUOUS
 62
    40
100
AcDbMText
 10
257.50000019
 20
72.4
 30
0.0
 40
2.8
 41
0.0
 71
     5
 72
     1
  1
\A1;□25
1001
ACAD
1000
MTEXTBEGIN
1070
    73
1070
     1
1070
    44
1040
1.0
1070
    74
1070
     0
1000
MTEXTEND
  0
POINT
  5
19F8
330
157A
100
AcDbEntity
  8
DEFPOINTS
  6
CONTINUOUS
 62
     0
100
AcDbPoint
 10
245.0
 20
62.0
 30
0.0
  0
POINT
  5
19F9
330
157A
100
AcDbEntity
  8
DEFPOINTS
  6
CONTINUOUS
 62
     0
100
AcDbPoint
 10
270.00000037
 20
49.8836749
 30
0.0
  0
POINT
  5
19FA
330
157A
100
AcDbEntity
  8
DEFPOINTS
  6
CONTINUOUS
 62
     0
100
AcDbPoint
 10
270.00000037
 20
70.0
 30
0.0
  0
ENDBLK
  5
1585
330
157A
100
AcDbEntity
  8
0
100
AcDbBlockEnd
  0
BLOCK
  5
1593
330
1589
100
AcDbEntity
  8
0
100
AcDbBlockBegin
  2
*D7
 70
     1
 10
0.0
 20
0.0
 30
0.0
  3
*D7
  1

  0
LINE
  5
19FD
330
1589
100
AcDbEntity
  8
250
  6
CONTINUOUS
100
AcDbLine
 10
270.50000037
 20
25.00000037
 30
0.0
 11
309.0
 21
25.00000037
 31
0.0
  0
LINE
  5
19FE
330
1589
100
AcDbEntity
  8
250
  6
CONTINUOUS
100
AcDbLine
 10
267.86067864
 20
50.0000007
 30
0.0
 11
309.0
 21
50.0000007
 31
0.0
  0
LINE
  5
19FF
330
1589
100
AcDbEntity
  8
250
  6
CONTINUOUS
100
AcDbLine
 10
308.0
 20
27.23000037
 30
0.0
 11
308.0
 21
47.7700007
 31
0.0
  0
INSERT
  5
1A00
330
1589
100
AcDbEntity
  8
250
  6
CONTINUOUS
100
AcDbBlockReference
  2
_OPEN
 10
308.0
 20
25.00000037
 30
0.0
 41
2.23
 42
2.23
 43
2.23
 50
270.0
  0
INSERT
  5
1A01
330
1589
100
AcDbEntity
  8
250
  6
CONTINUOUS
100
AcDbBlockReference
  2
_OPEN
 10
308.0
 20
50.0000007
 30
0.0
 41
2.23
 42
2.23
 43
2.23
 50
90.0
  0
MTEXT
  5
1A02
330
1589
100
AcDbEntity
  8
250
  6
CONTINUOUS
 62
    40
100
AcDbMText
 10
305.6
 20
37.50000054
 30
0.0
 40
2.8
 41
0.0
 71
     5
 72
     1
  1
\A1;25
 11
0.0
 21
1.0
 31
0.0
1001
ACAD
1000
MTEXTBEGIN
1070
    73
1070
     1
1070
    44
1040
1.0
1070
    74
1070
     0
1000
MTEXTEND
  0
POINT
  5
1A03
330
1589
100
AcDbEntity
  8
DEFPOINTS
  6
CONTINUOUS
 62
     0
100
AcDbPoint
 10
270.00000037
 20
25.00000037
 30
0.0
  0
POINT
  5
1A04
330
1589
100
AcDbEntity
  8
DEFPOINTS
  6
CONTINUOUS
 62
     0
100
AcDbPoint
 10
267.36067864
 20
50.0000007
 30
0.0
  0
POINT
  5
1A05
330
1589
100
AcDbEntity
  8
DEFPOINTS
  6
CONTINUOUS
 62
     0
100
AcDbPoint
 10
308.0
 20
50.0000007
 30
0.0
  0
ENDBLK
  5
1594
330
1589
100
AcDbEntity
  8
0
100
AcDbBlockEnd
  0
BLOCK
  5
15A6
330
159F
100
AcDbEntity
  8
0
100
AcDbBlockBegin
  2
*D8
 70
     1
 10
0.0
 20
0.0
 30
0.0
  3
*D8
  1

  0
LINE
  5
1AC4
330
159F
100
AcDbEntity
  8
250
  6
CONTINUOUS
100
AcDbLine
 10
223.97795624
 20
-53.80935398
 30
0.0
 11
266.02204376
 21
53.80935398
 31
0.0
  0
INSERT
  5
1AC5
330
159F
100
AcDbEntity
  8
250
  6
CONTINUOUS
100
AcDbBlockReference
  2
_OPEN
 10
223.16647696
 20
-55.8864677
 30
0.0
 41
2.23
 42
2.23
 43
2.23
 50
248.66058649
  0
INSERT
  5
1AC6
330
159F
100
AcDbEntity
  8
250
  6
CONTINUOUS
100
AcDbBlockReference
  2
_OPEN
 10
266.83352304
 20
55.8864677
 30
0.0
 41
2.23
 42
2.23
 43
2.23
 50
68.66058649
  0
MTEXT
  5
1AC7
330
159F
100
AcDbEntity
  8
250
  6
CONTINUOUS
 62
    40
100
AcDbMText
 10
257.10242788
 20
37.57350307
 30
0.0
 40
2.8
 41
0.0
 71
     5
 72
     1
  1
\A1;（{\H2.8;\U+2205}120）
 11
0.36389205
 21
0.93144113
 31
0.0
  0
POINT
  5
1AC8
330
159F
100
AcDbEntity
  8
DEFPOINTS
  6
CONTINUOUS
 62
     0
100
AcDbPoint
 10
266.83352304
 20
55.8864677
 30
0.0
  0
POINT
  5
1AC9
330
159F
100
AcDbEntity
  8
DEFPOINTS
  6
CONTINUOUS
 62
     0
100
AcDbPoint
 10
223.16647696
 20
-55.8864677
 30
0.0
  0
ENDBLK
  5
15A7
330
159F
100
AcDbEntity
  8
0
100
AcDbBlockEnd
  0
ENDSEC
  0
SECTION
  2
ENTITIES
  0
INSERT
  5
6E6
330
1A
100
AcDbEntity
  8
245
100
AcDbBlockReference
  2
矢印なし
 10
175.62382697
 20
90.55123572
 30
0.0
  0
TEXT
  5
D81
330
1A
100
AcDbEntity
  8
241
100
AcDbText
 10
-101.8
 20
84.0
 30
0.0
 40
5.0
  1
BBT50M-180-3BH25R-140
  7
YOKO
100
AcDbText
  0
DIMENSION
  5
148B
330
1A
100
AcDbEntity
  8
250
  6
CONTINUOUS
100
AcDbDimension
  2
*D3
 10
140.0
 20
63.0
 30
0.0
 11
95.0
 21
65.4
 31
0.0
 70
    32
  3
BIGT
100
AcDbAlignedDimension
 13
50.0
 23
50.0
 33
0.0
 14
140.0
 24
48.9897944
 34
0.0
100
AcDbRotatedDimension
  0
DIMENSION
  5
149A
330
1A
100
AcDbEntity
  8
250
  6
CONTINUOUS
100
AcDbDimension
  2
*D4
 10
140.0
 20
70.0
 30
0.0
 11
70.0
 21
72.4
 31
0.0
 70
    32
  3
BIGT
100
AcDbAlignedDimension
 13
0.0
 23
34.925
 33
0.0
 14
140.0
 24
48.9897944
 34
0.0
100
AcDbRotatedDimension
  0
DIMENSION
  5
14A9
330
1A
100
AcDbEntity
  8
250
  6
CONTINUOUS
100
AcDbDimension
  2
*D5
 10
154.0
 20
49.99999925
 30
0.0
 11
151.6
 21
24.99999963
 31
0.0
 70
    32
  3
BIGT
100
AcDbAlignedDimension
 13
141.0
 23
0.0
 33
0.0
 14
139.00000256
 24
49.99999925
 34
0.0
 50
90.0
100
AcDbRotatedDimension
  0
DIMENSION
  5
1579
330
1A
100
AcDbEntity
  8
250
  6
CONTINUOUS
100
AcDbDimension
  2
*D6
 10
270.00000037
 20
70.0
 30
0.0
 11
257.50000019
 21
72.4
 31
0.0
 70
    32
  1
□<>
  3
BIGT
100
AcDbAlignedDimension
 13
245.0
 23
62.0
 33
0.0
 14
270.00000037
 24
49.8836749
 34
0.0
100
AcDbRotatedDimension
  0
DIMENSION
  5
1588
330
1A
100
AcDbEntity
  8
250
  6
CONTINUOUS
100
AcDbDimension
  2
*D7
 10
308.0
 20
50.0000007
 30
0.0
 11
305.6
 21
37.50000054
 31
0.0
 70
    32
  3
BIGT
100
AcDbAlignedDimension
 13
270.00000037
 23
25.00000037
 33
0.0
 14
267.36067864
 24
50.0000007
 34
0.0
 50
90.0
100
AcDbRotatedDimension
  0
DIMENSION
  5
159E
330
1A
100
AcDbEntity
  8
250
  6
CONTINUOUS
100
AcDbDimension
  2
*D8
 10
223.16647696
 20
-55.8864677
 30
0.0
 11
259.33788659
 21
36.70016215
 31
0.0
 70
   163
  1
（{\H2.8;\U+2205}<>）
  3
BIGT
100
AcDbDiametricDimension
 15
266.83352304
 25
55.8864677
 35
0.0
 40
0.0
1001
ACAD
1000
DSTYLE
1002
{
1070
   287
1070
     0
1070
   287
1070
     0
1070
     3
1000
<>
1070
   288
1070
     1
1070
   289
1070
     0
1002
}
  0
LEADER
  5
1993
330
1A
100
AcDbEntity
  8
250
  6
CONTINUOUS
100
AcDbLeader
  3
BIGT
 76
     2
 10
-59.67497638
 20
-26.22239928
 30
0.0
 10
-64.94155264
 20
-35.34437694
 30
0.0
1001
ACAD
1000
DSTYLE
1002
{
1070
     6
1000
OPEN
1070
    41
1040
2.0
1070
    42
1040
2.0
1070
    44
1040
2.0
1070
   140
1040
4.0
1070
   343
1005
594
1002
}
  0
MTEXT
  5
1994
330
1A
100
AcDbEntity
  8
251
  6
CONTINUOUS
100
AcDbMText
 10
-79.87488597
 20
-34.34437694
 30
0.0
 40
2.8
 41
0.0
 71
     7
 72
     1
  1
BBT50
  7
YOKO
1001
ITEMNAME
1000
LNSP3
1001
ACAD
1000
MTEXTBEGIN
1070
    73
1070
     1
1070
    44
1040
1.0
1070
    74
1070
     0
1000
MTEXTEND
1000
MTEXTBEGIN
1070
    73
1070
     1
1070
    44
1040
1.0
1070
    74
1070
     0
1000
MTEXTEND
1000
MTEXTBEGIN
1070
    73
1070
     1
1070
    44
1040
1.0
1070
    74
1070
     0
1000
MTEXTEND
1000
MTEXTBEGIN
1070
    73
1070
     1
1070
    44
1040
1.0
1070
    74
1070
     0
1000
MTEXTEND
  0
LINE
  5
1999
330
1A
100
AcDbEntity
  8
250
  6
CONTINUOUS
100
AcDbLine
 10
-64.94155264
 20
-35.34437694
 30
0.0
 11
-82.67488597
 21
-35.34437694
 31
0.0
1001
ITEMNAME
1000
LNSP2
  0
INSERT
  5
1A9E
330
1A
100
AcDbEntity
  8
245
100
AcDbBlockReference
  2
1
 10
0.0
 20
0.0
 30
0.0
  0
VIEWPORT
  5
22
330
17
100
AcDbEntity
 67
     1
  8
0
100
AcDbViewport
 10
261.51769912
 20
148.5
 30
0.0
 40
523.03539823
 41
297.0
 68
     1
 69
     1
1001
ACAD
1000
MVIEW
1002
{
1070
    16
1010
0.0
1020
0.0
1030
0.0
1010
0.0
1020
0.0
1030
1.0
1040
0.0
1040
297.0
1040
261.51769912
1040
148.5
1040
50.0
1040
0.0
1040
0.0
1070
     0
1070
   100
1070
     1
1070
     1
1070
     0
1070
     0
1070
     0
1070
     0
1040
0.0
1040
0.0
1040
0.0
1040
1.0
1040
1.0
1040
10.0
1040
10.0
1070
     0
1002
{
1002
}
1002
}
  0
ENDSEC
  0
SECTION
  2
OBJECTS
  0
DICTIONARY
  5
C
330
0
100
AcDbDictionary
  3
ACAD_GROUP
350
D
  3
ACAD_LAYOUT
350
565
  3
ACAD_MLINESTYLE
350
E
  3
ACAD_PLOTSETTINGS
350
566
  3
ACAD_PLOTSTYLENAME
350
563
  3
ACDBHEADERROUNDTRIPXREC
350
1AA0
  3
GRADE_DWG
350
540
  0
DICTIONARY
  5
18A0
330
1A
100
AcDbDictionary
280
     1
  3
ACAD_LAYOUTSELFREF
360
1AC2
  0
DICTIONARY
  5
189E
330
17
100
AcDbDictionary
280
     1
  3
ACAD_LAYOUTSELFREF
360
1AC1
  0
DICTIONARY
  5
D
102
{ACAD_REACTORS
330
C
102
}
330
C
100
AcDbDictionary
  3
*A1
350
6C7
  3
*A2
350
6C8
  3
*A3
350
6D4
  3
*A4
350
6D5
  3
DREC-1
350
5FC
  3
DREC-2
350
654
  3
DREC-3
350
673
  0
DICTIONARY
  5
565
102
{ACAD_REACTORS
330
C
102
}
330
C
100
AcDbDictionary
  0
DICTIONARY
  5
E
102
{ACAD_REACTORS
330
C
102
}
330
C
100
AcDbDictionary
  3
STANDARD
350
13
  0
DICTIONARY
  5
566
102
{ACAD_REACTORS
330
C
102
}
330
C
100
AcDbDictionary
  3
A3_0_5倍_
350
758
  3
A3_1倍_
350
757
  3
A3_1倍__2000_
350
707
  3
A3_2倍_
350
759
  3
A4_0_5倍_
350
755
  3
A4_1倍_
350
754
  3
A4_1倍__2000_
350
708
  3
A4_2倍_
350
756
  0
ACDBDICTIONARYWDFLT
  5
563
102
{ACAD_REACTORS
330
C
102
}
330
C
100
AcDbDictionary
281
     1
  3
Normal
350
564
100
AcDbDictionaryWithDefault
340
564
  0
DICTIONARY
  5
1AA0
102
{ACAD_REACTORS
330
C
102
}
330
C
100
AcDbDictionary
  3
CEPSNTYPE
350
1AAA
  3
DIMSTYLEDATA
350
1AAE
  3
FINGERPRINTGUID
350
1AAB
  3
HYPERLINKBASE
350
1AA3
  3
INSUNITS
350
1AA9
  3
LAYOUTDICT
350
1AA5
  3
LWETCUNION
350
1AA8
  3
PLOTSETDICT
350
1AA6
  3
PLOTSTYLNAMDICT
350
1AA7
  3
PSVPSCALE
350
1AAD
  3
PUCSBASE
350
1AB1
  3
PUCSORGBACK
350
1AB7
  3
PUCSORGBOTTOM
350
1AB3
  3
PUCSORGFRONT
350
1AB6
  3
PUCSORGLEFT
350
1AB4
  3
PUCSORGRIGHT
350
1AB5
  3
PUCSORGTOP
350
1AB2
  3
PUCSORTHOREF
350
1AAF
  3
PUCSORTHOVIEW
350
1AB0
  3
STYLESHEET
350
1AA4
  3
TSTACKALIGN
350
1AA1
  3
TSTACKSIZE
350
1AA2
  3
UCSBASE
350
1ABA
  3
UCSORGBACK
350
1AC0
  3
UCSORGBOTTOM
350
1ABC
  3
UCSORGFRONT
350
1ABF
  3
UCSORGLEFT
350
1ABD
  3
UCSORGRIGHT
350
1ABE
  3
UCSORGTOP
350
1ABB
  3
UCSORTHOREF
350
1AB8
  3
UCSORTHOVIEW
350
1AB9
  3
VERSIONGUID
350
1AAC
  0
DICTIONARY
  5
540
102
{ACAD_REACTORS
330
C
102
}
330
C
100
AcDbDictionary
  3
VERSION
350
560
  0
XRECORD
  5
1AC2
102
{ACAD_REACTORS
330
18A0
102
}
330
18A0
100
AcDbXrecord
340
1A
  0
XRECORD
  5
1AC1
102
{ACAD_REACTORS
330
189E
102
}
330
189E
100
AcDbXrecord
340
17
  0
GROUP
  5
6C7
102
{ACAD_REACTORS
330
D
102
}
330
D
100
AcDbGroup
300

 70
     0
 71
     1
1001
GRPNAME
1000
DMA00
  0
GROUP
  5
6C8
102
{ACAD_REACTORS
330
D
102
}
330
D
100
AcDbGroup
300

 70
     0
 71
     1
1001
GRPNAME
1000
DMA00
  0
GROUP
  5
6D4
102
{ACAD_REACTORS
330
D
102
}
330
D
100
AcDbGroup
300

 70
     0
 71
     1
1001
GRPNAME
1000
DMA00
  0
GROUP
  5
6D5
102
{ACAD_REACTORS
330
D
102
}
330
D
100
AcDbGroup
300

 70
     0
 71
     1
1001
GRPNAME
1000
DMA00
  0
GROUP
  5
5FC
102
{ACAD_REACTORS
330
D
102
}
330
D
100
AcDbGroup
300

 70
     0
 71
     1
1001
GRPNAME
1000
DREC-
1001
GPARA
1000
xsiz
1000
44.182
1000
ysiz
1000
40.677
1000
angl
1000
0
1000
ctyp
1000
0
1000
csiz
1000
5
1000
lfnt
1000
cont
1000
hcnt
1000
hoff
1000
vcnt
1000
voff
1000
opnt
1000
4
1000
dxpt
1000
0
1000
dypt
1000
0
  0
GROUP
  5
654
102
{ACAD_REACTORS
330
D
102
}
330
D
100
AcDbGroup
300

 70
     0
 71
     1
1001
GRPNAME
1000
DREC-
1001
GPARA
1000
xsiz
1000
54.592
1000
ysiz
1000
53.036
1000
angl
1000
0
1000
ctyp
1000
0
1000
csiz
1000
5
1000
lfnt
1000
cont
1000
hcnt
1000
hoff
1000
vcnt
1000
voff
1000
opnt
1000
4
1000
dxpt
1000
0
1000
dypt
1000
0
  0
GROUP
  5
673
102
{ACAD_REACTORS
330
D
102
}
330
D
100
AcDbGroup
300

 70
     0
 71
     1
1001
GRPNAME
1000
DREC-
1001
GPARA
1000
xsiz
1000
30.363
1000
ysiz
1000
36.175
1000
angl
1000
0
1000
ctyp
1000
0
1000
csiz
1000
5
1000
lfnt
1000
cont
1000
hcnt
1000
hoff
1000
vcnt
1000
voff
1000
opnt
1000
4
1000
dxpt
1000
0
1000
dypt
1000
0
  0
MLINESTYLE
  5
13
102
{ACAD_REACTORS
330
E
102
}
330
E
100
AcDbMlineStyle
  2
STANDARD
 70
     0
  3

 62
     0
 51
90.0
 52
90.0
 71
     2
 49
0.5
 62
   256
  6
BYLAYER
 49
-0.5
 62
   256
  6
BYLAYER
  0
PLOTSETTINGS
  5
758
102
{ACAD_REACTORS
330
566
102
}
330
566
100
AcDbPlotSettings
  1
A3(0.5倍)
  2
\\AWTECPC05\HP DeskJet 1120C
  4
A3
  6

 40
5.95841646
 41
13.49375153
 42
6.04309082
 43
3.67242432
 44
296.92599487
 45
419.94665527
 46
89.96
 47
127.14
 48
0.0
 49
0.0
140
0.0
141
0.0
142
1.0
143
2.0
 70
  1716
 72
     1
 73
     1
 74
     2
  7
big.ctb
 75
    17
147
0.5
148
0.0
149
0.0
  0
PLOTSETTINGS
  5
757
102
{ACAD_REACTORS
330
566
102
}
330
566
100
AcDbPlotSettings
  1
A3(1倍)
  2
\\AWTECPC05\HP DeskJet 1120C
  4
A3
  6

 40
5.95841646
 41
13.49375153
 42
6.04309082
 43
3.67242432
 44
296.92599487
 45
419.94665527
 46
37.46
 47
52.89
 48
0.0
 49
0.0
140
0.0
141
0.0
142
1.0
143
1.0
 70
  1716
 72
     1
 73
     1
 74
     2
  7
big.ctb
 75
    16
147
1.0
148
0.0
149
0.0
  0
PLOTSETTINGS
  5
707
102
{ACAD_REACTORS
330
566
102
}
330
566
100
AcDbPlotSettings
  1
A3(1倍)(2000)
  2
SII LS-1300 (D-SCAN)
  4
User258
  6

 40
3.17499995
 41
3.17499995
 42
3.17498779
 43
3.17498779
 44
419.98898315
 45
296.98950195
 46
58.32
 47
40.32
 48
0.0
 49
0.0
140
0.0
141
0.0
142
1.0
143
1.0
 70
  1716
 72
     1
 73
     0
 74
     2
  7
big.ctb
 75
    16
147
1.0
148
0.0
149
0.0
  0
PLOTSETTINGS
  5
759
102
{ACAD_REACTORS
330
566
102
}
330
566
100
AcDbPlotSettings
  1
A3(2倍)
  2
\\AWTECPC05\HP DeskJet 1120C
  4
A3
  6

 40
5.95841646
 41
13.49375153
 42
6.04309082
 43
3.67242432
 44
296.92599487
 45
419.94665527
 46
-67.54
 47
-95.61
 48
0.0
 49
0.0
140
0.0
141
0.0
142
1.0
143
0.5
 70
  1716
 72
     1
 73
     1
 74
     2
  7
big.ctb
 75
    27
147
2.0
148
0.0
149
0.0
  0
PLOTSETTINGS
  5
755
102
{ACAD_REACTORS
330
566
102
}
330
566
100
AcDbPlotSettings
  1
A4(0.5倍)
  2
\\AWTECPC05\HP DeskJet 1120C
  4
A4
  6

 40
4.18041658
 41
13.49374962
 42
4.18040466
 43
3.92642212
 44
209.97332764
 45
296.92599487
 46
48.31
 47
65.5
 48
0.0
 49
0.0
140
0.0
141
0.0
142
1.0
143
2.0
 70
  1716
 72
     1
 73
     1
 74
     2
  7
big.ctb
 75
    17
147
0.5
148
0.0
149
0.0
  0
PLOTSETTINGS
  5
754
102
{ACAD_REACTORS
330
566
102
}
330
566
100
AcDbPlotSettings
  1
A4(1倍)
  2
\\AWTECPC05\HP DeskJet 1120C
  4
A4
  6

 40
4.18041658
 41
13.49374962
 42
4.18040466
 43
3.92642212
 44
209.97332764
 45
296.92599487
 46
-4.19
 47
-8.75
 48
0.0
 49
0.0
140
0.0
141
0.0
142
1.0
143
1.0
 70
  1716
 72
     1
 73
     1
 74
     2
  7
big.ctb
 75
    16
147
1.0
148
0.0
149
0.0
  0
PLOTSETTINGS
  5
708
102
{ACAD_REACTORS
330
566
102
}
330
566
100
AcDbPlotSettings
  1
A4(1倍)(2000)
  2
SII LS-1300 (D-SCAN)
  4
User259
  6

 40
3.17499995
 41
3.17499995
 42
3.17498779
 43
3.17500305
 44
296.98950195
 45
209.99449158
 46
-3.18
 47
-3.18
 48
0.0
 49
0.0
140
0.0
141
0.0
142
1.0
143
1.0
 70
  1716
 72
     1
 73
     0
 74
     2
  7
big.ctb
 75
    16
147
1.0
148
0.0
149
0.0
  0
PLOTSETTINGS
  5
756
102
{ACAD_REACTORS
330
566
102
}
330
566
100
AcDbPlotSettings
  1
A4(2倍)
  2
\\AWTECPC05\HP DeskJet 1120C
  4
A4
  6

 40
4.18041658
 41
13.49374962
 42
4.18040466
 43
3.92642212
 44
209.97332764
 45
296.92599487
 46
-109.19
 47
-157.25
 48
0.0
 49
0.0
140
0.0
141
0.0
142
1.0
143
0.5
 70
  1716
 72
     1
 73
     1
 74
     2
  7
big.ctb
 75
    27
147
2.0
148
0.0
149
0.0
  0
ACDBPLACEHOLDER
  5
564
102
{ACAD_REACTORS
330
563
102
}
330
563
100
AcDbPlaceHolder
280
     0
  0
XRECORD
  5
1AAA
102
{ACAD_REACTORS
330
1AA0
102
}
330
1AA0
100
AcDbXrecord
 90
        0
  0
XRECORD
  5
1AAE
102
{ACAD_REACTORS
330
1AA0
102
}
330
1AA0
100
AcDbXrecord
1000
DSTYLE
1002
{
1070
    79
 70
     2
1070
   179
 70
     3
1070
   341
340
594
1070
   343
340
594
1070
   344
340
594
1070
   371
 70
    -1
1070
   372
 70
    -1
1002
}
  0
XRECORD
  5
1AAB
102
{ACAD_REACTORS
330
1AA0
102
}
330
1AA0
100
AcDbXrecord
  1
{51294030-9CB4-11D3-8E18-00A0C925D94D}
  0
XRECORD
  5
1AA3
102
{ACAD_REACTORS
330
1AA0
102
}
330
1AA0
100
AcDbXrecord
  1

  0
XRECORD
  5
1AA9
102
{ACAD_REACTORS
330
1AA0
102
}
330
1AA0
100
AcDbXrecord
 90
        0
  0
XRECORD
  5
1AA5
102
{ACAD_REACTORS
330
1AA0
102
}
330
1AA0
100
AcDbXrecord
340
565
  0
XRECORD
  5
1AA8
102
{ACAD_REACTORS
330
1AA0
102
}
330
1AA0
100
AcDbXrecord
 90
    10781
  0
XRECORD
  5
1AA6
102
{ACAD_REACTORS
330
1AA0
102
}
330
1AA0
100
AcDbXrecord
340
566
  0
XRECORD
  5
1AA7
102
{ACAD_REACTORS
330
1AA0
102
}
330
1AA0
100
AcDbXrecord
340
563
  0
XRECORD
  5
1AAD
102
{ACAD_REACTORS
330
1AA0
102
}
330
1AA0
100
AcDbXrecord
 40
0.0
  0
XRECORD
  5
1AB1
102
{ACAD_REACTORS
330
1AA0
102
}
330
1AA0
100
AcDbXrecord
340
0
  0
XRECORD
  5
1AB7
102
{ACAD_REACTORS
330
1AA0
102
}
330
1AA0
100
AcDbXrecord
 10
0.0
 20
0.0
 30
0.0
  0
XRECORD
  5
1AB3
102
{ACAD_REACTORS
330
1AA0
102
}
330
1AA0
100
AcDbXrecord
 10
0.0
 20
0.0
 30
0.0
  0
XRECORD
  5
1AB6
102
{ACAD_REACTORS
330
1AA0
102
}
330
1AA0
100
AcDbXrecord
 10
0.0
 20
0.0
 30
0.0
  0
XRECORD
  5
1AB4
102
{ACAD_REACTORS
330
1AA0
102
}
330
1AA0
100
AcDbXrecord
 10
0.0
 20
0.0
 30
0.0
  0
XRECORD
  5
1AB5
102
{ACAD_REACTORS
330
1AA0
102
}
330
1AA0
100
AcDbXrecord
 10
0.0
 20
0.0
 30
0.0
  0
XRECORD
  5
1AB2
102
{ACAD_REACTORS
330
1AA0
102
}
330
1AA0
100
AcDbXrecord
 10
0.0
 20
0.0
 30
0.0
  0
XRECORD
  5
1AAF
102
{ACAD_REACTORS
330
1AA0
102
}
330
1AA0
100
AcDbXrecord
340
0
  0
XRECORD
  5
1AB0
102
{ACAD_REACTORS
330
1AA0
102
}
330
1AA0
100
AcDbXrecord
 70
     0
  0
XRECORD
  5
1AA4
102
{ACAD_REACTORS
330
1AA0
102
}
330
1AA0
100
AcDbXrecord
  1
big.ctb
  0
XRECORD
  5
1AA1
102
{ACAD_REACTORS
330
1AA0
102
}
330
1AA0
100
AcDbXrecord
 90
        1
  0
XRECORD
  5
1AA2
102
{ACAD_REACTORS
330
1AA0
102
}
330
1AA0
100
AcDbXrecord
 90
       70
  0
XRECORD
  5
1ABA
102
{ACAD_REACTORS
330
1AA0
102
}
330
1AA0
100
AcDbXrecord
340
0
  0
XRECORD
  5
1AC0
102
{ACAD_REACTORS
330
1AA0
102
}
330
1AA0
100
AcDbXrecord
 10
0.0
 20
0.0
 30
0.0
  0
XRECORD
  5
1ABC
102
{ACAD_REACTORS
330
1AA0
102
}
330
1AA0
100
AcDbXrecord
 10
0.0
 20
0.0
 30
0.0
  0
XRECORD
  5
1ABF
102
{ACAD_REACTORS
330
1AA0
102
}
330
1AA0
100
AcDbXrecord
 10
0.0
 20
0.0
 30
0.0
  0
XRECORD
  5
1ABD
102
{ACAD_REACTORS
330
1AA0
102
}
330
1AA0
100
AcDbXrecord
 10
0.0
 20
0.0
 30
0.0
  0
XRECORD
  5
1ABE
102
{ACAD_REACTORS
330
1AA0
102
}
330
1AA0
100
AcDbXrecord
 10
0.0
 20
0.0
 30
0.0
  0
XRECORD
  5
1ABB
102
{ACAD_REACTORS
330
1AA0
102
}
330
1AA0
100
AcDbXrecord
 10
0.0
 20
0.0
 30
0.0
  0
XRECORD
  5
1AB8
102
{ACAD_REACTORS
330
1AA0
102
}
330
1AA0
100
AcDbXrecord
340
0
  0
XRECORD
  5
1AB9
102
{ACAD_REACTORS
330
1AA0
102
}
330
1AA0
100
AcDbXrecord
 70
     0
  0
XRECORD
  5
1AAC
102
{ACAD_REACTORS
330
1AA0
102
}
330
1AA0
100
AcDbXrecord
  1
{4FD1CA03-B64A-4743-ACEB-493C9251FF4D}
  0
XRECORD
  5
560
102
{ACAD_REACTORS
330
540
102
}
330
540
100
AcDbXrecord
  1
2.0.0
  0
ENDSEC
  0
EOF
