  0
SECTION
  2
HEADER
  9
$ACADVER
  1
AC1014
  9
$ACADMAINTVER
 70
     9
  9
$DWGCODEPAGE
  3
ANSI_1252
  9
$INSBASE
 10
0.0
 20
0.0
 30
0.0
  9
$EXTMIN
 10
0.0
 20
0.0
 30
0.0
  9
$EXTMAX
 10
210.0
 20
297.0
 30
0.0
  9
$LIMMIN
 10
0.0
 20
0.0
  9
$LIMMAX
 10
210.0
 20
297.0
  9
$ORTHOMODE
 70
     0
  9
$REGENMODE
 70
     1
  9
$FILLMODE
 70
     1
  9
$QTEXTMODE
 70
     0
  9
$MIRRTEXT
 70
     1
  9
$DRAGMODE
 70
     2
  9
$LTSCALE
 40
1.0
  9
$OSMODE
 70
    37
  9
$ATTMODE
 70
     1
  9
$TEXTSIZE
 40
3.5
  9
$TRACEWID
 40
1.0
  9
$TEXTSTYLE
  7
STANDARD
  9
$CLAYER
  8
0
  9
$CELTYPE
  6
BYLAYER
  9
$CECOLOR
 62
   256
  9
$CELTSCALE
 40
1.0
  9
$DELOBJ
 70
     1
  9
$DISPSILH
 70
     0
  9
$DIMSCALE
 40
1.0
  9
$DIMASZ
 40
3.5
  9
$DIMEXO
 40
0.0
  9
$DIMDLI
 40
3.75
  9
$DIMRND
 40
0.0
  9
$DIMDLE
 40
0.0
  9
$DIMEXE
 40
1.0
  9
$DIMTP
 40
0.0
  9
$DIMTM
 40
0.0
  9
$DIMTXT
 40
3.5
  9
$DIMCEN
 40
2.5
  9
$DIMTSZ
 40
0.0
  9
$DIMTOL
 70
     0
  9
$DIMLIM
 70
     0
  9
$DIMTIH
 70
     1
  9
$DIMTOH
 70
     1
  9
$DIMSE1
 70
     0
  9
$DIMSE2
 70
     0
  9
$DIMTAD
 70
     1
  9
$DIMZIN
 70
     0
  9
$DIMBLK
  1

  9
$DIMASO
 70
     1
  9
$DIMSHO
 70
     1
  9
$DIMPOST
  1

  9
$DIMAPOST
  1

  9
$DIMALT
 70
     0
  9
$DIMALTD
 70
     3
  9
$DIMALTF
 40
0.0393700787
  9
$DIMLFAC
 40
1.0
  9
$DIMTOFL
 70
     1
  9
$DIMTVP
 40
0.0
  9
$DIMTIX
 70
     0
  9
$DIMSOXD
 70
     0
  9
$DIMSAH
 70
     0
  9
$DIMBLK1
  1

  9
$DIMBLK2
  1

  9
$DIMSTYLE
  2
ISO-25
  9
$DIMCLRD
 70
     0
  9
$DIMCLRE
 70
     0
  9
$DIMCLRT
 70
     0
  9
$DIMTFAC
 40
1.0
  9
$DIMGAP
 40
1.5
  9
$DIMJUST
 70
     0
  9
$DIMSD1
 70
     0
  9
$DIMSD2
 70
     0
  9
$DIMTOLJ
 70
     0
  9
$DIMTZIN
 70
     0
  9
$DIMALTZ
 70
     0
  9
$DIMALTTZ
 70
     0
  9
$DIMFIT
 70
     3
  9
$DIMUPT
 70
     0
  9
$DIMUNIT
 70
     2
  9
$DIMDEC
 70
     2
  9
$DIMTDEC
 70
     3
  9
$DIMALTU
 70
     2
  9
$DIMALTTD
 70
     3
  9
$DIMTXSTY
  7
STANDARD
  9
$DIMAUNIT
 70
     0
  9
$LUNITS
 70
     2
  9
$LUPREC
 70
     2
  9
$SKETCHINC
 40
1.0
  9
$FILLETRAD
 40
10.0
  9
$AUNITS
 70
     0
  9
$AUPREC
 70
     2
  9
$MENU
  1
.
  9
$ELEVATION
 40
0.0
  9
$PELEVATION
 40
0.0
  9
$THICKNESS
 40
0.0
  9
$LIMCHECK
 70
     0
  9
$CHAMFERA
 40
10.0
  9
$CHAMFERB
 40
10.0
  9
$CHAMFERC
 40
20.0
  9
$CHAMFERD
 40
0.0
  9
$SKPOLY
 70
     0
  9
$TDCREATE
 40
2456436.372955556
  9
$TDUPDATE
 40
2456436.372956065
  9
$TDINDWG
 40
0.0000000116
  9
$TDUSRTIMER
 40
0.0000000116
  9
$USRTIMER
 70
     1
  9
$ANGBASE
 50
0.0
  9
$ANGDIR
 70
     0
  9
$PDMODE
 70
     0
  9
$PDSIZE
 40
-1.0
  9
$PLINEWID
 40
0.0
  9
$COORDS
 70
     1
  9
$SPLFRAME
 70
     0
  9
$SPLINETYPE
 70
     6
  9
$SPLINESEGS
 70
     8
  9
$ATTDIA
 70
     0
  9
$ATTREQ
 70
     1
  9
$HANDLING
 70
     1
  9
$HANDSEED
  5
DC
  9
$SURFTAB1
 70
     6
  9
$SURFTAB2
 70
     6
  9
$SURFTYPE
 70
     6
  9
$SURFU
 70
     6
  9
$SURFV
 70
     6
  9
$UCSNAME
  2

  9
$UCSORG
 10
0.0
 20
0.0
 30
0.0
  9
$UCSXDIR
 10
1.0
 20
0.0
 30
0.0
  9
$UCSYDIR
 10
0.0
 20
1.0
 30
0.0
  9
$PUCSNAME
  2

  9
$PUCSORG
 10
0.0
 20
0.0
 30
0.0
  9
$PUCSXDIR
 10
1.0
 20
0.0
 30
0.0
  9
$PUCSYDIR
 10
0.0
 20
1.0
 30
0.0
  9
$USERI1
 70
     0
  9
$USERI2
 70
     0
  9
$USERI3
 70
     0
  9
$USERI4
 70
     0
  9
$USERI5
 70
     0
  9
$USERR1
 40
0.0
  9
$USERR2
 40
0.0
  9
$USERR3
 40
0.0
  9
$USERR4
 40
0.0
  9
$USERR5
 40
0.0
  9
$WORLDVIEW
 70
     1
  9
$SHADEDGE
 70
     3
  9
$SHADEDIF
 70
    70
  9
$TILEMODE
 70
     1
  9
$MAXACTVP
 70
    64
  9
$PINSBASE
 10
0.0
 20
0.0
 30
0.0
  9
$PLIMCHECK
 70
     0
  9
$PEXTMIN
 10
1.0000000000E+20
 20
1.0000000000E+20
 30
1.0000000000E+20
  9
$PEXTMAX
 10
-1.0000000000E+20
 20
-1.0000000000E+20
 30
-1.0000000000E+20
  9
$PLIMMIN
 10
0.0
 20
0.0
  9
$PLIMMAX
 10
420.0
 20
297.0
  9
$UNITMODE
 70
     0
  9
$VISRETAIN
 70
     1
  9
$PLINEGEN
 70
     0
  9
$PSLTSCALE
 70
     1
  9
$TREEDEPTH
 70
  3020
  9
$PICKSTYLE
 70
     1
  9
$CMLSTYLE
  2
STANDARD
  9
$CMLJUST
 70
     0
  9
$CMLSCALE
 40
20.0
  9
$PROXYGRAPHICS
 70
     1
  9
$MEASUREMENT
 70
     1
  0
ENDSEC
  0
SECTION
  2
CLASSES
  0
CLASS
  1
ACDBDICTIONARYWDFLT
  2
AcDbDictionaryWithDefault
  3
ObjectDBX Classes
 90
        0
280
     0
281
     0
  0
CLASS
  1
VISUALSTYLE
  2
AcDbVisualStyle
  3
ObjectDBX Classes
 90
     4095
280
     0
281
     0
  0
CLASS
  1
MATERIAL
  2
AcDbMaterial
  3
ObjectDBX Classes
 90
     1153
280
     0
281
     0
  0
CLASS
  1
XRECORD
  2
AcDbXrecord
  3
AutoCAD 2000
 90
        0
280
     0
281
     0
  0
CLASS
  1
LWPOLYLINE
  2
AcDbPolyline
  3
AutoCAD 2000
 90
        0
280
     0
281
     1
  0
CLASS
  1
HATCH
  2
AcDbHatch
  3
AutoCAD 2000
 90
        0
280
     0
281
     1
  0
ENDSEC
  0
SECTION
  2
TABLES
  0
TABLE
  2
VPORT
  5
8
330
0
100
AcDbSymbolTable
 70
     1
  0
VPORT
  5
29
330
8
100
AcDbSymbolTableRecord
100
AcDbViewportTableRecord
  2
*ACTIVE
 70
     0
 10
0.0
 20
0.0
 11
1.0
 21
1.0
 12
105.0
 22
148.5
 13
0.0
 23
0.0
 14
10.0
 24
10.0
 15
10.0
 25
10.0
 16
0.0
 26
0.0
 36
1.0
 17
0.0
 27
0.0
 37
0.0
 40
297.0
 41
0.7070707071
 42
50.0
 43
0.0
 44
0.0
 50
0.0
 51
0.0
 71
     0
 72
  2000
 73
     1
 74
     3
 75
     0
 76
     0
 77
     0
 78
     0
  0
ENDTAB
  0
TABLE
  2
LTYPE
  5
5
330
0
100
AcDbSymbolTable
 70
     6
  0
LTYPE
  5
14
330
5
100
AcDbSymbolTableRecord
100
AcDbLinetypeTableRecord
  2
BYBLOCK
 70
     0
  3

 72
    65
 73
     0
 40
0.0
  0
LTYPE
  5
15
330
5
100
AcDbSymbolTableRecord
100
AcDbLinetypeTableRecord
  2
BYLAYER
 70
     0
  3

 72
    65
 73
     0
 40
0.0
  0
LTYPE
  5
16
330
5
100
AcDbSymbolTableRecord
100
AcDbLinetypeTableRecord
  2
CONTINUOUS
 70
     0
  3
Solid line
 72
    65
 73
     0
 40
0.0
  0
LTYPE
  5
3F
330
5
100
AcDbSymbolTableRecord
100
AcDbLinetypeTableRecord
  2
HIDDEN
 70
     0
  3
Hidden __ __ __ __ __ __ __ __ __ __ __ __ __ __
 72
    65
 73
     2
 40
1.905
 49
1.27
 74
     0
 49
-0.635
 74
     0
  0
LTYPE
  5
40
330
5
100
AcDbSymbolTableRecord
100
AcDbLinetypeTableRecord
  2
PHANTOM
 70
     0
  3
Phantom ______  __  __  ______  __  __  ______
 72
    65
 73
     6
 40
12.7
 49
6.35
 74
     0
 49
-1.27
 74
     0
 49
1.27
 74
     0
 49
-1.27
 74
     0
 49
1.27
 74
     0
 49
-1.27
 74
     0
  0
LTYPE
  5
41
330
5
100
AcDbSymbolTableRecord
100
AcDbLinetypeTableRecord
  2
CENTER
 70
     0
  3
Center ____ _ ____ _ ____ _ ____ _ ____ _ ____
 72
    65
 73
     4
 40
10.16
 49
6.35
 74
     0
 49
-1.27
 74
     0
 49
1.27
 74
     0
 49
-1.27
 74
     0
  0
LTYPE
  5
42
330
5
100
AcDbSymbolTableRecord
100
AcDbLinetypeTableRecord
  2
CENTERX2
 70
     0
  3
Center (2x) ________  __  ________  __  _____
 72
    65
 73
     4
 40
20.32
 49
12.7
 74
     0
 49
-2.54
 74
     0
 49
2.54
 74
     0
 49
-2.54
 74
     0
  0
LTYPE
  5
43
330
5
100
AcDbSymbolTableRecord
100
AcDbLinetypeTableRecord
  2
DOT2
 70
     0
  3
Dot (.5x) ........................................
 72
    65
 73
     2
 40
0.635
 49
0.0
 74
     0
 49
-0.635
 74
     0
  0
ENDTAB
  0
TABLE
  2
LAYER
  5
2
330
0
100
AcDbSymbolTable
 70
     7
  0
LAYER
  5
10
330
2
100
AcDbSymbolTableRecord
100
AcDbLayerTableRecord
  2
0
 70
     0
 62
     7
  6
CONTINUOUS
  0
LAYER
  5
44
330
2
100
AcDbSymbolTableRecord
100
AcDbLayerTableRecord
  2
AUFNAHME
 70
     0
 62
     7
  6
CONTINUOUS
  0
LAYER
  5
45
330
2
100
AcDbSymbolTableRecord
100
AcDbLayerTableRecord
  2
MASS
 70
     0
 62
     4
  6
CONTINUOUS
  0
LAYER
  5
46
330
2
100
AcDbSymbolTableRecord
100
AcDbLayerTableRecord
  2
EW
 70
     0
 62
     1
  6
HIDDEN
  0
LAYER
  5
47
330
2
100
AcDbSymbolTableRecord
100
AcDbLayerTableRecord
  2
UNSICHT
 70
     0
 62
     4
  6
CENTER
  0
LAYER
  5
48
330
2
100
AcDbSymbolTableRecord
100
AcDbLayerTableRecord
  2
TEXT
 70
     0
 62
     7
  6
CONTINUOUS
  0
LAYER
  5
49
330
2
100
AcDbSymbolTableRecord
100
AcDbLayerTableRecord
  2
ZAPFEN
 70
     0
 62
     4
  6
CONTINUOUS
  0
ENDTAB
  0
TABLE
  2
STYLE
  5
3
330
0
100
AcDbSymbolTable
 70
     2
  0
STYLE
  5
11
330
3
100
AcDbSymbolTableRecord
100
AcDbTextStyleTableRecord
  2
STANDARD
 70
     0
 40
0.0
 41
1.0
 50
0.0
 71
     0
 42
3.5
  3
txt
  4

  0
STYLE
  5
A3
330
3
100
AcDbSymbolTableRecord
100
AcDbTextStyleTableRecord
  2
SLDTEXTSTYLE0
 70
     0
 40
0.0
 41
0.605
 50
0.0
 71
     0
 42
0.2
  3
TXT
  4

  0
ENDTAB
  0
TABLE
  2
VIEW
  5
6
330
0
100
AcDbSymbolTable
 70
     0
  0
ENDTAB
  0
TABLE
  2
UCS
  5
7
330
0
100
AcDbSymbolTable
 70
     0
  0
ENDTAB
  0
TABLE
  2
APPID
  5
9
330
0
100
AcDbSymbolTable
 70
     1
  0
APPID
  5
12
330
9
100
AcDbSymbolTableRecord
100
AcDbRegAppTableRecord
  2
ACAD
 70
     0
  0
ENDTAB
  0
TABLE
  2
DIMSTYLE
  5
A
330
0
100
AcDbSymbolTable
 70
     4
  0
DIMSTYLE
105
27
330
A
100
AcDbSymbolTableRecord
100
AcDbDimStyleTableRecord
  2
ISO-25
 70
     0
  3

  4

  5

  6

  7

 40
1.0
 41
2.5
 42
0.625
 43
3.75
 44
1.25
 45
0.0
 46
0.0
 47
0.0
 48
0.0
140
2.5
141
2.5
142
0.0
143
0.0393700787
144
1.0
145
0.0
146
1.0
147
0.625
 71
     0
 72
     0
 73
     0
 74
     0
 75
     0
 76
     0
 77
     1
 78
     8
170
     0
171
     3
172
     1
173
     0
174
     0
175
     0
176
     0
177
     0
178
     0
270
     2
271
     2
272
     2
273
     2
274
     3
340
11
275
     0
280
     0
281
     0
282
     0
283
     0
284
     8
285
     0
286
     0
287
     3
288
     0
  0
DIMSTYLE
105
A4
102
{ACAD_REACTORS
330
A2
330
AE
330
B8
102
}
330
A
100
AcDbSymbolTableRecord
100
AcDbDimStyleTableRecord
  2
SLDDIMSTYLE0
 70
     0
  3

  4

  5

  6

  7

 40
1.0
 41
3.5
 42
0.0625
 43
0.38
 44
0.0
 45
0.000000001
 46
0.0
 47
0.0
 48
0.0
140
3.5
141
0.09
142
0.0
143
25.4
144
1.0
145
0.0
146
1.0
147
0.875
 71
     0
 72
     0
 73
     0
 74
     0
 75
     0
 76
     0
 77
     1
 78
    12
170
     0
171
     2
172
     0
173
     1
174
     0
175
     0
176
     0
177
     0
178
     0
270
     2
271
     2
272
     3
273
     2
274
     2
340
A3
275
     0
280
     0
281
     0
282
     0
283
     1
284
    12
285
     0
286
     0
287
     3
288
     0
  0
DIMSTYLE
105
C3
102
{ACAD_REACTORS
330
C2
102
}
330
A
100
AcDbSymbolTableRecord
100
AcDbDimStyleTableRecord
  2
SLDDIMSTYLE1
 70
     0
  3

  4

  5

  6

  7

 40
1.0
 41
3.5
 42
0.0625
 43
0.38
 44
0.0
 45
0.000000001
 46
0.0
 47
0.0
 48
0.0
140
3.5
141
0.09
142
0.0
143
25.4
144
1.0
145
0.0
146
1.0
147
0.875
 71
     0
 72
     0
 73
     0
 74
     0
 75
     0
 76
     0
 77
     1
 78
    12
170
     0
171
     2
172
     1
173
     1
174
     0
175
     0
176
     0
177
     0
178
     0
270
     2
271
     2
272
     3
273
     2
274
     2
340
A3
275
     0
280
     0
281
     0
282
     0
283
     1
284
    12
285
     0
286
     0
288
     0
  0
DIMSTYLE
105
D1
102
{ACAD_REACTORS
330
D0
102
}
330
A
100
AcDbSymbolTableRecord
100
AcDbDimStyleTableRecord
  2
SLDDIMSTYLE2
 70
     0
  3

  4

  5

  6

  7

 40
1.0
 41
3.5
 42
0.0625
 43
0.38
 44
0.0
 45
0.000000001
 46
0.0
 47
0.0
 48
0.0
140
3.5
141
0.09
142
0.0
143
25.4
144
1.0
145
0.0
146
1.0
147
0.875
 71
     0
 72
     0
 73
     0
 74
     0
 75
     0
 76
     0
 77
     1
 78
    12
170
     0
171
     2
172
     1
173
     1
174
     0
175
     0
176
     0
177
     0
178
     0
270
     2
271
     2
272
     3
273
     2
274
     2
340
A3
275
     0
280
     0
281
     0
282
     0
283
     1
284
    12
285
     0
286
     0
288
     0
  0
ENDTAB
  0
TABLE
  2
BLOCK_RECORD
  5
1
330
0
100
AcDbSymbolTable
 70
     6
  0
BLOCK_RECORD
  5
1F
330
1
100
AcDbSymbolTableRecord
100
AcDbBlockTableRecord
  2
*MODEL_SPACE
  0
BLOCK_RECORD
  5
1B
330
1
100
AcDbSymbolTableRecord
100
AcDbBlockTableRecord
  2
*PAPER_SPACE
  0
BLOCK_RECORD
  5
23
330
1
100
AcDbSymbolTableRecord
100
AcDbBlockTableRecord
  2
*PAPER_SPACE0
  0
BLOCK_RECORD
  5
A5
330
1
100
AcDbSymbolTableRecord
100
AcDbBlockTableRecord
  2
_D
  0
BLOCK_RECORD
  5
AF
330
1
100
AcDbSymbolTableRecord
100
AcDbBlockTableRecord
  2
_D_1
  0
BLOCK_RECORD
  5
B9
330
1
100
AcDbSymbolTableRecord
100
AcDbBlockTableRecord
  2
_D_2
  0
BLOCK_RECORD
  5
C4
330
1
100
AcDbSymbolTableRecord
100
AcDbBlockTableRecord
  2
_D_3
  0
BLOCK_RECORD
  5
D2
330
1
100
AcDbSymbolTableRecord
100
AcDbBlockTableRecord
  2
_D_4
  0
ENDTAB
  0
ENDSEC
  0
SECTION
  2
BLOCKS
  0
BLOCK
  5
20
330
1F
100
AcDbEntity
  8
0
100
AcDbBlockBegin
  2
*MODEL_SPACE
 70
     0
 10
0.0
 20
0.0
 30
0.0
  3
*MODEL_SPACE
  1

  0
ENDBLK
  5
21
330
1F
100
AcDbEntity
  8
0
100
AcDbBlockEnd
  0
BLOCK
  5
1C
330
1B
100
AcDbEntity
 67
     1
  8
0
100
AcDbBlockBegin
  2
*PAPER_SPACE
 70
     0
 10
0.0
 20
0.0
 30
0.0
  3
*PAPER_SPACE
  1

  0
ENDBLK
  5
1D
330
1B
100
AcDbEntity
 67
     1
  8
0
100
AcDbBlockEnd
  0
BLOCK
  5
24
330
23
100
AcDbEntity
  8
0
100
AcDbBlockBegin
  2
*PAPER_SPACE0
 70
     0
 10
0.0
 20
0.0
 30
0.0
  3
*PAPER_SPACE0
  1

  0
ENDBLK
  5
25
330
23
100
AcDbEntity
  8
0
100
AcDbBlockEnd
  0
BLOCK
  5
A6
330
A5
100
AcDbEntity
  8
0
100
AcDbBlockBegin
  2
_D
 70
     0
 10
0.0
 20
0.0
 30
0.0
  3
_D
  1

  0
SOLID
  5
A8
330
A5
100
AcDbEntity
  8
MASS
100
AcDbTrace
 10
30.0
 20
-12.0870001437
 30
0.0
 11
26.5
 21
-11.6370001437
 31
0.0
 12
26.5
 22
-12.5370001437
 32
0.0
 13
26.5
 23
-12.5370001437
 33
0.0
  0
SOLID
  5
A9
330
A5
100
AcDbEntity
  8
MASS
100
AcDbTrace
 10
0.0
 20
-12.0870001437
 30
0.0
 11
3.5
 21
-12.5370001437
 31
0.0
 12
3.5
 22
-11.6370001437
 32
0.0
 13
3.5
 23
-11.6370001437
 33
0.0
  0
LINE
  5
AA
330
A5
100
AcDbEntity
  8
MASS
100
AcDbLine
 10
30.0
 20
5.4676887926
 30
0.0
 11
30.0
 21
-13.0870001437
 31
0.0
  0
LINE
  5
AB
330
A5
100
AcDbEntity
  8
MASS
100
AcDbLine
 10
0.0
 20
-3.5
 30
0.0
 11
0.0
 21
-13.0870001437
 31
0.0
  0
LINE
  5
AC
330
A5
100
AcDbEntity
  8
MASS
100
AcDbLine
 10
30.0
 20
-12.0870001437
 30
0.0
 11
0.0
 21
-12.0870001437
 31
0.0
  0
MTEXT
  5
AD
330
A5
100
AcDbEntity
  8
MASS
100
AcDbMText
 10
11.4927081019
 20
-7.5752629381
 30
0.1
 40
3.5
 41
0.0
 71
     1
 72
     1
  1
30
  7
SLDTEXTSTYLE0
  0
ENDBLK
  5
A7
330
A5
100
AcDbEntity
  8
0
100
AcDbBlockEnd
  0
BLOCK
  5
B0
330
AF
100
AcDbEntity
  8
0
100
AcDbBlockBegin
  2
_D_1
 70
     0
 10
0.0
 20
0.0
 30
0.0
  3
_D_1
  1

  0
SOLID
  5
B2
330
AF
100
AcDbEntity
  8
MASS
100
AcDbTrace
 10
-21.9996037749
 20
-12.0870001437
 30
0.0
 11
-18.4996037749
 21
-12.5370001437
 31
0.0
 12
-18.4996037749
 22
-11.6370001437
 32
0.0
 13
-18.4996037749
 23
-11.6370001437
 33
0.0
  0
SOLID
  5
B3
330
AF
100
AcDbEntity
  8
MASS
100
AcDbTrace
 10
0.0
 20
-12.0870001437
 30
0.0
 11
-3.5
 21
-11.6370001437
 31
0.0
 12
-3.5
 22
-12.5370001437
 32
0.0
 13
-3.5
 23
-12.5370001437
 33
0.0
  0
LINE
  5
B4
330
AF
100
AcDbEntity
  8
MASS
100
AcDbLine
 10
-21.9996037749
 20
-3.3
 30
0.0
 11
-21.9996037749
 21
-13.0870001437
 31
0.0
  0
LINE
  5
B5
330
AF
100
AcDbEntity
  8
MASS
100
AcDbLine
 10
0.0
 20
-3.5
 30
0.0
 11
0.0
 21
-13.0870001437
 31
0.0
  0
LINE
  5
B6
330
AF
100
AcDbEntity
  8
MASS
100
AcDbLine
 10
-21.9996037749
 20
-12.0870001437
 30
0.0
 11
0.0
 21
-12.0870001437
 31
0.0
  0
MTEXT
  5
B7
330
AF
100
AcDbEntity
  8
MASS
100
AcDbMText
 10
-14.5070937856
 20
-7.5752629381
 30
0.1
 40
3.5
 41
0.0
 71
     1
 72
     1
  1
22
  7
SLDTEXTSTYLE0
  0
ENDBLK
  5
B1
330
AF
100
AcDbEntity
  8
0
100
AcDbBlockEnd
  0
BLOCK
  5
BA
330
B9
100
AcDbEntity
  8
0
100
AcDbBlockBegin
  2
_D_2
 70
     0
 10
0.0
 20
0.0
 30
0.0
  3
_D_2
  1

  0
SOLID
  5
BC
330
B9
100
AcDbEntity
  8
MASS
100
AcDbTrace
 10
30.0
 20
14.0836715263
 30
0.0
 11
26.5
 21
14.5336715263
 31
0.0
 12
26.5
 22
13.6336715263
 32
0.0
 13
26.5
 23
13.6336715263
 33
0.0
  0
SOLID
  5
BD
330
B9
100
AcDbEntity
  8
MASS
100
AcDbTrace
 10
-21.9996037749
 20
14.0836715263
 30
0.0
 11
-18.4996037749
 21
13.6336715263
 31
0.0
 12
-18.4996037749
 22
14.5336715263
 32
0.0
 13
-18.4996037749
 23
14.5336715263
 33
0.0
  0
LINE
  5
BE
330
B9
100
AcDbEntity
  8
MASS
100
AcDbLine
 10
30.0
 20
5.4676887926
 30
0.0
 11
30.0
 21
15.0836715263
 31
0.0
  0
LINE
  5
BF
330
B9
100
AcDbEntity
  8
MASS
100
AcDbLine
 10
-21.9996037749
 20
3.3
 30
0.0
 11
-21.9996037749
 21
15.0836715263
 31
0.0
  0
LINE
  5
C0
330
B9
100
AcDbEntity
  8
MASS
100
AcDbLine
 10
30.0
 20
14.0836715263
 30
0.0
 11
-21.9996037749
 21
14.0836715263
 31
0.0
  0
MTEXT
  5
C1
330
B9
100
AcDbEntity
  8
MASS
100
AcDbMText
 10
0.4929062144
 20
18.5954087319
 30
0.1
 40
3.5
 41
0.0
 71
     1
 72
     1
  1
52
  7
SLDTEXTSTYLE0
  0
ENDBLK
  5
BB
330
B9
100
AcDbEntity
  8
0
100
AcDbBlockEnd
  0
BLOCK
  5
C5
330
C4
100
AcDbEntity
  8
0
100
AcDbBlockBegin
  2
_D_3
 70
     0
 10
0.0
 20
0.0
 30
0.0
  3
_D_3
  1

  0
SOLID
  5
C7
330
C4
100
AcDbEntity
  8
MASS
100
AcDbTrace
 10
-28.6198540634
 20
3.5
 30
0.0
 11
-28.1698540634
 21
7.0
 31
0.0
 12
-29.0698540634
 22
7.0
 32
0.0
 13
-29.0698540634
 23
7.0
 33
0.0
  0
SOLID
  5
C8
330
C4
100
AcDbEntity
  8
MASS
100
AcDbTrace
 10
-28.6198540634
 20
-3.5
 30
0.0
 11
-29.0698540634
 21
-7.0
 31
0.0
 12
-28.1698540634
 22
-7.0
 32
0.0
 13
-28.1698540634
 23
-7.0
 33
0.0
  0
LINE
  5
C9
330
C4
100
AcDbEntity
  8
MASS
100
AcDbLine
 10
-21.7996037749
 20
3.5
 30
0.0
 11
-29.6198540634
 21
3.5
 31
0.0
  0
LINE
  5
CA
330
C4
100
AcDbEntity
  8
MASS
100
AcDbLine
 10
-21.7996037749
 20
-3.5
 30
0.0
 11
-29.6198540634
 21
-3.5
 31
0.0
  0
LINE
  5
CB
330
C4
100
AcDbEntity
  8
MASS
100
AcDbLine
 10
-28.6198540634
 20
3.5
 30
0.0
 11
-28.6198540634
 21
8.5
 31
0.0
  0
LINE
  5
CC
330
C4
100
AcDbEntity
  8
MASS
100
AcDbLine
 10
-28.6198540634
 20
3.5
 30
0.0
 11
-28.6198540634
 21
-3.5
 31
0.0
  0
LINE
  5
CD
330
C4
100
AcDbEntity
  8
MASS
100
AcDbLine
 10
-28.6198540634
 20
-3.5
 30
0.0
 11
-28.6198540634
 21
-8.5
 31
0.0
  0
MTEXT
  5
CE
330
C4
100
AcDbEntity
  8
MASS
100
AcDbMText
 10
-33.131591269
 20
-4.9972226843
 30
0.1
 40
3.5
 41
0.0
 71
     1
 72
     1
  1
%%c
  7
SLDTEXTSTYLE0
 11
-7.044195017643634E-15
 21
1.0
 31
0.0
  0
MTEXT
  5
CF
330
C4
100
AcDbEntity
  8
MASS
100
AcDbMText
 10
-33.131591269
 20
0.1749997027
 30
0.1
 40
3.5
 41
0.0
 71
     1
 72
     1
  1
7
  7
SLDTEXTSTYLE0
 11
-7.044195017643634E-15
 21
1.0
 31
0.0
  0
ENDBLK
  5
C6
330
C4
100
AcDbEntity
  8
0
100
AcDbBlockEnd
  0
BLOCK
  5
D3
330
D2
100
AcDbEntity
  8
0
100
AcDbBlockBegin
  2
_D_4
 70
     0
 10
0.0
 20
0.0
 30
0.0
  3
_D_4
  1

  0
SOLID
  5
D5
330
D2
100
AcDbEntity
  8
MASS
100
AcDbTrace
 10
39.0156006529
 20
5.7225905388
 30
0.0
 11
39.4656006529
 21
9.2225905388
 31
0.0
 12
38.5656006529
 22
9.2225905388
 32
0.0
 13
38.5656006529
 23
9.2225905388
 33
0.0
  0
LINE
  5
D6
330
D2
100
AcDbEntity
  8
MASS
100
AcDbLine
 10
29.6093397359
 20
5.7225905388
 30
0.0
 11
40.0156006529
 21
5.7225905388
 31
0.0
  0
LINE
  5
D7
330
D2
100
AcDbEntity
  8
MASS
100
AcDbLine
 10
39.0156006529
 20
0.0
 30
0.0
 11
39.0156006529
 21
5.7225905388
 31
0.0
  0
LINE
  5
D8
330
D2
100
AcDbEntity
  8
MASS
100
AcDbLine
 10
39.0156006529
 20
5.7225905388
 30
0.0
 11
39.0156006529
 21
33.1610352464
 31
0.0
  0
MTEXT
  5
D9
330
D2
100
AcDbEntity
  8
MASS
100
AcDbMText
 10
34.5038634473
 20
9.1277011402
 30
0.1
 40
3.5
 41
0.0
 71
     1
 72
     1
  1
%%c
  7
SLDTEXTSTYLE0
 11
-7.044195017643634E-15
 21
1.0
 31
0.0
  0
MTEXT
  5
DA
330
D2
100
AcDbEntity
  8
MASS
100
AcDbMText
 10
34.5038634473
 20
14.2999235272
 30
0.1
 40
3.5
 41
0.0
 71
     1
 72
     1
  1
11.8 - 15.5
  7
SLDTEXTSTYLE0
 11
-7.044195017643634E-15
 21
1.0
 31
0.0
  0
ENDBLK
  5
D4
330
D2
100
AcDbEntity
  8
0
100
AcDbBlockEnd
  0
ENDSEC
  0
SECTION
  2
ENTITIES
  0
LINE
  5
4A
330
1F
100
AcDbEntity
  8
AUFNAHME
  6
CONTINUOUS
100
AcDbLine
 10
20.5338801901
 20
1.996096456
 30
0.0
 11
20.3939662321
 21
2.110973055
 31
0.0
  0
LINE
  5
4B
330
1F
100
AcDbEntity
  8
AUFNAHME
  6
CONTINUOUS
100
AcDbLine
 10
20.3939662321
 20
2.110973055
 30
0.0
 11
20.2529374801
 21
2.205312557
 31
0.0
  0
LINE
  5
4C
330
1F
100
AcDbEntity
  8
AUFNAHME
  6
CONTINUOUS
100
AcDbLine
 10
20.2529374801
 20
2.205312557
 30
0.0
 11
20.1152445371
 21
2.276137785
 31
0.0
  0
LINE
  5
4D
330
1F
100
AcDbEntity
  8
AUFNAHME
  6
CONTINUOUS
100
AcDbLine
 10
20.1152445371
 20
2.276137785
 30
0.0
 11
19.9852327321
 21
2.321213629
 31
0.0
  0
LINE
  5
4E
330
1F
100
AcDbEntity
  8
AUFNAHME
  6
CONTINUOUS
100
AcDbLine
 10
19.9852327321
 20
2.321213629
 30
0.0
 11
19.8670049941
 21
2.339117579
 31
0.0
  0
LINE
  5
4F
330
1F
100
AcDbEntity
  8
AUFNAHME
  6
CONTINUOUS
100
AcDbLine
 10
19.8670049941
 20
2.339117579
 30
0.0
 11
19.7642923681
 21
2.329284622
 31
0.0
  0
LINE
  5
50
330
1F
100
AcDbEntity
  8
AUFNAHME
  6
CONTINUOUS
100
AcDbLine
 10
19.7642923681
 20
2.329284622
 30
0.0
 11
19.6803362691
 21
2.292025065
 31
0.0
  0
LINE
  5
51
330
1F
100
AcDbEntity
  8
AUFNAHME
  6
CONTINUOUS
100
AcDbLine
 10
19.6803362691
 20
2.292025065
 30
0.0
 11
19.6177861961
 21
2.228514751
 31
0.0
  0
LINE
  5
52
330
1F
100
AcDbEntity
  8
AUFNAHME
  6
CONTINUOUS
100
AcDbLine
 10
19.6177861961
 20
2.228514751
 30
0.0
 11
19.5786161111
 21
2.140757946
 31
0.0
  0
LINE
  5
53
330
1F
100
AcDbEntity
  8
AUFNAHME
  6
CONTINUOUS
100
AcDbLine
 10
19.5786161111
 20
2.140757946
 30
0.0
 11
19.5640621471
 21
2.031524089
 31
0.0
  0
LINE
  5
54
330
1F
100
AcDbEntity
  8
AUFNAHME
  6
CONTINUOUS
100
AcDbLine
 10
19.5640621471
 20
2.031524089
 30
0.0
 11
19.5745836001
 21
1.904260396
 31
0.0
  0
LINE
  5
55
330
1F
100
AcDbEntity
  8
AUFNAHME
  6
CONTINUOUS
100
AcDbLine
 10
19.5745836001
 20
1.904260396
 30
0.0
 11
19.6098484341
 21
1.762983068
 31
0.0
  0
LINE
  5
56
330
1F
100
AcDbEntity
  8
AUFNAHME
  6
CONTINUOUS
100
AcDbLine
 10
19.6098484341
 20
1.762983068
 30
0.0
 11
19.6687437561
 21
1.612150553
 31
0.0
  0
LINE
  5
57
330
1F
100
AcDbEntity
  8
AUFNAHME
  6
CONTINUOUS
100
AcDbLine
 10
19.6687437561
 20
1.612150553
 30
0.0
 11
19.7494109411
 21
1.45652284
 31
0.0
  0
LINE
  5
58
330
1F
100
AcDbEntity
  8
AUFNAHME
  6
CONTINUOUS
100
AcDbLine
 10
19.7494109411
 20
1.45652284
 30
0.0
 11
19.8493042841
 21
1.301011248
 31
0.0
  0
LINE
  5
59
330
1F
100
AcDbEntity
  8
AUFNAHME
  6
CONTINUOUS
100
AcDbLine
 10
19.8493042841
 20
1.301011248
 30
0.0
 11
19.9652713401
 21
1.150523429
 31
0.0
  0
LINE
  5
5A
330
1F
100
AcDbEntity
  8
AUFNAHME
  6
CONTINUOUS
100
AcDbLine
 10
19.9652713401
 20
1.150523429
 30
0.0
 11
20.0936524061
 21
1.009808496
 31
0.0
  0
LINE
  5
5B
330
1F
100
AcDbEntity
  8
AUFNAHME
  6
CONTINUOUS
100
AcDbLine
 10
20.0936524061
 20
1.009808496
 30
0.0
 11
20.2303960181
 21
0.883307147
 31
0.0
  0
LINE
  5
5C
330
1F
100
AcDbEntity
  8
AUFNAHME
  6
CONTINUOUS
100
AcDbLine
 10
20.2303960181
 20
0.883307147
 30
0.0
 11
20.3711868051
 21
0.775011526
 31
0.0
  0
LINE
  5
5D
330
1F
100
AcDbEntity
  8
AUFNAHME
  6
CONTINUOUS
100
AcDbLine
 10
20.3711868051
 20
0.775011526
 30
0.0
 11
20.5115816741
 21
0.68833924
 31
0.0
  0
LINE
  5
5E
330
1F
100
AcDbEntity
  8
AUFNAHME
  6
CONTINUOUS
100
AcDbLine
 10
20.5115816741
 20
0.68833924
 30
0.0
 11
20.6471500281
 21
0.626025503
 31
0.0
  0
LINE
  5
5F
330
1F
100
AcDbEntity
  8
AUFNAHME
  6
CONTINUOUS
100
AcDbLine
 10
20.6471500281
 20
0.626025503
 30
0.0
 11
20.7736135841
 21
0.590036819
 31
0.0
  0
LINE
  5
60
330
1F
100
AcDbEntity
  8
AUFNAHME
  6
CONTINUOUS
100
AcDbLine
 10
20.7736135841
 20
0.590036819
 30
0.0
 11
20.8869813911
 21
0.581508923
 31
0.0
  0
LINE
  5
61
330
1F
100
AcDbEntity
  8
AUFNAHME
  6
CONTINUOUS
100
AcDbLine
 10
20.8869813911
 20
0.581508923
 30
0.0
 11
20.9836757751
 21
0.600710939
 31
0.0
  0
LINE
  5
62
330
1F
100
AcDbEntity
  8
AUFNAHME
  6
CONTINUOUS
100
AcDbLine
 10
20.9836757751
 20
0.600710939
 30
0.0
 11
21.0606452421
 21
0.647036888
 31
0.0
  0
LINE
  5
63
330
1F
100
AcDbEntity
  8
AUFNAHME
  6
CONTINUOUS
100
AcDbLine
 10
21.0606452421
 20
0.647036888
 30
0.0
 11
21.1154607811
 21
0.719024811
 31
0.0
  0
LINE
  5
64
330
1F
100
AcDbEntity
  8
AUFNAHME
  6
CONTINUOUS
100
AcDbLine
 10
21.1154607811
 20
0.719024811
 30
0.0
 11
21.1463925171
 21
0.814402903
 31
0.0
  0
LINE
  5
65
330
1F
100
AcDbEntity
  8
AUFNAHME
  6
CONTINUOUS
100
AcDbLine
 10
21.1463925171
 20
0.814402903
 30
0.0
 11
21.1524643021
 21
0.930161212
 31
0.0
  0
LINE
  5
66
330
1F
100
AcDbEntity
  8
AUFNAHME
  6
CONTINUOUS
100
AcDbLine
 10
21.1524643021
 20
0.930161212
 30
0.0
 11
21.1334845231
 21
1.062646624
 31
0.0
  0
LINE
  5
67
330
1F
100
AcDbEntity
  8
AUFNAHME
  6
CONTINUOUS
100
AcDbLine
 10
21.1334845231
 20
1.062646624
 30
0.0
 11
21.0900521451
 21
1.207678148
 31
0.0
  0
LINE
  5
68
330
1F
100
AcDbEntity
  8
AUFNAHME
  6
CONTINUOUS
100
AcDbLine
 10
21.0900521451
 20
1.207678148
 30
0.0
 11
21.0235378121
 21
1.360678862
 31
0.0
  0
LINE
  5
69
330
1F
100
AcDbEntity
  8
AUFNAHME
  6
CONTINUOUS
100
AcDbLine
 10
21.0235378121
 20
1.360678862
 30
0.0
 11
20.9360405921
 21
1.516820352
 31
0.0
  0
LINE
  5
6A
330
1F
100
AcDbEntity
  8
EW
  6
HIDDEN
100
AcDbLine
 10
15.5908716921
 20
-1.0
 30
0.0
 11
20.9836757751
 21
0.600710939
 31
0.0
  0
LINE
  5
6B
330
1F
100
AcDbEntity
  8
ZAPFEN
100
AcDbLine
 10
-21.7996037749
 20
3.5
 30
0.0
 11
-21.9996037749
 21
3.3
 31
0.0
  0
LINE
  5
6C
330
1F
100
AcDbEntity
  8
ZAPFEN
100
AcDbLine
 10
-21.9996037749
 20
-3.3
 30
0.0
 11
-21.7996037749
 21
-3.5
 31
0.0
  0
LINE
  5
6D
330
1F
100
AcDbEntity
  8
AUFNAHME
  6
CONTINUOUS
100
AcDbLine
 10
16.0003516151
 20
3.5
 30
0.0
 11
0.0
 21
3.5
 31
0.0
  0
LINE
  5
6E
330
1F
100
AcDbEntity
  8
ZAPFEN
100
AcDbLine
 10
0.0
 20
3.5
 30
0.0
 11
-21.7996037749
 21
3.5
 31
0.0
  0
LINE
  5
6F
330
1F
100
AcDbEntity
  8
ZAPFEN
100
AcDbLine
 10
-21.7996037749
 20
0.0
 30
0.0
 11
-21.7996037749
 21
-3.5
 31
0.0
  0
LINE
  5
70
330
1F
100
AcDbEntity
  8
ZAPFEN
100
AcDbLine
 10
-21.7996037749
 20
3.5
 30
0.0
 11
-21.7996037749
 21
0.0
 31
0.0
  0
LINE
  5
71
330
1F
100
AcDbEntity
  8
ZAPFEN
100
AcDbLine
 10
-21.9996037749
 20
0.0
 30
0.0
 11
-21.9996037749
 21
3.3
 31
0.0
  0
LINE
  5
72
330
1F
100
AcDbEntity
  8
ZAPFEN
100
AcDbLine
 10
-21.9996037749
 20
-3.3
 30
0.0
 11
-21.9996037749
 21
0.0
 31
0.0
  0
LINE
  5
73
330
1F
100
AcDbEntity
  8
ZAPFEN
100
AcDbLine
 10
-21.7996037749
 20
-3.5
 30
0.0
 11
0.0
 21
-3.5
 31
0.0
  0
LINE
  5
74
330
1F
100
AcDbEntity
  8
AUFNAHME
  6
CONTINUOUS
100
AcDbLine
 10
0.0
 20
-3.5
 30
0.0
 11
16.0003516151
 21
-3.5
 31
0.0
  0
LINE
  5
75
330
1F
100
AcDbEntity
  8
UNSICHT
  6
CENTER
100
AcDbLine
 10
-22.8640656769
 20
0.0
 30
0.0
 11
30.3344147631
 21
0.0
 31
0.0
  0
LINE
  5
76
330
1F
100
AcDbEntity
  8
EW
  6
HIDDEN
100
AcDbLine
 10
-21.9996037749
 20
1.0
 30
0.0
 11
9.7003962251
 21
1.0
 31
0.0
  0
LINE
  5
77
330
1F
100
AcDbEntity
  8
EW
  6
HIDDEN
100
AcDbLine
 10
9.7003962251
 20
1.0
 30
0.0
 11
15.2859250621
 21
1.0
 31
0.0
  0
LINE
  5
78
330
1F
100
AcDbEntity
  8
EW
  6
HIDDEN
100
AcDbLine
 10
-21.9996037749
 20
-1.0
 30
0.0
 11
9.7003962251
 21
-1.0
 31
0.0
  0
LINE
  5
79
330
1F
100
AcDbEntity
  8
EW
  6
HIDDEN
100
AcDbLine
 10
9.7003962251
 20
-1.0
 30
0.0
 11
15.5908716921
 21
-1.0
 31
0.0
  0
LINE
  5
7A
330
1F
100
AcDbEntity
  8
EW
  6
HIDDEN
100
AcDbLine
 10
15.2859250621
 20
1.0
 30
0.0
 11
19.7642923681
 21
2.329284622
 31
0.0
  0
LINE
  5
7B
330
1F
100
AcDbEntity
  8
ZAPFEN
100
AcDbLine
 10
0.0
 20
3.5
 30
0.0
 11
0.0
 21
-3.5
 31
0.0
  0
LINE
  5
7C
330
1F
100
AcDbEntity
  8
EW
  6
HIDDEN
100
AcDbLine
 10
15.2859250621
 20
1.0
 30
0.0
 11
15.5908716921
 21
-1.0
 31
0.0
  0
LINE
  5
7D
330
1F
100
AcDbEntity
  8
AUFNAHME
  6
CONTINUOUS
100
AcDbLine
 10
18.0003516151
 20
5.5
 30
0.0
 11
16.0003516151
 21
3.5
 31
0.0
  0
LINE
  5
7E
330
1F
100
AcDbEntity
  8
AUFNAHME
  6
CONTINUOUS
100
AcDbLine
 10
16.0003516151
 20
-3.5
 30
0.0
 11
18.0003516151
 21
-5.5
 31
0.0
  0
LINE
  5
7F
330
1F
100
AcDbEntity
  8
AUFNAHME
  6
CONTINUOUS
100
AcDbLine
 10
18.0003516151
 20
-5.5
 30
0.0
 11
29.1286392201
 21
-5.5
 31
0.0
  0
LINE
  5
80
330
1F
100
AcDbEntity
  8
AUFNAHME
  6
CONTINUOUS
100
AcDbLine
 10
28.5554208761
 20
5.5
 30
0.0
 11
18.0003516151
 21
5.5
 31
0.0
  0
LINE
  5
81
330
1F
100
AcDbEntity
  8
AUFNAHME
  6
CONTINUOUS
100
AcDbLine
 10
30.0
 20
5.4676887926
 30
0.0
 11
29.6587063581
 21
-0.828513884
 31
0.0
  0
LINE
  5
82
330
1F
100
AcDbEntity
  8
AUFNAHME
  6
CONTINUOUS
100
AcDbLine
 10
29.2427548824
 20
-1.0402105865
 30
0.0
 11
23.9821900161
 21
2.4041234019
 31
0.0
  0
LINE
  5
83
330
1F
100
AcDbEntity
  8
AUFNAHME
  6
CONTINUOUS
100
AcDbLine
 10
24.0080718612
 20
2.8718495061
 30
0.0
 11
29.6093397359
 21
5.7225905388
 31
0.0
  0
LINE
  5
84
330
1F
100
AcDbEntity
  8
AUFNAHME
  6
CONTINUOUS
100
AcDbLine
 10
18.0003516151
 20
1.409812377
 30
0.0
 11
18.0003516151
 21
-5.5
 31
0.0
  0
LINE
  5
85
330
1F
100
AcDbEntity
  8
AUFNAHME
  6
CONTINUOUS
100
AcDbLine
 10
18.0003516151
 20
5.5
 30
0.0
 11
18.0003516151
 21
5.392232407
 31
0.0
  0
LINE
  5
86
330
1F
100
AcDbEntity
  8
AUFNAHME
  6
CONTINUOUS
100
AcDbLine
 10
18.0003516151
 20
5.392232407
 30
0.0
 11
17.8521367281
 21
5.172119452
 31
0.0
  0
LINE
  5
87
330
1F
100
AcDbEntity
  8
AUFNAHME
  6
CONTINUOUS
100
AcDbLine
 10
17.8521367281
 20
5.172119452
 30
0.0
 11
17.7453304111
 21
4.961834597
 31
0.0
  0
LINE
  5
88
330
1F
100
AcDbEntity
  8
AUFNAHME
  6
CONTINUOUS
100
AcDbLine
 10
16.0003516151
 20
0.0
 30
0.0
 11
16.0003516151
 21
-3.5
 31
0.0
  0
LINE
  5
89
330
1F
100
AcDbEntity
  8
AUFNAHME
  6
CONTINUOUS
100
AcDbLine
 10
16.0003516151
 20
3.5
 30
0.0
 11
16.0003516151
 21
0.0
 31
0.0
  0
LINE
  5
8A
330
1F
100
AcDbEntity
  8
AUFNAHME
  6
CONTINUOUS
100
AcDbLine
 10
23.0362175318
 20
0.9678988611
 30
0.0
 11
23.1263925257
 21
0.7902444429
 31
0.0
  0
LINE
  5
8B
330
1F
100
AcDbEntity
  8
AUFNAHME
  6
CONTINUOUS
100
AcDbLine
 10
25.8925567972
 20
1.0949881693
 30
0.0
 11
24.8049400298
 21
0.5429299528
 31
0.0
  0
LINE
  5
8C
330
1F
100
AcDbEntity
  8
AUFNAHME
  6
CONTINUOUS
100
AcDbLine
 10
29.1747456791
 20
-4.617323045
 30
0.0
 11
29.3592981451
 21
-1.082363917
 31
0.0
  0
LINE
  5
8D
330
1F
100
AcDbEntity
  8
AUFNAHME
  6
CONTINUOUS
100
AcDbLine
 10
23.8888906241
 20
2.508771207
 30
0.0
 11
23.4647543205
 21
2.291837467
 31
0.0
  0
LINE
  5
8E
330
1F
100
AcDbEntity
  8
AUFNAHME
  6
CONTINUOUS
100
AcDbLine
 10
23.4051731321
 20
2.2585857652
 30
0.0
 11
20.6883559244
 21
5.4963624333
 31
0.0
  0
LINE
  5
8F
330
1F
100
AcDbEntity
  8
AUFNAHME
  6
CONTINUOUS
100
AcDbLine
 10
29.1747456791
 20
-4.617323045
 30
0.0
 11
24.8328802941
 21
0.557110627
 31
0.0
  0
ARC
  5
90
330
1F
100
AcDbEntity
  8
AUFNAHME
  6
CONTINUOUS
100
AcDbCircle
 10
19.037493028
 20
0.3321141661
 30
0.0
 40
2.237858708670986
100
AcDbArc
 50
31.964434872
 51
48.0355651142
  0
CIRCLE
  5
91
330
1F
100
AcDbEntity
  8
AUFNAHME
  6
CONTINUOUS
100
AcDbCircle
 10
27.7541395391
 20
2.42915347
 30
0.0
 40
1.528813775
  0
ARC
  5
92
330
1F
100
AcDbEntity
  8
AUFNAHME
  6
CONTINUOUS
100
AcDbCircle
 10
29.7310229584
 20
5.4822690339
 30
0.0
 40
0.2693719220000089
100
AcDbArc
 50
356.8972462737
 51
116.854696094
  0
ARC
  5
93
330
1F
100
AcDbEntity
  8
AUFNAHME
  6
CONTINUOUS
100
AcDbCircle
 10
29.3898694082
 20
-0.81477931
 30
0.0
 40
0.2691875631248027
100
AcDbArc
 50
236.871876615
 51
357.0753665256
  0
ARC
  5
94
330
1F
100
AcDbEntity
  8
AUFNAHME
  6
CONTINUOUS
100
AcDbCircle
 10
24.1308844524
 20
2.6305416449
 30
0.0
 40
0.2707626570000141
100
AcDbArc
 50
116.97362157
 51
236.705861985
  0
ARC
  5
95
330
1F
100
AcDbEntity
  8
AUFNAHME
  6
CONTINUOUS
100
AcDbCircle
 10
22.8341354901
 20
3.5420248879
 30
0.0
 40
5.283161623759343
100
AcDbArc
 50
164.4105520054
 51
203.8025778996
  0
ARC
  5
96
330
1F
100
AcDbEntity
  8
AUFNAHME
  6
CONTINUOUS
100
AcDbCircle
 10
24.1653270299
 20
5.4996536069
 30
0.0
 40
7.398224324200632
100
AcDbArc
 50
213.5602731509
 51
215.085107737
  0
ARC
  5
97
330
1F
100
AcDbEntity
  8
AUFNAHME
  6
CONTINUOUS
100
AcDbCircle
 10
33.373340617
 20
11.9674920158
 30
0.0
 40
18.65503606599999
100
AcDbArc
 50
215.08488891
 51
229.605133486
  0
ARC
  5
98
330
1F
100
AcDbEntity
  8
AUFNAHME
  6
CONTINUOUS
100
AcDbCircle
 10
33.373340617
 20
11.9674920158
 30
0.0
 40
18.655036066
100
AcDbArc
 50
229.605133486
 51
244.125378061
  0
ARC
  5
99
330
1F
100
AcDbEntity
  8
AUFNAHME
  6
CONTINUOUS
100
AcDbCircle
 10
28.4627050761
 20
1.842962076
 30
0.0
 40
7.4024608978004
100
AcDbArc
 50
244.1251592285
 51
252.983619981
  0
ARC
  5
9A
330
1F
100
AcDbEntity
  8
AUFNAHME
  6
CONTINUOUS
100
AcDbCircle
 10
28.6704616651
 20
4.93376598
 30
0.0
 40
10.43767949300003
100
AcDbArc
 50
256.861202286
 51
272.517830731
  0
ARC
  5
9B
330
1F
100
AcDbEntity
  8
AUFNAHME
  6
CONTINUOUS
100
AcDbCircle
 10
27.1390815791
 20
3.834308495
 30
0.0
 40
2.205019534000018
100
AcDbArc
 50
41.750570442
 51
48.813855483
  0
ARC
  5
9C
330
1F
100
AcDbEntity
  8
AUFNAHME
  6
CONTINUOUS
100
AcDbCircle
 10
28.5598611261
 20
5.458044396
 30
0.0
 40
0.0432599540000111
100
AcDbArc
 50
48.813514825
 51
117.229891904
  0
ARC
  5
9D
330
1F
100
AcDbEntity
  8
AUFNAHME
  6
CONTINUOUS
100
AcDbCircle
 10
-3.7556351448
 20
56.7974951513
 30
0.0
 40
63.08997530500002
100
AcDbArc
 50
296.388980134
 51
296.891892057
  0
LINE
  5
9E
330
1F
100
AcDbEntity
  8
AUFNAHME
  6
CONTINUOUS
100
AcDbLine
 10
24.7802735766
 20
0.5304135367
 30
0.0
 11
24.8049400298
 21
0.5429299528
 31
0.0
  0
LINE
  5
9F
330
1F
100
AcDbEntity
  8
AUFNAHME
  6
CONTINUOUS
100
AcDbLine
 10
29.1747209228
 20
-4.617704988
 30
0.0
 11
29.128991994
 21
-5.493836963
 31
0.0
  0
ARC
  5
A0
330
1F
100
AcDbEntity
  8
AUFNAHME
  6
CONTINUOUS
100
AcDbCircle
 10
24.0148917643
 20
1.2400710281
 30
0.0
 40
0.9958789352356893
100
AcDbArc
 50
206.852037292
 51
285.7681971442
  0
ARC
  5
A1
330
1F
100
AcDbEntity
  8
AUFNAHME
  6
CONTINUOUS
100
AcDbCircle
 10
23.9152010481
 20
1.414710994
 30
0.0
 40
0.9860289570000066
100
AcDbArc
 50
117.182684059
 51
206.945515962
  0
DIMENSION
  5
A2
330
1F
100
AcDbEntity
  8
MASS
100
AcDbDimension
  2
_D
 10
0.0
 20
-12.0870001437
 30
0.0
 11
15.0
 21
-12.0870001437
 31
0.0
 70
   160
  1
<>
  3
SLDDIMSTYLE0
100
AcDbAlignedDimension
 13
30.0
 23
5.4676887926
 33
0.0
 14
0.0
 24
-3.5
 34
0.0
 50
0.0
100
AcDbRotatedDimension
  0
DIMENSION
  5
AE
330
1F
100
AcDbEntity
  8
MASS
100
AcDbDimension
  2
_D_1
 10
0.0
 20
-12.0870001437
 30
0.0
 11
-10.9998018875
 21
-12.0870001437
 31
0.0
 70
   160
  1
<>
  3
SLDDIMSTYLE0
100
AcDbAlignedDimension
 13
-21.9996037749
 23
-3.3
 33
0.0
 14
0.0
 24
-3.5
 34
0.0
100
AcDbRotatedDimension
  0
DIMENSION
  5
B8
330
1F
100
AcDbEntity
  8
MASS
100
AcDbDimension
  2
_D_2
 10
-21.9996037749
 20
14.0836715263
 30
0.0
 11
4.0001981125
 21
14.0836715263
 31
0.0
 70
   160
  1
<>
  3
SLDDIMSTYLE0
100
AcDbAlignedDimension
 13
30.0
 23
5.4676887926
 33
0.0
 14
-21.9996037749
 24
3.3
 34
0.0
 50
0.0
100
AcDbRotatedDimension
  0
DIMENSION
  5
C2
330
1F
100
AcDbEntity
  8
MASS
100
AcDbDimension
  2
_D_3
 10
-28.6198540634
 20
-3.5
 30
0.0
 11
-28.6198540634
 21
0.0
 31
0.0
 70
   160
  1
%%c<>
  3
SLDDIMSTYLE1
100
AcDbAlignedDimension
 13
-21.7996037749
 23
3.5
 33
0.0
 14
-21.7996037749
 24
-3.5
 34
0.0
 50
90.0
100
AcDbRotatedDimension
  0
DIMENSION
  5
D0
330
1F
100
AcDbEntity
  8
MASS
100
AcDbDimension
  2
_D_4
 10
39.0156006529
 20
0.0
 30
0.0
 11
39.0156006529
 21
21.1443681933
 31
0.0
 70
   160
  1
%%c11.8 - 15.5
  3
SLDDIMSTYLE2
100
AcDbAlignedDimension
 13
29.6093397359
 23
5.7225905388
 33
0.0
 14
30.3344147631
 24
0.0
 34
0.0
 50
90.0
100
AcDbRotatedDimension
  0
MTEXT
  5
DB
330
1F
100
AcDbEntity
  8
MASS
100
AcDbMText
 10
0.6900694191
 20
10.9210585694
 30
0.0
 40
3.5
 41
0.0
 71
     1
 72
     1
  1
615.511
  7
SLDTEXTSTYLE0
  0
ENDSEC
  0
SECTION
  2
OBJECTS
  0
DICTIONARY
  5
C
330
0
100
AcDbDictionary
  3
ACAD_GROUP
350
D
  3
ACAD_MLINESTYLE
350
17
  0
DICTIONARY
  5
D
102
{ACAD_REACTORS
330
C
102
}
330
C
100
AcDbDictionary
  0
DICTIONARY
  5
17
102
{ACAD_REACTORS
330
C
102
}
330
C
100
AcDbDictionary
  3
STANDARD
350
18
  0
MLINESTYLE
  5
18
102
{ACAD_REACTORS
330
17
102
}
330
17
100
AcDbMlineStyle
  2
Standard
 70
     0
  3

 62
   256
 51
90.0
 52
90.0
 71
     2
 49
0.5
 62
   256
  6
BYLAYER
 49
-0.5
 62
   256
  6
BYLAYER
  0
ENDSEC
  0
EOF
