  0
SECTION
  2
HEADER
  9
$ACADVER
  1
AC1014
  9
$ACADMAINTVER
 70
     9
  9
$DWGCODEPAGE
  3
ANSI_1252
  9
$INSBASE
 10
0.0
 20
0.0
 30
0.0
  9
$EXTMIN
 10
0.0
 20
0.0
 30
0.0
  9
$EXTMAX
 10
210.0
 20
297.0
 30
0.0
  9
$LIMMIN
 10
0.0
 20
0.0
  9
$LIMMAX
 10
210.0
 20
297.0
  9
$ORTHOMODE
 70
     0
  9
$REGENMODE
 70
     1
  9
$FILLMODE
 70
     1
  9
$QTEXTMODE
 70
     0
  9
$MIRRTEXT
 70
     1
  9
$DRAGMODE
 70
     2
  9
$LTSCALE
 40
1.0
  9
$OSMODE
 70
    37
  9
$ATTMODE
 70
     1
  9
$TEXTSIZE
 40
3.5
  9
$TRACEWID
 40
1.0
  9
$TEXTSTYLE
  7
STANDARD
  9
$CLAYER
  8
0
  9
$CELTYPE
  6
BYLAYER
  9
$CECOLOR
 62
   256
  9
$CELTSCALE
 40
1.0
  9
$DELOBJ
 70
     1
  9
$DISPSILH
 70
     0
  9
$DIMSCALE
 40
1.0
  9
$DIMASZ
 40
3.5
  9
$DIMEXO
 40
0.0
  9
$DIMDLI
 40
3.75
  9
$DIMRND
 40
0.0
  9
$DIMDLE
 40
0.0
  9
$DIMEXE
 40
1.0
  9
$DIMTP
 40
0.0
  9
$DIMTM
 40
0.0
  9
$DIMTXT
 40
3.5
  9
$DIMCEN
 40
2.5
  9
$DIMTSZ
 40
0.0
  9
$DIMTOL
 70
     0
  9
$DIMLIM
 70
     0
  9
$DIMTIH
 70
     1
  9
$DIMTOH
 70
     1
  9
$DIMSE1
 70
     0
  9
$DIMSE2
 70
     0
  9
$DIMTAD
 70
     1
  9
$DIMZIN
 70
     0
  9
$DIMBLK
  1

  9
$DIMASO
 70
     1
  9
$DIMSHO
 70
     1
  9
$DIMPOST
  1

  9
$DIMAPOST
  1

  9
$DIMALT
 70
     0
  9
$DIMALTD
 70
     3
  9
$DIMALTF
 40
0.0393700787
  9
$DIMLFAC
 40
1.0
  9
$DIMTOFL
 70
     1
  9
$DIMTVP
 40
0.0
  9
$DIMTIX
 70
     0
  9
$DIMSOXD
 70
     0
  9
$DIMSAH
 70
     0
  9
$DIMBLK1
  1

  9
$DIMBLK2
  1

  9
$DIMSTYLE
  2
ISO-25
  9
$DIMCLRD
 70
     0
  9
$DIMCLRE
 70
     0
  9
$DIMCLRT
 70
     0
  9
$DIMTFAC
 40
1.0
  9
$DIMGAP
 40
1.5
  9
$DIMJUST
 70
     0
  9
$DIMSD1
 70
     0
  9
$DIMSD2
 70
     0
  9
$DIMTOLJ
 70
     0
  9
$DIMTZIN
 70
     0
  9
$DIMALTZ
 70
     0
  9
$DIMALTTZ
 70
     0
  9
$DIMFIT
 70
     3
  9
$DIMUPT
 70
     0
  9
$DIMUNIT
 70
     2
  9
$DIMDEC
 70
     2
  9
$DIMTDEC
 70
     3
  9
$DIMALTU
 70
     2
  9
$DIMALTTD
 70
     3
  9
$DIMTXSTY
  7
STANDARD
  9
$DIMAUNIT
 70
     0
  9
$LUNITS
 70
     2
  9
$LUPREC
 70
     2
  9
$SKETCHINC
 40
1.0
  9
$FILLETRAD
 40
10.0
  9
$AUNITS
 70
     0
  9
$AUPREC
 70
     2
  9
$MENU
  1
.
  9
$ELEVATION
 40
0.0
  9
$PELEVATION
 40
0.0
  9
$THICKNESS
 40
0.0
  9
$LIMCHECK
 70
     0
  9
$CHAMFERA
 40
10.0
  9
$CHAMFERB
 40
10.0
  9
$CHAMFERC
 40
20.0
  9
$CHAMFERD
 40
0.0
  9
$SKPOLY
 70
     0
  9
$TDCREATE
 40
2456436.36751875
  9
$TDUPDATE
 40
2456436.367519363
  9
$TDINDWG
 40
0.0000000116
  9
$TDUSRTIMER
 40
0.0000000116
  9
$USRTIMER
 70
     1
  9
$ANGBASE
 50
0.0
  9
$ANGDIR
 70
     0
  9
$PDMODE
 70
     0
  9
$PDSIZE
 40
-1.0
  9
$PLINEWID
 40
0.0
  9
$COORDS
 70
     1
  9
$SPLFRAME
 70
     0
  9
$SPLINETYPE
 70
     6
  9
$SPLINESEGS
 70
     8
  9
$ATTDIA
 70
     0
  9
$ATTREQ
 70
     1
  9
$HANDLING
 70
     1
  9
$HANDSEED
  5
11B
  9
$SURFTAB1
 70
     6
  9
$SURFTAB2
 70
     6
  9
$SURFTYPE
 70
     6
  9
$SURFU
 70
     6
  9
$SURFV
 70
     6
  9
$UCSNAME
  2

  9
$UCSORG
 10
0.0
 20
0.0
 30
0.0
  9
$UCSXDIR
 10
1.0
 20
0.0
 30
0.0
  9
$UCSYDIR
 10
0.0
 20
1.0
 30
0.0
  9
$PUCSNAME
  2

  9
$PUCSORG
 10
0.0
 20
0.0
 30
0.0
  9
$PUCSXDIR
 10
1.0
 20
0.0
 30
0.0
  9
$PUCSYDIR
 10
0.0
 20
1.0
 30
0.0
  9
$USERI1
 70
     0
  9
$USERI2
 70
     0
  9
$USERI3
 70
     0
  9
$USERI4
 70
     0
  9
$USERI5
 70
     0
  9
$USERR1
 40
0.0
  9
$USERR2
 40
0.0
  9
$USERR3
 40
0.0
  9
$USERR4
 40
0.0
  9
$USERR5
 40
0.0
  9
$WORLDVIEW
 70
     1
  9
$SHADEDGE
 70
     3
  9
$SHADEDIF
 70
    70
  9
$TILEMODE
 70
     1
  9
$MAXACTVP
 70
    64
  9
$PINSBASE
 10
0.0
 20
0.0
 30
0.0
  9
$PLIMCHECK
 70
     0
  9
$PEXTMIN
 10
1.0000000000E+20
 20
1.0000000000E+20
 30
1.0000000000E+20
  9
$PEXTMAX
 10
-1.0000000000E+20
 20
-1.0000000000E+20
 30
-1.0000000000E+20
  9
$PLIMMIN
 10
0.0
 20
0.0
  9
$PLIMMAX
 10
420.0
 20
297.0
  9
$UNITMODE
 70
     0
  9
$VISRETAIN
 70
     1
  9
$PLINEGEN
 70
     0
  9
$PSLTSCALE
 70
     1
  9
$TREEDEPTH
 70
  3020
  9
$PICKSTYLE
 70
     1
  9
$CMLSTYLE
  2
STANDARD
  9
$CMLJUST
 70
     0
  9
$CMLSCALE
 40
20.0
  9
$PROXYGRAPHICS
 70
     1
  9
$MEASUREMENT
 70
     1
  0
ENDSEC
  0
SECTION
  2
CLASSES
  0
CLASS
  1
ACDBDICTIONARYWDFLT
  2
AcDbDictionaryWithDefault
  3
ObjectDBX Classes
 90
        0
280
     0
281
     0
  0
CLASS
  1
VISUALSTYLE
  2
AcDbVisualStyle
  3
ObjectDBX Classes
 90
     4095
280
     0
281
     0
  0
CLASS
  1
MATERIAL
  2
AcDbMaterial
  3
ObjectDBX Classes
 90
     1153
280
     0
281
     0
  0
CLASS
  1
XRECORD
  2
AcDbXrecord
  3
AutoCAD 2000
 90
        0
280
     0
281
     0
  0
CLASS
  1
LWPOLYLINE
  2
AcDbPolyline
  3
AutoCAD 2000
 90
        0
280
     0
281
     1
  0
CLASS
  1
HATCH
  2
AcDbHatch
  3
AutoCAD 2000
 90
        0
280
     0
281
     1
  0
ENDSEC
  0
SECTION
  2
TABLES
  0
TABLE
  2
VPORT
  5
8
330
0
100
AcDbSymbolTable
 70
     1
  0
VPORT
  5
29
330
8
100
AcDbSymbolTableRecord
100
AcDbViewportTableRecord
  2
*ACTIVE
 70
     0
 10
0.0
 20
0.0
 11
1.0
 21
1.0
 12
105.0
 22
148.5
 13
0.0
 23
0.0
 14
10.0
 24
10.0
 15
10.0
 25
10.0
 16
0.0
 26
0.0
 36
1.0
 17
0.0
 27
0.0
 37
0.0
 40
297.0
 41
0.7070707071
 42
50.0
 43
0.0
 44
0.0
 50
0.0
 51
0.0
 71
     0
 72
  2000
 73
     1
 74
     3
 75
     0
 76
     0
 77
     0
 78
     0
  0
ENDTAB
  0
TABLE
  2
LTYPE
  5
5
330
0
100
AcDbSymbolTable
 70
     6
  0
LTYPE
  5
14
330
5
100
AcDbSymbolTableRecord
100
AcDbLinetypeTableRecord
  2
BYBLOCK
 70
     0
  3

 72
    65
 73
     0
 40
0.0
  0
LTYPE
  5
15
330
5
100
AcDbSymbolTableRecord
100
AcDbLinetypeTableRecord
  2
BYLAYER
 70
     0
  3

 72
    65
 73
     0
 40
0.0
  0
LTYPE
  5
16
330
5
100
AcDbSymbolTableRecord
100
AcDbLinetypeTableRecord
  2
CONTINUOUS
 70
     0
  3
Solid line
 72
    65
 73
     0
 40
0.0
  0
LTYPE
  5
3F
330
5
100
AcDbSymbolTableRecord
100
AcDbLinetypeTableRecord
  2
HIDDEN
 70
     0
  3
Hidden __ __ __ __ __ __ __ __ __ __ __ __ __ __
 72
    65
 73
     2
 40
1.905
 49
1.27
 74
     0
 49
-0.635
 74
     0
  0
LTYPE
  5
40
330
5
100
AcDbSymbolTableRecord
100
AcDbLinetypeTableRecord
  2
PHANTOM
 70
     0
  3
Phantom ______  __  __  ______  __  __  ______
 72
    65
 73
     6
 40
12.7
 49
6.35
 74
     0
 49
-1.27
 74
     0
 49
1.27
 74
     0
 49
-1.27
 74
     0
 49
1.27
 74
     0
 49
-1.27
 74
     0
  0
LTYPE
  5
41
330
5
100
AcDbSymbolTableRecord
100
AcDbLinetypeTableRecord
  2
CENTER
 70
     0
  3
Center ____ _ ____ _ ____ _ ____ _ ____ _ ____
 72
    65
 73
     4
 40
10.16
 49
6.35
 74
     0
 49
-1.27
 74
     0
 49
1.27
 74
     0
 49
-1.27
 74
     0
  0
LTYPE
  5
42
330
5
100
AcDbSymbolTableRecord
100
AcDbLinetypeTableRecord
  2
CENTERX2
 70
     0
  3
Center (2x) ________  __  ________  __  _____
 72
    65
 73
     4
 40
20.32
 49
12.7
 74
     0
 49
-2.54
 74
     0
 49
2.54
 74
     0
 49
-2.54
 74
     0
  0
LTYPE
  5
43
330
5
100
AcDbSymbolTableRecord
100
AcDbLinetypeTableRecord
  2
DOT2
 70
     0
  3
Dot (.5x) ........................................
 72
    65
 73
     2
 40
0.635
 49
0.0
 74
     0
 49
-0.635
 74
     0
  0
ENDTAB
  0
TABLE
  2
LAYER
  5
2
330
0
100
AcDbSymbolTable
 70
     7
  0
LAYER
  5
10
330
2
100
AcDbSymbolTableRecord
100
AcDbLayerTableRecord
  2
0
 70
     0
 62
     7
  6
CONTINUOUS
  0
LAYER
  5
44
330
2
100
AcDbSymbolTableRecord
100
AcDbLayerTableRecord
  2
AUFNAHME
 70
     0
 62
     7
  6
CONTINUOUS
  0
LAYER
  5
45
330
2
100
AcDbSymbolTableRecord
100
AcDbLayerTableRecord
  2
MASS
 70
     0
 62
     4
  6
CONTINUOUS
  0
LAYER
  5
46
330
2
100
AcDbSymbolTableRecord
100
AcDbLayerTableRecord
  2
EW
 70
     0
 62
     1
  6
HIDDEN
  0
LAYER
  5
47
330
2
100
AcDbSymbolTableRecord
100
AcDbLayerTableRecord
  2
UNSICHT
 70
     0
 62
     4
  6
CENTER
  0
LAYER
  5
48
330
2
100
AcDbSymbolTableRecord
100
AcDbLayerTableRecord
  2
TEXT
 70
     0
 62
     7
  6
CONTINUOUS
  0
LAYER
  5
49
330
2
100
AcDbSymbolTableRecord
100
AcDbLayerTableRecord
  2
ZAPFEN
 70
     0
 62
     4
  6
CONTINUOUS
  0
ENDTAB
  0
TABLE
  2
STYLE
  5
3
330
0
100
AcDbSymbolTable
 70
     2
  0
STYLE
  5
11
330
3
100
AcDbSymbolTableRecord
100
AcDbTextStyleTableRecord
  2
STANDARD
 70
     0
 40
0.0
 41
1.0
 50
0.0
 71
     0
 42
3.5
  3
txt
  4

  0
STYLE
  5
E1
330
3
100
AcDbSymbolTableRecord
100
AcDbTextStyleTableRecord
  2
SLDTEXTSTYLE0
 70
     0
 40
0.0
 41
0.605
 50
0.0
 71
     0
 42
0.2
  3
TXT
  4

  0
ENDTAB
  0
TABLE
  2
VIEW
  5
6
330
0
100
AcDbSymbolTable
 70
     0
  0
ENDTAB
  0
TABLE
  2
UCS
  5
7
330
0
100
AcDbSymbolTable
 70
     0
  0
ENDTAB
  0
TABLE
  2
APPID
  5
9
330
0
100
AcDbSymbolTable
 70
     1
  0
APPID
  5
12
330
9
100
AcDbSymbolTableRecord
100
AcDbRegAppTableRecord
  2
ACAD
 70
     0
  0
ENDTAB
  0
TABLE
  2
DIMSTYLE
  5
A
330
0
100
AcDbSymbolTable
 70
     5
  0
DIMSTYLE
105
27
330
A
100
AcDbSymbolTableRecord
100
AcDbDimStyleTableRecord
  2
ISO-25
 70
     0
  3

  4

  5

  6

  7

 40
1.0
 41
2.5
 42
0.625
 43
3.75
 44
1.25
 45
0.0
 46
0.0
 47
0.0
 48
0.0
140
2.5
141
2.5
142
0.0
143
0.0393700787
144
1.0
145
0.0
146
1.0
147
0.625
 71
     0
 72
     0
 73
     0
 74
     0
 75
     0
 76
     0
 77
     1
 78
     8
170
     0
171
     3
172
     1
173
     0
174
     0
175
     0
176
     0
177
     0
178
     0
270
     2
271
     2
272
     2
273
     2
274
     3
340
11
275
     0
280
     0
281
     0
282
     0
283
     0
284
     8
285
     0
286
     0
287
     3
288
     0
  0
DIMSTYLE
105
E2
102
{ACAD_REACTORS
330
E0
102
}
330
A
100
AcDbSymbolTableRecord
100
AcDbDimStyleTableRecord
  2
SLDDIMSTYLE0
 70
     0
  3

  4

  5

  6

  7

 40
1.0
 41
3.5
 42
0.0625
 43
0.38
 44
0.0
 45
0.000000001
 46
0.0
 47
0.0
 48
0.0
140
3.5
141
0.09
142
0.0
143
25.4
144
1.0
145
0.0
146
1.0
147
0.875
 71
     0
 72
     0
 73
     0
 74
     0
 75
     0
 76
     0
 77
     1
 78
    12
170
     0
171
     2
172
     0
173
     1
174
     0
175
     0
176
     0
177
     0
178
     0
270
     2
271
     2
272
     3
273
     2
274
     2
340
E1
275
     0
280
     0
281
     0
282
     0
283
     1
284
    12
285
     0
286
     0
287
     3
288
     0
  0
DIMSTYLE
105
ED
102
{ACAD_REACTORS
330
EC
330
F7
102
}
330
A
100
AcDbSymbolTableRecord
100
AcDbDimStyleTableRecord
  2
SLDDIMSTYLE1
 70
     0
  3

  4

  5

  6

  7

 40
1.0
 41
3.5
 42
0.0625
 43
0.38
 44
0.0
 45
0.000000001
 46
0.0
 47
0.0
 48
0.0
140
3.5
141
0.09
142
0.0
143
25.4
144
1.0
145
0.0
146
1.0
147
0.875
 71
     0
 72
     0
 73
     0
 74
     0
 75
     0
 76
     0
 77
     1
 78
    12
170
     0
171
     2
172
     0
173
     1
174
     0
175
     0
176
     0
177
     0
178
     0
270
     2
271
     0
272
     3
273
     2
274
     2
340
E1
275
     0
280
     0
281
     0
282
     0
283
     1
284
    12
285
     0
286
     0
287
     3
288
     0
  0
DIMSTYLE
105
102
102
{ACAD_REACTORS
330
101
102
}
330
A
100
AcDbSymbolTableRecord
100
AcDbDimStyleTableRecord
  2
SLDDIMSTYLE2
 70
     0
  3

  4

  5

  6

  7

 40
1.0
 41
3.5
 42
0.0625
 43
0.38
 44
0.0
 45
0.000000001
 46
0.0
 47
0.0
 48
0.0
140
3.5
141
0.09
142
0.0
143
25.4
144
1.0
145
0.0
146
1.0
147
0.875
 71
     0
 72
     0
 73
     0
 74
     0
 75
     0
 76
     0
 77
     1
 78
    12
170
     0
171
     2
172
     1
173
     1
174
     0
175
     0
176
     0
177
     0
178
     0
270
     2
271
     2
272
     3
273
     2
274
     2
340
E1
275
     0
280
     0
281
     0
282
     0
283
     1
284
    12
285
     0
286
     0
288
     0
  0
DIMSTYLE
105
110
102
{ACAD_REACTORS
330
10F
102
}
330
A
100
AcDbSymbolTableRecord
100
AcDbDimStyleTableRecord
  2
SLDDIMSTYLE3
 70
     0
  3

  4

  5

  6

  7

 40
1.0
 41
3.5
 42
0.0625
 43
0.38
 44
0.0
 45
0.000000001
 46
0.0
 47
0.0
 48
0.0
140
3.5
141
0.09
142
0.0
143
25.4
144
1.0
145
0.0
146
1.0
147
0.875
 71
     0
 72
     0
 73
     0
 74
     0
 75
     0
 76
     0
 77
     1
 78
    12
170
     0
171
     2
172
     1
173
     1
174
     0
175
     0
176
     0
177
     0
178
     0
270
     2
271
     2
272
     3
273
     2
274
     2
340
E1
275
     0
280
     0
281
     0
282
     0
283
     1
284
    12
285
     0
286
     0
288
     0
  0
ENDTAB
  0
TABLE
  2
BLOCK_RECORD
  5
1
330
0
100
AcDbSymbolTable
 70
     6
  0
BLOCK_RECORD
  5
1F
330
1
100
AcDbSymbolTableRecord
100
AcDbBlockTableRecord
  2
*MODEL_SPACE
  0
BLOCK_RECORD
  5
1B
330
1
100
AcDbSymbolTableRecord
100
AcDbBlockTableRecord
  2
*PAPER_SPACE
  0
BLOCK_RECORD
  5
23
330
1
100
AcDbSymbolTableRecord
100
AcDbBlockTableRecord
  2
*PAPER_SPACE0
  0
BLOCK_RECORD
  5
E3
330
1
100
AcDbSymbolTableRecord
100
AcDbBlockTableRecord
  2
_D
  0
BLOCK_RECORD
  5
EE
330
1
100
AcDbSymbolTableRecord
100
AcDbBlockTableRecord
  2
_D_1
  0
BLOCK_RECORD
  5
F8
330
1
100
AcDbSymbolTableRecord
100
AcDbBlockTableRecord
  2
_D_2
  0
BLOCK_RECORD
  5
103
330
1
100
AcDbSymbolTableRecord
100
AcDbBlockTableRecord
  2
_D_3
  0
BLOCK_RECORD
  5
111
330
1
100
AcDbSymbolTableRecord
100
AcDbBlockTableRecord
  2
_D_4
  0
ENDTAB
  0
ENDSEC
  0
SECTION
  2
BLOCKS
  0
BLOCK
  5
20
330
1F
100
AcDbEntity
  8
0
100
AcDbBlockBegin
  2
*MODEL_SPACE
 70
     0
 10
0.0
 20
0.0
 30
0.0
  3
*MODEL_SPACE
  1

  0
ENDBLK
  5
21
330
1F
100
AcDbEntity
  8
0
100
AcDbBlockEnd
  0
BLOCK
  5
1C
330
1B
100
AcDbEntity
 67
     1
  8
0
100
AcDbBlockBegin
  2
*PAPER_SPACE
 70
     0
 10
0.0
 20
0.0
 30
0.0
  3
*PAPER_SPACE
  1

  0
ENDBLK
  5
1D
330
1B
100
AcDbEntity
 67
     1
  8
0
100
AcDbBlockEnd
  0
BLOCK
  5
24
330
23
100
AcDbEntity
  8
0
100
AcDbBlockBegin
  2
*PAPER_SPACE0
 70
     0
 10
0.0
 20
0.0
 30
0.0
  3
*PAPER_SPACE0
  1

  0
ENDBLK
  5
25
330
23
100
AcDbEntity
  8
0
100
AcDbBlockEnd
  0
BLOCK
  5
E4
330
E3
100
AcDbEntity
  8
0
100
AcDbBlockBegin
  2
_D
 70
     0
 10
0.0
 20
0.0
 30
0.0
  3
_D
  1

  0
SOLID
  5
E6
330
E3
100
AcDbEntity
  8
MASS
100
AcDbTrace
 10
30.0
 20
-14.3113062908
 30
0.0
 11
26.5
 21
-13.8613062908
 31
0.0
 12
26.5
 22
-14.7613062908
 32
0.0
 13
26.5
 23
-14.7613062908
 33
0.0
  0
SOLID
  5
E7
330
E3
100
AcDbEntity
  8
MASS
100
AcDbTrace
 10
0.0
 20
-14.3113062908
 30
0.0
 11
3.5
 21
-14.7613062908
 31
0.0
 12
3.5
 22
-13.8613062908
 32
0.0
 13
3.5
 23
-13.8613062908
 33
0.0
  0
LINE
  5
E8
330
E3
100
AcDbEntity
  8
MASS
100
AcDbLine
 10
30.0
 20
4.4677207523
 30
0.0
 11
30.0
 21
-15.3113062908
 31
0.0
  0
LINE
  5
E9
330
E3
100
AcDbEntity
  8
MASS
100
AcDbLine
 10
0.0
 20
-3.5
 30
0.0
 11
0.0
 21
-15.3113062908
 31
0.0
  0
LINE
  5
EA
330
E3
100
AcDbEntity
  8
MASS
100
AcDbLine
 10
30.0
 20
-14.3113062908
 30
0.0
 11
0.0
 21
-14.3113062908
 31
0.0
  0
MTEXT
  5
EB
330
E3
100
AcDbEntity
  8
MASS
100
AcDbMText
 10
11.4927081019
 20
-9.7995690852
 30
0.1
 40
3.5
 41
0.0
 71
     1
 72
     1
  1
30
  7
SLDTEXTSTYLE0
  0
ENDBLK
  5
E5
330
E3
100
AcDbEntity
  8
0
100
AcDbBlockEnd
  0
BLOCK
  5
EF
330
EE
100
AcDbEntity
  8
0
100
AcDbBlockBegin
  2
_D_1
 70
     0
 10
0.0
 20
0.0
 30
0.0
  3
_D_1
  1

  0
SOLID
  5
F1
330
EE
100
AcDbEntity
  8
MASS
100
AcDbTrace
 10
-21.8996501169
 20
-14.3113062908
 30
0.0
 11
-18.3996501169
 21
-14.7613062908
 31
0.0
 12
-18.3996501169
 22
-13.8613062908
 32
0.0
 13
-18.3996501169
 23
-13.8613062908
 33
0.0
  0
SOLID
  5
F2
330
EE
100
AcDbEntity
  8
MASS
100
AcDbTrace
 10
0.0
 20
-14.3113062908
 30
0.0
 11
-3.5
 21
-13.8613062908
 31
0.0
 12
-3.5
 22
-14.7613062908
 32
0.0
 13
-3.5
 23
-14.7613062908
 33
0.0
  0
LINE
  5
F3
330
EE
100
AcDbEntity
  8
MASS
100
AcDbLine
 10
-21.8996501169
 20
-3.3
 30
0.0
 11
-21.8996501169
 21
-15.3113062908
 31
0.0
  0
LINE
  5
F4
330
EE
100
AcDbEntity
  8
MASS
100
AcDbLine
 10
0.0
 20
-3.5
 30
0.0
 11
0.0
 21
-15.3113062908
 31
0.0
  0
LINE
  5
F5
330
EE
100
AcDbEntity
  8
MASS
100
AcDbLine
 10
-21.8996501169
 20
-14.3113062908
 30
0.0
 11
0.0
 21
-14.3113062908
 31
0.0
  0
MTEXT
  5
F6
330
EE
100
AcDbEntity
  8
MASS
100
AcDbMText
 10
-14.4571169566
 20
-9.7995690852
 30
0.1
 40
3.5
 41
0.0
 71
     1
 72
     1
  1
22
  7
SLDTEXTSTYLE0
  0
ENDBLK
  5
F0
330
EE
100
AcDbEntity
  8
0
100
AcDbBlockEnd
  0
BLOCK
  5
F9
330
F8
100
AcDbEntity
  8
0
100
AcDbBlockBegin
  2
_D_2
 70
     0
 10
0.0
 20
0.0
 30
0.0
  3
_D_2
  1

  0
SOLID
  5
FB
330
F8
100
AcDbEntity
  8
MASS
100
AcDbTrace
 10
30.0
 20
14.1223122289
 30
0.0
 11
26.5
 21
14.5723122289
 31
0.0
 12
26.5
 22
13.6723122289
 32
0.0
 13
26.5
 23
13.6723122289
 33
0.0
  0
SOLID
  5
FC
330
F8
100
AcDbEntity
  8
MASS
100
AcDbTrace
 10
-21.8996501169
 20
14.1223122289
 30
0.0
 11
-18.3996501169
 21
13.6723122289
 31
0.0
 12
-18.3996501169
 22
14.5723122289
 32
0.0
 13
-18.3996501169
 23
14.5723122289
 33
0.0
  0
LINE
  5
FD
330
F8
100
AcDbEntity
  8
MASS
100
AcDbLine
 10
30.0
 20
4.4677207523
 30
0.0
 11
30.0
 21
15.1223122289
 31
0.0
  0
LINE
  5
FE
330
F8
100
AcDbEntity
  8
MASS
100
AcDbLine
 10
-21.8996501169
 20
3.3
 30
0.0
 11
-21.8996501169
 21
15.1223122289
 31
0.0
  0
LINE
  5
FF
330
F8
100
AcDbEntity
  8
MASS
100
AcDbLine
 10
30.0
 20
14.1223122289
 30
0.0
 11
-21.8996501169
 21
14.1223122289
 31
0.0
  0
MTEXT
  5
100
330
F8
100
AcDbEntity
  8
MASS
100
AcDbMText
 10
0.5428830434
 20
18.6340494345
 30
0.1
 40
3.5
 41
0.0
 71
     1
 72
     1
  1
52
  7
SLDTEXTSTYLE0
  0
ENDBLK
  5
FA
330
F8
100
AcDbEntity
  8
0
100
AcDbBlockEnd
  0
BLOCK
  5
104
330
103
100
AcDbEntity
  8
0
100
AcDbBlockBegin
  2
_D_3
 70
     0
 10
0.0
 20
0.0
 30
0.0
  3
_D_3
  1

  0
SOLID
  5
106
330
103
100
AcDbEntity
  8
MASS
100
AcDbTrace
 10
-29.4720806703
 20
3.5
 30
0.0
 11
-29.0220806703
 21
7.0
 31
0.0
 12
-29.9220806703
 22
7.0
 32
0.0
 13
-29.9220806703
 23
7.0
 33
0.0
  0
SOLID
  5
107
330
103
100
AcDbEntity
  8
MASS
100
AcDbTrace
 10
-29.4720806703
 20
-3.5
 30
0.0
 11
-29.9220806703
 21
-7.0
 31
0.0
 12
-29.0220806703
 22
-7.0
 32
0.0
 13
-29.0220806703
 23
-7.0
 33
0.0
  0
LINE
  5
108
330
103
100
AcDbEntity
  8
MASS
100
AcDbLine
 10
-21.6996501169
 20
3.5
 30
0.0
 11
-30.4720806703
 21
3.5
 31
0.0
  0
LINE
  5
109
330
103
100
AcDbEntity
  8
MASS
100
AcDbLine
 10
-21.6996501169
 20
-3.5
 30
0.0
 11
-30.4720806703
 21
-3.5
 31
0.0
  0
LINE
  5
10A
330
103
100
AcDbEntity
  8
MASS
100
AcDbLine
 10
-29.4720806703
 20
3.5
 30
0.0
 11
-29.4720806703
 21
8.5
 31
0.0
  0
LINE
  5
10B
330
103
100
AcDbEntity
  8
MASS
100
AcDbLine
 10
-29.4720806703
 20
3.5
 30
0.0
 11
-29.4720806703
 21
-3.5
 31
0.0
  0
LINE
  5
10C
330
103
100
AcDbEntity
  8
MASS
100
AcDbLine
 10
-29.4720806703
 20
-3.5
 30
0.0
 11
-29.4720806703
 21
-8.5
 31
0.0
  0
MTEXT
  5
10D
330
103
100
AcDbEntity
  8
MASS
100
AcDbMText
 10
-33.9838178759
 20
-4.9972226843
 30
0.1
 40
3.5
 41
0.0
 71
     1
 72
     1
  1
%%c
  7
SLDTEXTSTYLE0
 11
-7.044195017643634E-15
 21
1.0
 31
0.0
  0
MTEXT
  5
10E
330
103
100
AcDbEntity
  8
MASS
100
AcDbMText
 10
-33.9838178759
 20
0.1749997027
 30
0.1
 40
3.5
 41
0.0
 71
     1
 72
     1
  1
7
  7
SLDTEXTSTYLE0
 11
-7.044195017643634E-15
 21
1.0
 31
0.0
  0
ENDBLK
  5
105
330
103
100
AcDbEntity
  8
0
100
AcDbBlockEnd
  0
BLOCK
  5
112
330
111
100
AcDbEntity
  8
0
100
AcDbBlockBegin
  2
_D_4
 70
     0
 10
0.0
 20
0.0
 30
0.0
  3
_D_4
  1

  0
SOLID
  5
114
330
111
100
AcDbEntity
  8
MASS
100
AcDbTrace
 10
38.1262484274
 20
4.7225905448
 30
0.0
 11
38.5762484274
 21
8.2225905448
 31
0.0
 12
37.6762484274
 22
8.2225905448
 32
0.0
 13
37.6762484274
 23
8.2225905448
 33
0.0
  0
LINE
  5
115
330
111
100
AcDbEntity
  8
MASS
100
AcDbLine
 10
29.6093379004
 20
4.7225905448
 30
0.0
 11
39.1262484274
 21
4.7225905448
 31
0.0
  0
LINE
  5
116
330
111
100
AcDbEntity
  8
MASS
100
AcDbLine
 10
38.1262484274
 20
0.0
 30
0.0
 11
38.1262484274
 21
4.7225905448
 31
0.0
  0
LINE
  5
117
330
111
100
AcDbEntity
  8
MASS
100
AcDbLine
 10
38.1262484274
 20
4.7225905448
 30
0.0
 11
38.1262484274
 21
29.2549083244
 31
0.0
  0
MTEXT
  5
118
330
111
100
AcDbEntity
  8
MASS
100
AcDbMText
 10
33.6145112218
 20
7.4139354985
 30
0.1
 40
3.5
 41
0.0
 71
     1
 72
     1
  1
%%c
  7
SLDTEXTSTYLE0
 11
-7.044195017643634E-15
 21
1.0
 31
0.0
  0
MTEXT
  5
119
330
111
100
AcDbEntity
  8
MASS
100
AcDbMText
 10
33.6145112218
 20
12.5861578855
 30
0.1
 40
3.5
 41
0.0
 71
     1
 72
     1
  1
9.8 - 12.0
  7
SLDTEXTSTYLE0
 11
-7.044195017643634E-15
 21
1.0
 31
0.0
  0
ENDBLK
  5
113
330
111
100
AcDbEntity
  8
0
100
AcDbBlockEnd
  0
ENDSEC
  0
SECTION
  2
ENTITIES
  0
LINE
  5
4A
330
1F
100
AcDbEntity
  8
AUFNAHME
  6
CONTINUOUS
100
AcDbLine
 10
17.0003498831
 20
4.5
 30
0.0
 11
16.00034904
 21
3.4999991569
 31
0.0
  0
LINE
  5
4B
330
1F
100
AcDbEntity
  8
AUFNAHME
  6
CONTINUOUS
100
AcDbLine
 10
16.00034904
 20
-3.5
 30
0.0
 11
17.0003498831
 21
-4.5000008431
 31
0.0
  0
LINE
  5
4C
330
1F
100
AcDbEntity
  8
AUFNAHME
  6
CONTINUOUS
100
AcDbLine
 10
17.0003498831
 20
-4.5000008431
 30
0.0
 11
29.2330677478
 21
-4.5000008431
 31
0.0
  0
LINE
  5
4D
330
1F
100
AcDbEntity
  8
AUFNAHME
  6
CONTINUOUS
100
AcDbLine
 10
28.5554191441
 20
4.5
 30
0.0
 11
17.0003498831
 21
4.5
 31
0.0
  0
LINE
  5
4E
330
1F
100
AcDbEntity
  8
AUFNAHME
  6
CONTINUOUS
100
AcDbLine
 10
30.0
 20
4.4677207523
 30
0.0
 11
29.6587046261
 21
-1.828513884
 31
0.0
  0
LINE
  5
4F
330
1F
100
AcDbEntity
  8
AUFNAHME
  6
CONTINUOUS
100
AcDbLine
 10
29.2427531503
 20
-2.0402105861
 30
0.0
 11
23.9821882842
 21
1.4041234018
 31
0.0
  0
LINE
  5
50
330
1F
100
AcDbEntity
  8
AUFNAHME
  6
CONTINUOUS
100
AcDbLine
 10
24.0081473843
 20
1.8718888835
 30
0.0
 11
29.6093379004
 21
4.7225905448
 31
0.0
  0
LINE
  5
51
330
1F
100
AcDbEntity
  8
AUFNAHME
  6
CONTINUOUS
100
AcDbLine
 10
17.0003498831
 20
0.0
 30
0.0
 11
17.0003498831
 21
-4.5000008431
 31
0.0
  0
LINE
  5
52
330
1F
100
AcDbEntity
  8
AUFNAHME
  6
CONTINUOUS
100
AcDbLine
 10
17.0003498831
 20
4.5
 30
0.0
 11
17.0003498831
 21
0.0
 31
0.0
  0
LINE
  5
53
330
1F
100
AcDbEntity
  8
AUFNAHME
  6
CONTINUOUS
100
AcDbLine
 10
16.00034904
 20
3.4999991569
 30
0.0
 11
16.00034904
 21
-3.5
 31
0.0
  0
LINE
  5
54
330
1F
100
AcDbEntity
  8
AUFNAHME
  6
CONTINUOUS
100
AcDbLine
 10
21.5281327181
 20
4.495553359
 30
0.0
 11
28.5401957427
 21
4.495553359
 31
0.0
  0
LINE
  5
55
330
1F
100
AcDbEntity
  8
AUFNAHME
  6
CONTINUOUS
100
AcDbLine
 10
25.4049388401
 20
-4.1665333315
 30
0.0
 11
25.0501653711
 21
-4.0247293425
 31
0.0
  0
LINE
  5
56
330
1F
100
AcDbEntity
  8
AUFNAHME
  6
CONTINUOUS
100
AcDbLine
 10
25.0501653711
 20
-4.0247293425
 30
0.0
 11
24.6845544101
 21
-3.8594762415
 31
0.0
  0
LINE
  5
57
330
1F
100
AcDbEntity
  8
AUFNAHME
  6
CONTINUOUS
100
AcDbLine
 10
24.6845544101
 20
-3.8594762415
 30
0.0
 11
24.3102361031
 21
-3.6717368375
 31
0.0
  0
LINE
  5
58
330
1F
100
AcDbEntity
  8
AUFNAHME
  6
CONTINUOUS
100
AcDbLine
 10
24.3102361031
 20
-3.6717368375
 30
0.0
 11
23.9293913231
 21
-3.4626049465
 31
0.0
  0
LINE
  5
59
330
1F
100
AcDbEntity
  8
AUFNAHME
  6
CONTINUOUS
100
AcDbLine
 10
23.9293913231
 20
-3.4626049465
 30
0.0
 11
23.5442389711
 21
-3.2332990265
 31
0.0
  0
LINE
  5
5A
330
1F
100
AcDbEntity
  8
AUFNAHME
  6
CONTINUOUS
100
AcDbLine
 10
23.5442389711
 20
-3.2332990265
 30
0.0
 11
23.1570230431
 21
-2.9851550735
 31
0.0
  0
LINE
  5
5B
330
1F
100
AcDbEntity
  8
AUFNAHME
  6
CONTINUOUS
100
AcDbLine
 10
23.1570230431
 20
-2.9851550735
 30
0.0
 11
22.7699995601
 21
-2.7196188355
 31
0.0
  0
LINE
  5
5C
330
1F
100
AcDbEntity
  8
AUFNAHME
  6
CONTINUOUS
100
AcDbLine
 10
22.7699995601
 20
-2.7196188355
 30
0.0
 11
22.3854234201
 21
-2.4382373985
 31
0.0
  0
LINE
  5
5D
330
1F
100
AcDbEntity
  8
AUFNAHME
  6
CONTINUOUS
100
AcDbLine
 10
22.3854234201
 20
-2.4382373985
 30
0.0
 11
22.0055352631
 21
-2.1426501605
 31
0.0
  0
LINE
  5
5E
330
1F
100
AcDbEntity
  8
AUFNAHME
  6
CONTINUOUS
100
AcDbLine
 10
22.0055352631
 20
-2.1426501605
 30
0.0
 11
21.6325484151
 21
-1.8345792895
 31
0.0
  0
LINE
  5
5F
330
1F
100
AcDbEntity
  8
AUFNAHME
  6
CONTINUOUS
100
AcDbLine
 10
21.6325484151
 20
-1.8345792895
 30
0.0
 11
21.2686359941
 21
-1.5158196875
 31
0.0
  0
LINE
  5
60
330
1F
100
AcDbEntity
  8
AUFNAHME
  6
CONTINUOUS
100
AcDbLine
 10
21.2686359941
 20
-1.5158196875
 30
0.0
 11
20.9159182471
 21
-1.1882285295
 31
0.0
  0
LINE
  5
61
330
1F
100
AcDbEntity
  8
AUFNAHME
  6
CONTINUOUS
100
AcDbLine
 10
20.9159182471
 20
-1.1882285295
 30
0.0
 11
20.5764502001
 21
-0.8537144445
 31
0.0
  0
LINE
  5
62
330
1F
100
AcDbEntity
  8
AUFNAHME
  6
CONTINUOUS
100
AcDbLine
 10
20.5764502001
 20
-0.8537144445
 30
0.0
 11
20.2522096791
 21
-0.5142263995
 31
0.0
  0
LINE
  5
63
330
1F
100
AcDbEntity
  8
AUFNAHME
  6
CONTINUOUS
100
AcDbLine
 10
20.2522096791
 20
-0.5142263995
 30
0.0
 11
19.9450857951
 21
-0.1717423385
 31
0.0
  0
LINE
  5
64
330
1F
100
AcDbEntity
  8
AUFNAHME
  6
CONTINUOUS
100
AcDbLine
 10
19.9450857951
 20
-0.1717423385
 30
0.0
 11
19.6568679301
 21
0.1717423375
 31
0.0
  0
LINE
  5
65
330
1F
100
AcDbEntity
  8
AUFNAHME
  6
CONTINUOUS
100
AcDbLine
 10
19.6568679301
 20
0.1717423375
 30
0.0
 11
19.3892353161
 21
0.5142263985
 31
0.0
  0
LINE
  5
66
330
1F
100
AcDbEntity
  8
AUFNAHME
  6
CONTINUOUS
100
AcDbLine
 10
19.3892353161
 20
0.5142263985
 30
0.0
 11
19.1437472501
 21
0.8537144435
 31
0.0
  0
LINE
  5
67
330
1F
100
AcDbEntity
  8
AUFNAHME
  6
CONTINUOUS
100
AcDbLine
 10
19.1437472501
 20
0.8537144435
 30
0.0
 11
18.9218340071
 21
1.1882285285
 31
0.0
  0
LINE
  5
68
330
1F
100
AcDbEntity
  8
AUFNAHME
  6
CONTINUOUS
100
AcDbLine
 10
18.9218340071
 20
1.1882285285
 30
0.0
 11
18.7247885131
 21
1.5158196865
 31
0.0
  0
LINE
  5
69
330
1F
100
AcDbEntity
  8
AUFNAHME
  6
CONTINUOUS
100
AcDbLine
 10
18.7247885131
 20
1.5158196865
 30
0.0
 11
18.5537588051
 21
1.8345792895
 31
0.0
  0
LINE
  5
6A
330
1F
100
AcDbEntity
  8
AUFNAHME
  6
CONTINUOUS
100
AcDbLine
 10
18.5537588051
 20
1.8345792895
 30
0.0
 11
18.4097413461
 21
2.1426501595
 31
0.0
  0
LINE
  5
6B
330
1F
100
AcDbEntity
  8
AUFNAHME
  6
CONTINUOUS
100
AcDbLine
 10
18.4097413461
 20
2.1426501595
 30
0.0
 11
18.2935752181
 21
2.4382373975
 31
0.0
  0
LINE
  5
6C
330
1F
100
AcDbEntity
  8
AUFNAHME
  6
CONTINUOUS
100
AcDbLine
 10
18.2935752181
 20
2.4382373975
 30
0.0
 11
18.2059372371
 21
2.7196188355
 31
0.0
  0
LINE
  5
6D
330
1F
100
AcDbEntity
  8
AUFNAHME
  6
CONTINUOUS
100
AcDbLine
 10
18.2059372371
 20
2.7196188355
 30
0.0
 11
18.1473380031
 21
2.9851550725
 31
0.0
  0
LINE
  5
6E
330
1F
100
AcDbEntity
  8
AUFNAHME
  6
CONTINUOUS
100
AcDbLine
 10
18.1473380031
 20
2.9851550725
 30
0.0
 11
18.1181189301
 21
3.2332990255
 31
0.0
  0
LINE
  5
6F
330
1F
100
AcDbEntity
  8
AUFNAHME
  6
CONTINUOUS
100
AcDbLine
 10
18.1181189301
 20
3.2332990255
 30
0.0
 11
18.1184502571
 21
3.4626049455
 31
0.0
  0
LINE
  5
70
330
1F
100
AcDbEntity
  8
AUFNAHME
  6
CONTINUOUS
100
AcDbLine
 10
18.1184502571
 20
3.4626049455
 30
0.0
 11
18.1483300521
 21
3.6717368365
 31
0.0
  0
LINE
  5
71
330
1F
100
AcDbEntity
  8
AUFNAHME
  6
CONTINUOUS
100
AcDbLine
 10
18.1483300521
 20
3.6717368365
 30
0.0
 11
18.2075842291
 21
3.8594762405
 31
0.0
  0
LINE
  5
72
330
1F
100
AcDbEntity
  8
AUFNAHME
  6
CONTINUOUS
100
AcDbLine
 10
18.2075842291
 20
3.8594762405
 30
0.0
 11
18.2958675581
 21
4.0247293415
 31
0.0
  0
LINE
  5
73
330
1F
100
AcDbEntity
  8
AUFNAHME
  6
CONTINUOUS
100
AcDbLine
 10
18.2958675581
 20
4.0247293415
 30
0.0
 11
18.4126656775
 21
4.166533331
 31
0.0
  0
LINE
  5
74
330
1F
100
AcDbEntity
  8
AUFNAHME
  6
CONTINUOUS
100
AcDbLine
 10
29.2331659461
 20
-4.4982950369
 30
0.0
 11
29.0378640759
 21
-4.4982950369
 31
0.0
  0
LINE
  5
75
330
1F
100
AcDbEntity
  8
AUFNAHME
  6
CONTINUOUS
100
AcDbLine
 10
29.2330677478
 20
-4.5000008431
 30
0.0
 11
29.2331659461
 21
-4.4982950369
 31
0.0
  0
LINE
  5
76
330
1F
100
AcDbEntity
  8
AUFNAHME
  6
CONTINUOUS
100
AcDbLine
 10
20.2338784581
 20
1.996096456
 30
0.0
 11
20.0939645001
 21
2.110973055
 31
0.0
  0
LINE
  5
77
330
1F
100
AcDbEntity
  8
AUFNAHME
  6
CONTINUOUS
100
AcDbLine
 10
20.0939645001
 20
2.110973055
 30
0.0
 11
19.9529357481
 21
2.205312557
 31
0.0
  0
LINE
  5
78
330
1F
100
AcDbEntity
  8
AUFNAHME
  6
CONTINUOUS
100
AcDbLine
 10
19.9529357481
 20
2.205312557
 30
0.0
 11
19.8152428051
 21
2.276137785
 31
0.0
  0
LINE
  5
79
330
1F
100
AcDbEntity
  8
AUFNAHME
  6
CONTINUOUS
100
AcDbLine
 10
19.8152428051
 20
2.276137785
 30
0.0
 11
19.6852310001
 21
2.321213629
 31
0.0
  0
LINE
  5
7A
330
1F
100
AcDbEntity
  8
AUFNAHME
  6
CONTINUOUS
100
AcDbLine
 10
19.6852310001
 20
2.321213629
 30
0.0
 11
19.5670032621
 21
2.339117579
 31
0.0
  0
LINE
  5
7B
330
1F
100
AcDbEntity
  8
AUFNAHME
  6
CONTINUOUS
100
AcDbLine
 10
19.5670032621
 20
2.339117579
 30
0.0
 11
19.4642906351
 21
2.329284622
 31
0.0
  0
LINE
  5
7C
330
1F
100
AcDbEntity
  8
AUFNAHME
  6
CONTINUOUS
100
AcDbLine
 10
19.4642906351
 20
2.329284622
 30
0.0
 11
19.3803345371
 21
2.292025065
 31
0.0
  0
LINE
  5
7D
330
1F
100
AcDbEntity
  8
AUFNAHME
  6
CONTINUOUS
100
AcDbLine
 10
19.3803345371
 20
2.292025065
 30
0.0
 11
19.3177844641
 21
2.228514751
 31
0.0
  0
LINE
  5
7E
330
1F
100
AcDbEntity
  8
AUFNAHME
  6
CONTINUOUS
100
AcDbLine
 10
19.3177844641
 20
2.228514751
 30
0.0
 11
19.2786143791
 21
2.140757946
 31
0.0
  0
LINE
  5
7F
330
1F
100
AcDbEntity
  8
AUFNAHME
  6
CONTINUOUS
100
AcDbLine
 10
19.2786143791
 20
2.140757946
 30
0.0
 11
19.2640604151
 21
2.031524089
 31
0.0
  0
LINE
  5
80
330
1F
100
AcDbEntity
  8
AUFNAHME
  6
CONTINUOUS
100
AcDbLine
 10
19.2640604151
 20
2.031524089
 30
0.0
 11
19.2745818681
 21
1.904260396
 31
0.0
  0
LINE
  5
81
330
1F
100
AcDbEntity
  8
AUFNAHME
  6
CONTINUOUS
100
AcDbLine
 10
19.2745818681
 20
1.904260396
 30
0.0
 11
19.3098467021
 21
1.762983068
 31
0.0
  0
LINE
  5
82
330
1F
100
AcDbEntity
  8
AUFNAHME
  6
CONTINUOUS
100
AcDbLine
 10
19.3098467021
 20
1.762983068
 30
0.0
 11
19.3687420241
 21
1.612150553
 31
0.0
  0
LINE
  5
83
330
1F
100
AcDbEntity
  8
AUFNAHME
  6
CONTINUOUS
100
AcDbLine
 10
19.3687420241
 20
1.612150553
 30
0.0
 11
19.4494092091
 21
1.45652284
 31
0.0
  0
LINE
  5
84
330
1F
100
AcDbEntity
  8
AUFNAHME
  6
CONTINUOUS
100
AcDbLine
 10
19.4494092091
 20
1.45652284
 30
0.0
 11
19.5493025521
 21
1.301011248
 31
0.0
  0
LINE
  5
85
330
1F
100
AcDbEntity
  8
AUFNAHME
  6
CONTINUOUS
100
AcDbLine
 10
19.5493025521
 20
1.301011248
 30
0.0
 11
19.6652696081
 21
1.150523429
 31
0.0
  0
LINE
  5
86
330
1F
100
AcDbEntity
  8
AUFNAHME
  6
CONTINUOUS
100
AcDbLine
 10
19.6652696081
 20
1.150523429
 30
0.0
 11
19.7936506741
 21
1.009808496
 31
0.0
  0
LINE
  5
87
330
1F
100
AcDbEntity
  8
AUFNAHME
  6
CONTINUOUS
100
AcDbLine
 10
19.7936506741
 20
1.009808496
 30
0.0
 11
19.9303942861
 21
0.883307147
 31
0.0
  0
LINE
  5
88
330
1F
100
AcDbEntity
  8
AUFNAHME
  6
CONTINUOUS
100
AcDbLine
 10
19.9303942861
 20
0.883307147
 30
0.0
 11
20.0711850731
 21
0.775011526
 31
0.0
  0
LINE
  5
89
330
1F
100
AcDbEntity
  8
AUFNAHME
  6
CONTINUOUS
100
AcDbLine
 10
20.0711850731
 20
0.775011526
 30
0.0
 11
20.2115799421
 21
0.68833924
 31
0.0
  0
LINE
  5
8A
330
1F
100
AcDbEntity
  8
AUFNAHME
  6
CONTINUOUS
100
AcDbLine
 10
20.2115799421
 20
0.68833924
 30
0.0
 11
20.3471482961
 21
0.626025503
 31
0.0
  0
LINE
  5
8B
330
1F
100
AcDbEntity
  8
AUFNAHME
  6
CONTINUOUS
100
AcDbLine
 10
20.3471482961
 20
0.626025503
 30
0.0
 11
20.4736118521
 21
0.590036819
 31
0.0
  0
LINE
  5
8C
330
1F
100
AcDbEntity
  8
AUFNAHME
  6
CONTINUOUS
100
AcDbLine
 10
20.4736118521
 20
0.590036819
 30
0.0
 11
20.5869796591
 21
0.581508923
 31
0.0
  0
LINE
  5
8D
330
1F
100
AcDbEntity
  8
AUFNAHME
  6
CONTINUOUS
100
AcDbLine
 10
20.5869796591
 20
0.581508923
 30
0.0
 11
20.6836740431
 21
0.600710939
 31
0.0
  0
LINE
  5
8E
330
1F
100
AcDbEntity
  8
AUFNAHME
  6
CONTINUOUS
100
AcDbLine
 10
20.6836740431
 20
0.600710939
 30
0.0
 11
20.7606435101
 21
0.647036888
 31
0.0
  0
LINE
  5
8F
330
1F
100
AcDbEntity
  8
AUFNAHME
  6
CONTINUOUS
100
AcDbLine
 10
20.7606435101
 20
0.647036888
 30
0.0
 11
20.8154590491
 21
0.719024811
 31
0.0
  0
LINE
  5
90
330
1F
100
AcDbEntity
  8
AUFNAHME
  6
CONTINUOUS
100
AcDbLine
 10
20.8154590491
 20
0.719024811
 30
0.0
 11
20.8463907851
 21
0.814402903
 31
0.0
  0
LINE
  5
91
330
1F
100
AcDbEntity
  8
AUFNAHME
  6
CONTINUOUS
100
AcDbLine
 10
20.8463907851
 20
0.814402903
 30
0.0
 11
20.8524625701
 21
0.930161212
 31
0.0
  0
LINE
  5
92
330
1F
100
AcDbEntity
  8
AUFNAHME
  6
CONTINUOUS
100
AcDbLine
 10
20.8524625701
 20
0.930161212
 30
0.0
 11
20.8334827911
 21
1.062646624
 31
0.0
  0
LINE
  5
93
330
1F
100
AcDbEntity
  8
AUFNAHME
  6
CONTINUOUS
100
AcDbLine
 10
20.8334827911
 20
1.062646624
 30
0.0
 11
20.7900504131
 21
1.207678148
 31
0.0
  0
LINE
  5
94
330
1F
100
AcDbEntity
  8
AUFNAHME
  6
CONTINUOUS
100
AcDbLine
 10
20.7900504131
 20
1.207678148
 30
0.0
 11
20.7235360801
 21
1.360678862
 31
0.0
  0
LINE
  5
95
330
1F
100
AcDbEntity
  8
AUFNAHME
  6
CONTINUOUS
100
AcDbLine
 10
20.7235360801
 20
1.360678862
 30
0.0
 11
20.6360388601
 21
1.516820352
 31
0.0
  0
LINE
  5
96
330
1F
100
AcDbEntity
  8
AUFNAHME
  6
CONTINUOUS
100
AcDbLine
 10
22.7650464274
 20
-0.0320959748
 30
0.0
 11
22.6922145434
 21
0.1777184322
 31
0.0
  0
LINE
  5
97
330
1F
100
AcDbEntity
  8
AUFNAHME
  6
CONTINUOUS
100
AcDbLine
 10
22.6922145434
 20
0.1777184322
 30
0.0
 11
22.6715173374
 21
0.3592087672
 31
0.0
  0
LINE
  5
98
330
1F
100
AcDbEntity
  8
AUFNAHME
  6
CONTINUOUS
100
AcDbLine
 10
22.8522473224
 20
-0.2097503948
 30
0.0
 11
22.7650464274
 21
-0.0320959748
 31
0.0
  0
LINE
  5
99
330
1F
100
AcDbEntity
  8
AUFNAHME
  6
CONTINUOUS
100
AcDbLine
 10
23.351447502
 20
1.2918426312
 30
0.0
 11
23.8701405345
 21
1.5571394663
 31
0.0
  0
LINE
  5
9A
330
1F
100
AcDbEntity
  8
AUFNAHME
  6
CONTINUOUS
100
AcDbLine
 10
28.6688838901
 20
4.2439497329
 30
0.0
 11
28.5401957427
 21
4.495553359
 31
0.0
  0
LINE
  5
9B
330
1F
100
AcDbEntity
  8
AUFNAHME
  6
CONTINUOUS
100
AcDbLine
 10
29.2331659461
 20
-4.4982950369
 30
0.0
 11
29.3592964131
 21
-2.082363917
 31
0.0
  0
LINE
  5
9C
330
1F
100
AcDbEntity
  8
AUFNAHME
  6
CONTINUOUS
100
AcDbLine
 10
25.8723484121
 20
0.1665485526
 30
0.0
 11
25.3472452257
 21
-0.0999867632
 31
0.0
  0
LINE
  5
9D
330
1F
100
AcDbEntity
  8
AUFNAHME
  6
CONTINUOUS
100
AcDbLine
 10
27.5940717871
 20
2.585783299
 30
0.0
 11
27.3835532861
 21
2.566318208
 31
0.0
  0
LINE
  5
9E
330
1F
100
AcDbEntity
  8
AUFNAHME
  6
CONTINUOUS
100
AcDbLine
 10
27.3835532861
 20
2.566318208
 30
0.0
 11
27.1801823531
 21
2.508354111
 31
0.0
  0
LINE
  5
9F
330
1F
100
AcDbEntity
  8
AUFNAHME
  6
CONTINUOUS
100
AcDbLine
 10
27.1801823531
 20
2.508354111
 30
0.0
 11
26.9908845411
 21
2.413864908
 31
0.0
  0
LINE
  5
A0
330
1F
100
AcDbEntity
  8
AUFNAHME
  6
CONTINUOUS
100
AcDbLine
 10
26.9908845411
 20
2.413864908
 30
0.0
 11
26.8221061611
 21
2.286068315
 31
0.0
  0
LINE
  5
A1
330
1F
100
AcDbEntity
  8
AUFNAHME
  6
CONTINUOUS
100
AcDbLine
 10
26.8221061611
 20
2.286068315
 30
0.0
 11
26.6795947581
 21
2.129316291
 31
0.0
  0
LINE
  5
A2
330
1F
100
AcDbEntity
  8
AUFNAHME
  6
CONTINUOUS
100
AcDbLine
 10
26.6795947581
 20
2.129316291
 30
0.0
 11
26.5682033861
 21
1.948946839
 31
0.0
  0
LINE
  5
A3
330
1F
100
AcDbEntity
  8
AUFNAHME
  6
CONTINUOUS
100
AcDbLine
 10
26.5682033861
 20
1.948946839
 30
0.0
 11
26.4917253461
 21
1.751102224
 31
0.0
  0
LINE
  5
A4
330
1F
100
AcDbEntity
  8
AUFNAHME
  6
CONTINUOUS
100
AcDbLine
 10
26.4917253461
 20
1.751102224
 30
0.0
 11
26.4527650051
 21
1.542519807
 31
0.0
  0
LINE
  5
A5
330
1F
100
AcDbEntity
  8
AUFNAHME
  6
CONTINUOUS
100
AcDbLine
 10
26.4527650051
 20
1.542519807
 30
0.0
 11
26.4526491111
 21
1.330302612
 31
0.0
  0
LINE
  5
A6
330
1F
100
AcDbEntity
  8
AUFNAHME
  6
CONTINUOUS
100
AcDbLine
 10
26.4526491111
 20
1.330302612
 30
0.0
 11
26.4913816101
 21
1.121677441
 31
0.0
  0
LINE
  5
A7
330
1F
100
AcDbEntity
  8
AUFNAHME
  6
CONTINUOUS
100
AcDbLine
 10
26.4913816101
 20
1.121677441
 30
0.0
 11
26.5676435141
 21
0.923748775
 31
0.0
  0
LINE
  5
A8
330
1F
100
AcDbEntity
  8
AUFNAHME
  6
CONTINUOUS
100
AcDbLine
 10
26.5676435141
 20
0.923748775
 30
0.0
 11
26.6788378151
 21
0.743256836
 31
0.0
  0
LINE
  5
A9
330
1F
100
AcDbEntity
  8
AUFNAHME
  6
CONTINUOUS
100
AcDbLine
 10
26.6788378151
 20
0.743256836
 30
0.0
 11
26.8211779251
 21
0.586348061
 31
0.0
  0
LINE
  5
AA
330
1F
100
AcDbEntity
  8
AUFNAHME
  6
CONTINUOUS
100
AcDbLine
 10
26.8211779251
 20
0.586348061
 30
0.0
 11
26.9898166211
 21
0.45836579
 31
0.0
  0
LINE
  5
AB
330
1F
100
AcDbEntity
  8
AUFNAHME
  6
CONTINUOUS
100
AcDbLine
 10
26.9898166211
 20
0.45836579
 30
0.0
 11
27.1790111161
 21
0.363668306
 31
0.0
  0
LINE
  5
AC
330
1F
100
AcDbEntity
  8
AUFNAHME
  6
CONTINUOUS
100
AcDbLine
 10
27.1790111161
 20
0.363668306
 30
0.0
 11
27.3823186171
 21
0.305480418
 31
0.0
  0
LINE
  5
AD
330
1F
100
AcDbEntity
  8
AUFNAHME
  6
CONTINUOUS
100
AcDbLine
 10
27.3823186171
 20
0.305480418
 30
0.0
 11
27.5928157321
 21
0.285783645
 31
0.0
  0
LINE
  5
AE
330
1F
100
AcDbEntity
  8
AUFNAHME
  6
CONTINUOUS
100
AcDbLine
 10
27.5928157321
 20
0.285783645
 30
0.0
 11
27.8033342331
 21
0.305248737
 31
0.0
  0
LINE
  5
AF
330
1F
100
AcDbEntity
  8
AUFNAHME
  6
CONTINUOUS
100
AcDbLine
 10
27.8033342331
 20
0.305248737
 30
0.0
 11
28.0067051661
 21
0.363212833
 31
0.0
  0
LINE
  5
B0
330
1F
100
AcDbEntity
  8
AUFNAHME
  6
CONTINUOUS
100
AcDbLine
 10
28.0067051661
 20
0.363212833
 30
0.0
 11
28.1960029781
 21
0.457702036
 31
0.0
  0
LINE
  5
B1
330
1F
100
AcDbEntity
  8
AUFNAHME
  6
CONTINUOUS
100
AcDbLine
 10
28.1960029781
 20
0.457702036
 30
0.0
 11
28.3647813581
 21
0.585498629
 31
0.0
  0
LINE
  5
B2
330
1F
100
AcDbEntity
  8
AUFNAHME
  6
CONTINUOUS
100
AcDbLine
 10
28.3647813581
 20
0.585498629
 30
0.0
 11
28.5072927611
 21
0.742250653
 31
0.0
  0
LINE
  5
B3
330
1F
100
AcDbEntity
  8
AUFNAHME
  6
CONTINUOUS
100
AcDbLine
 10
28.5072927611
 20
0.742250653
 30
0.0
 11
28.6186841331
 21
0.922620105
 31
0.0
  0
LINE
  5
B4
330
1F
100
AcDbEntity
  8
AUFNAHME
  6
CONTINUOUS
100
AcDbLine
 10
28.6186841331
 20
0.922620105
 30
0.0
 11
28.6951621731
 21
1.12046472
 31
0.0
  0
LINE
  5
B5
330
1F
100
AcDbEntity
  8
AUFNAHME
  6
CONTINUOUS
100
AcDbLine
 10
28.6951621731
 20
1.12046472
 30
0.0
 11
28.7341225141
 21
1.329047137
 31
0.0
  0
LINE
  5
B6
330
1F
100
AcDbEntity
  8
AUFNAHME
  6
CONTINUOUS
100
AcDbLine
 10
28.7341225141
 20
1.329047137
 30
0.0
 11
28.7342384081
 21
1.541264332
 31
0.0
  0
LINE
  5
B7
330
1F
100
AcDbEntity
  8
AUFNAHME
  6
CONTINUOUS
100
AcDbLine
 10
28.7342384081
 20
1.541264332
 30
0.0
 11
28.6955059091
 21
1.749889503
 31
0.0
  0
LINE
  5
B8
330
1F
100
AcDbEntity
  8
AUFNAHME
  6
CONTINUOUS
100
AcDbLine
 10
28.6955059091
 20
1.749889503
 30
0.0
 11
28.6192440051
 21
1.947818169
 31
0.0
  0
LINE
  5
B9
330
1F
100
AcDbEntity
  8
AUFNAHME
  6
CONTINUOUS
100
AcDbLine
 10
28.6192440051
 20
1.947818169
 30
0.0
 11
28.5080497041
 21
2.128310109
 31
0.0
  0
LINE
  5
BA
330
1F
100
AcDbEntity
  8
AUFNAHME
  6
CONTINUOUS
100
AcDbLine
 10
28.5080497041
 20
2.128310109
 30
0.0
 11
28.3657095941
 21
2.285218884
 31
0.0
  0
LINE
  5
BB
330
1F
100
AcDbEntity
  8
AUFNAHME
  6
CONTINUOUS
100
AcDbLine
 10
28.3657095941
 20
2.285218884
 30
0.0
 11
28.1970708981
 21
2.413201155
 31
0.0
  0
LINE
  5
BC
330
1F
100
AcDbEntity
  8
AUFNAHME
  6
CONTINUOUS
100
AcDbLine
 10
28.1970708981
 20
2.413201155
 30
0.0
 11
28.0078764031
 21
2.507898638
 31
0.0
  0
LINE
  5
BD
330
1F
100
AcDbEntity
  8
AUFNAHME
  6
CONTINUOUS
100
AcDbLine
 10
28.0078764031
 20
2.507898638
 30
0.0
 11
27.8045689021
 21
2.566086526
 31
0.0
  0
LINE
  5
BE
330
1F
100
AcDbEntity
  8
AUFNAHME
  6
CONTINUOUS
100
AcDbLine
 10
27.8045689021
 20
2.566086526
 30
0.0
 11
27.5940717871
 21
2.585783299
 31
0.0
  0
LINE
  5
BF
330
1F
100
AcDbEntity
  8
AUFNAHME
  6
CONTINUOUS
100
AcDbLine
 10
23.8702660021
 20
1.704307603
 30
0.0
 11
21.5281327181
 21
4.495553359
 31
0.0
  0
LINE
  5
C0
330
1F
100
AcDbEntity
  8
AUFNAHME
  6
CONTINUOUS
100
AcDbLine
 10
29.0378640759
 20
-4.4982950369
 30
0.0
 11
25.3472452257
 21
-0.0999867632
 31
0.0
  0
LINE
  5
C1
330
1F
100
AcDbEntity
  8
EW
  6
HIDDEN
100
AcDbLine
 10
15.2908699601
 20
-1.0
 30
0.0
 11
20.6836740431
 21
0.600710939
 31
0.0
  0
LINE
  5
C2
330
1F
100
AcDbEntity
  8
ZAPFEN
100
AcDbLine
 10
-21.6996501169
 20
3.5
 30
0.0
 11
-21.8996501169
 21
3.3
 31
0.0
  0
LINE
  5
C3
330
1F
100
AcDbEntity
  8
ZAPFEN
100
AcDbLine
 10
-21.8996501169
 20
-3.3
 30
0.0
 11
-21.6996501169
 21
-3.5
 31
0.0
  0
LINE
  5
C4
330
1F
100
AcDbEntity
  8
AUFNAHME
  6
CONTINUOUS
100
AcDbLine
 10
16.00034904
 20
3.4999991569
 30
0.0
 11
0.0
 21
3.5
 31
0.0
  0
LINE
  5
C5
330
1F
100
AcDbEntity
  8
ZAPFEN
100
AcDbLine
 10
0.0
 20
3.5
 30
0.0
 11
-21.6996501169
 21
3.5
 31
0.0
  0
LINE
  5
C6
330
1F
100
AcDbEntity
  8
ZAPFEN
100
AcDbLine
 10
-21.6996501169
 20
0.0
 30
0.0
 11
-21.6996501169
 21
-3.5
 31
0.0
  0
LINE
  5
C7
330
1F
100
AcDbEntity
  8
ZAPFEN
100
AcDbLine
 10
-21.6996501169
 20
3.5
 30
0.0
 11
-21.6996501169
 21
0.0
 31
0.0
  0
LINE
  5
C8
330
1F
100
AcDbEntity
  8
ZAPFEN
100
AcDbLine
 10
-21.8996501169
 20
0.0
 30
0.0
 11
-21.8996501169
 21
3.3
 31
0.0
  0
LINE
  5
C9
330
1F
100
AcDbEntity
  8
ZAPFEN
100
AcDbLine
 10
-21.8996501169
 20
-3.3
 30
0.0
 11
-21.8996501169
 21
0.0
 31
0.0
  0
LINE
  5
CA
330
1F
100
AcDbEntity
  8
ZAPFEN
100
AcDbLine
 10
-21.6996501169
 20
-3.5
 30
0.0
 11
0.0
 21
-3.5
 31
0.0
  0
LINE
  5
CB
330
1F
100
AcDbEntity
  8
AUFNAHME
  6
CONTINUOUS
100
AcDbLine
 10
0.0
 20
-3.5
 30
0.0
 11
16.00034904
 21
-3.5
 31
0.0
  0
LINE
  5
CC
330
1F
100
AcDbEntity
  8
UNSICHT
  6
CENTER
100
AcDbLine
 10
-22.7641120189
 20
0.0
 30
0.0
 11
30.4343684211
 21
0.0
 31
0.0
  0
LINE
  5
CD
330
1F
100
AcDbEntity
  8
EW
  6
HIDDEN
100
AcDbLine
 10
-21.8996501169
 20
1.0
 30
0.0
 11
9.8003498831
 21
1.0
 31
0.0
  0
LINE
  5
CE
330
1F
100
AcDbEntity
  8
EW
  6
HIDDEN
100
AcDbLine
 10
9.8003498831
 20
1.0
 30
0.0
 11
14.9859233301
 21
1.0
 31
0.0
  0
LINE
  5
CF
330
1F
100
AcDbEntity
  8
EW
  6
HIDDEN
100
AcDbLine
 10
-21.8996501169
 20
-1.0
 30
0.0
 11
9.8003498831
 21
-1.0
 31
0.0
  0
LINE
  5
D0
330
1F
100
AcDbEntity
  8
EW
  6
HIDDEN
100
AcDbLine
 10
9.8003498831
 20
-1.0
 30
0.0
 11
15.2908699601
 21
-1.0
 31
0.0
  0
LINE
  5
D1
330
1F
100
AcDbEntity
  8
EW
  6
HIDDEN
100
AcDbLine
 10
14.9859233301
 20
1.0
 30
0.0
 11
19.4642906351
 21
2.329284622
 31
0.0
  0
LINE
  5
D2
330
1F
100
AcDbEntity
  8
ZAPFEN
100
AcDbLine
 10
0.0
 20
3.5
 30
0.0
 11
0.0
 21
-3.5
 31
0.0
  0
LINE
  5
D3
330
1F
100
AcDbEntity
  8
EW
  6
HIDDEN
100
AcDbLine
 10
14.9859233301
 20
1.0
 30
0.0
 11
15.2908699601
 21
-1.0
 31
0.0
  0
ARC
  5
D4
330
1F
100
AcDbEntity
  8
AUFNAHME
  6
CONTINUOUS
100
AcDbCircle
 10
29.7310413903
 20
4.4822999945
 30
0.0
 40
0.2693534630000033
100
AcDbArc
 50
356.8972462775
 51
116.861516788
  0
ARC
  5
D5
330
1F
100
AcDbEntity
  8
AUFNAHME
  6
CONTINUOUS
100
AcDbCircle
 10
29.3898922743
 20
-1.814827641
 30
0.0
 40
0.2691605352170933
100
AcDbArc
 50
236.861868919
 51
357.0853741095
  0
ARC
  5
D6
330
1F
100
AcDbEntity
  8
AUFNAHME
  6
CONTINUOUS
100
AcDbCircle
 10
24.1309747773
 20
1.630554705
 30
0.0
 40
0.2709401328223496
100
AcDbArc
 50
116.97362157
 51
236.6913521214
  0
ARC
  5
D7
330
1F
100
AcDbEntity
  8
AUFNAHME
  6
CONTINUOUS
100
AcDbCircle
 10
28.4064837151
 20
4.0976718529
 30
0.0
 40
0.4197482570000097
100
AcDbArc
 50
28.522484508
 51
71.424566593
  0
ARC
  5
D8
330
1F
100
AcDbEntity
  8
AUFNAHME
  6
CONTINUOUS
100
AcDbCircle
 10
20.5581022031
 20
-1.2338742585
 30
0.0
 40
5.810963777577707
100
AcDbArc
 50
80.3905661978
 51
80.65686754
  0
ARC
  5
D9
330
1F
100
AcDbEntity
  8
AUFNAHME
  6
CONTINUOUS
100
AcDbCircle
 10
20.5581022031
 20
-1.2338742585
 30
0.0
 40
5.810963777000012
100
AcDbArc
 50
99.34313246
 51
111.666592159
  0
ARC
  5
DA
330
1F
100
AcDbEntity
  8
AUFNAHME
  6
CONTINUOUS
100
AcDbCircle
 10
28.1976443301
 20
6.3578412255
 30
0.0
 40
10.88860247096414
100
AcDbArc
 50
255.1387179985
 51
274.425632165
  0
ARC
  5
DB
330
1F
100
AcDbEntity
  8
AUFNAHME
  6
CONTINUOUS
100
AcDbCircle
 10
18.737491296
 20
0.3321141661
 30
0.0
 40
2.237858708670975
100
AcDbArc
 50
31.964434872
 51
48.0355651142
  0
ARC
  5
DC
330
1F
100
AcDbEntity
  8
AUFNAHME
  6
CONTINUOUS
100
AcDbCircle
 10
23.7699696031
 20
0.2747233501
 30
0.0
 40
1.03775189427406
100
AcDbArc
 50
207.8299713354
 51
297.381077664
  0
ARC
  5
DD
330
1F
100
AcDbEntity
  8
AUFNAHME
  6
CONTINUOUS
100
AcDbCircle
 10
-7.7559468367
 20
65.1168554367
 30
0.0
 40
73.13725337511634
100
AcDbArc
 50
295.9493908259
 51
296.9117368008
  0
ARC
  5
DE
330
1F
100
AcDbEntity
  8
AUFNAHME
  6
CONTINUOUS
100
AcDbCircle
 10
24.2069753646
 20
-0.0342274578
 30
0.0
 40
1.585062590752915
100
AcDbArc
 50
127.308937434
 51
165.6280930175
  0
ARC
  5
DF
330
1F
100
AcDbEntity
  8
AUFNAHME
  6
CONTINUOUS
100
AcDbCircle
 10
23.6838404156
 20
0.6393718101
 30
0.0
 40
0.73225898520107
100
AcDbArc
 50
116.99598606
 51
126.6975486136
  0
DIMENSION
  5
E0
330
1F
100
AcDbEntity
  8
MASS
100
AcDbDimension
  2
_D
 10
0.0
 20
-14.3113062908
 30
0.0
 11
15.0
 21
-14.3113062908
 31
0.0
 70
   160
  1
<>
  3
SLDDIMSTYLE0
100
AcDbAlignedDimension
 13
30.0
 23
4.4677207523
 33
0.0
 14
0.0
 24
-3.5
 34
0.0
 50
0.0
100
AcDbRotatedDimension
  0
DIMENSION
  5
EC
330
1F
100
AcDbEntity
  8
MASS
100
AcDbDimension
  2
_D_1
 10
0.0
 20
-14.3113062908
 30
0.0
 11
-10.9498250585
 21
-14.3113062908
 31
0.0
 70
   160
  1
<>
  3
SLDDIMSTYLE1
100
AcDbAlignedDimension
 13
-21.8996501169
 23
-3.3
 33
0.0
 14
0.0
 24
-3.5
 34
0.0
100
AcDbRotatedDimension
  0
DIMENSION
  5
F7
330
1F
100
AcDbEntity
  8
MASS
100
AcDbDimension
  2
_D_2
 10
-21.8996501169
 20
14.1223122289
 30
0.0
 11
4.0501749415
 21
14.1223122289
 31
0.0
 70
   160
  1
<>
  3
SLDDIMSTYLE1
100
AcDbAlignedDimension
 13
30.0
 23
4.4677207523
 33
0.0
 14
-21.8996501169
 24
3.3
 34
0.0
 50
0.0
100
AcDbRotatedDimension
  0
DIMENSION
  5
101
330
1F
100
AcDbEntity
  8
MASS
100
AcDbDimension
  2
_D_3
 10
-29.4720806703
 20
-3.5
 30
0.0
 11
-29.4720806703
 21
0.0
 31
0.0
 70
   160
  1
%%c<>
  3
SLDDIMSTYLE2
100
AcDbAlignedDimension
 13
-21.6996501169
 23
3.5
 33
0.0
 14
-21.6996501169
 24
-3.5
 34
0.0
 50
90.0
100
AcDbRotatedDimension
  0
DIMENSION
  5
10F
330
1F
100
AcDbEntity
  8
MASS
100
AcDbDimension
  2
_D_4
 10
38.1262484274
 20
0.0
 30
0.0
 11
38.1262484274
 21
18.3344219114
 31
0.0
 70
   160
  1
%%c9.8 - 12.0
  3
SLDDIMSTYLE3
100
AcDbAlignedDimension
 13
29.6093379004
 23
4.7225905448
 33
0.0
 14
30.4343684211
 24
0.0
 34
0.0
 50
90.0
100
AcDbRotatedDimension
  0
MTEXT
  5
11A
330
1F
100
AcDbEntity
  8
MASS
100
AcDbMText
 10
1.0920424763
 20
10.2318389699
 30
0.0
 40
3.5
 41
0.0
 71
     1
 72
     1
  1
615.509
  7
SLDTEXTSTYLE0
  0
ENDSEC
  0
SECTION
  2
OBJECTS
  0
DICTIONARY
  5
C
330
0
100
AcDbDictionary
  3
ACAD_GROUP
350
D
  3
ACAD_MLINESTYLE
350
17
  0
DICTIONARY
  5
D
102
{ACAD_REACTORS
330
C
102
}
330
C
100
AcDbDictionary
  0
DICTIONARY
  5
17
102
{ACAD_REACTORS
330
C
102
}
330
C
100
AcDbDictionary
  3
STANDARD
350
18
  0
MLINESTYLE
  5
18
102
{ACAD_REACTORS
330
17
102
}
330
17
100
AcDbMlineStyle
  2
Standard
 70
     0
  3

 62
   256
 51
90.0
 52
90.0
 71
     2
 49
0.5
 62
   256
  6
BYLAYER
 49
-0.5
 62
   256
  6
BYLAYER
  0
ENDSEC
  0
EOF
