  0
SECTION
  2
HEADER
  9
$ACADVER
  1
AC1014
  9
$ACADMAINTVER
 70
     9
  9
$DWGCODEPAGE
  3
ANSI_1252
  9
$INSBASE
 10
0.0
 20
0.0
 30
0.0
  9
$EXTMIN
 10
0.0
 20
0.0
 30
0.0
  9
$EXTMAX
 10
210.0
 20
297.0
 30
0.0
  9
$LIMMIN
 10
0.0
 20
0.0
  9
$LIMMAX
 10
210.0
 20
297.0
  9
$ORTHOMODE
 70
     0
  9
$REGENMODE
 70
     1
  9
$FILLMODE
 70
     1
  9
$QTEXTMODE
 70
     0
  9
$MIRRTEXT
 70
     1
  9
$DRAGMODE
 70
     2
  9
$LTSCALE
 40
1.0
  9
$OSMODE
 70
    37
  9
$ATTMODE
 70
     1
  9
$TEXTSIZE
 40
3.5
  9
$TRACEWID
 40
1.0
  9
$TEXTSTYLE
  7
STANDARD
  9
$CLAYER
  8
0
  9
$CELTYPE
  6
BYLAYER
  9
$CECOLOR
 62
   256
  9
$CELTSCALE
 40
1.0
  9
$DELOBJ
 70
     1
  9
$DISPSILH
 70
     0
  9
$DIMSCALE
 40
1.0
  9
$DIMASZ
 40
3.5
  9
$DIMEXO
 40
0.0
  9
$DIMDLI
 40
3.75
  9
$DIMRND
 40
0.0
  9
$DIMDLE
 40
0.0
  9
$DIMEXE
 40
1.0
  9
$DIMTP
 40
0.0
  9
$DIMTM
 40
0.0
  9
$DIMTXT
 40
3.5
  9
$DIMCEN
 40
2.5
  9
$DIMTSZ
 40
0.0
  9
$DIMTOL
 70
     0
  9
$DIMLIM
 70
     0
  9
$DIMTIH
 70
     1
  9
$DIMTOH
 70
     1
  9
$DIMSE1
 70
     0
  9
$DIMSE2
 70
     0
  9
$DIMTAD
 70
     1
  9
$DIMZIN
 70
     0
  9
$DIMBLK
  1

  9
$DIMASO
 70
     1
  9
$DIMSHO
 70
     1
  9
$DIMPOST
  1

  9
$DIMAPOST
  1

  9
$DIMALT
 70
     0
  9
$DIMALTD
 70
     3
  9
$DIMALTF
 40
0.0393700787
  9
$DIMLFAC
 40
1.0
  9
$DIMTOFL
 70
     1
  9
$DIMTVP
 40
0.0
  9
$DIMTIX
 70
     0
  9
$DIMSOXD
 70
     0
  9
$DIMSAH
 70
     0
  9
$DIMBLK1
  1

  9
$DIMBLK2
  1

  9
$DIMSTYLE
  2
ISO-25
  9
$DIMCLRD
 70
     0
  9
$DIMCLRE
 70
     0
  9
$DIMCLRT
 70
     0
  9
$DIMTFAC
 40
1.0
  9
$DIMGAP
 40
1.5
  9
$DIMJUST
 70
     0
  9
$DIMSD1
 70
     0
  9
$DIMSD2
 70
     0
  9
$DIMTOLJ
 70
     0
  9
$DIMTZIN
 70
     0
  9
$DIMALTZ
 70
     0
  9
$DIMALTTZ
 70
     0
  9
$DIMFIT
 70
     3
  9
$DIMUPT
 70
     0
  9
$DIMUNIT
 70
     2
  9
$DIMDEC
 70
     2
  9
$DIMTDEC
 70
     3
  9
$DIMALTU
 70
     2
  9
$DIMALTTD
 70
     3
  9
$DIMTXSTY
  7
STANDARD
  9
$DIMAUNIT
 70
     0
  9
$LUNITS
 70
     2
  9
$LUPREC
 70
     2
  9
$SKETCHINC
 40
1.0
  9
$FILLETRAD
 40
10.0
  9
$AUNITS
 70
     0
  9
$AUPREC
 70
     2
  9
$MENU
  1
.
  9
$ELEVATION
 40
0.0
  9
$PELEVATION
 40
0.0
  9
$THICKNESS
 40
0.0
  9
$LIMCHECK
 70
     0
  9
$CHAMFERA
 40
10.0
  9
$CHAMFERB
 40
10.0
  9
$CHAMFERC
 40
20.0
  9
$CHAMFERD
 40
0.0
  9
$SKPOLY
 70
     0
  9
$TDCREATE
 40
2456436.36312625
  9
$TDUPDATE
 40
2456436.363126863
  9
$TDINDWG
 40
0.0000000116
  9
$TDUSRTIMER
 40
0.0000000116
  9
$USRTIMER
 70
     1
  9
$ANGBASE
 50
0.0
  9
$ANGDIR
 70
     0
  9
$PDMODE
 70
     0
  9
$PDSIZE
 40
-1.0
  9
$PLINEWID
 40
0.0
  9
$COORDS
 70
     1
  9
$SPLFRAME
 70
     0
  9
$SPLINETYPE
 70
     6
  9
$SPLINESEGS
 70
     8
  9
$ATTDIA
 70
     0
  9
$ATTREQ
 70
     1
  9
$HANDLING
 70
     1
  9
$HANDSEED
  5
117
  9
$SURFTAB1
 70
     6
  9
$SURFTAB2
 70
     6
  9
$SURFTYPE
 70
     6
  9
$SURFU
 70
     6
  9
$SURFV
 70
     6
  9
$UCSNAME
  2

  9
$UCSORG
 10
0.0
 20
0.0
 30
0.0
  9
$UCSXDIR
 10
1.0
 20
0.0
 30
0.0
  9
$UCSYDIR
 10
0.0
 20
1.0
 30
0.0
  9
$PUCSNAME
  2

  9
$PUCSORG
 10
0.0
 20
0.0
 30
0.0
  9
$PUCSXDIR
 10
1.0
 20
0.0
 30
0.0
  9
$PUCSYDIR
 10
0.0
 20
1.0
 30
0.0
  9
$USERI1
 70
     0
  9
$USERI2
 70
     0
  9
$USERI3
 70
     0
  9
$USERI4
 70
     0
  9
$USERI5
 70
     0
  9
$USERR1
 40
0.0
  9
$USERR2
 40
0.0
  9
$USERR3
 40
0.0
  9
$USERR4
 40
0.0
  9
$USERR5
 40
0.0
  9
$WORLDVIEW
 70
     1
  9
$SHADEDGE
 70
     3
  9
$SHADEDIF
 70
    70
  9
$TILEMODE
 70
     1
  9
$MAXACTVP
 70
    64
  9
$PINSBASE
 10
0.0
 20
0.0
 30
0.0
  9
$PLIMCHECK
 70
     0
  9
$PEXTMIN
 10
1.0000000000E+20
 20
1.0000000000E+20
 30
1.0000000000E+20
  9
$PEXTMAX
 10
-1.0000000000E+20
 20
-1.0000000000E+20
 30
-1.0000000000E+20
  9
$PLIMMIN
 10
0.0
 20
0.0
  9
$PLIMMAX
 10
420.0
 20
297.0
  9
$UNITMODE
 70
     0
  9
$VISRETAIN
 70
     1
  9
$PLINEGEN
 70
     0
  9
$PSLTSCALE
 70
     1
  9
$TREEDEPTH
 70
  3020
  9
$PICKSTYLE
 70
     1
  9
$CMLSTYLE
  2
STANDARD
  9
$CMLJUST
 70
     0
  9
$CMLSCALE
 40
20.0
  9
$PROXYGRAPHICS
 70
     1
  9
$MEASUREMENT
 70
     1
  0
ENDSEC
  0
SECTION
  2
CLASSES
  0
CLASS
  1
ACDBDICTIONARYWDFLT
  2
AcDbDictionaryWithDefault
  3
ObjectDBX Classes
 90
        0
280
     0
281
     0
  0
CLASS
  1
VISUALSTYLE
  2
AcDbVisualStyle
  3
ObjectDBX Classes
 90
     4095
280
     0
281
     0
  0
CLASS
  1
MATERIAL
  2
AcDbMaterial
  3
ObjectDBX Classes
 90
     1153
280
     0
281
     0
  0
CLASS
  1
XRECORD
  2
AcDbXrecord
  3
AutoCAD 2000
 90
        0
280
     0
281
     0
  0
CLASS
  1
LWPOLYLINE
  2
AcDbPolyline
  3
AutoCAD 2000
 90
        0
280
     0
281
     1
  0
CLASS
  1
HATCH
  2
AcDbHatch
  3
AutoCAD 2000
 90
        0
280
     0
281
     1
  0
ENDSEC
  0
SECTION
  2
TABLES
  0
TABLE
  2
VPORT
  5
8
330
0
100
AcDbSymbolTable
 70
     1
  0
VPORT
  5
29
330
8
100
AcDbSymbolTableRecord
100
AcDbViewportTableRecord
  2
*ACTIVE
 70
     0
 10
0.0
 20
0.0
 11
1.0
 21
1.0
 12
105.0
 22
148.5
 13
0.0
 23
0.0
 14
10.0
 24
10.0
 15
10.0
 25
10.0
 16
0.0
 26
0.0
 36
1.0
 17
0.0
 27
0.0
 37
0.0
 40
297.0
 41
0.7070707071
 42
50.0
 43
0.0
 44
0.0
 50
0.0
 51
0.0
 71
     0
 72
  2000
 73
     1
 74
     3
 75
     0
 76
     0
 77
     0
 78
     0
  0
ENDTAB
  0
TABLE
  2
LTYPE
  5
5
330
0
100
AcDbSymbolTable
 70
     6
  0
LTYPE
  5
14
330
5
100
AcDbSymbolTableRecord
100
AcDbLinetypeTableRecord
  2
BYBLOCK
 70
     0
  3

 72
    65
 73
     0
 40
0.0
  0
LTYPE
  5
15
330
5
100
AcDbSymbolTableRecord
100
AcDbLinetypeTableRecord
  2
BYLAYER
 70
     0
  3

 72
    65
 73
     0
 40
0.0
  0
LTYPE
  5
16
330
5
100
AcDbSymbolTableRecord
100
AcDbLinetypeTableRecord
  2
CONTINUOUS
 70
     0
  3
Solid line
 72
    65
 73
     0
 40
0.0
  0
LTYPE
  5
3F
330
5
100
AcDbSymbolTableRecord
100
AcDbLinetypeTableRecord
  2
HIDDEN
 70
     0
  3
Hidden __ __ __ __ __ __ __ __ __ __ __ __ __ __
 72
    65
 73
     2
 40
1.905
 49
1.27
 74
     0
 49
-0.635
 74
     0
  0
LTYPE
  5
40
330
5
100
AcDbSymbolTableRecord
100
AcDbLinetypeTableRecord
  2
PHANTOM
 70
     0
  3
Phantom ______  __  __  ______  __  __  ______
 72
    65
 73
     6
 40
12.7
 49
6.35
 74
     0
 49
-1.27
 74
     0
 49
1.27
 74
     0
 49
-1.27
 74
     0
 49
1.27
 74
     0
 49
-1.27
 74
     0
  0
LTYPE
  5
41
330
5
100
AcDbSymbolTableRecord
100
AcDbLinetypeTableRecord
  2
CENTER
 70
     0
  3
Center ____ _ ____ _ ____ _ ____ _ ____ _ ____
 72
    65
 73
     4
 40
10.16
 49
6.35
 74
     0
 49
-1.27
 74
     0
 49
1.27
 74
     0
 49
-1.27
 74
     0
  0
LTYPE
  5
42
330
5
100
AcDbSymbolTableRecord
100
AcDbLinetypeTableRecord
  2
CENTERX2
 70
     0
  3
Center (2x) ________  __  ________  __  _____
 72
    65
 73
     4
 40
20.32
 49
12.7
 74
     0
 49
-2.54
 74
     0
 49
2.54
 74
     0
 49
-2.54
 74
     0
  0
LTYPE
  5
43
330
5
100
AcDbSymbolTableRecord
100
AcDbLinetypeTableRecord
  2
DOT2
 70
     0
  3
Dot (.5x) ........................................
 72
    65
 73
     2
 40
0.635
 49
0.0
 74
     0
 49
-0.635
 74
     0
  0
ENDTAB
  0
TABLE
  2
LAYER
  5
2
330
0
100
AcDbSymbolTable
 70
     7
  0
LAYER
  5
10
330
2
100
AcDbSymbolTableRecord
100
AcDbLayerTableRecord
  2
0
 70
     0
 62
     7
  6
CONTINUOUS
  0
LAYER
  5
44
330
2
100
AcDbSymbolTableRecord
100
AcDbLayerTableRecord
  2
AUFNAHME
 70
     0
 62
     7
  6
CONTINUOUS
  0
LAYER
  5
45
330
2
100
AcDbSymbolTableRecord
100
AcDbLayerTableRecord
  2
MASS
 70
     0
 62
     4
  6
CONTINUOUS
  0
LAYER
  5
46
330
2
100
AcDbSymbolTableRecord
100
AcDbLayerTableRecord
  2
EW
 70
     0
 62
     1
  6
HIDDEN
  0
LAYER
  5
47
330
2
100
AcDbSymbolTableRecord
100
AcDbLayerTableRecord
  2
UNSICHT
 70
     0
 62
     4
  6
CENTER
  0
LAYER
  5
48
330
2
100
AcDbSymbolTableRecord
100
AcDbLayerTableRecord
  2
TEXT
 70
     0
 62
     7
  6
CONTINUOUS
  0
LAYER
  5
49
330
2
100
AcDbSymbolTableRecord
100
AcDbLayerTableRecord
  2
ZAPFEN
 70
     0
 62
     4
  6
CONTINUOUS
  0
ENDTAB
  0
TABLE
  2
STYLE
  5
3
330
0
100
AcDbSymbolTable
 70
     2
  0
STYLE
  5
11
330
3
100
AcDbSymbolTableRecord
100
AcDbTextStyleTableRecord
  2
STANDARD
 70
     0
 40
0.0
 41
1.0
 50
0.0
 71
     0
 42
3.5
  3
txt
  4

  0
STYLE
  5
DB
330
3
100
AcDbSymbolTableRecord
100
AcDbTextStyleTableRecord
  2
SLDTEXTSTYLE0
 70
     0
 40
0.0
 41
0.605
 50
0.0
 71
     0
 42
0.2
  3
TXT
  4

  0
ENDTAB
  0
TABLE
  2
VIEW
  5
6
330
0
100
AcDbSymbolTable
 70
     0
  0
ENDTAB
  0
TABLE
  2
UCS
  5
7
330
0
100
AcDbSymbolTable
 70
     0
  0
ENDTAB
  0
TABLE
  2
APPID
  5
9
330
0
100
AcDbSymbolTable
 70
     1
  0
APPID
  5
12
330
9
100
AcDbSymbolTableRecord
100
AcDbRegAppTableRecord
  2
ACAD
 70
     0
  0
ENDTAB
  0
TABLE
  2
DIMSTYLE
  5
A
330
0
100
AcDbSymbolTable
 70
     5
  0
DIMSTYLE
105
27
330
A
100
AcDbSymbolTableRecord
100
AcDbDimStyleTableRecord
  2
ISO-25
 70
     0
  3

  4

  5

  6

  7

 40
1.0
 41
2.5
 42
0.625
 43
3.75
 44
1.25
 45
0.0
 46
0.0
 47
0.0
 48
0.0
140
2.5
141
2.5
142
0.0
143
0.0393700787
144
1.0
145
0.0
146
1.0
147
0.625
 71
     0
 72
     0
 73
     0
 74
     0
 75
     0
 76
     0
 77
     1
 78
     8
170
     0
171
     3
172
     1
173
     0
174
     0
175
     0
176
     0
177
     0
178
     0
270
     2
271
     2
272
     2
273
     2
274
     3
340
11
275
     0
280
     0
281
     0
282
     0
283
     0
284
     8
285
     0
286
     0
287
     3
288
     0
  0
DIMSTYLE
105
DC
102
{ACAD_REACTORS
330
DA
102
}
330
A
100
AcDbSymbolTableRecord
100
AcDbDimStyleTableRecord
  2
SLDDIMSTYLE0
 70
     0
  3

  4

  5

  6

  7

 40
1.0
 41
3.5
 42
0.0625
 43
0.38
 44
0.0
 45
0.000000001
 46
0.0
 47
0.0
 48
0.0
140
3.5
141
0.09
142
0.0
143
25.4
144
1.0
145
0.0
146
1.0
147
0.875
 71
     0
 72
     0
 73
     0
 74
     0
 75
     0
 76
     0
 77
     1
 78
    12
170
     0
171
     2
172
     0
173
     1
174
     0
175
     0
176
     0
177
     0
178
     0
270
     2
271
     2
272
     3
273
     2
274
     2
340
DB
275
     0
280
     0
281
     0
282
     0
283
     1
284
    12
285
     0
286
     0
287
     3
288
     0
  0
DIMSTYLE
105
E7
102
{ACAD_REACTORS
330
E6
330
F1
102
}
330
A
100
AcDbSymbolTableRecord
100
AcDbDimStyleTableRecord
  2
SLDDIMSTYLE1
 70
     0
  3

  4

  5

  6

  7

 40
1.0
 41
3.5
 42
0.0625
 43
0.38
 44
0.0
 45
0.000000001
 46
0.0
 47
0.0
 48
0.0
140
3.5
141
0.09
142
0.0
143
25.4
144
1.0
145
0.0
146
1.0
147
0.875
 71
     0
 72
     0
 73
     0
 74
     0
 75
     0
 76
     0
 77
     1
 78
    12
170
     0
171
     2
172
     0
173
     1
174
     0
175
     0
176
     0
177
     0
178
     0
270
     2
271
     0
272
     3
273
     2
274
     2
340
DB
275
     0
280
     0
281
     0
282
     0
283
     1
284
    12
285
     0
286
     0
287
     3
288
     0
  0
DIMSTYLE
105
FE
102
{ACAD_REACTORS
330
FD
102
}
330
A
100
AcDbSymbolTableRecord
100
AcDbDimStyleTableRecord
  2
SLDDIMSTYLE2
 70
     0
  3

  4

  5

  6

  7

 40
1.0
 41
3.5
 42
0.0625
 43
0.38
 44
0.0
 45
0.000000001
 46
0.0
 47
0.0
 48
0.0
140
3.5
141
0.09
142
0.0
143
25.4
144
1.0
145
0.0
146
1.0
147
0.875
 71
     0
 72
     0
 73
     0
 74
     0
 75
     0
 76
     0
 77
     1
 78
    12
170
     0
171
     2
172
     1
173
     1
174
     0
175
     0
176
     0
177
     0
178
     0
270
     2
271
     2
272
     3
273
     2
274
     2
340
DB
275
     0
280
     0
281
     0
282
     0
283
     1
284
    12
285
     0
286
     0
288
     0
  0
DIMSTYLE
105
10C
102
{ACAD_REACTORS
330
10B
102
}
330
A
100
AcDbSymbolTableRecord
100
AcDbDimStyleTableRecord
  2
SLDDIMSTYLE3
 70
     0
  3

  4

  5

  6

  7

 40
1.0
 41
3.5
 42
0.0625
 43
0.38
 44
0.0
 45
0.000000001
 46
0.0
 47
0.0
 48
0.0
140
3.5
141
0.09
142
0.0
143
25.4
144
1.0
145
0.0
146
1.0
147
0.875
 71
     0
 72
     0
 73
     0
 74
     0
 75
     0
 76
     0
 77
     1
 78
    12
170
     0
171
     2
172
     1
173
     1
174
     0
175
     0
176
     0
177
     0
178
     0
270
     2
271
     2
272
     3
273
     2
274
     2
340
DB
275
     0
280
     0
281
     0
282
     0
283
     1
284
    12
285
     0
286
     0
288
     0
  0
ENDTAB
  0
TABLE
  2
BLOCK_RECORD
  5
1
330
0
100
AcDbSymbolTable
 70
     6
  0
BLOCK_RECORD
  5
1F
330
1
100
AcDbSymbolTableRecord
100
AcDbBlockTableRecord
  2
*MODEL_SPACE
  0
BLOCK_RECORD
  5
1B
330
1
100
AcDbSymbolTableRecord
100
AcDbBlockTableRecord
  2
*PAPER_SPACE
  0
BLOCK_RECORD
  5
23
330
1
100
AcDbSymbolTableRecord
100
AcDbBlockTableRecord
  2
*PAPER_SPACE0
  0
BLOCK_RECORD
  5
DD
330
1
100
AcDbSymbolTableRecord
100
AcDbBlockTableRecord
  2
_D
  0
BLOCK_RECORD
  5
E8
330
1
100
AcDbSymbolTableRecord
100
AcDbBlockTableRecord
  2
_D_1
  0
BLOCK_RECORD
  5
F2
330
1
100
AcDbSymbolTableRecord
100
AcDbBlockTableRecord
  2
_D_2
  0
BLOCK_RECORD
  5
FF
330
1
100
AcDbSymbolTableRecord
100
AcDbBlockTableRecord
  2
_D_3
  0
BLOCK_RECORD
  5
10D
330
1
100
AcDbSymbolTableRecord
100
AcDbBlockTableRecord
  2
_D_4
  0
ENDTAB
  0
ENDSEC
  0
SECTION
  2
BLOCKS
  0
BLOCK
  5
20
330
1F
100
AcDbEntity
  8
0
100
AcDbBlockBegin
  2
*MODEL_SPACE
 70
     0
 10
0.0
 20
0.0
 30
0.0
  3
*MODEL_SPACE
  1

  0
ENDBLK
  5
21
330
1F
100
AcDbEntity
  8
0
100
AcDbBlockEnd
  0
BLOCK
  5
1C
330
1B
100
AcDbEntity
 67
     1
  8
0
100
AcDbBlockBegin
  2
*PAPER_SPACE
 70
     0
 10
0.0
 20
0.0
 30
0.0
  3
*PAPER_SPACE
  1

  0
ENDBLK
  5
1D
330
1B
100
AcDbEntity
 67
     1
  8
0
100
AcDbBlockEnd
  0
BLOCK
  5
24
330
23
100
AcDbEntity
  8
0
100
AcDbBlockBegin
  2
*PAPER_SPACE0
 70
     0
 10
0.0
 20
0.0
 30
0.0
  3
*PAPER_SPACE0
  1

  0
ENDBLK
  5
25
330
23
100
AcDbEntity
  8
0
100
AcDbBlockEnd
  0
BLOCK
  5
DE
330
DD
100
AcDbEntity
  8
0
100
AcDbBlockBegin
  2
_D
 70
     0
 10
0.0
 20
0.0
 30
0.0
  3
_D
  1

  0
SOLID
  5
E0
330
DD
100
AcDbEntity
  8
MASS
100
AcDbTrace
 10
30.0
 20
-13.4951922247
 30
0.0
 11
26.5
 21
-13.0451922247
 31
0.0
 12
26.5
 22
-13.9451922247
 32
0.0
 13
26.5
 23
-13.9451922247
 33
0.0
  0
SOLID
  5
E1
330
DD
100
AcDbEntity
  8
MASS
100
AcDbTrace
 10
0.0
 20
-13.4951922247
 30
0.0
 11
3.5
 21
-13.9451922247
 31
0.0
 12
3.5
 22
-13.0451922247
 32
0.0
 13
3.5
 23
-13.0451922247
 33
0.0
  0
LINE
  5
E2
330
DD
100
AcDbEntity
  8
MASS
100
AcDbLine
 10
30.0
 20
3.9620493123
 30
0.0
 11
30.0
 21
-14.4951922247
 31
0.0
  0
LINE
  5
E3
330
DD
100
AcDbEntity
  8
MASS
100
AcDbLine
 10
0.0
 20
-3.5
 30
0.0
 11
0.0
 21
-14.4951922247
 31
0.0
  0
LINE
  5
E4
330
DD
100
AcDbEntity
  8
MASS
100
AcDbLine
 10
30.0
 20
-13.4951922247
 30
0.0
 11
0.0
 21
-13.4951922247
 31
0.0
  0
MTEXT
  5
E5
330
DD
100
AcDbEntity
  8
MASS
100
AcDbMText
 10
11.4927081019
 20
-8.9834550191
 30
0.1
 40
3.5
 41
0.0
 71
     1
 72
     1
  1
30
  7
SLDTEXTSTYLE0
  0
ENDBLK
  5
DF
330
DD
100
AcDbEntity
  8
0
100
AcDbBlockEnd
  0
BLOCK
  5
E9
330
E8
100
AcDbEntity
  8
0
100
AcDbBlockBegin
  2
_D_1
 70
     0
 10
0.0
 20
0.0
 30
0.0
  3
_D_1
  1

  0
SOLID
  5
EB
330
E8
100
AcDbEntity
  8
MASS
100
AcDbTrace
 10
0.0
 20
-13.4951922247
 30
0.0
 11
-3.5
 21
-13.0451922247
 31
0.0
 12
-3.5
 22
-13.9451922247
 32
0.0
 13
-3.5
 23
-13.9451922247
 33
0.0
  0
SOLID
  5
EC
330
E8
100
AcDbEntity
  8
MASS
100
AcDbTrace
 10
-21.7996501169
 20
-13.4951922247
 30
0.0
 11
-18.2996501169
 21
-13.9451922247
 31
0.0
 12
-18.2996501169
 22
-13.0451922247
 32
0.0
 13
-18.2996501169
 23
-13.0451922247
 33
0.0
  0
LINE
  5
ED
330
E8
100
AcDbEntity
  8
MASS
100
AcDbLine
 10
0.0
 20
-3.5
 30
0.0
 11
0.0
 21
-14.4951922247
 31
0.0
  0
LINE
  5
EE
330
E8
100
AcDbEntity
  8
MASS
100
AcDbLine
 10
-21.7996501169
 20
-3.3
 30
0.0
 11
-21.7996501169
 21
-14.4951922247
 31
0.0
  0
LINE
  5
EF
330
E8
100
AcDbEntity
  8
MASS
100
AcDbLine
 10
0.0
 20
-13.4951922247
 30
0.0
 11
-21.7996501169
 21
-13.4951922247
 31
0.0
  0
MTEXT
  5
F0
330
E8
100
AcDbEntity
  8
MASS
100
AcDbMText
 10
-14.4071169566
 20
-8.9834550191
 30
0.1
 40
3.5
 41
0.0
 71
     1
 72
     1
  1
22
  7
SLDTEXTSTYLE0
  0
ENDBLK
  5
EA
330
E8
100
AcDbEntity
  8
0
100
AcDbBlockEnd
  0
BLOCK
  5
F3
330
F2
100
AcDbEntity
  8
0
100
AcDbBlockBegin
  2
_D_2
 70
     0
 10
0.0
 20
0.0
 30
0.0
  3
_D_2
  1

  0
ARC
  5
F5
330
F2
100
AcDbEntity
  8
MASS
100
AcDbCircle
 10
7.352258319
 20
15.8924385258
 30
0.0
 40
6.087074242331735
100
AcDbArc
 50
153.4349488229
 51
206.5650511771
  0
ARC
  5
F6
330
F2
100
AcDbEntity
  8
MASS
100
AcDbCircle
 10
0.8480914477
 20
15.8924385258
 30
0.0
 40
6.087074242331736
100
AcDbArc
 50
333.4349488229
 51
26.5650511771
  0
SOLID
  5
F7
330
F2
100
AcDbEntity
  8
MASS
100
AcDbTrace
 10
30.0
 20
13.1702161678
 30
0.0
 11
26.5
 21
13.6202161678
 31
0.0
 12
26.5
 22
12.7202161678
 32
0.0
 13
26.5
 23
12.7202161678
 33
0.0
  0
SOLID
  5
F8
330
F2
100
AcDbEntity
  8
MASS
100
AcDbTrace
 10
-21.7996501169
 20
13.1702161678
 30
0.0
 11
-18.2996501169
 21
12.7202161678
 31
0.0
 12
-18.2996501169
 22
13.6202161678
 32
0.0
 13
-18.2996501169
 23
13.6202161678
 33
0.0
  0
LINE
  5
F9
330
F2
100
AcDbEntity
  8
MASS
100
AcDbLine
 10
30.0
 20
3.9620493123
 30
0.0
 11
30.0
 21
14.1702161678
 31
0.0
  0
LINE
  5
FA
330
F2
100
AcDbEntity
  8
MASS
100
AcDbLine
 10
-21.7996501169
 20
3.3
 30
0.0
 11
-21.7996501169
 21
14.1702161678
 31
0.0
  0
LINE
  5
FB
330
F2
100
AcDbEntity
  8
MASS
100
AcDbLine
 10
30.0
 20
13.1702161678
 30
0.0
 11
-21.7996501169
 21
13.1702161678
 31
0.0
  0
MTEXT
  5
FC
330
F2
100
AcDbEntity
  8
MASS
100
AcDbMText
 10
1.907813603
 20
17.6819533735
 30
0.1
 40
3.5
 41
0.0
 71
     1
 72
     1
  1
52
  7
SLDTEXTSTYLE0
  0
ENDBLK
  5
F4
330
F2
100
AcDbEntity
  8
0
100
AcDbBlockEnd
  0
BLOCK
  5
100
330
FF
100
AcDbEntity
  8
0
100
AcDbBlockBegin
  2
_D_3
 70
     0
 10
0.0
 20
0.0
 30
0.0
  3
_D_3
  1

  0
SOLID
  5
102
330
FF
100
AcDbEntity
  8
MASS
100
AcDbTrace
 10
-27.3038475793
 20
3.5
 30
0.0
 11
-26.8538475793
 21
7.0
 31
0.0
 12
-27.7538475793
 22
7.0
 32
0.0
 13
-27.7538475793
 23
7.0
 33
0.0
  0
SOLID
  5
103
330
FF
100
AcDbEntity
  8
MASS
100
AcDbTrace
 10
-27.3038475793
 20
-3.5
 30
0.0
 11
-27.7538475793
 21
-7.0
 31
0.0
 12
-26.8538475793
 22
-7.0
 32
0.0
 13
-26.8538475793
 23
-7.0
 33
0.0
  0
LINE
  5
104
330
FF
100
AcDbEntity
  8
MASS
100
AcDbLine
 10
-21.5996501169
 20
3.5
 30
0.0
 11
-28.3038475793
 21
3.5
 31
0.0
  0
LINE
  5
105
330
FF
100
AcDbEntity
  8
MASS
100
AcDbLine
 10
-21.5996501169
 20
-3.5
 30
0.0
 11
-28.3038475793
 21
-3.5
 31
0.0
  0
LINE
  5
106
330
FF
100
AcDbEntity
  8
MASS
100
AcDbLine
 10
-27.3038475793
 20
3.5
 30
0.0
 11
-27.3038475793
 21
8.5
 31
0.0
  0
LINE
  5
107
330
FF
100
AcDbEntity
  8
MASS
100
AcDbLine
 10
-27.3038475793
 20
3.5
 30
0.0
 11
-27.3038475793
 21
-3.5
 31
0.0
  0
LINE
  5
108
330
FF
100
AcDbEntity
  8
MASS
100
AcDbLine
 10
-27.3038475793
 20
-3.5
 30
0.0
 11
-27.3038475793
 21
-8.5
 31
0.0
  0
MTEXT
  5
109
330
FF
100
AcDbEntity
  8
MASS
100
AcDbMText
 10
-31.8155847849
 20
-4.9972226843
 30
0.1
 40
3.5
 41
0.0
 71
     1
 72
     1
  1
%%c
  7
SLDTEXTSTYLE0
 11
-7.044195017643634E-15
 21
1.0
 31
0.0
  0
MTEXT
  5
10A
330
FF
100
AcDbEntity
  8
MASS
100
AcDbMText
 10
-31.8155847849
 20
0.1749997027
 30
0.1
 40
3.5
 41
0.0
 71
     1
 72
     1
  1
7
  7
SLDTEXTSTYLE0
 11
-7.044195017643634E-15
 21
1.0
 31
0.0
  0
ENDBLK
  5
101
330
FF
100
AcDbEntity
  8
0
100
AcDbBlockEnd
  0
BLOCK
  5
10E
330
10D
100
AcDbEntity
  8
0
100
AcDbBlockBegin
  2
_D_4
 70
     0
 10
0.0
 20
0.0
 30
0.0
  3
_D_4
  1

  0
SOLID
  5
110
330
10D
100
AcDbEntity
  8
MASS
100
AcDbTrace
 10
37.3562888132
 20
4.2169191048
 30
0.0
 11
37.8062888132
 21
7.7169191048
 31
0.0
 12
36.9062888132
 22
7.7169191048
 32
0.0
 13
36.9062888132
 23
7.7169191048
 33
0.0
  0
LINE
  5
111
330
10D
100
AcDbEntity
  8
MASS
100
AcDbLine
 10
29.6093379004
 20
4.2169191048
 30
0.0
 11
38.3562888132
 21
4.2169191048
 31
0.0
  0
LINE
  5
112
330
10D
100
AcDbEntity
  8
MASS
100
AcDbLine
 10
37.3562888132
 20
0.0
 30
0.0
 11
37.3562888132
 21
4.2169191048
 31
0.0
  0
LINE
  5
113
330
10D
100
AcDbEntity
  8
MASS
100
AcDbLine
 10
37.3562888132
 20
4.2169191048
 30
0.0
 11
37.3562888132
 21
28.7600503381
 31
0.0
  0
MTEXT
  5
114
330
10D
100
AcDbEntity
  8
MASS
100
AcDbMText
 10
32.8445516076
 20
6.9190775123
 30
0.1
 40
3.5
 41
0.0
 71
     1
 72
     1
  1
%%c
  7
SLDTEXTSTYLE0
 11
-7.044195017643634E-15
 21
1.0
 31
0.0
  0
MTEXT
  5
115
330
10D
100
AcDbEntity
  8
MASS
100
AcDbMText
 10
32.8445516076
 20
12.0912998993
 30
0.1
 40
3.5
 41
0.0
 71
     1
 72
     1
  1
8.8 - 10.0
  7
SLDTEXTSTYLE0
 11
-7.044195017643634E-15
 21
1.0
 31
0.0
  0
ENDBLK
  5
10F
330
10D
100
AcDbEntity
  8
0
100
AcDbBlockEnd
  0
ENDSEC
  0
SECTION
  2
ENTITIES
  0
LINE
  5
4A
330
1F
100
AcDbEntity
  8
ZAPFEN
100
AcDbLine
 10
0.0
 20
3.5
 30
0.0
 11
0.0
 21
-3.5
 31
0.0
  0
LINE
  5
4B
330
1F
100
AcDbEntity
  8
AUFNAHME
  6
CONTINUOUS
100
AcDbLine
 10
16.5003498831
 20
4.0
 30
0.0
 11
16.0003493502
 21
3.4999994672
 31
0.0
  0
LINE
  5
4C
330
1F
100
AcDbEntity
  8
AUFNAHME
  6
CONTINUOUS
100
AcDbLine
 10
16.0003493502
 20
-3.5
 30
0.0
 11
16.5003498831
 21
-4.0000005328
 31
0.0
  0
LINE
  5
4D
330
1F
100
AcDbEntity
  8
AUFNAHME
  6
CONTINUOUS
100
AcDbLine
 10
16.5003498831
 20
-4.0000005328
 30
0.0
 11
29.285566357
 21
-4.0000005328
 31
0.0
  0
LINE
  5
4E
330
1F
100
AcDbEntity
  8
AUFNAHME
  6
CONTINUOUS
100
AcDbLine
 10
28.5525183631
 20
4.0
 30
0.0
 11
16.5003498831
 21
4.0
 31
0.0
  0
LINE
  5
4F
330
1F
100
AcDbEntity
  8
AUFNAHME
  6
CONTINUOUS
100
AcDbLine
 10
30.0
 20
3.9620493123
 30
0.0
 11
29.6587046261
 21
-2.334185324
 31
0.0
  0
LINE
  5
50
330
1F
100
AcDbEntity
  8
AUFNAHME
  6
CONTINUOUS
100
AcDbLine
 10
29.2427531503
 20
-2.5458820261
 30
0.0
 11
23.9821882842
 21
0.8984519618
 31
0.0
  0
LINE
  5
51
330
1F
100
AcDbEntity
  8
AUFNAHME
  6
CONTINUOUS
100
AcDbLine
 10
24.0081473843
 20
1.366217443
 30
0.0
 11
29.6093379004
 21
4.2169191048
 31
0.0
  0
LINE
  5
52
330
1F
100
AcDbEntity
  8
AUFNAHME
  6
CONTINUOUS
100
AcDbLine
 10
27.5940717871
 20
2.080111859
 30
0.0
 11
27.3835532861
 21
2.060646768
 31
0.0
  0
LINE
  5
53
330
1F
100
AcDbEntity
  8
AUFNAHME
  6
CONTINUOUS
100
AcDbLine
 10
27.3835532861
 20
2.060646768
 30
0.0
 11
27.1801823531
 21
2.002682671
 31
0.0
  0
LINE
  5
54
330
1F
100
AcDbEntity
  8
AUFNAHME
  6
CONTINUOUS
100
AcDbLine
 10
27.1801823531
 20
2.002682671
 30
0.0
 11
26.9908845411
 21
1.908193468
 31
0.0
  0
LINE
  5
55
330
1F
100
AcDbEntity
  8
AUFNAHME
  6
CONTINUOUS
100
AcDbLine
 10
26.9908845411
 20
1.908193468
 30
0.0
 11
26.8221061611
 21
1.780396875
 31
0.0
  0
LINE
  5
56
330
1F
100
AcDbEntity
  8
AUFNAHME
  6
CONTINUOUS
100
AcDbLine
 10
26.8221061611
 20
1.780396875
 30
0.0
 11
26.6795947581
 21
1.623644851
 31
0.0
  0
LINE
  5
57
330
1F
100
AcDbEntity
  8
AUFNAHME
  6
CONTINUOUS
100
AcDbLine
 10
26.6795947581
 20
1.623644851
 30
0.0
 11
26.5682033861
 21
1.443275399
 31
0.0
  0
LINE
  5
58
330
1F
100
AcDbEntity
  8
AUFNAHME
  6
CONTINUOUS
100
AcDbLine
 10
26.5682033861
 20
1.443275399
 30
0.0
 11
26.4917253461
 21
1.245430784
 31
0.0
  0
LINE
  5
59
330
1F
100
AcDbEntity
  8
AUFNAHME
  6
CONTINUOUS
100
AcDbLine
 10
26.4917253461
 20
1.245430784
 30
0.0
 11
26.4527650051
 21
1.036848367
 31
0.0
  0
LINE
  5
5A
330
1F
100
AcDbEntity
  8
AUFNAHME
  6
CONTINUOUS
100
AcDbLine
 10
26.4527650051
 20
1.036848367
 30
0.0
 11
26.4526491111
 21
0.824631172
 31
0.0
  0
LINE
  5
5B
330
1F
100
AcDbEntity
  8
AUFNAHME
  6
CONTINUOUS
100
AcDbLine
 10
26.4526491111
 20
0.824631172
 30
0.0
 11
26.4913816101
 21
0.616006001
 31
0.0
  0
LINE
  5
5C
330
1F
100
AcDbEntity
  8
AUFNAHME
  6
CONTINUOUS
100
AcDbLine
 10
26.4913816101
 20
0.616006001
 30
0.0
 11
26.5676435141
 21
0.418077335
 31
0.0
  0
LINE
  5
5D
330
1F
100
AcDbEntity
  8
AUFNAHME
  6
CONTINUOUS
100
AcDbLine
 10
26.5676435141
 20
0.418077335
 30
0.0
 11
26.6788378151
 21
0.237585396
 31
0.0
  0
LINE
  5
5E
330
1F
100
AcDbEntity
  8
AUFNAHME
  6
CONTINUOUS
100
AcDbLine
 10
26.6788378151
 20
0.237585396
 30
0.0
 11
26.8211779251
 21
0.080676621
 31
0.0
  0
LINE
  5
5F
330
1F
100
AcDbEntity
  8
AUFNAHME
  6
CONTINUOUS
100
AcDbLine
 10
26.8211779251
 20
0.080676621
 30
0.0
 11
26.9898166211
 21
-0.04730565
 31
0.0
  0
LINE
  5
60
330
1F
100
AcDbEntity
  8
AUFNAHME
  6
CONTINUOUS
100
AcDbLine
 10
26.9898166211
 20
-0.04730565
 30
0.0
 11
27.1790111161
 21
-0.142003134
 31
0.0
  0
LINE
  5
61
330
1F
100
AcDbEntity
  8
AUFNAHME
  6
CONTINUOUS
100
AcDbLine
 10
27.1790111161
 20
-0.142003134
 30
0.0
 11
27.3823186171
 21
-0.200191022
 31
0.0
  0
LINE
  5
62
330
1F
100
AcDbEntity
  8
AUFNAHME
  6
CONTINUOUS
100
AcDbLine
 10
27.3823186171
 20
-0.200191022
 30
0.0
 11
27.5928157321
 21
-0.219887795
 31
0.0
  0
LINE
  5
63
330
1F
100
AcDbEntity
  8
AUFNAHME
  6
CONTINUOUS
100
AcDbLine
 10
27.5928157321
 20
-0.219887795
 30
0.0
 11
27.8033342331
 21
-0.200422703
 31
0.0
  0
LINE
  5
64
330
1F
100
AcDbEntity
  8
AUFNAHME
  6
CONTINUOUS
100
AcDbLine
 10
27.8033342331
 20
-0.200422703
 30
0.0
 11
28.0067051661
 21
-0.142458607
 31
0.0
  0
LINE
  5
65
330
1F
100
AcDbEntity
  8
AUFNAHME
  6
CONTINUOUS
100
AcDbLine
 10
28.0067051661
 20
-0.142458607
 30
0.0
 11
28.1960029781
 21
-0.047969404
 31
0.0
  0
LINE
  5
66
330
1F
100
AcDbEntity
  8
AUFNAHME
  6
CONTINUOUS
100
AcDbLine
 10
28.1960029781
 20
-0.047969404
 30
0.0
 11
28.3647813581
 21
0.079827189
 31
0.0
  0
LINE
  5
67
330
1F
100
AcDbEntity
  8
AUFNAHME
  6
CONTINUOUS
100
AcDbLine
 10
28.3647813581
 20
0.079827189
 30
0.0
 11
28.5072927611
 21
0.236579213
 31
0.0
  0
LINE
  5
68
330
1F
100
AcDbEntity
  8
AUFNAHME
  6
CONTINUOUS
100
AcDbLine
 10
28.5072927611
 20
0.236579213
 30
0.0
 11
28.6186841331
 21
0.416948665
 31
0.0
  0
LINE
  5
69
330
1F
100
AcDbEntity
  8
AUFNAHME
  6
CONTINUOUS
100
AcDbLine
 10
28.6186841331
 20
0.416948665
 30
0.0
 11
28.6951621731
 21
0.61479328
 31
0.0
  0
LINE
  5
6A
330
1F
100
AcDbEntity
  8
AUFNAHME
  6
CONTINUOUS
100
AcDbLine
 10
28.6951621731
 20
0.61479328
 30
0.0
 11
28.7341225141
 21
0.823375697
 31
0.0
  0
LINE
  5
6B
330
1F
100
AcDbEntity
  8
AUFNAHME
  6
CONTINUOUS
100
AcDbLine
 10
28.7341225141
 20
0.823375697
 30
0.0
 11
28.7342384081
 21
1.035592892
 31
0.0
  0
LINE
  5
6C
330
1F
100
AcDbEntity
  8
AUFNAHME
  6
CONTINUOUS
100
AcDbLine
 10
28.7342384081
 20
1.035592892
 30
0.0
 11
28.6955059091
 21
1.244218063
 31
0.0
  0
LINE
  5
6D
330
1F
100
AcDbEntity
  8
AUFNAHME
  6
CONTINUOUS
100
AcDbLine
 10
28.6955059091
 20
1.244218063
 30
0.0
 11
28.6192440051
 21
1.44214673
 31
0.0
  0
LINE
  5
6E
330
1F
100
AcDbEntity
  8
AUFNAHME
  6
CONTINUOUS
100
AcDbLine
 10
28.6192440051
 20
1.44214673
 30
0.0
 11
28.5080497041
 21
1.622638669
 31
0.0
  0
LINE
  5
6F
330
1F
100
AcDbEntity
  8
AUFNAHME
  6
CONTINUOUS
100
AcDbLine
 10
28.5080497041
 20
1.622638669
 30
0.0
 11
28.3657095941
 21
1.779547444
 31
0.0
  0
LINE
  5
70
330
1F
100
AcDbEntity
  8
AUFNAHME
  6
CONTINUOUS
100
AcDbLine
 10
28.3657095941
 20
1.779547444
 30
0.0
 11
28.1970708981
 21
1.907529714
 31
0.0
  0
LINE
  5
71
330
1F
100
AcDbEntity
  8
AUFNAHME
  6
CONTINUOUS
100
AcDbLine
 10
28.1970708981
 20
1.907529714
 30
0.0
 11
28.0078764031
 21
2.002227198
 31
0.0
  0
LINE
  5
72
330
1F
100
AcDbEntity
  8
AUFNAHME
  6
CONTINUOUS
100
AcDbLine
 10
28.0078764031
 20
2.002227198
 30
0.0
 11
27.8045689021
 21
2.060415086
 31
0.0
  0
LINE
  5
73
330
1F
100
AcDbEntity
  8
AUFNAHME
  6
CONTINUOUS
100
AcDbLine
 10
27.8045689021
 20
2.060415086
 30
0.0
 11
27.5940717871
 21
2.080111859
 31
0.0
  0
LINE
  5
74
330
1F
100
AcDbEntity
  8
AUFNAHME
  6
CONTINUOUS
100
AcDbLine
 10
16.0003493502
 20
0.0
 30
0.0
 11
16.0003493502
 21
-3.5
 31
0.0
  0
LINE
  5
75
330
1F
100
AcDbEntity
  8
AUFNAHME
  6
CONTINUOUS
100
AcDbLine
 10
16.0003493502
 20
3.4999994672
 30
0.0
 11
16.0003493502
 21
0.0
 31
0.0
  0
LINE
  5
76
330
1F
100
AcDbEntity
  8
AUFNAHME
  6
CONTINUOUS
100
AcDbLine
 10
16.5003498831
 20
0.0
 30
0.0
 11
16.5003498831
 21
4.0
 31
0.0
  0
LINE
  5
77
330
1F
100
AcDbEntity
  8
AUFNAHME
  6
CONTINUOUS
100
AcDbLine
 10
16.5003498831
 20
-4.0000005328
 30
0.0
 11
16.5003498831
 21
0.0
 31
0.0
  0
LINE
  5
78
330
1F
100
AcDbEntity
  8
AUFNAHME
  6
CONTINUOUS
100
AcDbLine
 10
21.4481494822
 20
3.9949968711
 30
0.0
 11
28.537579589
 21
3.9949968711
 31
0.0
  0
LINE
  5
79
330
1F
100
AcDbEntity
  8
AUFNAHME
  6
CONTINUOUS
100
AcDbLine
 10
18.3706126362
 20
3.6207733981
 30
0.0
 11
18.4891330342
 21
3.7265131961
 31
0.0
  0
LINE
  5
7A
330
1F
100
AcDbEntity
  8
AUFNAHME
  6
CONTINUOUS
100
AcDbLine
 10
18.4891330342
 20
3.7265131961
 30
0.0
 11
18.6471594342
 21
3.8039805911
 31
0.0
  0
LINE
  5
7B
330
1F
100
AcDbEntity
  8
AUFNAHME
  6
CONTINUOUS
100
AcDbLine
 10
18.6471594342
 20
3.8039805911
 30
0.0
 11
18.8449665672
 21
3.8632287301
 31
0.0
  0
LINE
  5
7C
330
1F
100
AcDbEntity
  8
AUFNAHME
  6
CONTINUOUS
100
AcDbLine
 10
18.8449665672
 20
3.8632287301
 30
0.0
 11
19.1768436272
 21
3.9210857791
 31
0.0
  0
LINE
  5
7D
330
1F
100
AcDbEntity
  8
AUFNAHME
  6
CONTINUOUS
100
AcDbLine
 10
19.1768436272
 20
3.9210857791
 30
0.0
 11
19.5531115612
 21
3.9564768231
 31
0.0
  0
LINE
  5
7E
330
1F
100
AcDbEntity
  8
AUFNAHME
  6
CONTINUOUS
100
AcDbLine
 10
19.5531115612
 20
3.9564768231
 30
0.0
 11
20.1881484562
 21
3.9835841761
 31
0.0
  0
LINE
  5
7F
330
1F
100
AcDbEntity
  8
AUFNAHME
  6
CONTINUOUS
100
AcDbLine
 10
20.1881484562
 20
3.9835841761
 30
0.0
 11
20.8690527632
 21
3.9931991701
 31
0.0
  0
LINE
  5
80
330
1F
100
AcDbEntity
  8
AUFNAHME
  6
CONTINUOUS
100
AcDbLine
 10
20.8690527632
 20
3.9931991701
 30
0.0
 11
21.4481494822
 21
3.9949968711
 31
0.0
  0
LINE
  5
81
330
1F
100
AcDbEntity
  8
AUFNAHME
  6
CONTINUOUS
100
AcDbLine
 10
24.4469918812
 20
-3.6207733979
 30
0.0
 11
24.1056774812
 21
-3.4716598419
 31
0.0
  0
LINE
  5
82
330
1F
100
AcDbEntity
  8
AUFNAHME
  6
CONTINUOUS
100
AcDbLine
 10
24.1056774812
 20
-3.4716598419
 30
0.0
 11
23.7551156512
 21
-3.2998679949
 31
0.0
  0
LINE
  5
83
330
1F
100
AcDbEntity
  8
AUFNAHME
  6
CONTINUOUS
100
AcDbLine
 10
23.7551156512
 20
-3.2998679949
 30
0.0
 11
23.3975964032
 21
-3.1065200689
 31
0.0
  0
LINE
  5
84
330
1F
100
AcDbEntity
  8
AUFNAHME
  6
CONTINUOUS
100
AcDbLine
 10
23.3975964032
 20
-3.1065200689
 30
0.0
 11
23.0354551982
 21
-2.8928790919
 31
0.0
  0
LINE
  5
85
330
1F
100
AcDbEntity
  8
AUFNAHME
  6
CONTINUOUS
100
AcDbLine
 10
23.0354551982
 20
-2.8928790919
 30
0.0
 11
22.6710576892
 21
-2.6603406539
 31
0.0
  0
LINE
  5
86
330
1F
100
AcDbEntity
  8
AUFNAHME
  6
CONTINUOUS
100
AcDbLine
 10
22.6710576892
 20
-2.6603406539
 30
0.0
 11
22.3067842692
 21
-2.4104237899
 31
0.0
  0
LINE
  5
87
330
1F
100
AcDbEntity
  8
AUFNAHME
  6
CONTINUOUS
100
AcDbLine
 10
22.3067842692
 20
-2.4104237899
 30
0.0
 11
21.9450145202
 21
-2.1447610589
 31
0.0
  0
LINE
  5
88
330
1F
100
AcDbEntity
  8
AUFNAHME
  6
CONTINUOUS
100
AcDbLine
 10
21.9450145202
 20
-2.1447610589
 30
0.0
 11
21.5881116682
 21
-1.8650878769
 31
0.0
  0
LINE
  5
89
330
1F
100
AcDbEntity
  8
AUFNAHME
  6
CONTINUOUS
100
AcDbLine
 10
21.5881116682
 20
-1.8650878769
 30
0.0
 11
21.2384071492
 21
-1.5732311839
 31
0.0
  0
LINE
  5
8A
330
1F
100
AcDbEntity
  8
AUFNAHME
  6
CONTINUOUS
100
AcDbLine
 10
21.2384071492
 20
-1.5732311839
 30
0.0
 11
20.8981853742
 21
-1.2710975059
 31
0.0
  0
LINE
  5
8B
330
1F
100
AcDbEntity
  8
AUFNAHME
  6
CONTINUOUS
100
AcDbLine
 10
20.8981853742
 20
-1.2710975059
 30
0.0
 11
20.5696688102
 21
-0.9606605019
 31
0.0
  0
LINE
  5
8C
330
1F
100
AcDbEntity
  8
AUFNAHME
  6
CONTINUOUS
100
AcDbLine
 10
20.5696688102
 20
-0.9606605019
 30
0.0
 11
20.2550034612
 21
-0.6439480739
 31
0.0
  0
LINE
  5
8D
330
1F
100
AcDbEntity
  8
AUFNAHME
  6
CONTINUOUS
100
AcDbLine
 10
20.2550034612
 20
-0.6439480739
 30
0.0
 11
19.9562448482
 21
-0.3230291159
 31
0.0
  0
LINE
  5
8E
330
1F
100
AcDbEntity
  8
AUFNAHME
  6
CONTINUOUS
100
AcDbLine
 10
19.9562448482
 20
-0.3230291159
 30
0.0
 11
19.6753445842
 21
0.0000000001
 31
0.0
  0
LINE
  5
8F
330
1F
100
AcDbEntity
  8
AUFNAHME
  6
CONTINUOUS
100
AcDbLine
 10
19.6753445842
 20
0.0000000001
 30
0.0
 11
19.4141376232
 21
0.3230291161
 31
0.0
  0
LINE
  5
90
330
1F
100
AcDbEntity
  8
AUFNAHME
  6
CONTINUOUS
100
AcDbLine
 10
19.4141376232
 20
0.3230291161
 30
0.0
 11
19.1743302772
 21
0.6439480741
 31
0.0
  0
LINE
  5
91
330
1F
100
AcDbEntity
  8
AUFNAHME
  6
CONTINUOUS
100
AcDbLine
 10
19.1743302772
 20
0.6439480741
 30
0.0
 11
18.9574890632
 21
0.9606605031
 31
0.0
  0
LINE
  5
92
330
1F
100
AcDbEntity
  8
AUFNAHME
  6
CONTINUOUS
100
AcDbLine
 10
18.9574890632
 20
0.9606605031
 30
0.0
 11
18.7650304772
 21
1.2710975061
 31
0.0
  0
LINE
  5
93
330
1F
100
AcDbEntity
  8
AUFNAHME
  6
CONTINUOUS
100
AcDbLine
 10
18.7650304772
 20
1.2710975061
 30
0.0
 11
18.5982117362
 21
1.5732311841
 31
0.0
  0
LINE
  5
94
330
1F
100
AcDbEntity
  8
AUFNAHME
  6
CONTINUOUS
100
AcDbLine
 10
18.5982117362
 20
1.5732311841
 30
0.0
 11
18.4581225682
 21
1.8650878771
 31
0.0
  0
LINE
  5
95
330
1F
100
AcDbEntity
  8
AUFNAHME
  6
CONTINUOUS
100
AcDbLine
 10
18.4581225682
 20
1.8650878771
 30
0.0
 11
18.3456780932
 21
2.1447610591
 31
0.0
  0
LINE
  5
96
330
1F
100
AcDbEntity
  8
AUFNAHME
  6
CONTINUOUS
100
AcDbLine
 10
18.3456780932
 20
2.1447610591
 30
0.0
 11
18.2616128422
 21
2.4104237901
 31
0.0
  0
LINE
  5
97
330
1F
100
AcDbEntity
  8
AUFNAHME
  6
CONTINUOUS
100
AcDbLine
 10
18.2616128422
 20
2.4104237901
 30
0.0
 11
18.2064759662
 21
2.6603406541
 31
0.0
  0
LINE
  5
98
330
1F
100
AcDbEntity
  8
AUFNAHME
  6
CONTINUOUS
100
AcDbLine
 10
18.2064759662
 20
2.6603406541
 30
0.0
 11
18.1806276402
 21
2.8928790921
 31
0.0
  0
LINE
  5
99
330
1F
100
AcDbEntity
  8
AUFNAHME
  6
CONTINUOUS
100
AcDbLine
 10
18.1806276402
 20
2.8928790921
 30
0.0
 11
18.1842367152
 21
3.1065200691
 31
0.0
  0
LINE
  5
9A
330
1F
100
AcDbEntity
  8
AUFNAHME
  6
CONTINUOUS
100
AcDbLine
 10
18.1842367152
 20
3.1065200691
 30
0.0
 11
18.2172796172
 21
3.2998679951
 31
0.0
  0
LINE
  5
9B
330
1F
100
AcDbEntity
  8
AUFNAHME
  6
CONTINUOUS
100
AcDbLine
 10
18.2172796172
 20
3.2998679951
 30
0.0
 11
18.2795404952
 21
3.4716598431
 31
0.0
  0
LINE
  5
9C
330
1F
100
AcDbEntity
  8
AUFNAHME
  6
CONTINUOUS
100
AcDbLine
 10
18.2795404952
 20
3.4716598431
 30
0.0
 11
18.3706126362
 21
3.6207733981
 31
0.0
  0
LINE
  5
9D
330
1F
100
AcDbEntity
  8
AUFNAHME
  6
CONTINUOUS
100
AcDbLine
 10
29.2857391886
 20
-3.996966853
 30
0.0
 11
28.1226440815
 21
-3.996966853
 31
0.0
  0
LINE
  5
9E
330
1F
100
AcDbEntity
  8
AUFNAHME
  6
CONTINUOUS
100
AcDbLine
 10
29.2857391886
 20
-3.996966853
 30
0.0
 11
29.285566357
 21
-4.0000005328
 31
0.0
  0
LINE
  5
9F
330
1F
100
AcDbEntity
  8
AUFNAHME
  6
CONTINUOUS
100
AcDbLine
 10
19.6629888101
 20
2.080579449
 30
0.0
 11
19.5519524061
 21
2.084693111
 31
0.0
  0
LINE
  5
A0
330
1F
100
AcDbEntity
  8
AUFNAHME
  6
CONTINUOUS
100
AcDbLine
 10
19.5519524061
 20
2.084693111
 30
0.0
 11
19.4584289971
 21
2.061710558
 31
0.0
  0
LINE
  5
A1
330
1F
100
AcDbEntity
  8
AUFNAHME
  6
CONTINUOUS
100
AcDbLine
 10
19.4584289971
 20
2.061710558
 30
0.0
 11
19.3852677241
 21
2.012331939
 31
0.0
  0
LINE
  5
A2
330
1F
100
AcDbEntity
  8
AUFNAHME
  6
CONTINUOUS
100
AcDbLine
 10
19.3852677241
 20
2.012331939
 30
0.0
 11
19.3346974031
 21
1.938061548
 31
0.0
  0
LINE
  5
A3
330
1F
100
AcDbEntity
  8
AUFNAHME
  6
CONTINUOUS
100
AcDbLine
 10
19.3346974031
 20
1.938061548
 30
0.0
 11
19.3082586321
 21
1.841161991
 31
0.0
  0
LINE
  5
A4
330
1F
100
AcDbEntity
  8
AUFNAHME
  6
CONTINUOUS
100
AcDbLine
 10
19.3082586321
 20
1.841161991
 30
0.0
 11
19.3067568541
 21
1.724585259
 31
0.0
  0
LINE
  5
A5
330
1F
100
AcDbEntity
  8
AUFNAHME
  6
CONTINUOUS
100
AcDbLine
 10
19.3067568541
 20
1.724585259
 30
0.0
 11
19.3302378201
 21
1.591882799
 31
0.0
  0
LINE
  5
A6
330
1F
100
AcDbEntity
  8
AUFNAHME
  6
CONTINUOUS
100
AcDbLine
 10
19.3302378201
 20
1.591882799
 30
0.0
 11
19.3779861941
 21
1.447097319
 31
0.0
  0
LINE
  5
A7
330
1F
100
AcDbEntity
  8
AUFNAHME
  6
CONTINUOUS
100
AcDbLine
 10
19.3779861941
 20
1.447097319
 30
0.0
 11
19.4485473501
 21
1.294639629
 31
0.0
  0
LINE
  5
A8
330
1F
100
AcDbEntity
  8
AUFNAHME
  6
CONTINUOUS
100
AcDbLine
 10
19.4485473501
 20
1.294639629
 30
0.0
 11
19.5397716791
 21
1.139154268
 31
0.0
  0
LINE
  5
A9
330
1F
100
AcDbEntity
  8
AUFNAHME
  6
CONTINUOUS
100
AcDbLine
 10
19.5397716791
 20
1.139154268
 30
0.0
 11
19.6488800831
 21
0.985378012
 31
0.0
  0
LINE
  5
AA
330
1F
100
AcDbEntity
  8
AUFNAHME
  6
CONTINUOUS
100
AcDbLine
 10
19.6488800831
 20
0.985378012
 30
0.0
 11
19.7725486351
 21
0.837995572
 31
0.0
  0
LINE
  5
AB
330
1F
100
AcDbEntity
  8
AUFNAHME
  6
CONTINUOUS
100
AcDbLine
 10
19.7725486351
 20
0.837995572
 30
0.0
 11
19.9070098391
 21
0.701496872
 31
0.0
  0
LINE
  5
AC
330
1F
100
AcDbEntity
  8
AUFNAHME
  6
CONTINUOUS
100
AcDbLine
 10
19.9070098391
 20
0.701496872
 30
0.0
 11
20.0481674091
 21
0.580040269
 31
0.0
  0
LINE
  5
AD
330
1F
100
AcDbEntity
  8
AUFNAHME
  6
CONTINUOUS
100
AcDbLine
 10
20.0481674091
 20
0.580040269
 30
0.0
 11
20.1917210571
 21
0.477325873
 31
0.0
  0
LINE
  5
AE
330
1F
100
AcDbEntity
  8
AUFNAHME
  6
CONTINUOUS
100
AcDbLine
 10
20.1917210571
 20
0.477325873
 30
0.0
 11
20.3332975001
 21
0.396482822
 31
0.0
  0
LINE
  5
AF
330
1F
100
AcDbEntity
  8
AUFNAHME
  6
CONTINUOUS
100
AcDbLine
 10
20.3332975001
 20
0.396482822
 30
0.0
 11
20.4685836891
 21
0.339973954
 31
0.0
  0
LINE
  5
B0
330
1F
100
AcDbEntity
  8
AUFNAHME
  6
CONTINUOUS
100
AcDbLine
 10
20.4685836891
 20
0.339973954
 30
0.0
 11
20.5934582061
 21
0.309520782
 31
0.0
  0
LINE
  5
B1
330
1F
100
AcDbEntity
  8
AUFNAHME
  6
CONTINUOUS
100
AcDbLine
 10
20.5934582061
 20
0.309520782
 30
0.0
 11
20.7041168151
 21
0.306051043
 31
0.0
  0
LINE
  5
B2
330
1F
100
AcDbEntity
  8
AUFNAHME
  6
CONTINUOUS
100
AcDbLine
 10
20.7041168151
 20
0.306051043
 30
0.0
 11
20.7971883641
 21
0.329670443
 31
0.0
  0
LINE
  5
B3
330
1F
100
AcDbEntity
  8
AUFNAHME
  6
CONTINUOUS
100
AcDbLine
 10
20.7971883641
 20
0.329670443
 30
0.0
 11
20.8698374791
 21
0.379659429
 31
0.0
  0
LINE
  5
B4
330
1F
100
AcDbEntity
  8
AUFNAHME
  6
CONTINUOUS
100
AcDbLine
 10
20.8698374791
 20
0.379659429
 30
0.0
 11
20.9198509441
 21
0.454495114
 31
0.0
  0
LINE
  5
B5
330
1F
100
AcDbEntity
  8
AUFNAHME
  6
CONTINUOUS
100
AcDbLine
 10
20.9198509441
 20
0.454495114
 30
0.0
 11
20.9457051271
 21
0.55189767
 31
0.0
  0
LINE
  5
B6
330
1F
100
AcDbEntity
  8
AUFNAHME
  6
CONTINUOUS
100
AcDbLine
 10
22.7695738162
 20
-0.5377688575
 30
0.0
 11
22.7077948512
 21
-0.3744505775
 31
0.0
  0
LINE
  5
B7
330
1F
100
AcDbEntity
  8
AUFNAHME
  6
CONTINUOUS
100
AcDbLine
 10
22.7077948512
 20
-0.3744505775
 30
0.0
 11
22.6751970662
 21
-0.1294057925
 31
0.0
  0
LINE
  5
B8
330
1F
100
AcDbEntity
  8
AUFNAHME
  6
CONTINUOUS
100
AcDbLine
 10
22.8569814792
 20
-0.7154232775
 30
0.0
 11
22.7695738162
 21
-0.5377688575
 31
0.0
  0
LINE
  5
B9
330
1F
100
AcDbEntity
  8
AUFNAHME
  6
CONTINUOUS
100
AcDbLine
 10
23.3514482337
 20
0.7861697484
 30
0.0
 11
23.8701412658
 21
1.0514665843
 31
0.0
  0
LINE
  5
BA
330
1F
100
AcDbEntity
  8
AUFNAHME
  6
CONTINUOUS
100
AcDbLine
 10
28.6688838902
 20
3.7382782922
 30
0.0
 11
28.537579589
 21
3.9949968711
 31
0.0
  0
LINE
  5
BB
330
1F
100
AcDbEntity
  8
AUFNAHME
  6
CONTINUOUS
100
AcDbLine
 10
29.2857391886
 20
-3.996966853
 30
0.0
 11
29.3592964131
 21
-2.588035357
 31
0.0
  0
LINE
  5
BC
330
1F
100
AcDbEntity
  8
AUFNAHME
  6
CONTINUOUS
100
AcDbLine
 10
25.8723484121
 20
-0.3391228878
 30
0.0
 11
25.2979807553
 21
-0.6306641865
 31
0.0
  0
LINE
  5
BD
330
1F
100
AcDbEntity
  8
AUFNAHME
  6
CONTINUOUS
100
AcDbLine
 10
23.8602197362
 20
1.1204034801
 30
0.0
 11
21.4481494822
 21
3.9949968711
 31
0.0
  0
LINE
  5
BE
330
1F
100
AcDbEntity
  8
AUFNAHME
  6
CONTINUOUS
100
AcDbLine
 10
28.1226440815
 20
-3.996966853
 30
0.0
 11
25.2979807553
 21
-0.6306641865
 31
0.0
  0
LINE
  5
BF
330
1F
100
AcDbEntity
  8
ZAPFEN
100
AcDbLine
 10
-21.5996501169
 20
3.5
 30
0.0
 11
-21.7996501169
 21
3.3
 31
0.0
  0
LINE
  5
C0
330
1F
100
AcDbEntity
  8
ZAPFEN
100
AcDbLine
 10
-21.7996501169
 20
-3.3
 30
0.0
 11
-21.5996501169
 21
-3.5
 31
0.0
  0
LINE
  5
C1
330
1F
100
AcDbEntity
  8
AUFNAHME
  6
CONTINUOUS
100
AcDbLine
 10
16.0003493502
 20
3.4999994672
 30
0.0
 11
0.0
 21
3.5
 31
0.0
  0
LINE
  5
C2
330
1F
100
AcDbEntity
  8
ZAPFEN
100
AcDbLine
 10
0.0
 20
3.5
 30
0.0
 11
-21.5996501169
 21
3.5
 31
0.0
  0
LINE
  5
C3
330
1F
100
AcDbEntity
  8
ZAPFEN
100
AcDbLine
 10
-21.5996501169
 20
0.0
 30
0.0
 11
-21.5996501169
 21
-3.5
 31
0.0
  0
LINE
  5
C4
330
1F
100
AcDbEntity
  8
ZAPFEN
100
AcDbLine
 10
-21.5996501169
 20
3.5
 30
0.0
 11
-21.5996501169
 21
0.0
 31
0.0
  0
LINE
  5
C5
330
1F
100
AcDbEntity
  8
ZAPFEN
100
AcDbLine
 10
-21.7996501169
 20
0.0
 30
0.0
 11
-21.7996501169
 21
3.3
 31
0.0
  0
LINE
  5
C6
330
1F
100
AcDbEntity
  8
ZAPFEN
100
AcDbLine
 10
-21.7996501169
 20
-3.3
 30
0.0
 11
-21.7996501169
 21
0.0
 31
0.0
  0
LINE
  5
C7
330
1F
100
AcDbEntity
  8
ZAPFEN
100
AcDbLine
 10
-21.5996501169
 20
-3.5
 30
0.0
 11
0.0
 21
-3.5
 31
0.0
  0
LINE
  5
C8
330
1F
100
AcDbEntity
  8
AUFNAHME
  6
CONTINUOUS
100
AcDbLine
 10
0.0
 20
-3.5
 30
0.0
 11
16.0003493502
 21
-3.5
 31
0.0
  0
LINE
  5
C9
330
1F
100
AcDbEntity
  8
UNSICHT
  6
CENTER
100
AcDbLine
 10
-22.5575875659
 20
0.0
 30
0.0
 11
30.4916622421
 21
0.0
 31
0.0
  0
LINE
  5
CA
330
1F
100
AcDbEntity
  8
EW
  6
HIDDEN
100
AcDbLine
 10
-21.7996501169
 20
1.0
 30
0.0
 11
9.9003498831
 21
1.0
 31
0.0
  0
LINE
  5
CB
330
1F
100
AcDbEntity
  8
EW
  6
HIDDEN
100
AcDbLine
 10
9.9003498831
 20
1.0
 30
0.0
 11
15.8815202051
 21
1.0
 31
0.0
  0
LINE
  5
CC
330
1F
100
AcDbEntity
  8
EW
  6
HIDDEN
100
AcDbLine
 10
-21.7996501169
 20
-1.0
 30
0.0
 11
9.9003498831
 21
-1.0
 31
0.0
  0
LINE
  5
CD
330
1F
100
AcDbEntity
  8
EW
  6
HIDDEN
100
AcDbLine
 10
9.9003498831
 20
-1.0
 30
0.0
 11
15.8815202051
 21
-1.0
 31
0.0
  0
LINE
  5
CE
330
1F
100
AcDbEntity
  8
EW
  6
HIDDEN
100
AcDbLine
 10
15.8815202051
 20
1.0
 30
0.0
 11
19.4584289971
 21
2.061710558
 31
0.0
  0
LINE
  5
CF
330
1F
100
AcDbEntity
  8
EW
  6
HIDDEN
100
AcDbLine
 10
15.8993998371
 20
-0.950876113
 30
0.0
 11
20.7616604321
 21
0.320278771
 31
0.0
  0
ARC
  5
D0
330
1F
100
AcDbEntity
  8
AUFNAHME
  6
CONTINUOUS
100
AcDbCircle
 10
29.7310413903
 20
3.9766285545
 30
0.0
 40
0.2693534630000077
100
AcDbArc
 50
356.8972462775
 51
116.861516788
  0
ARC
  5
D1
330
1F
100
AcDbEntity
  8
AUFNAHME
  6
CONTINUOUS
100
AcDbCircle
 10
29.3898922743
 20
-2.320499081
 30
0.0
 40
0.2691605352171007
100
AcDbArc
 50
236.861868921
 51
357.0853741095
  0
ARC
  5
D2
330
1F
100
AcDbEntity
  8
AUFNAHME
  6
CONTINUOUS
100
AcDbCircle
 10
24.1309733293
 20
1.1248833435
 30
0.0
 40
0.2707920980000016
100
AcDbArc
 50
116.97362157
 51
236.691352137
  0
ARC
  5
D3
330
1F
100
AcDbEntity
  8
AUFNAHME
  6
CONTINUOUS
100
AcDbCircle
 10
28.4479492062
 20
3.6565145882
 30
0.0
 40
0.3501483420000038
100
AcDbArc
 50
22.49492502
 51
75.168437324
  0
ARC
  5
D4
330
1F
100
AcDbEntity
  8
AUFNAHME
  6
CONTINUOUS
100
AcDbCircle
 10
27.404579663
 20
7.1319222597
 30
0.0
 40
11.15203072947632
100
AcDbArc
 50
254.6207939297
 51
273.6917529416
  0
ARC
  5
D5
330
1F
100
AcDbEntity
  8
AUFNAHME
  6
CONTINUOUS
100
AcDbCircle
 10
19.2896643667
 20
0.4648187625
 30
0.0
 40
1.658328597171833
100
AcDbArc
 50
3.0099882257
 51
76.9900117767
  0
ARC
  5
D6
330
1F
100
AcDbEntity
  8
AUFNAHME
  6
CONTINUOUS
100
AcDbCircle
 10
23.7749225212
 20
-0.2275621775
 30
0.0
 40
1.039530764043018
100
AcDbArc
 50
207.9894488692
 51
297.163629543
  0
ARC
  5
D7
330
1F
100
AcDbEntity
  8
AUFNAHME
  6
CONTINUOUS
100
AcDbCircle
 10
-8.1140224427
 20
65.1945690343
 30
0.0
 40
73.81953187523318
100
AcDbArc
 50
296.0027396467
 51
296.9117368251
  0
ARC
  5
D8
330
1F
100
AcDbEntity
  8
AUFNAHME
  6
CONTINUOUS
100
AcDbCircle
 10
24.2104129263
 20
-0.5436373125
 30
0.0
 40
1.590118073952147
100
AcDbArc
 50
127.325820674
 51
164.9000525303
  0
ARC
  5
D9
330
1F
100
AcDbEntity
  8
AUFNAHME
  6
CONTINUOUS
100
AcDbCircle
 10
23.683841147
 20
0.1336989279
 30
0.0
 40
0.7322589844880888
100
AcDbArc
 50
116.995986056
 51
126.6975486324
  0
DIMENSION
  5
DA
330
1F
100
AcDbEntity
  8
MASS
100
AcDbDimension
  2
_D
 10
0.0
 20
-13.4951922247
 30
0.0
 11
15.0
 21
-13.4951922247
 31
0.0
 70
   160
  1
<>
  3
SLDDIMSTYLE0
100
AcDbAlignedDimension
 13
30.0
 23
3.9620493123
 33
0.0
 14
0.0
 24
-3.5
 34
0.0
 50
0.0
100
AcDbRotatedDimension
  0
DIMENSION
  5
E6
330
1F
100
AcDbEntity
  8
MASS
100
AcDbDimension
  2
_D_1
 10
-21.7996501169
 20
-13.4951922247
 30
0.0
 11
-10.8998250585
 21
-13.4951922247
 31
0.0
 70
   160
  1
<>
  3
SLDDIMSTYLE1
100
AcDbAlignedDimension
 13
0.0
 23
-3.5
 33
0.0
 14
-21.7996501169
 24
-3.3
 34
0.0
100
AcDbRotatedDimension
  0
DIMENSION
  5
F1
330
1F
100
AcDbEntity
  8
MASS
100
AcDbDimension
  2
_D_2
 10
-21.7996501169
 20
13.1702161678
 30
0.0
 11
4.1001749415
 21
13.1702161678
 31
0.0
 70
   160
  1
(<>)
  3
SLDDIMSTYLE1
100
AcDbAlignedDimension
 13
30.0
 23
3.9620493123
 33
0.0
 14
-21.7996501169
 24
3.3
 34
0.0
 50
0.0
100
AcDbRotatedDimension
  0
DIMENSION
  5
FD
330
1F
100
AcDbEntity
  8
MASS
100
AcDbDimension
  2
_D_3
 10
-27.3038475793
 20
-3.5
 30
0.0
 11
-27.3038475793
 21
0.0
 31
0.0
 70
   160
  1
%%c<>
  3
SLDDIMSTYLE2
100
AcDbAlignedDimension
 13
-21.5996501169
 23
3.5
 33
0.0
 14
-21.5996501169
 24
-3.5
 34
0.0
 50
90.0
100
AcDbRotatedDimension
  0
DIMENSION
  5
10B
330
1F
100
AcDbEntity
  8
MASS
100
AcDbDimension
  2
_D_4
 10
37.3562888132
 20
0.0
 30
0.0
 11
37.3562888132
 21
17.8395639252
 31
0.0
 70
   160
  1
%%c8.8 - 10.0
  3
SLDDIMSTYLE3
100
AcDbAlignedDimension
 13
29.6093379004
 23
4.2169191048
 33
0.0
 14
30.4916622421
 24
0.0
 34
0.0
 50
90.0
100
AcDbRotatedDimension
  0
MTEXT
  5
116
330
1F
100
AcDbEntity
  8
MASS
100
AcDbMText
 10
0.747220926
 20
9.4953105955
 30
0.0
 40
3.5
 41
0.0
 71
     1
 72
     1
  1
615.508
  7
SLDTEXTSTYLE0
  0
ENDSEC
  0
SECTION
  2
OBJECTS
  0
DICTIONARY
  5
C
330
0
100
AcDbDictionary
  3
ACAD_GROUP
350
D
  3
ACAD_MLINESTYLE
350
17
  0
DICTIONARY
  5
D
102
{ACAD_REACTORS
330
C
102
}
330
C
100
AcDbDictionary
  0
DICTIONARY
  5
17
102
{ACAD_REACTORS
330
C
102
}
330
C
100
AcDbDictionary
  3
STANDARD
350
18
  0
MLINESTYLE
  5
18
102
{ACAD_REACTORS
330
17
102
}
330
17
100
AcDbMlineStyle
  2
Standard
 70
     0
  3

 62
   256
 51
90.0
 52
90.0
 71
     2
 49
0.5
 62
   256
  6
BYLAYER
 49
-0.5
 62
   256
  6
BYLAYER
  0
ENDSEC
  0
EOF
