  0
SECTION
  2
HEADER
  9
$ACADVER
  1
AC1014
  9
$ACADMAINTVER
 70
     9
  9
$DWGCODEPAGE
  3
ANSI_1252
  9
$INSBASE
 10
0.0
 20
0.0
 30
0.0
  9
$EXTMIN
 10
0.0
 20
0.0
 30
0.0
  9
$EXTMAX
 10
210.0
 20
297.0
 30
0.0
  9
$LIMMIN
 10
0.0
 20
0.0
  9
$LIMMAX
 10
210.0
 20
297.0
  9
$ORTHOMODE
 70
     0
  9
$REGENMODE
 70
     1
  9
$FILLMODE
 70
     1
  9
$QTEXTMODE
 70
     0
  9
$MIRRTEXT
 70
     1
  9
$DRAGMODE
 70
     2
  9
$LTSCALE
 40
1.0
  9
$OSMODE
 70
    37
  9
$ATTMODE
 70
     1
  9
$TEXTSIZE
 40
3.5
  9
$TRACEWID
 40
1.0
  9
$TEXTSTYLE
  7
STANDARD
  9
$CLAYER
  8
0
  9
$CELTYPE
  6
BYLAYER
  9
$CECOLOR
 62
   256
  9
$CELTSCALE
 40
1.0
  9
$DELOBJ
 70
     1
  9
$DISPSILH
 70
     0
  9
$DIMSCALE
 40
1.0
  9
$DIMASZ
 40
3.5
  9
$DIMEXO
 40
0.0
  9
$DIMDLI
 40
3.75
  9
$DIMRND
 40
0.0
  9
$DIMDLE
 40
0.0
  9
$DIMEXE
 40
1.0
  9
$DIMTP
 40
0.0
  9
$DIMTM
 40
0.0
  9
$DIMTXT
 40
3.5
  9
$DIMCEN
 40
2.5
  9
$DIMTSZ
 40
0.0
  9
$DIMTOL
 70
     0
  9
$DIMLIM
 70
     0
  9
$DIMTIH
 70
     1
  9
$DIMTOH
 70
     1
  9
$DIMSE1
 70
     0
  9
$DIMSE2
 70
     0
  9
$DIMTAD
 70
     1
  9
$DIMZIN
 70
     0
  9
$DIMBLK
  1

  9
$DIMASO
 70
     1
  9
$DIMSHO
 70
     1
  9
$DIMPOST
  1

  9
$DIMAPOST
  1

  9
$DIMALT
 70
     0
  9
$DIMALTD
 70
     3
  9
$DIMALTF
 40
0.0393700787
  9
$DIMLFAC
 40
1.0
  9
$DIMTOFL
 70
     1
  9
$DIMTVP
 40
0.0
  9
$DIMTIX
 70
     0
  9
$DIMSOXD
 70
     0
  9
$DIMSAH
 70
     0
  9
$DIMBLK1
  1

  9
$DIMBLK2
  1

  9
$DIMSTYLE
  2
ISO-25
  9
$DIMCLRD
 70
     0
  9
$DIMCLRE
 70
     0
  9
$DIMCLRT
 70
     0
  9
$DIMTFAC
 40
1.0
  9
$DIMGAP
 40
1.5
  9
$DIMJUST
 70
     0
  9
$DIMSD1
 70
     0
  9
$DIMSD2
 70
     0
  9
$DIMTOLJ
 70
     0
  9
$DIMTZIN
 70
     0
  9
$DIMALTZ
 70
     0
  9
$DIMALTTZ
 70
     0
  9
$DIMFIT
 70
     3
  9
$DIMUPT
 70
     0
  9
$DIMUNIT
 70
     2
  9
$DIMDEC
 70
     2
  9
$DIMTDEC
 70
     3
  9
$DIMALTU
 70
     2
  9
$DIMALTTD
 70
     3
  9
$DIMTXSTY
  7
STANDARD
  9
$DIMAUNIT
 70
     0
  9
$LUNITS
 70
     2
  9
$LUPREC
 70
     2
  9
$SKETCHINC
 40
1.0
  9
$FILLETRAD
 40
10.0
  9
$AUNITS
 70
     0
  9
$AUPREC
 70
     2
  9
$MENU
  1
.
  9
$ELEVATION
 40
0.0
  9
$PELEVATION
 40
0.0
  9
$THICKNESS
 40
0.0
  9
$LIMCHECK
 70
     0
  9
$CHAMFERA
 40
10.0
  9
$CHAMFERB
 40
10.0
  9
$CHAMFERC
 40
20.0
  9
$CHAMFERD
 40
0.0
  9
$SKPOLY
 70
     0
  9
$TDCREATE
 40
2456436.357443484
  9
$TDUPDATE
 40
2456436.357444051
  9
$TDINDWG
 40
0.0000000116
  9
$TDUSRTIMER
 40
0.0000000116
  9
$USRTIMER
 70
     1
  9
$ANGBASE
 50
0.0
  9
$ANGDIR
 70
     0
  9
$PDMODE
 70
     0
  9
$PDSIZE
 40
-1.0
  9
$PLINEWID
 40
0.0
  9
$COORDS
 70
     1
  9
$SPLFRAME
 70
     0
  9
$SPLINETYPE
 70
     6
  9
$SPLINESEGS
 70
     8
  9
$ATTDIA
 70
     0
  9
$ATTREQ
 70
     1
  9
$HANDLING
 70
     1
  9
$HANDSEED
  5
109
  9
$SURFTAB1
 70
     6
  9
$SURFTAB2
 70
     6
  9
$SURFTYPE
 70
     6
  9
$SURFU
 70
     6
  9
$SURFV
 70
     6
  9
$UCSNAME
  2

  9
$UCSORG
 10
0.0
 20
0.0
 30
0.0
  9
$UCSXDIR
 10
1.0
 20
0.0
 30
0.0
  9
$UCSYDIR
 10
0.0
 20
1.0
 30
0.0
  9
$PUCSNAME
  2

  9
$PUCSORG
 10
0.0
 20
0.0
 30
0.0
  9
$PUCSXDIR
 10
1.0
 20
0.0
 30
0.0
  9
$PUCSYDIR
 10
0.0
 20
1.0
 30
0.0
  9
$USERI1
 70
     0
  9
$USERI2
 70
     0
  9
$USERI3
 70
     0
  9
$USERI4
 70
     0
  9
$USERI5
 70
     0
  9
$USERR1
 40
0.0
  9
$USERR2
 40
0.0
  9
$USERR3
 40
0.0
  9
$USERR4
 40
0.0
  9
$USERR5
 40
0.0
  9
$WORLDVIEW
 70
     1
  9
$SHADEDGE
 70
     3
  9
$SHADEDIF
 70
    70
  9
$TILEMODE
 70
     1
  9
$MAXACTVP
 70
    64
  9
$PINSBASE
 10
0.0
 20
0.0
 30
0.0
  9
$PLIMCHECK
 70
     0
  9
$PEXTMIN
 10
1.0000000000E+20
 20
1.0000000000E+20
 30
1.0000000000E+20
  9
$PEXTMAX
 10
-1.0000000000E+20
 20
-1.0000000000E+20
 30
-1.0000000000E+20
  9
$PLIMMIN
 10
0.0
 20
0.0
  9
$PLIMMAX
 10
420.0
 20
297.0
  9
$UNITMODE
 70
     0
  9
$VISRETAIN
 70
     1
  9
$PLINEGEN
 70
     0
  9
$PSLTSCALE
 70
     1
  9
$TREEDEPTH
 70
  3020
  9
$PICKSTYLE
 70
     1
  9
$CMLSTYLE
  2
STANDARD
  9
$CMLJUST
 70
     0
  9
$CMLSCALE
 40
20.0
  9
$PROXYGRAPHICS
 70
     1
  9
$MEASUREMENT
 70
     1
  0
ENDSEC
  0
SECTION
  2
CLASSES
  0
CLASS
  1
ACDBDICTIONARYWDFLT
  2
AcDbDictionaryWithDefault
  3
ObjectDBX Classes
 90
        0
280
     0
281
     0
  0
CLASS
  1
VISUALSTYLE
  2
AcDbVisualStyle
  3
ObjectDBX Classes
 90
     4095
280
     0
281
     0
  0
CLASS
  1
MATERIAL
  2
AcDbMaterial
  3
ObjectDBX Classes
 90
     1153
280
     0
281
     0
  0
CLASS
  1
XRECORD
  2
AcDbXrecord
  3
AutoCAD 2000
 90
        0
280
     0
281
     0
  0
CLASS
  1
LWPOLYLINE
  2
AcDbPolyline
  3
AutoCAD 2000
 90
        0
280
     0
281
     1
  0
CLASS
  1
HATCH
  2
AcDbHatch
  3
AutoCAD 2000
 90
        0
280
     0
281
     1
  0
ENDSEC
  0
SECTION
  2
TABLES
  0
TABLE
  2
VPORT
  5
8
330
0
100
AcDbSymbolTable
 70
     1
  0
VPORT
  5
29
330
8
100
AcDbSymbolTableRecord
100
AcDbViewportTableRecord
  2
*ACTIVE
 70
     0
 10
0.0
 20
0.0
 11
1.0
 21
1.0
 12
105.0
 22
148.5
 13
0.0
 23
0.0
 14
10.0
 24
10.0
 15
10.0
 25
10.0
 16
0.0
 26
0.0
 36
1.0
 17
0.0
 27
0.0
 37
0.0
 40
297.0
 41
0.7070707071
 42
50.0
 43
0.0
 44
0.0
 50
0.0
 51
0.0
 71
     0
 72
  2000
 73
     1
 74
     3
 75
     0
 76
     0
 77
     0
 78
     0
  0
ENDTAB
  0
TABLE
  2
LTYPE
  5
5
330
0
100
AcDbSymbolTable
 70
     6
  0
LTYPE
  5
14
330
5
100
AcDbSymbolTableRecord
100
AcDbLinetypeTableRecord
  2
BYBLOCK
 70
     0
  3

 72
    65
 73
     0
 40
0.0
  0
LTYPE
  5
15
330
5
100
AcDbSymbolTableRecord
100
AcDbLinetypeTableRecord
  2
BYLAYER
 70
     0
  3

 72
    65
 73
     0
 40
0.0
  0
LTYPE
  5
16
330
5
100
AcDbSymbolTableRecord
100
AcDbLinetypeTableRecord
  2
CONTINUOUS
 70
     0
  3
Solid line
 72
    65
 73
     0
 40
0.0
  0
LTYPE
  5
3F
330
5
100
AcDbSymbolTableRecord
100
AcDbLinetypeTableRecord
  2
HIDDEN
 70
     0
  3
Hidden __ __ __ __ __ __ __ __ __ __ __ __ __ __
 72
    65
 73
     2
 40
1.905
 49
1.27
 74
     0
 49
-0.635
 74
     0
  0
LTYPE
  5
40
330
5
100
AcDbSymbolTableRecord
100
AcDbLinetypeTableRecord
  2
PHANTOM
 70
     0
  3
Phantom ______  __  __  ______  __  __  ______
 72
    65
 73
     6
 40
12.7
 49
6.35
 74
     0
 49
-1.27
 74
     0
 49
1.27
 74
     0
 49
-1.27
 74
     0
 49
1.27
 74
     0
 49
-1.27
 74
     0
  0
LTYPE
  5
41
330
5
100
AcDbSymbolTableRecord
100
AcDbLinetypeTableRecord
  2
CENTER
 70
     0
  3
Center ____ _ ____ _ ____ _ ____ _ ____ _ ____
 72
    65
 73
     4
 40
10.16
 49
6.35
 74
     0
 49
-1.27
 74
     0
 49
1.27
 74
     0
 49
-1.27
 74
     0
  0
LTYPE
  5
42
330
5
100
AcDbSymbolTableRecord
100
AcDbLinetypeTableRecord
  2
CENTERX2
 70
     0
  3
Center (2x) ________  __  ________  __  _____
 72
    65
 73
     4
 40
20.32
 49
12.7
 74
     0
 49
-2.54
 74
     0
 49
2.54
 74
     0
 49
-2.54
 74
     0
  0
LTYPE
  5
43
330
5
100
AcDbSymbolTableRecord
100
AcDbLinetypeTableRecord
  2
DOT2
 70
     0
  3
Dot (.5x) ........................................
 72
    65
 73
     2
 40
0.635
 49
0.0
 74
     0
 49
-0.635
 74
     0
  0
ENDTAB
  0
TABLE
  2
LAYER
  5
2
330
0
100
AcDbSymbolTable
 70
     7
  0
LAYER
  5
10
330
2
100
AcDbSymbolTableRecord
100
AcDbLayerTableRecord
  2
0
 70
     0
 62
     7
  6
CONTINUOUS
  0
LAYER
  5
44
330
2
100
AcDbSymbolTableRecord
100
AcDbLayerTableRecord
  2
AUFNAHME
 70
     0
 62
     7
  6
CONTINUOUS
  0
LAYER
  5
45
330
2
100
AcDbSymbolTableRecord
100
AcDbLayerTableRecord
  2
MASS
 70
     0
 62
     4
  6
CONTINUOUS
  0
LAYER
  5
46
330
2
100
AcDbSymbolTableRecord
100
AcDbLayerTableRecord
  2
EW
 70
     0
 62
     1
  6
HIDDEN
  0
LAYER
  5
47
330
2
100
AcDbSymbolTableRecord
100
AcDbLayerTableRecord
  2
UNSICHT
 70
     0
 62
     4
  6
CENTER
  0
LAYER
  5
48
330
2
100
AcDbSymbolTableRecord
100
AcDbLayerTableRecord
  2
TEXT
 70
     0
 62
     7
  6
CONTINUOUS
  0
LAYER
  5
49
330
2
100
AcDbSymbolTableRecord
100
AcDbLayerTableRecord
  2
ZAPFEN
 70
     0
 62
     4
  6
CONTINUOUS
  0
ENDTAB
  0
TABLE
  2
STYLE
  5
3
330
0
100
AcDbSymbolTable
 70
     2
  0
STYLE
  5
11
330
3
100
AcDbSymbolTableRecord
100
AcDbTextStyleTableRecord
  2
STANDARD
 70
     0
 40
0.0
 41
1.0
 50
0.0
 71
     0
 42
3.5
  3
txt
  4

  0
STYLE
  5
CD
330
3
100
AcDbSymbolTableRecord
100
AcDbTextStyleTableRecord
  2
SLDTEXTSTYLE0
 70
     0
 40
0.0
 41
0.605
 50
0.0
 71
     0
 42
0.2
  3
TXT
  4

  0
ENDTAB
  0
TABLE
  2
VIEW
  5
6
330
0
100
AcDbSymbolTable
 70
     0
  0
ENDTAB
  0
TABLE
  2
UCS
  5
7
330
0
100
AcDbSymbolTable
 70
     0
  0
ENDTAB
  0
TABLE
  2
APPID
  5
9
330
0
100
AcDbSymbolTable
 70
     1
  0
APPID
  5
12
330
9
100
AcDbSymbolTableRecord
100
AcDbRegAppTableRecord
  2
ACAD
 70
     0
  0
ENDTAB
  0
TABLE
  2
DIMSTYLE
  5
A
330
0
100
AcDbSymbolTable
 70
     5
  0
DIMSTYLE
105
27
330
A
100
AcDbSymbolTableRecord
100
AcDbDimStyleTableRecord
  2
ISO-25
 70
     0
  3

  4

  5

  6

  7

 40
1.0
 41
2.5
 42
0.625
 43
3.75
 44
1.25
 45
0.0
 46
0.0
 47
0.0
 48
0.0
140
2.5
141
2.5
142
0.0
143
0.0393700787
144
1.0
145
0.0
146
1.0
147
0.625
 71
     0
 72
     0
 73
     0
 74
     0
 75
     0
 76
     0
 77
     1
 78
     8
170
     0
171
     3
172
     1
173
     0
174
     0
175
     0
176
     0
177
     0
178
     0
270
     2
271
     2
272
     2
273
     2
274
     3
340
11
275
     0
280
     0
281
     0
282
     0
283
     0
284
     8
285
     0
286
     0
287
     3
288
     0
  0
DIMSTYLE
105
CE
102
{ACAD_REACTORS
330
CC
102
}
330
A
100
AcDbSymbolTableRecord
100
AcDbDimStyleTableRecord
  2
SLDDIMSTYLE0
 70
     0
  3

  4

  5

  6

  7

 40
1.0
 41
3.5
 42
0.0625
 43
0.38
 44
0.0
 45
0.000000001
 46
0.0
 47
0.0
 48
0.0
140
3.5
141
0.09
142
0.0
143
25.4
144
1.0
145
0.0
146
1.0
147
0.875
 71
     0
 72
     0
 73
     0
 74
     0
 75
     0
 76
     0
 77
     1
 78
    12
170
     0
171
     2
172
     0
173
     1
174
     0
175
     0
176
     0
177
     0
178
     0
270
     2
271
     2
272
     3
273
     2
274
     2
340
CD
275
     0
280
     0
281
     0
282
     0
283
     1
284
    12
285
     0
286
     0
287
     3
288
     0
  0
DIMSTYLE
105
D9
102
{ACAD_REACTORS
330
D8
330
E5
102
}
330
A
100
AcDbSymbolTableRecord
100
AcDbDimStyleTableRecord
  2
SLDDIMSTYLE1
 70
     0
  3

  4

  5

  6

  7

 40
1.0
 41
3.5
 42
0.0625
 43
0.38
 44
0.0
 45
0.000000001
 46
0.0
 47
0.0
 48
0.0
140
3.5
141
0.09
142
0.0
143
25.4
144
1.0
145
0.0
146
1.0
147
0.875
 71
     0
 72
     0
 73
     0
 74
     0
 75
     0
 76
     0
 77
     1
 78
    12
170
     0
171
     2
172
     0
173
     1
174
     0
175
     0
176
     0
177
     0
178
     0
270
     2
271
     0
272
     3
273
     2
274
     2
340
CD
275
     0
280
     0
281
     0
282
     0
283
     1
284
    12
285
     0
286
     0
287
     3
288
     0
  0
DIMSTYLE
105
F0
102
{ACAD_REACTORS
330
EF
102
}
330
A
100
AcDbSymbolTableRecord
100
AcDbDimStyleTableRecord
  2
SLDDIMSTYLE2
 70
     0
  3

  4

  5

  6

  7

 40
1.0
 41
3.5
 42
0.0625
 43
0.38
 44
0.0
 45
0.000000001
 46
0.0
 47
0.0
 48
0.0
140
3.5
141
0.09
142
0.0
143
25.4
144
1.0
145
0.0
146
1.0
147
0.875
 71
     0
 72
     0
 73
     0
 74
     0
 75
     0
 76
     0
 77
     1
 78
    12
170
     0
171
     2
172
     1
173
     1
174
     0
175
     0
176
     0
177
     0
178
     0
270
     2
271
     2
272
     3
273
     2
274
     2
340
CD
275
     0
280
     0
281
     0
282
     0
283
     1
284
    12
285
     0
286
     0
288
     0
  0
DIMSTYLE
105
FE
102
{ACAD_REACTORS
330
FD
102
}
330
A
100
AcDbSymbolTableRecord
100
AcDbDimStyleTableRecord
  2
SLDDIMSTYLE3
 70
     0
  3

  4

  5

  6

  7

 40
1.0
 41
3.5
 42
0.0625
 43
0.38
 44
0.0
 45
0.000000001
 46
0.0
 47
0.0
 48
0.0
140
3.5
141
0.09
142
0.0
143
25.4
144
1.0
145
0.0
146
1.0
147
0.875
 71
     0
 72
     0
 73
     0
 74
     0
 75
     0
 76
     0
 77
     1
 78
    12
170
     0
171
     2
172
     1
173
     1
174
     0
175
     0
176
     0
177
     0
178
     0
270
     2
271
     2
272
     3
273
     2
274
     2
340
CD
275
     0
280
     0
281
     0
282
     0
283
     1
284
    12
285
     0
286
     0
288
     0
  0
ENDTAB
  0
TABLE
  2
BLOCK_RECORD
  5
1
330
0
100
AcDbSymbolTable
 70
     6
  0
BLOCK_RECORD
  5
1F
330
1
100
AcDbSymbolTableRecord
100
AcDbBlockTableRecord
  2
*MODEL_SPACE
  0
BLOCK_RECORD
  5
1B
330
1
100
AcDbSymbolTableRecord
100
AcDbBlockTableRecord
  2
*PAPER_SPACE
  0
BLOCK_RECORD
  5
23
330
1
100
AcDbSymbolTableRecord
100
AcDbBlockTableRecord
  2
*PAPER_SPACE0
  0
BLOCK_RECORD
  5
CF
330
1
100
AcDbSymbolTableRecord
100
AcDbBlockTableRecord
  2
_D
  0
BLOCK_RECORD
  5
DA
330
1
100
AcDbSymbolTableRecord
100
AcDbBlockTableRecord
  2
_D_1
  0
BLOCK_RECORD
  5
E6
330
1
100
AcDbSymbolTableRecord
100
AcDbBlockTableRecord
  2
_D_2
  0
BLOCK_RECORD
  5
F1
330
1
100
AcDbSymbolTableRecord
100
AcDbBlockTableRecord
  2
_D_3
  0
BLOCK_RECORD
  5
FF
330
1
100
AcDbSymbolTableRecord
100
AcDbBlockTableRecord
  2
_D_4
  0
ENDTAB
  0
ENDSEC
  0
SECTION
  2
BLOCKS
  0
BLOCK
  5
20
330
1F
100
AcDbEntity
  8
0
100
AcDbBlockBegin
  2
*MODEL_SPACE
 70
     0
 10
0.0
 20
0.0
 30
0.0
  3
*MODEL_SPACE
  1

  0
ENDBLK
  5
21
330
1F
100
AcDbEntity
  8
0
100
AcDbBlockEnd
  0
BLOCK
  5
1C
330
1B
100
AcDbEntity
 67
     1
  8
0
100
AcDbBlockBegin
  2
*PAPER_SPACE
 70
     0
 10
0.0
 20
0.0
 30
0.0
  3
*PAPER_SPACE
  1

  0
ENDBLK
  5
1D
330
1B
100
AcDbEntity
 67
     1
  8
0
100
AcDbBlockEnd
  0
BLOCK
  5
24
330
23
100
AcDbEntity
  8
0
100
AcDbBlockBegin
  2
*PAPER_SPACE0
 70
     0
 10
0.0
 20
0.0
 30
0.0
  3
*PAPER_SPACE0
  1

  0
ENDBLK
  5
25
330
23
100
AcDbEntity
  8
0
100
AcDbBlockEnd
  0
BLOCK
  5
D0
330
CF
100
AcDbEntity
  8
0
100
AcDbBlockBegin
  2
_D
 70
     0
 10
0.0
 20
0.0
 30
0.0
  3
_D
  1

  0
SOLID
  5
D2
330
CF
100
AcDbEntity
  8
MASS
100
AcDbTrace
 10
30.0
 20
-10.1947734129
 30
0.0
 11
26.5
 21
-9.7447734129
 31
0.0
 12
26.5
 22
-10.6447734129
 32
0.0
 13
26.5
 23
-10.6447734129
 33
0.0
  0
SOLID
  5
D3
330
CF
100
AcDbEntity
  8
MASS
100
AcDbTrace
 10
0.0
 20
-10.1947734129
 30
0.0
 11
3.5
 21
-10.6447734129
 31
0.0
 12
3.5
 22
-9.7447734129
 32
0.0
 13
3.5
 23
-9.7447734129
 33
0.0
  0
LINE
  5
D4
330
CF
100
AcDbEntity
  8
MASS
100
AcDbLine
 10
30.0
 20
3.4539702338
 30
0.0
 11
30.0
 21
-11.1947734129
 31
0.0
  0
LINE
  5
D5
330
CF
100
AcDbEntity
  8
MASS
100
AcDbLine
 10
0.0
 20
-3.5
 30
0.0
 11
0.0
 21
-11.1947734129
 31
0.0
  0
LINE
  5
D6
330
CF
100
AcDbEntity
  8
MASS
100
AcDbLine
 10
30.0
 20
-10.1947734129
 30
0.0
 11
0.0
 21
-10.1947734129
 31
0.0
  0
MTEXT
  5
D7
330
CF
100
AcDbEntity
  8
MASS
100
AcDbMText
 10
11.4927081019
 20
-5.6830362073
 30
0.1
 40
3.5
 41
0.0
 71
     1
 72
     1
  1
30
  7
SLDTEXTSTYLE0
  0
ENDBLK
  5
D1
330
CF
100
AcDbEntity
  8
0
100
AcDbBlockEnd
  0
BLOCK
  5
DB
330
DA
100
AcDbEntity
  8
0
100
AcDbBlockBegin
  2
_D_1
 70
     0
 10
0.0
 20
0.0
 30
0.0
  3
_D_1
  1

  0
ARC
  5
DD
330
DA
100
AcDbEntity
  8
MASS
100
AcDbCircle
 10
7.4022822369
 20
15.2441842229
 30
0.0
 40
6.087074242331736
100
AcDbArc
 50
153.4349488229
 51
206.5650511771
  0
ARC
  5
DE
330
DA
100
AcDbEntity
  8
MASS
100
AcDbCircle
 10
0.8981153656
 20
15.2441842229
 30
0.0
 40
6.087074242331735
100
AcDbArc
 50
333.4349488229
 51
26.5650511771
  0
SOLID
  5
DF
330
DA
100
AcDbEntity
  8
MASS
100
AcDbTrace
 10
30.0
 20
12.5219618649
 30
0.0
 11
26.5
 21
12.9719618649
 31
0.0
 12
26.5
 22
12.0719618649
 32
0.0
 13
26.5
 23
12.0719618649
 33
0.0
  0
SOLID
  5
E0
330
DA
100
AcDbEntity
  8
MASS
100
AcDbTrace
 10
-21.6996022811
 20
12.5219618649
 30
0.0
 11
-18.1996022811
 21
12.0719618649
 31
0.0
 12
-18.1996022811
 22
12.9719618649
 32
0.0
 13
-18.1996022811
 23
12.9719618649
 33
0.0
  0
LINE
  5
E1
330
DA
100
AcDbEntity
  8
MASS
100
AcDbLine
 10
30.0
 20
3.4539702338
 30
0.0
 11
30.0
 21
13.5219618649
 31
0.0
  0
LINE
  5
E2
330
DA
100
AcDbEntity
  8
MASS
100
AcDbLine
 10
-21.6996022811
 20
3.3
 30
0.0
 11
-21.6996022811
 21
13.5219618649
 31
0.0
  0
LINE
  5
E3
330
DA
100
AcDbEntity
  8
MASS
100
AcDbLine
 10
30.0
 20
12.5219618649
 30
0.0
 11
-21.6996022811
 21
12.5219618649
 31
0.0
  0
MTEXT
  5
E4
330
DA
100
AcDbEntity
  8
MASS
100
AcDbMText
 10
1.9578375209
 20
17.0336990705
 30
0.1
 40
3.5
 41
0.0
 71
     1
 72
     1
  1
52
  7
SLDTEXTSTYLE0
  0
ENDBLK
  5
DC
330
DA
100
AcDbEntity
  8
0
100
AcDbBlockEnd
  0
BLOCK
  5
E7
330
E6
100
AcDbEntity
  8
0
100
AcDbBlockBegin
  2
_D_2
 70
     0
 10
0.0
 20
0.0
 30
0.0
  3
_D_2
  1

  0
SOLID
  5
E9
330
E6
100
AcDbEntity
  8
MASS
100
AcDbTrace
 10
0.0
 20
-10.1947734129
 30
0.0
 11
-3.5
 21
-9.7447734129
 31
0.0
 12
-3.5
 22
-10.6447734129
 32
0.0
 13
-3.5
 23
-10.6447734129
 33
0.0
  0
SOLID
  5
EA
330
E6
100
AcDbEntity
  8
MASS
100
AcDbTrace
 10
-21.6996022811
 20
-10.1947734129
 30
0.0
 11
-18.1996022811
 21
-10.6447734129
 31
0.0
 12
-18.1996022811
 22
-9.7447734129
 32
0.0
 13
-18.1996022811
 23
-9.7447734129
 33
0.0
  0
LINE
  5
EB
330
E6
100
AcDbEntity
  8
MASS
100
AcDbLine
 10
0.0
 20
-3.5
 30
0.0
 11
0.0
 21
-11.1947734129
 31
0.0
  0
LINE
  5
EC
330
E6
100
AcDbEntity
  8
MASS
100
AcDbLine
 10
-21.6996022811
 20
-3.3
 30
0.0
 11
-21.6996022811
 21
-11.1947734129
 31
0.0
  0
LINE
  5
ED
330
E6
100
AcDbEntity
  8
MASS
100
AcDbLine
 10
0.0
 20
-10.1947734129
 30
0.0
 11
-21.6996022811
 21
-10.1947734129
 31
0.0
  0
MTEXT
  5
EE
330
E6
100
AcDbEntity
  8
MASS
100
AcDbMText
 10
-14.3570930387
 20
-5.6830362073
 30
0.1
 40
3.5
 41
0.0
 71
     1
 72
     1
  1
22
  7
SLDTEXTSTYLE0
  0
ENDBLK
  5
E8
330
E6
100
AcDbEntity
  8
0
100
AcDbBlockEnd
  0
BLOCK
  5
F2
330
F1
100
AcDbEntity
  8
0
100
AcDbBlockBegin
  2
_D_3
 70
     0
 10
0.0
 20
0.0
 30
0.0
  3
_D_3
  1

  0
SOLID
  5
F4
330
F1
100
AcDbEntity
  8
MASS
100
AcDbTrace
 10
-27.5602321901
 20
-3.5
 30
0.0
 11
-28.0102321901
 21
-7.0
 31
0.0
 12
-27.1102321901
 22
-7.0
 32
0.0
 13
-27.1102321901
 23
-7.0
 33
0.0
  0
SOLID
  5
F5
330
F1
100
AcDbEntity
  8
MASS
100
AcDbTrace
 10
-27.5602321901
 20
3.5
 30
0.0
 11
-27.1102321901
 21
7.0
 31
0.0
 12
-28.0102321901
 22
7.0
 32
0.0
 13
-28.0102321901
 23
7.0
 33
0.0
  0
LINE
  5
F6
330
F1
100
AcDbEntity
  8
MASS
100
AcDbLine
 10
-21.4996022811
 20
-3.5
 30
0.0
 11
-28.5602321901
 21
-3.5
 31
0.0
  0
LINE
  5
F7
330
F1
100
AcDbEntity
  8
MASS
100
AcDbLine
 10
-21.4996022811
 20
3.5
 30
0.0
 11
-28.5602321901
 21
3.5
 31
0.0
  0
LINE
  5
F8
330
F1
100
AcDbEntity
  8
MASS
100
AcDbLine
 10
-27.5602321901
 20
-3.5
 30
0.0
 11
-27.5602321901
 21
-8.5
 31
0.0
  0
LINE
  5
F9
330
F1
100
AcDbEntity
  8
MASS
100
AcDbLine
 10
-27.5602321901
 20
-3.5
 30
0.0
 11
-27.5602321901
 21
3.5
 31
0.0
  0
LINE
  5
FA
330
F1
100
AcDbEntity
  8
MASS
100
AcDbLine
 10
-27.5602321901
 20
3.5
 30
0.0
 11
-27.5602321901
 21
8.5
 31
0.0
  0
MTEXT
  5
FB
330
F1
100
AcDbEntity
  8
MASS
100
AcDbMText
 10
-32.0719693957
 20
-4.9972226843
 30
0.1
 40
3.5
 41
0.0
 71
     1
 72
     1
  1
%%c
  7
SLDTEXTSTYLE0
 11
6.123233995736766E-17
 21
1.0
 31
0.0
  0
MTEXT
  5
FC
330
F1
100
AcDbEntity
  8
MASS
100
AcDbMText
 10
-32.0719693957
 20
0.1749997027
 30
0.1
 40
3.5
 41
0.0
 71
     1
 72
     1
  1
7
  7
SLDTEXTSTYLE0
 11
6.123233995736766E-17
 21
1.0
 31
0.0
  0
ENDBLK
  5
F3
330
F1
100
AcDbEntity
  8
0
100
AcDbBlockEnd
  0
BLOCK
  5
100
330
FF
100
AcDbEntity
  8
0
100
AcDbBlockBegin
  2
_D_4
 70
     0
 10
0.0
 20
0.0
 30
0.0
  3
_D_4
  1

  0
SOLID
  5
102
330
FF
100
AcDbEntity
  8
MASS
100
AcDbTrace
 10
37.9399100929
 20
3.7428794885
 30
0.0
 11
38.3881644261
 21
7.2431034888
 31
0.0
 12
37.488164538
 22
7.2426546175
 32
0.0
 13
37.488164538
 23
7.2426546175
 33
0.0
  0
LINE
  5
103
330
FF
100
AcDbEntity
  8
MASS
100
AcDbLine
 10
29.730956335
 20
3.7387853055
 30
0.0
 11
38.9399099685
 21
3.7433782344
 31
0.0
  0
LINE
  5
104
330
FF
100
AcDbEntity
  8
MASS
100
AcDbLine
 10
37.9417617293
 20
0.0302955195
 30
0.0
 11
37.9399100929
 21
3.7428794885
 31
0.0
  0
LINE
  5
105
330
FF
100
AcDbEntity
  8
MASS
100
AcDbLine
 10
37.9399100929
 20
3.7428794885
 30
0.0
 11
37.9284701397
 21
26.6803122245
 31
0.0
  0
MTEXT
  5
106
330
FF
100
AcDbEntity
  8
MASS
100
AcDbMText
 10
33.4265331607
 20
7.0294529121
 30
0.1
 40
3.5
 41
0.0
 71
     1
 72
     1
  1
%%c
  7
SLDTEXTSTYLE0
 11
-0.000498745950874495
 21
0.9999998756262305
 31
0.0
  0
MTEXT
  5
107
330
FF
100
AcDbEntity
  8
MASS
100
AcDbMText
 10
33.4239535357
 20
12.2016746558
 30
0.1
 40
3.5
 41
0.0
 71
     1
 72
     1
  1
7.8 - 9.0
  7
SLDTEXTSTYLE0
 11
-0.000498745950874495
 21
0.9999998756262305
 31
0.0
  0
ENDBLK
  5
101
330
FF
100
AcDbEntity
  8
0
100
AcDbBlockEnd
  0
ENDSEC
  0
SECTION
  2
ENTITIES
  0
LINE
  5
4A
330
1F
100
AcDbEntity
  8
AUFNAHME
  6
CONTINUOUS
100
AcDbLine
 10
17.0003977189
 20
-3.5000004112
 30
0.0
 11
29.3381956601
 21
-3.5000004112
 31
0.0
  0
LINE
  5
4B
330
1F
100
AcDbEntity
  8
AUFNAHME
  6
CONTINUOUS
100
AcDbLine
 10
28.5488853409
 20
3.5
 30
0.0
 11
17.0003977189
 21
3.5
 31
0.0
  0
LINE
  5
4C
330
1F
100
AcDbEntity
  8
ZAPFEN
100
AcDbLine
 10
-21.4996022811
 20
3.5
 30
0.0
 11
-21.6996022811
 21
3.3
 31
0.0
  0
LINE
  5
4D
330
1F
100
AcDbEntity
  8
ZAPFEN
100
AcDbLine
 10
-21.6996022811
 20
-3.3
 30
0.0
 11
-21.4996022811
 21
-3.5
 31
0.0
  0
LINE
  5
4E
330
1F
100
AcDbEntity
  8
AUFNAHME
  6
CONTINUOUS
100
AcDbLine
 10
17.0003977189
 20
3.5
 30
0.0
 11
0.0
 21
3.5
 31
0.0
  0
LINE
  5
4F
330
1F
100
AcDbEntity
  8
ZAPFEN
100
AcDbLine
 10
0.0
 20
3.5
 30
0.0
 11
-21.4996022811
 21
3.5
 31
0.0
  0
LINE
  5
50
330
1F
100
AcDbEntity
  8
AUFNAHME
  6
CONTINUOUS
100
AcDbLine
 10
21.368347785
 20
3.4942810419
 30
0.0
 11
28.534312694
 21
3.4942810419
 31
0.0
  0
LINE
  5
51
330
1F
100
AcDbEntity
  8
AUFNAHME
  6
CONTINUOUS
100
AcDbLine
 10
18.341698858
 20
3.0594117079
 30
0.0
 11
18.481450677
 21
3.2118090179
 31
0.0
  0
LINE
  5
52
330
1F
100
AcDbEntity
  8
AUFNAHME
  6
CONTINUOUS
100
AcDbLine
 10
18.481450677
 20
3.2118090179
 30
0.0
 11
18.630715239
 21
3.2912638229
 31
0.0
  0
LINE
  5
53
330
1F
100
AcDbEntity
  8
AUFNAHME
  6
CONTINUOUS
100
AcDbLine
 10
18.630715239
 20
3.2912638229
 30
0.0
 11
18.816981486
 21
3.3524237919
 31
0.0
  0
LINE
  5
54
330
1F
100
AcDbEntity
  8
AUFNAHME
  6
CONTINUOUS
100
AcDbLine
 10
18.816981486
 20
3.3524237919
 30
0.0
 11
19.133366081
 21
3.4134706189
 31
0.0
  0
LINE
  5
55
330
1F
100
AcDbEntity
  8
AUFNAHME
  6
CONTINUOUS
100
AcDbLine
 10
19.133366081
 20
3.4134706189
 30
0.0
 11
19.491510816
 21
3.4512277009
 31
0.0
  0
LINE
  5
56
330
1F
100
AcDbEntity
  8
AUFNAHME
  6
CONTINUOUS
100
AcDbLine
 10
19.491510816
 20
3.4512277009
 30
0.0
 11
20.112279454
 21
3.4812984589
 31
0.0
  0
LINE
  5
57
330
1F
100
AcDbEntity
  8
AUFNAHME
  6
CONTINUOUS
100
AcDbLine
 10
20.112279454
 20
3.4812984589
 30
0.0
 11
20.777511961
 21
3.4921320709
 31
0.0
  0
LINE
  5
58
330
1F
100
AcDbEntity
  8
AUFNAHME
  6
CONTINUOUS
100
AcDbLine
 10
20.777511961
 20
3.4921320709
 30
0.0
 11
21.368347785
 21
3.4942810419
 31
0.0
  0
LINE
  5
59
330
1F
100
AcDbEntity
  8
AUFNAHME
  6
CONTINUOUS
100
AcDbLine
 10
23.47600133
 20
-3.0594117081
 30
0.0
 11
23.154155203
 21
-2.9038657161
 31
0.0
  0
LINE
  5
5A
330
1F
100
AcDbEntity
  8
AUFNAHME
  6
CONTINUOUS
100
AcDbLine
 10
23.154155203
 20
-2.9038657161
 30
0.0
 11
22.825333355
 21
-2.7273078721
 31
0.0
  0
LINE
  5
5B
330
1F
100
AcDbEntity
  8
AUFNAHME
  6
CONTINUOUS
100
AcDbLine
 10
22.825333355
 20
-2.7273078721
 30
0.0
 11
22.491915082
 21
-2.5310157161
 31
0.0
  0
LINE
  5
5C
330
1F
100
AcDbEntity
  8
AUFNAHME
  6
CONTINUOUS
100
AcDbLine
 10
22.491915082
 20
-2.5310157161
 30
0.0
 11
22.15631294
 21
-2.3164095841
 31
0.0
  0
LINE
  5
5D
330
1F
100
AcDbEntity
  8
AUFNAHME
  6
CONTINUOUS
100
AcDbLine
 10
22.15631294
 20
-2.3164095841
 30
0.0
 11
21.820955285
 21
-2.0850423271
 31
0.0
  0
LINE
  5
5E
330
1F
100
AcDbEntity
  8
AUFNAHME
  6
CONTINUOUS
100
AcDbLine
 10
21.820955285
 20
-2.0850423271
 30
0.0
 11
21.488268705
 21
-1.8385880771
 31
0.0
  0
LINE
  5
5F
330
1F
100
AcDbEntity
  8
AUFNAHME
  6
CONTINUOUS
100
AcDbLine
 10
21.488268705
 20
-1.8385880771
 30
0.0
 11
21.160660462
 21
-1.5788301331
 31
0.0
  0
LINE
  5
60
330
1F
100
AcDbEntity
  8
AUFNAHME
  6
CONTINUOUS
100
AcDbLine
 10
21.160660462
 20
-1.5788301331
 30
0.0
 11
20.840501068
 21
-1.3076480571
 31
0.0
  0
LINE
  5
61
330
1F
100
AcDbEntity
  8
AUFNAHME
  6
CONTINUOUS
100
AcDbLine
 10
20.840501068
 20
-1.3076480571
 30
0.0
 11
20.530107141
 21
-1.0270040741
 31
0.0
  0
LINE
  5
62
330
1F
100
AcDbEntity
  8
AUFNAHME
  6
CONTINUOUS
100
AcDbLine
 10
20.530107141
 20
-1.0270040741
 30
0.0
 11
20.231724636
 21
-0.7389288741
 31
0.0
  0
LINE
  5
63
330
1F
100
AcDbEntity
  8
AUFNAHME
  6
CONTINUOUS
100
AcDbLine
 10
20.231724636
 20
-0.7389288741
 30
0.0
 11
19.947512594
 21
-0.4455069161
 31
0.0
  0
LINE
  5
64
330
1F
100
AcDbEntity
  8
AUFNAHME
  6
CONTINUOUS
100
AcDbLine
 10
19.947512594
 20
-0.4455069161
 30
0.0
 11
19.679527523
 21
-0.1488613501
 31
0.0
  0
LINE
  5
65
330
1F
100
AcDbEntity
  8
AUFNAHME
  6
CONTINUOUS
100
AcDbLine
 10
19.679527523
 20
-0.1488613501
 30
0.0
 11
19.429708515
 21
0.1488613499
 31
0.0
  0
LINE
  5
66
330
1F
100
AcDbEntity
  8
AUFNAHME
  6
CONTINUOUS
100
AcDbLine
 10
19.429708515
 20
0.1488613499
 30
0.0
 11
19.199863216
 21
0.4455069159
 31
0.0
  0
LINE
  5
67
330
1F
100
AcDbEntity
  8
AUFNAHME
  6
CONTINUOUS
100
AcDbLine
 10
19.199863216
 20
0.4455069159
 30
0.0
 11
18.991654745
 21
0.7389288739
 31
0.0
  0
LINE
  5
68
330
1F
100
AcDbEntity
  8
AUFNAHME
  6
CONTINUOUS
100
AcDbLine
 10
18.991654745
 20
0.7389288739
 30
0.0
 11
18.806589662
 21
1.0270040739
 31
0.0
  0
LINE
  5
69
330
1F
100
AcDbEntity
  8
AUFNAHME
  6
CONTINUOUS
100
AcDbLine
 10
18.806589662
 20
1.0270040739
 30
0.0
 11
18.646007063
 21
1.3076480569
 31
0.0
  0
LINE
  5
6A
330
1F
100
AcDbEntity
  8
AUFNAHME
  6
CONTINUOUS
100
AcDbLine
 10
18.646007063
 20
1.3076480569
 30
0.0
 11
18.511068897
 21
1.5788301329
 31
0.0
  0
LINE
  5
6B
330
1F
100
AcDbEntity
  8
AUFNAHME
  6
CONTINUOUS
100
AcDbLine
 10
18.511068897
 20
1.5788301329
 30
0.0
 11
18.402751551
 21
1.8385880769
 31
0.0
  0
LINE
  5
6C
330
1F
100
AcDbEntity
  8
AUFNAHME
  6
CONTINUOUS
100
AcDbLine
 10
18.402751551
 20
1.8385880769
 30
0.0
 11
18.32183879
 21
2.0850423269
 31
0.0
  0
LINE
  5
6D
330
1F
100
AcDbEntity
  8
AUFNAHME
  6
CONTINUOUS
100
AcDbLine
 10
18.32183879
 20
2.0850423269
 30
0.0
 11
18.268916085
 21
2.3164095839
 31
0.0
  0
LINE
  5
6E
330
1F
100
AcDbEntity
  8
AUFNAHME
  6
CONTINUOUS
100
AcDbLine
 10
18.268916085
 20
2.3164095839
 30
0.0
 11
18.244366374
 21
2.5310157159
 31
0.0
  0
LINE
  5
6F
330
1F
100
AcDbEntity
  8
AUFNAHME
  6
CONTINUOUS
100
AcDbLine
 10
18.244366374
 20
2.5310157159
 30
0.0
 11
18.248367296
 21
2.7273078719
 31
0.0
  0
LINE
  5
70
330
1F
100
AcDbEntity
  8
AUFNAHME
  6
CONTINUOUS
100
AcDbLine
 10
18.248367296
 20
2.7273078719
 30
0.0
 11
18.2808899
 21
2.9038657159
 31
0.0
  0
LINE
  5
71
330
1F
100
AcDbEntity
  8
AUFNAHME
  6
CONTINUOUS
100
AcDbLine
 10
18.2808899
 20
2.9038657159
 30
0.0
 11
18.341698858
 21
3.0594117079
 31
0.0
  0
LINE
  5
72
330
1F
100
AcDbEntity
  8
AUFNAHME
  6
CONTINUOUS
100
AcDbLine
 10
29.3384190922
 20
-3.4960370763
 30
0.0
 11
27.2071310828
 21
-3.4960370763
 31
0.0
  0
LINE
  5
73
330
1F
100
AcDbEntity
  8
AUFNAHME
  6
CONTINUOUS
100
AcDbLine
 10
29.3384190922
 20
-3.4960370763
 30
0.0
 11
29.3381956601
 21
-3.5000004112
 31
0.0
  0
LINE
  5
74
330
1F
100
AcDbEntity
  8
AUFNAHME
  6
CONTINUOUS
100
AcDbLine
 10
20.9793570399
 20
-0.0840269061
 30
0.0
 11
21.1509471559
 21
-0.052522965
 31
0.0
  0
LINE
  5
75
330
1F
100
AcDbEntity
  8
AUFNAHME
  6
CONTINUOUS
100
AcDbLine
 10
21.1509471559
 20
-0.052522965
 30
0.0
 11
21.3252361439
 21
0.090198636
 31
0.0
  0
LINE
  5
76
330
1F
100
AcDbEntity
  8
AUFNAHME
  6
CONTINUOUS
100
AcDbLine
 10
21.3252361439
 20
0.090198636
 30
0.0
 11
21.4373379619
 21
0.329809899
 31
0.0
  0
LINE
  5
77
330
1F
100
AcDbEntity
  8
AUFNAHME
  6
CONTINUOUS
100
AcDbLine
 10
21.4373379619
 20
0.329809899
 30
0.0
 11
21.4599731419
 21
0.624289835
 31
0.0
  0
LINE
  5
78
330
1F
100
AcDbEntity
  8
AUFNAHME
  6
CONTINUOUS
100
AcDbLine
 10
21.4599731419
 20
0.624289835
 30
0.0
 11
21.3757683179
 21
0.932829122
 31
0.0
  0
LINE
  5
79
330
1F
100
AcDbEntity
  8
AUFNAHME
  6
CONTINUOUS
100
AcDbLine
 10
21.3757683179
 20
0.932829122
 30
0.0
 11
21.1896755869
 21
1.209214462
 31
0.0
  0
LINE
  5
7A
330
1F
100
AcDbEntity
  8
AUFNAHME
  6
CONTINUOUS
100
AcDbLine
 10
21.1896755869
 20
1.209214462
 30
0.0
 11
20.9394046089
 21
1.424078897
 31
0.0
  0
LINE
  5
7B
330
1F
100
AcDbEntity
  8
AUFNAHME
  6
CONTINUOUS
100
AcDbLine
 10
20.9394046089
 20
1.424078897
 30
0.0
 11
20.7320864259
 21
1.544293181
 31
0.0
  0
LINE
  5
7C
330
1F
100
AcDbEntity
  8
AUFNAHME
  6
CONTINUOUS
100
AcDbLine
 10
20.7320864259
 20
1.544293181
 30
0.0
 11
20.5108692779
 21
1.635451106
 31
0.0
  0
LINE
  5
7D
330
1F
100
AcDbEntity
  8
AUFNAHME
  6
CONTINUOUS
100
AcDbLine
 10
20.5108692779
 20
1.635451106
 30
0.0
 11
20.2943564979
 21
1.693143195
 31
0.0
  0
LINE
  5
7E
330
1F
100
AcDbEntity
  8
AUFNAHME
  6
CONTINUOUS
100
AcDbLine
 10
20.2943564979
 20
1.693143195
 30
0.0
 11
20.0805634759
 21
1.717453776
 31
0.0
  0
LINE
  5
7F
330
1F
100
AcDbEntity
  8
AUFNAHME
  6
CONTINUOUS
100
AcDbLine
 10
20.0805634759
 20
1.717453776
 30
0.0
 11
19.8477157209
 21
1.688908822
 31
0.0
  0
LINE
  5
80
330
1F
100
AcDbEntity
  8
AUFNAHME
  6
CONTINUOUS
100
AcDbLine
 10
19.8477157209
 20
1.688908822
 30
0.0
 11
19.7075846099
 21
1.604674584
 31
0.0
  0
LINE
  5
81
330
1F
100
AcDbEntity
  8
AUFNAHME
  6
CONTINUOUS
100
AcDbLine
 10
19.7075846099
 20
1.604674584
 30
0.0
 11
19.6506520894
 21
1.4994619922
 31
0.0
  0
LINE
  5
82
330
1F
100
AcDbEntity
  8
AUFNAHME
  6
CONTINUOUS
100
AcDbLine
 10
22.7738273487
 20
-1.0449665212
 30
0.0
 11
22.6995041857
 21
-0.8310981162
 31
0.0
  0
LINE
  5
83
330
1F
100
AcDbEntity
  8
AUFNAHME
  6
CONTINUOUS
100
AcDbLine
 10
22.6995041857
 20
-0.8310981162
 30
0.0
 11
22.6788729237
 21
-0.6209223002
 31
0.0
  0
LINE
  5
84
330
1F
100
AcDbEntity
  8
AUFNAHME
  6
CONTINUOUS
100
AcDbLine
 10
22.8614233707
 20
-1.2226209402
 30
0.0
 11
22.7738273487
 21
-1.0449665212
 31
0.0
  0
LINE
  5
85
330
1F
100
AcDbEntity
  8
AUFNAHME
  6
CONTINUOUS
100
AcDbLine
 10
23.3514966094
 20
0.2789720859
 30
0.0
 11
23.8701896414
 21
0.5442689208
 31
0.0
  0
LINE
  5
86
330
1F
100
AcDbEntity
  8
AUFNAHME
  6
CONTINUOUS
100
AcDbLine
 10
28.668931727
 20
3.2310816933
 30
0.0
 11
28.534312694
 21
3.4942810419
 31
0.0
  0
LINE
  5
87
330
1F
100
AcDbEntity
  8
AUFNAHME
  6
CONTINUOUS
100
AcDbLine
 10
29.3384190922
 20
-3.4960370763
 30
0.0
 11
29.3593442489
 21
-3.095231957
 31
0.0
  0
LINE
  5
88
330
1F
100
AcDbEntity
  8
AUFNAHME
  6
CONTINUOUS
100
AcDbLine
 10
25.8723962479
 20
-0.8463194873
 30
0.0
 11
25.2491881417
 21
-1.1626515413
 31
0.0
  0
LINE
  5
89
330
1F
100
AcDbEntity
  8
ZAPFEN
100
AcDbLine
 10
-21.4996022811
 20
0.0
 30
0.0
 11
-21.4996022811
 21
-3.5
 31
0.0
  0
LINE
  5
8A
330
1F
100
AcDbEntity
  8
ZAPFEN
100
AcDbLine
 10
-21.4996022811
 20
3.5
 30
0.0
 11
-21.4996022811
 21
0.0
 31
0.0
  0
LINE
  5
8B
330
1F
100
AcDbEntity
  8
ZAPFEN
100
AcDbLine
 10
-21.6996022811
 20
0.0
 30
0.0
 11
-21.6996022811
 21
3.3
 31
0.0
  0
LINE
  5
8C
330
1F
100
AcDbEntity
  8
ZAPFEN
100
AcDbLine
 10
-21.6996022811
 20
-3.3
 30
0.0
 11
-21.6996022811
 21
0.0
 31
0.0
  0
LINE
  5
8D
330
1F
100
AcDbEntity
  8
AUFNAHME
  6
CONTINUOUS
100
AcDbLine
 10
30.0
 20
3.4539702338
 30
0.0
 11
29.6587524619
 21
-2.841381924
 31
0.0
  0
LINE
  5
8E
330
1F
100
AcDbEntity
  8
AUFNAHME
  6
CONTINUOUS
100
AcDbLine
 10
29.2428009862
 20
-3.0530786261
 30
0.0
 11
23.98223612
 21
0.3912553618
 31
0.0
  0
LINE
  5
8F
330
1F
100
AcDbEntity
  8
AUFNAHME
  6
CONTINUOUS
100
AcDbLine
 10
24.0081966679
 20
0.859020765
 30
0.0
 11
29.609387184
 21
3.7097224263
 31
0.0
  0
LINE
  5
90
330
1F
100
AcDbEntity
  8
AUFNAHME
  6
CONTINUOUS
100
AcDbLine
 10
27.5997193139
 20
1.772915229
 30
0.0
 11
27.3724258199
 21
1.753621783
 31
0.0
  0
LINE
  5
91
330
1F
100
AcDbEntity
  8
AUFNAHME
  6
CONTINUOUS
100
AcDbLine
 10
27.3724258199
 20
1.753621783
 30
0.0
 11
27.1516499359
 21
1.696046338
 31
0.0
  0
LINE
  5
92
330
1F
100
AcDbEntity
  8
AUFNAHME
  6
CONTINUOUS
100
AcDbLine
 10
27.1516499359
 20
1.696046338
 30
0.0
 11
26.9437429839
 21
1.601845234
 31
0.0
  0
LINE
  5
93
330
1F
100
AcDbEntity
  8
AUFNAHME
  6
CONTINUOUS
100
AcDbLine
 10
26.9437429839
 20
1.601845234
 30
0.0
 11
26.7546860669
 21
1.473728467
 31
0.0
  0
LINE
  5
94
330
1F
100
AcDbEntity
  8
AUFNAHME
  6
CONTINUOUS
100
AcDbLine
 10
26.7546860669
 20
1.473728467
 30
0.0
 11
26.5899180079
 21
1.315381722
 31
0.0
  0
LINE
  5
95
330
1F
100
AcDbEntity
  8
AUFNAHME
  6
CONTINUOUS
100
AcDbLine
 10
26.5899180079
 20
1.315381722
 30
0.0
 11
26.4541788849
 21
1.131360346
 31
0.0
  0
LINE
  5
96
330
1F
100
AcDbEntity
  8
AUFNAHME
  6
CONTINUOUS
100
AcDbLine
 10
26.4541788849
 20
1.131360346
 30
0.0
 11
26.3513736649
 21
0.926958301
 31
0.0
  0
LINE
  5
97
330
1F
100
AcDbEntity
  8
AUFNAHME
  6
CONTINUOUS
100
AcDbLine
 10
26.3513736649
 20
0.926958301
 30
0.0
 11
26.2844598679
 21
0.708055859
 31
0.0
  0
LINE
  5
98
330
1F
100
AcDbEntity
  8
AUFNAHME
  6
CONTINUOUS
100
AcDbLine
 10
26.2844598679
 20
0.708055859
 30
0.0
 11
26.2553624799
 21
0.480950447
 31
0.0
  0
LINE
  5
99
330
1F
100
AcDbEntity
  8
AUFNAHME
  6
CONTINUOUS
100
AcDbLine
 10
26.2553624799
 20
0.480950447
 30
0.0
 11
26.2649185819
 21
0.252175473
 31
0.0
  0
LINE
  5
9A
330
1F
100
AcDbEntity
  8
AUFNAHME
  6
CONTINUOUS
100
AcDbLine
 10
26.2649185819
 20
0.252175473
 30
0.0
 11
26.3128532609
 21
0.028312377
 31
0.0
  0
LINE
  5
9B
330
1F
100
AcDbEntity
  8
AUFNAHME
  6
CONTINUOUS
100
AcDbLine
 10
26.3128532609
 20
0.028312377
 30
0.0
 11
26.3977875239
 21
-0.184198708
 31
0.0
  0
LINE
  5
9C
330
1F
100
AcDbEntity
  8
AUFNAHME
  6
CONTINUOUS
100
AcDbLine
 10
26.3977875239
 20
-0.184198708
 30
0.0
 11
26.5172779669
 21
-0.379244224
 31
0.0
  0
LINE
  5
9D
330
1F
100
AcDbEntity
  8
AUFNAHME
  6
CONTINUOUS
100
AcDbLine
 10
26.5172779669
 20
-0.379244224
 30
0.0
 11
26.6678870679
 21
-0.551213068
 31
0.0
  0
LINE
  5
9E
330
1F
100
AcDbEntity
  8
AUFNAHME
  6
CONTINUOUS
100
AcDbLine
 10
26.6678870679
 20
-0.551213068
 30
0.0
 11
26.8452820759
 21
-0.695158008
 31
0.0
  0
LINE
  5
9F
330
1F
100
AcDbEntity
  8
AUFNAHME
  6
CONTINUOUS
100
AcDbLine
 10
26.8452820759
 20
-0.695158008
 30
0.0
 11
27.0443596609
 21
-0.806938011
 31
0.0
  0
LINE
  5
A0
330
1F
100
AcDbEntity
  8
AUFNAHME
  6
CONTINUOUS
100
AcDbLine
 10
27.0443596609
 20
-0.806938011
 30
0.0
 11
27.2593927219
 21
-0.883337369
 31
0.0
  0
LINE
  5
A1
330
1F
100
AcDbEntity
  8
AUFNAHME
  6
CONTINUOUS
100
AcDbLine
 10
27.2593927219
 20
-0.883337369
 30
0.0
 11
27.4841951509
 21
-0.922158213
 31
0.0
  0
LINE
  5
A2
330
1F
100
AcDbEntity
  8
AUFNAHME
  6
CONTINUOUS
100
AcDbLine
 10
27.4841951509
 20
-0.922158213
 30
0.0
 11
27.7122997899
 21
-0.922283737
 31
0.0
  0
LINE
  5
A3
330
1F
100
AcDbEntity
  8
AUFNAHME
  6
CONTINUOUS
100
AcDbLine
 10
27.7122997899
 20
-0.922283737
 30
0.0
 11
27.9371444839
 21
-0.88371033
 31
0.0
  0
LINE
  5
A4
330
1F
100
AcDbEntity
  8
AUFNAHME
  6
CONTINUOUS
100
AcDbLine
 10
27.9371444839
 20
-0.88371033
 30
0.0
 11
28.1522608609
 21
-0.807547679
 31
0.0
  0
LINE
  5
A5
330
1F
100
AcDbEntity
  8
AUFNAHME
  6
CONTINUOUS
100
AcDbLine
 10
28.1522608609
 20
-0.807547679
 30
0.0
 11
28.3514604149
 21
-0.695986845
 31
0.0
  0
LINE
  5
A6
330
1F
100
AcDbEntity
  8
AUFNAHME
  6
CONTINUOUS
100
AcDbLine
 10
28.3514604149
 20
-0.695986845
 30
0.0
 11
28.5290125359
 21
-0.552237229
 31
0.0
  0
LINE
  5
A7
330
1F
100
AcDbEntity
  8
AUFNAHME
  6
CONTINUOUS
100
AcDbLine
 10
28.5290125359
 20
-0.552237229
 30
0.0
 11
28.6798093739
 21
-0.380434246
 31
0.0
  0
LINE
  5
A8
330
1F
100
AcDbEntity
  8
AUFNAHME
  6
CONTINUOUS
100
AcDbLine
 10
28.6798093739
 20
-0.380434246
 30
0.0
 11
28.7995127789
 21
-0.185520356
 31
0.0
  0
LINE
  5
A9
330
1F
100
AcDbEntity
  8
AUFNAHME
  6
CONTINUOUS
100
AcDbLine
 10
28.7995127789
 20
-0.185520356
 30
0.0
 11
28.8846790999
 21
0.026897124
 31
0.0
  0
LINE
  5
AA
330
1F
100
AcDbEntity
  8
AUFNAHME
  6
CONTINUOUS
100
AcDbLine
 10
28.8846790999
 20
0.026897124
 30
0.0
 11
28.9328582589
 21
0.250707329
 31
0.0
  0
LINE
  5
AB
330
1F
100
AcDbEntity
  8
AUFNAHME
  6
CONTINUOUS
100
AcDbLine
 10
28.9328582589
 20
0.250707329
 30
0.0
 11
28.9426642279
 21
0.479471649
 31
0.0
  0
LINE
  5
AC
330
1F
100
AcDbEntity
  8
AUFNAHME
  6
CONTINUOUS
100
AcDbLine
 10
28.9426642279
 20
0.479471649
 30
0.0
 11
28.9138149069
 21
0.706608948
 31
0.0
  0
LINE
  5
AD
330
1F
100
AcDbEntity
  8
AUFNAHME
  6
CONTINUOUS
100
AcDbLine
 10
28.9138149069
 20
0.706608948
 30
0.0
 11
28.8471402399
 21
0.925584902
 31
0.0
  0
LINE
  5
AE
330
1F
100
AcDbEntity
  8
AUFNAHME
  6
CONTINUOUS
100
AcDbLine
 10
28.8471402399
 20
0.925584902
 30
0.0
 11
28.7445583339
 21
1.130099971
 31
0.0
  0
LINE
  5
AF
330
1F
100
AcDbEntity
  8
AUFNAHME
  6
CONTINUOUS
100
AcDbLine
 10
28.7445583339
 20
1.130099971
 30
0.0
 11
28.6090202849
 21
1.314270628
 31
0.0
  0
LINE
  5
B0
330
1F
100
AcDbEntity
  8
AUFNAHME
  6
CONTINUOUS
100
AcDbLine
 10
28.6090202849
 20
1.314270628
 30
0.0
 11
28.4444252749
 21
1.472798618
 31
0.0
  0
LINE
  5
B1
330
1F
100
AcDbEntity
  8
AUFNAHME
  6
CONTINUOUS
100
AcDbLine
 10
28.4444252749
 20
1.472798618
 30
0.0
 11
28.2555084029
 21
1.601123381
 31
0.0
  0
LINE
  5
B2
330
1F
100
AcDbEntity
  8
AUFNAHME
  6
CONTINUOUS
100
AcDbLine
 10
28.0477044639
 20
1.695553247
 30
0.0
 11
27.8269915989
 21
1.753371639
 31
0.0
  0
LINE
  5
B3
330
1F
100
AcDbEntity
  8
AUFNAHME
  6
CONTINUOUS
100
AcDbLine
 10
27.8269915989
 20
1.753371639
 30
0.0
 11
27.5997193139
 21
1.772915229
 31
0.0
  0
LINE
  5
B4
330
1F
100
AcDbEntity
  8
AUFNAHME
  6
CONTINUOUS
100
AcDbLine
 10
23.851658006
 20
0.5347871649
 30
0.0
 11
21.368347785
 21
3.4942810419
 31
0.0
  0
LINE
  5
B5
330
1F
100
AcDbEntity
  8
AUFNAHME
  6
CONTINUOUS
100
AcDbLine
 10
27.2071310828
 20
-3.4960370763
 30
0.0
 11
25.2491881417
 21
-1.1626515413
 31
0.0
  0
LINE
  5
B6
330
1F
100
AcDbEntity
  8
ZAPFEN
100
AcDbLine
 10
-21.4996022811
 20
-3.5
 30
0.0
 11
0.0
 21
-3.5
 31
0.0
  0
LINE
  5
B7
330
1F
100
AcDbEntity
  8
AUFNAHME
  6
CONTINUOUS
100
AcDbLine
 10
0.0
 20
-3.5
 30
0.0
 11
17.0003977189
 21
-3.5000004112
 31
0.0
  0
LINE
  5
B8
330
1F
100
AcDbEntity
  8
AUFNAHME
  6
CONTINUOUS
100
AcDbLine
 10
28.0477044639
 20
1.695553247
 30
0.0
 11
28.2555084029
 21
1.601123381
 31
0.0
  0
LINE
  5
B9
330
1F
100
AcDbEntity
  8
EW
  6
HIDDEN
100
AcDbLine
 10
-21.6996022811
 20
1.0
 30
0.0
 11
10.0003977189
 21
1.0
 31
0.0
  0
LINE
  5
BA
330
1F
100
AcDbEntity
  8
EW
  6
HIDDEN
100
AcDbLine
 10
10.0003977189
 20
1.0
 30
0.0
 11
17.5267780569
 21
1.0
 31
0.0
  0
LINE
  5
BB
330
1F
100
AcDbEntity
  8
EW
  6
HIDDEN
100
AcDbLine
 10
-21.6996022811
 20
-1.0
 30
0.0
 11
10.0003977189
 21
-1.0
 31
0.0
  0
LINE
  5
BC
330
1F
100
AcDbEntity
  8
EW
  6
HIDDEN
100
AcDbLine
 10
10.0003977189
 20
-1.0
 30
0.0
 11
17.5267780569
 21
-1.0
 31
0.0
  0
LINE
  5
BD
330
1F
100
AcDbEntity
  8
EW
  6
HIDDEN
100
AcDbLine
 10
17.5267780569
 20
1.0
 30
0.0
 11
17.5267780569
 21
-1.0
 31
0.0
  0
LINE
  5
BE
330
1F
100
AcDbEntity
  8
EW
  6
HIDDEN
100
AcDbLine
 10
17.5267780569
 20
1.0
 30
0.0
 11
19.8477157209
 21
1.688908822
 31
0.0
  0
LINE
  5
BF
330
1F
100
AcDbEntity
  8
EW
  6
HIDDEN
100
AcDbLine
 10
17.5267780569
 20
-1.0
 30
0.0
 11
21.1509471559
 21
-0.052522965
 31
0.0
  0
LINE
  5
C0
330
1F
100
AcDbEntity
  8
ZAPFEN
100
AcDbLine
 10
0.0
 20
3.5
 30
0.0
 11
0.0
 21
-3.5
 31
0.0
  0
LINE
  5
C1
330
1F
100
AcDbEntity
  8
UNSICHT
  6
CENTER
100
AcDbLine
 10
-22.8016200931
 20
0.0
 30
0.0
 11
31.1278817062
 21
0.026897124
 31
0.0
  0
ARC
  5
C2
330
1F
100
AcDbEntity
  8
AUFNAHME
  6
CONTINUOUS
100
AcDbCircle
 10
28.424014604
 20
3.1396503153
 30
0.0
 40
0.3713874270000075
100
AcDbArc
 50
22.401536089
 51
72.723137394
  0
ARC
  5
C3
330
1F
100
AcDbEntity
  8
AUFNAHME
  6
CONTINUOUS
100
AcDbCircle
 10
26.5113420449
 20
6.7184548348
 30
0.0
 40
10.23816230513021
100
AcDbArc
 50
252.754102216
 51
273.8968445186
  0
ARC
  5
C4
330
1F
100
AcDbEntity
  8
AUFNAHME
  6
CONTINUOUS
100
AcDbCircle
 10
21.4397439959
 20
1.651485985
 30
0.0
 40
1.795539235000005
100
AcDbArc
 50
184.85691069
 51
255.14308931
  0
ARC
  5
C5
330
1F
100
AcDbEntity
  8
AUFNAHME
  6
CONTINUOUS
100
AcDbCircle
 10
23.7768912257
 20
-0.7401345852
 30
0.0
 40
1.034830651012196
100
AcDbArc
 50
207.7909348891
 51
297.307962761
  0
ARC
  5
C6
330
1F
100
AcDbEntity
  8
AUFNAHME
  6
CONTINUOUS
100
AcDbCircle
 10
-8.4485445884
 20
65.225499575
 30
0.0
 40
74.45081463480311
100
AcDbArc
 50
296.0540402123
 51
296.9117368101
  0
ARC
  5
C7
330
1F
100
AcDbEntity
  8
AUFNAHME
  6
CONTINUOUS
100
AcDbCircle
 10
24.2135676824
 20
-1.0542126391
 30
0.0
 40
1.594687593298584
100
AcDbArc
 50
127.340988498
 51
164.2340359612
  0
ARC
  5
C8
330
1F
100
AcDbEntity
  8
AUFNAHME
  6
CONTINUOUS
100
AcDbCircle
 10
23.6838895223
 20
-0.373498734
 30
0.0
 40
0.7322589837960277
100
AcDbArc
 50
116.995986054
 51
126.6975486716
  0
ARC
  5
C9
330
1F
100
AcDbEntity
  8
AUFNAHME
  6
CONTINUOUS
100
AcDbCircle
 10
29.7310906739
 20
3.469431876
 30
0.0
 40
0.2693534630000346
100
AcDbArc
 50
356.709253082
 51
116.861516786
  0
ARC
  5
CA
330
1F
100
AcDbEntity
  8
AUFNAHME
  6
CONTINUOUS
100
AcDbCircle
 10
29.3899401101
 20
-2.827695681
 30
0.0
 40
0.2691605352171088
100
AcDbArc
 50
236.86186892
 51
357.0853741095
  0
ARC
  5
CB
330
1F
100
AcDbEntity
  8
AUFNAHME
  6
CONTINUOUS
100
AcDbCircle
 10
24.1310226128
 20
0.6176866645
 30
0.0
 40
0.2709401323223515
100
AcDbArc
 50
116.97362157
 51
236.6913521214
  0
DIMENSION
  5
CC
330
1F
100
AcDbEntity
  8
MASS
100
AcDbDimension
  2
_D
 10
0.0
 20
-10.1947734129
 30
0.0
 11
15.0
 21
-10.1947734129
 31
0.0
 70
   160
  1
<>
  3
SLDDIMSTYLE0
100
AcDbAlignedDimension
 13
30.0
 23
3.4539702338
 33
0.0
 14
0.0
 24
-3.5
 34
0.0
 50
0.0
100
AcDbRotatedDimension
  0
DIMENSION
  5
D8
330
1F
100
AcDbEntity
  8
MASS
100
AcDbDimension
  2
_D_1
 10
-21.6996022811
 20
12.5219618649
 30
0.0
 11
4.1501988595
 21
12.5219618649
 31
0.0
 70
   160
  1
(<>)
  3
SLDDIMSTYLE1
100
AcDbAlignedDimension
 13
30.0
 23
3.4539702338
 33
0.0
 14
-21.6996022811
 24
3.3
 34
0.0
 50
0.0
100
AcDbRotatedDimension
  0
DIMENSION
  5
E5
330
1F
100
AcDbEntity
  8
MASS
100
AcDbDimension
  2
_D_2
 10
-21.6996022811
 20
-10.1947734129
 30
0.0
 11
-10.8498011405
 21
-10.1947734129
 31
0.0
 70
   160
  1
<>
  3
SLDDIMSTYLE1
100
AcDbAlignedDimension
 13
0.0
 23
-3.5
 33
0.0
 14
-21.6996022811
 24
-3.3
 34
0.0
 50
0.0
100
AcDbRotatedDimension
  0
DIMENSION
  5
EF
330
1F
100
AcDbEntity
  8
MASS
100
AcDbDimension
  2
_D_3
 10
-27.5602321901
 20
3.5
 30
0.0
 11
-27.5602321901
 21
0.0
 31
0.0
 70
   160
  1
%%c<>
  3
SLDDIMSTYLE2
100
AcDbAlignedDimension
 13
-21.4996022811
 23
-3.5
 33
0.0
 14
-21.4996022811
 24
3.5
 34
0.0
 50
90.0
100
AcDbRotatedDimension
  0
DIMENSION
  5
FD
330
1F
100
AcDbEntity
  8
MASS
100
AcDbDimension
  2
_D_4
 10
37.9417617293
 20
0.0302955195
 30
0.0
 11
37.9333699725
 21
16.8560076736
 31
0.0
 70
   160
  1
%%c7.8 - 9.0
  3
SLDDIMSTYLE3
100
AcDbAlignedDimension
 13
29.730956335
 23
3.7387853055
 33
0.0
 14
31.1278817062
 24
0.026897124
 34
0.0
 50
-89.9714239608
100
AcDbRotatedDimension
  0
MTEXT
  5
108
330
1F
100
AcDbEntity
  8
MASS
100
AcDbMText
 10
2.7721541562
 20
9.2608551744
 30
0.0
 40
3.5
 41
0.0
 71
     1
 72
     1
  1
615.507
  7
SLDTEXTSTYLE0
  0
ENDSEC
  0
SECTION
  2
OBJECTS
  0
DICTIONARY
  5
C
330
0
100
AcDbDictionary
  3
ACAD_GROUP
350
D
  3
ACAD_MLINESTYLE
350
17
  0
DICTIONARY
  5
D
102
{ACAD_REACTORS
330
C
102
}
330
C
100
AcDbDictionary
  0
DICTIONARY
  5
17
102
{ACAD_REACTORS
330
C
102
}
330
C
100
AcDbDictionary
  3
STANDARD
350
18
  0
MLINESTYLE
  5
18
102
{ACAD_REACTORS
330
17
102
}
330
17
100
AcDbMlineStyle
  2
Standard
 70
     0
  3

 62
   256
 51
90.0
 52
90.0
 71
     2
 49
0.5
 62
   256
  6
BYLAYER
 49
-0.5
 62
   256
  6
BYLAYER
  0
ENDSEC
  0
EOF
