  0
SECTION
  2
HEADER
  9
$ACADVER
  1
AC1015
  9
$ACADMAINTVER
 70
     6
  9
$DWGCODEPAGE
  3
ANSI_1252
  9
$INSBASE
 10
0.0
 20
0.0
 30
0.0
  9
$EXTMIN
 10
-27.70943223718395
 20
-18.93436338995775
 30
0.0
  9
$EXTMAX
 10
30.12324520919812
 20
21.56385105525417
 30
0.0
  9
$LIMMIN
 10
-20.630995417
 20
-13.372734074
  9
$LIMMAX
 10
20.929509596
 20
13.10390515
  9
$ORTHOMODE
 70
     0
  9
$REGENMODE
 70
     1
  9
$FILLMODE
 70
     1
  9
$QTEXTMODE
 70
     0
  9
$MIRRTEXT
 70
     1
  9
$LTSCALE
 40
1.0
  9
$ATTMODE
 70
     1
  9
$TEXTSIZE
 40
0.2
  9
$TRACEWID
 40
0.05
  9
$TEXTSTYLE
  7
Standard
  9
$CLAYER
  8
1
  9
$CELTYPE
  6
ByLayer
  9
$CECOLOR
 62
   256
  9
$CELTSCALE
 40
1.0
  9
$DISPSILH
 70
     0
  9
$DIMSCALE
 40
1.0
  9
$DIMASZ
 40
0.18
  9
$DIMEXO
 40
0.0625
  9
$DIMDLI
 40
0.38
  9
$DIMRND
 40
0.0
  9
$DIMDLE
 40
0.0
  9
$DIMEXE
 40
0.18
  9
$DIMTP
 40
0.0
  9
$DIMTM
 40
0.0
  9
$DIMTXT
 40
0.18
  9
$DIMCEN
 40
0.09
  9
$DIMTSZ
 40
0.0
  9
$DIMTOL
 70
     0
  9
$DIMLIM
 70
     0
  9
$DIMTIH
 70
     1
  9
$DIMTOH
 70
     1
  9
$DIMSE1
 70
     0
  9
$DIMSE2
 70
     0
  9
$DIMTAD
 70
     0
  9
$DIMZIN
 70
     0
  9
$DIMBLK
  1

  9
$DIMASO
 70
     1
  9
$DIMSHO
 70
     1
  9
$DIMPOST
  1

  9
$DIMAPOST
  1

  9
$DIMALT
 70
     0
  9
$DIMALTD
 70
     2
  9
$DIMALTF
 40
25.4
  9
$DIMLFAC
 40
1.0
  9
$DIMTOFL
 70
     0
  9
$DIMTVP
 40
0.0
  9
$DIMTIX
 70
     0
  9
$DIMSOXD
 70
     0
  9
$DIMSAH
 70
     0
  9
$DIMBLK1
  1

  9
$DIMBLK2
  1

  9
$DIMSTYLE
  2
Standard
  9
$DIMCLRD
 70
     0
  9
$DIMCLRE
 70
     0
  9
$DIMCLRT
 70
     0
  9
$DIMTFAC
 40
1.0
  9
$DIMGAP
 40
0.09
  9
$DIMJUST
 70
     0
  9
$DIMSD1
 70
     0
  9
$DIMSD2
 70
     0
  9
$DIMTOLJ
 70
     1
  9
$DIMTZIN
 70
     0
  9
$DIMALTZ
 70
     0
  9
$DIMALTTZ
 70
     0
  9
$DIMUPT
 70
     0
  9
$DIMDEC
 70
     4
  9
$DIMTDEC
 70
     4
  9
$DIMALTU
 70
     2
  9
$DIMALTTD
 70
     2
  9
$DIMTXSTY
  7
Standard
  9
$DIMAUNIT
 70
     0
  9
$DIMADEC
 70
     0
  9
$DIMALTRND
 40
0.0
  9
$DIMAZIN
 70
     0
  9
$DIMDSEP
 70
    46
  9
$DIMATFIT
 70
     3
  9
$DIMFRAC
 70
     0
  9
$DIMLDRBLK
  1

  9
$DIMLUNIT
 70
     2
  9
$DIMLWD
 70
    -2
  9
$DIMLWE
 70
    -2
  9
$DIMTMOVE
 70
     2
  9
$LUNITS
 70
     2
  9
$LUPREC
 70
     4
  9
$SKETCHINC
 40
0.1
  9
$FILLETRAD
 40
0.5
  9
$AUNITS
 70
     2
  9
$AUPREC
 70
     0
  9
$MENU
  1
.
  9
$ELEVATION
 40
0.0
  9
$PELEVATION
 40
0.0
  9
$THICKNESS
 40
0.0
  9
$LIMCHECK
 70
     0
  9
$CHAMFERA
 40
0.5
  9
$CHAMFERB
 40
0.5
  9
$CHAMFERC
 40
1.0
  9
$CHAMFERD
 40
0.0
  9
$SKPOLY
 70
     0
  9
$TDCREATE
 40
2458327.549511296
  9
$TDUCREATE
 40
2458327.466177963
  9
$TDUPDATE
 40
2458589.62561581
  9
$TDUUPDATE
 40
2458589.542282477
  9
$TDINDWG
 40
0.0074422917
  9
$TDUSRTIMER
 40
0.0001276852
  9
$USRTIMER
 70
     1
  9
$ANGBASE
 50
0.0
  9
$ANGDIR
 70
     0
  9
$PDMODE
 70
     0
  9
$PDSIZE
 40
0.0
  9
$PLINEWID
 40
0.0
  9
$SPLFRAME
 70
     0
  9
$SPLINETYPE
 70
     6
  9
$SPLINESEGS
 70
     8
  9
$HANDSEED
  5
1B9
  9
$SURFTAB1
 70
     6
  9
$SURFTAB2
 70
     6
  9
$SURFTYPE
 70
     6
  9
$SURFU
 70
     6
  9
$SURFV
 70
     6
  9
$UCSBASE
  2

  9
$UCSNAME
  2

  9
$UCSORG
 10
0.0
 20
0.0
 30
0.0
  9
$UCSXDIR
 10
1.0
 20
0.0
 30
0.0
  9
$UCSYDIR
 10
0.0
 20
1.0
 30
0.0
  9
$UCSORTHOREF
  2

  9
$UCSORTHOVIEW
 70
     0
  9
$UCSORGTOP
 10
0.0
 20
0.0
 30
0.0
  9
$UCSORGBOTTOM
 10
0.0
 20
0.0
 30
0.0
  9
$UCSORGLEFT
 10
0.0
 20
0.0
 30
0.0
  9
$UCSORGRIGHT
 10
0.0
 20
0.0
 30
0.0
  9
$UCSORGFRONT
 10
0.0
 20
0.0
 30
0.0
  9
$UCSORGBACK
 10
0.0
 20
0.0
 30
0.0
  9
$PUCSBASE
  2

  9
$PUCSNAME
  2

  9
$PUCSORG
 10
0.0
 20
0.0
 30
0.0
  9
$PUCSXDIR
 10
1.0
 20
0.0
 30
0.0
  9
$PUCSYDIR
 10
0.0
 20
1.0
 30
0.0
  9
$PUCSORTHOREF
  2

  9
$PUCSORTHOVIEW
 70
     0
  9
$PUCSORGTOP
 10
0.0
 20
0.0
 30
0.0
  9
$PUCSORGBOTTOM
 10
0.0
 20
0.0
 30
0.0
  9
$PUCSORGLEFT
 10
0.0
 20
0.0
 30
0.0
  9
$PUCSORGRIGHT
 10
0.0
 20
0.0
 30
0.0
  9
$PUCSORGFRONT
 10
0.0
 20
0.0
 30
0.0
  9
$PUCSORGBACK
 10
0.0
 20
0.0
 30
0.0
  9
$USERI1
 70
     0
  9
$USERI2
 70
     0
  9
$USERI3
 70
     0
  9
$USERI4
 70
     0
  9
$USERI5
 70
     0
  9
$USERR1
 40
0.0
  9
$USERR2
 40
0.0
  9
$USERR3
 40
0.0
  9
$USERR4
 40
0.0
  9
$USERR5
 40
0.0
  9
$WORLDVIEW
 70
     1
  9
$SHADEDGE
 70
     3
  9
$SHADEDIF
 70
    70
  9
$TILEMODE
 70
     1
  9
$MAXACTVP
 70
    64
  9
$PINSBASE
 10
0.0
 20
0.0
 30
0.0
  9
$PLIMCHECK
 70
     0
  9
$PEXTMIN
 10
1.000000000000000E+20
 20
1.000000000000000E+20
 30
1.000000000000000E+20
  9
$PEXTMAX
 10
-1.000000000000000E+20
 20
-1.000000000000000E+20
 30
-1.000000000000000E+20
  9
$PLIMMIN
 10
0.0
 20
0.0
  9
$PLIMMAX
 10
0.0
 20
0.0
  9
$UNITMODE
 70
     0
  9
$VISRETAIN
 70
     1
  9
$PLINEGEN
 70
     0
  9
$PSLTSCALE
 70
     1
  9
$TREEDEPTH
 70
  3020
  9
$CMLSTYLE
  2
Standard
  9
$CMLJUST
 70
     0
  9
$CMLSCALE
 40
1.0
  9
$PROXYGRAPHICS
 70
     1
  9
$MEASUREMENT
 70
     0
  9
$CELWEIGHT
370
    -1
  9
$ENDCAPS
280
     0
  9
$JOINSTYLE
280
     0
  9
$LWDISPLAY
290
     0
  9
$INSUNITS
 70
     0
  9
$HYPERLINKBASE
  1

  9
$STYLESHEET
  1

  9
$XEDIT
290
     1
  9
$CEPSNTYPE
380
     0
  9
$PSTYLEMODE
290
     1
  9
$FINGERPRINTGUID
  2
{1D29129C-1DEE-4378-B397-404EAB67CE73}
  9
$VERSIONGUID
  2
{FAEB1C32-E019-11D5-929B-00C0DF256EC4}
  9
$EXTNAMES
290
     1
  9
$PSVPSCALE
 40
0.0
  9
$OLESTARTUP
290
     0
  0
ENDSEC
  0
SECTION
  2
CLASSES
  0
CLASS
  1
ACDBDICTIONARYWDFLT
  2
AcDbDictionaryWithDefault
  3
ObjectDBX Classes
 90
        0
280
     0
281
     0
  0
CLASS
  1
SCALE
  2
AcDbScale
  3
ObjectDBX Classes
 90
     1153
280
     0
281
     0
  0
CLASS
  1
VISUALSTYLE
  2
AcDbVisualStyle
  3
ObjectDBX Classes
 90
     4095
280
     0
281
     0
  0
CLASS
  1
MATERIAL
  2
AcDbMaterial
  3
ObjectDBX Classes
 90
     1153
280
     0
281
     0
  0
CLASS
  1
DICTIONARYVAR
  2
AcDbDictionaryVar
  3
ObjectDBX Classes
 90
        0
280
     0
281
     0
  0
CLASS
  1
ACDBPLACEHOLDER
  2
AcDbPlaceHolder
  3
ObjectDBX Classes
 90
        0
280
     0
281
     0
  0
CLASS
  1
LAYOUT
  2
AcDbLayout
  3
ObjectDBX Classes
 90
        0
280
     0
281
     0
  0
CLASS
  1
TABLESTYLE
  2
AcDbTableStyle
  3
ObjectDBX Classes
 90
     4095
280
     0
281
     0
  0
CLASS
  1
MLEADERSTYLE
  2
AcDbMLeaderStyle
  3
ACDB_MLEADERSTYLE_CLASS
 90
     4095
280
     0
281
     0
  0
CLASS
  1
SUN
  2
AcDbSun
  3
SCENEOE
 90
     1153
280
     0
281
     0
  0
CLASS
  1
DIMASSOC
  2
AcDbDimAssoc
  3
"AcDbDimAssoc|Product Desc:     AcDim ARX App For Dimension|Company:          Autodesk, Inc.|WEB Address:      www.autodesk.com"
 90
        0
280
     0
281
     0
  0
CLASS
  1
CELLSTYLEMAP
  2
AcDbCellStyleMap
  3
ObjectDBX Classes
 90
     1152
280
     0
281
     0
  0
ENDSEC
  0
SECTION
  2
TABLES
  0
TABLE
  2
VPORT
  5
8
330
0
100
AcDbSymbolTable
 70
     1
  0
VPORT
  5
77
330
8
100
AcDbSymbolTableRecord
100
AcDbViewportTableRecord
  2
*Active
 70
     0
 10
0.0
 20
0.0
 11
1.0
 21
1.0
 12
4.380299892571681
 22
-4.827475433806276
 13
0.0
 23
0.0
 14
0.5
 24
0.5
 15
0.5
 25
0.5
 16
0.0
 26
0.0
 36
1.0
 17
0.0
 27
0.0
 37
0.0
 40
45.82572748792684
 41
1.70021645021645
 42
50.0
 43
0.0
 44
0.0
 50
0.0
 51
0.0
 71
    16
 72
   100
 73
     1
 74
     3
 75
     0
 76
     0
 77
     0
 78
     0
281
     0
 65
     1
110
0.0
120
0.0
130
0.0
111
1.0
121
0.0
131
0.0
112
0.0
122
1.0
132
0.0
 79
     0
146
0.0
  0
ENDTAB
  0
TABLE
  2
LTYPE
  5
5
330
0
100
AcDbSymbolTable
 70
     8
  0
LTYPE
  5
14
330
5
100
AcDbSymbolTableRecord
100
AcDbLinetypeTableRecord
  2
ByBlock
 70
     0
  3

 72
    65
 73
     0
 40
0.0
  0
LTYPE
  5
15
330
5
100
AcDbSymbolTableRecord
100
AcDbLinetypeTableRecord
  2
ByLayer
 70
     0
  3

 72
    65
 73
     0
 40
0.0
  0
LTYPE
  5
16
330
5
100
AcDbSymbolTableRecord
100
AcDbLinetypeTableRecord
  2
Continuous
 70
     0
  3
Solid line
 72
    65
 73
     0
 40
0.0
  0
LTYPE
  5
20
330
5
100
AcDbSymbolTableRecord
100
AcDbLinetypeTableRecord
  2
PUNKT
 70
     0
  3
..............
 72
    65
 73
     2
 40
1.5
 49
0.7
 74
     0
 49
-0.8
 74
     0
  0
LTYPE
  5
21
330
5
100
AcDbSymbolTableRecord
100
AcDbLinetypeTableRecord
  2
GESTRICHELT
 70
     0
  3
-- -- -- -- --
 72
    65
 73
     7
 40
2.8
 49
0.9
 74
     0
 49
0.0
 74
     0
 49
0.9
 74
     0
 49
0.0
 74
     0
 49
0.2
 74
     0
 49
0.0
 74
     0
 49
-0.8
 74
     0
  0
LTYPE
  5
22
330
5
100
AcDbSymbolTableRecord
100
AcDbLinetypeTableRecord
  2
STRICHPUNKT
 70
     0
  3
--.--.--.--.--
 72
    65
 73
     4
 40
8.8
 49
5.5
 74
     0
 49
-1.3
 74
     0
 49
0.7
 74
     0
 49
-1.3
 74
     0
  0
LTYPE
  5
25
330
5
100
AcDbSymbolTableRecord
100
AcDbLinetypeTableRecord
  2
PHANTOM
 70
     0
  3
--..--..--..--
 72
    65
 73
     6
 40
14.2
 49
7.0
 74
     0
 49
-1.8
 74
     0
 49
0.9
 74
     0
 49
-1.8
 74
     0
 49
0.9
 74
     0
 49
-1.8
 74
     0
  0
LTYPE
  5
ED
330
5
100
AcDbSymbolTableRecord
100
AcDbLinetypeTableRecord
  2
DASH
 70
     0
  3
DASH _ _ _ _ _
 72
    65
 73
     2
 40
0.75
 49
0.4
 74
     0
 49
-0.35
 74
     0
  0
LTYPE
  5
EE
330
5
100
AcDbSymbolTableRecord
100
AcDbLinetypeTableRecord
  2
LONGDASH_DASH
 70
     0
  3
LONGDASH_DASH __ . __ . __
 72
    65
 73
     4
 40
0.85
 49
0.4
 74
     0
 49
-0.2
 74
     0
 49
0.05
 74
     0
 49
-0.2
 74
     0
  0
LTYPE
  5
EF
330
5
100
AcDbSymbolTableRecord
100
AcDbLinetypeTableRecord
  2
LONGDASH_DASH_DASH
 70
     0
  3
LONGDASH_DASH_DASH __ . . __ . . __
 72
    65
 73
     6
 40
1.1
 49
0.4
 74
     0
 49
-0.2
 74
     0
 49
0.05
 74
     0
 49
-0.2
 74
     0
 49
0.05
 74
     0
 49
-0.2
 74
     0
  0
ENDTAB
  0
TABLE
  2
LAYER
  5
2
102
{ACAD_XDICTIONARY
360
10C
102
}
330
0
100
AcDbSymbolTable
 70
    16
  0
LAYER
  5
B8
330
2
100
AcDbSymbolTableRecord
100
AcDbLayerTableRecord
  2
200
 70
     0
 62
     2
  6
Continuous
370
    50
390
F
  0
LAYER
  5
F0
330
2
100
AcDbSymbolTableRecord
100
AcDbLayerTableRecord
  2
0
 70
     0
 62
     1
  6
Continuous
370
    -3
390
F
  0
LAYER
  5
F1
330
2
100
AcDbSymbolTableRecord
100
AcDbLayerTableRecord
  2
1
 70
     0
 62
     4
  6
Continuous
370
    50
390
F
  0
LAYER
  5
F2
330
2
100
AcDbSymbolTableRecord
100
AcDbLayerTableRecord
  2
2
 70
     0
 62
     7
  6
Continuous
370
    25
390
F
  0
LAYER
  5
F3
330
2
100
AcDbSymbolTableRecord
100
AcDbLayerTableRecord
  2
3
 70
     0
 62
     1
  6
DASH
370
    35
390
F
  0
LAYER
  5
F4
330
2
100
AcDbSymbolTableRecord
100
AcDbLayerTableRecord
  2
4
 70
     0
 62
     2
  6
LONGDASH_DASH
370
    25
390
F
  0
LAYER
  5
F5
330
2
100
AcDbSymbolTableRecord
100
AcDbLayerTableRecord
  2
6
 70
     0
 62
     5
  6
Continuous
370
    -3
390
F
  0
LAYER
  5
F6
330
2
100
AcDbSymbolTableRecord
100
AcDbLayerTableRecord
  2
CUT
 70
     0
 62
     1
  6
Continuous
370
    25
390
F
  0
LAYER
  5
F7
330
2
100
AcDbSymbolTableRecord
100
AcDbLayerTableRecord
  2
NOCUT
 70
     0
 62
     7
  6
Continuous
370
    25
390
F
  0
LAYER
  5
F8
330
2
100
AcDbSymbolTableRecord
100
AcDbLayerTableRecord
  2
SK1
 70
     0
 62
     4
  6
Continuous
370
    50
390
F
  0
LAYER
  5
F9
330
2
100
AcDbSymbolTableRecord
100
AcDbLayerTableRecord
  2
SK2
 70
     0
 62
     7
  6
Continuous
370
    25
390
F
  0
LAYER
  5
FA
330
2
100
AcDbSymbolTableRecord
100
AcDbLayerTableRecord
  2
SK3
 70
     0
 62
     1
  6
DASH
370
    35
390
F
  0
LAYER
  5
FB
330
2
100
AcDbSymbolTableRecord
100
AcDbLayerTableRecord
  2
SK4
 70
     0
 62
     2
  6
LONGDASH_DASH
370
    25
390
F
  0
LAYER
  5
FC
330
2
100
AcDbSymbolTableRecord
100
AcDbLayerTableRecord
  2
SK6
 70
     0
 62
     5
  6
Continuous
370
    -3
390
F
  0
LAYER
  5
FD
330
2
100
AcDbSymbolTableRecord
100
AcDbLayerTableRecord
  2
INFTOTAL
 70
     0
 62
     9
  6
Continuous
370
    18
390
F
  0
LAYER
  5
12C
330
2
100
AcDbSymbolTableRecord
100
AcDbLayerTableRecord
  2
Defpoints
 70
     0
 62
     7
  6
Continuous
290
     0
370
    -3
390
F
  0
ENDTAB
  0
TABLE
  2
STYLE
  5
3
330
0
100
AcDbSymbolTable
 70
     3
  0
STYLE
  5
11
330
3
100
AcDbSymbolTableRecord
100
AcDbTextStyleTableRecord
  2
Standard
 70
     0
 40
0.0
 41
1.0
 50
0.0
 71
     0
 42
0.2
  3
txt
  4

  0
STYLE
  5
B7
330
3
100
AcDbSymbolTableRecord
100
AcDbTextStyleTableRecord
  2
BMG_Text
 70
     0
 40
3.5
 41
1.0
 50
0.0
 71
     0
 42
0.2
  3
monos.ttf
  4

1001
ACAD
1000
Monospac821 BT
1071
       49
  0
STYLE
  5
16A
330
3
100
AcDbSymbolTableRecord
100
AcDbTextStyleTableRecord
  2
SLDTEXTSTYLE0
 70
     0
 40
0.0
 41
0.605
 50
0.0
 71
     0
 42
0.2
  3
TXT
  4

  0
ENDTAB
  0
TABLE
  2
VIEW
  5
6
330
0
100
AcDbSymbolTable
 70
     0
  0
ENDTAB
  0
TABLE
  2
UCS
  5
7
330
0
100
AcDbSymbolTable
 70
     0
  0
ENDTAB
  0
TABLE
  2
APPID
  5
9
330
0
100
AcDbSymbolTable
 70
     3
  0
APPID
  5
12
330
9
100
AcDbSymbolTableRecord
100
AcDbRegAppTableRecord
  2
ACAD
 70
     0
  0
APPID
  5
13E
330
9
100
AcDbSymbolTableRecord
100
AcDbRegAppTableRecord
  2
FX_DIMP_FAV_VERSION
 70
     0
  0
APPID
  5
19C
330
9
100
AcDbSymbolTableRecord
100
AcDbRegAppTableRecord
  2
FX_DIMP_RECENT_VERSION
 70
     0
  0
ENDTAB
  0
TABLE
  2
DIMSTYLE
  5
A
330
0
100
AcDbSymbolTable
 70
     6
100
AcDbDimStyleTable
  0
DIMSTYLE
105
28
330
A
100
AcDbSymbolTableRecord
100
AcDbDimStyleTableRecord
  2
Standard
 70
     0
178
     0
340
11
  0
DIMSTYLE
105
166
330
A
100
AcDbSymbolTableRecord
100
AcDbDimStyleTableRecord
  2
Matthias
 70
     0
 41
3.0
 44
2.0
 73
     0
 77
     1
140
3.0
147
2.0
178
     0
340
11
  0
DIMSTYLE
105
168
102
{ACAD_REACTORS
330
12D
330
150
330
13F
102
}
330
A
100
AcDbSymbolTableRecord
100
AcDbDimStyleTableRecord
  2
ISO-25
 70
     0
 41
2.5
 42
0.625
 43
3.75
 44
1.25
 73
     0
 74
     0
 77
     1
 78
     8
140
2.5
141
2.5
143
0.03937007874016
147
0.625
171
     3
172
     1
178
     0
271
     2
272
     2
274
     3
278
    44
283
     0
284
     8
340
11
  0
DIMSTYLE
105
169
330
A
100
AcDbSymbolTableRecord
100
AcDbDimStyleTableRecord
  2
SLDDIMSTYLE0
 70
     0
 41
3.5
 44
0.0
 73
     0
 74
     0
 77
     1
 78
    12
 79
     3
140
3.5
147
0.875
173
     1
178
     0
179
     2
272
     3
276
     2
284
    12
340
16A
  0
DIMSTYLE
105
16B
330
A
100
AcDbSymbolTableRecord
100
AcDbDimStyleTableRecord
  2
SLDDIMSTYLE9
 70
     0
 41
3.5
 44
0.0
 45
0.000000001
 73
     0
 74
     0
 77
     1
 78
    12
 79
     3
140
3.5
144
0.5
147
0.875
173
     1
178
     0
271
     0
272
     3
276
     2
284
    12
340
16A
  0
DIMSTYLE
105
16C
330
A
100
AcDbSymbolTableRecord
100
AcDbDimStyleTableRecord
  2
SLDDIMSTYLE14
 70
     0
 41
3.5
 44
0.0
 45
0.000000001
 73
     0
 74
     0
 77
     1
 78
    12
 79
     3
140
3.5
147
0.875
172
     1
173
     1
178
     0
271
     2
272
     3
276
     2
284
    12
289
     0
340
16A
  0
ENDTAB
  0
TABLE
  2
BLOCK_RECORD
  5
1
330
0
100
AcDbSymbolTable
 70
     5
  0
BLOCK_RECORD
  5
1D
330
1
100
AcDbSymbolTableRecord
100
AcDbBlockTableRecord
  2
*Model_Space
340
1E
  0
BLOCK_RECORD
  5
1B
330
1
100
AcDbSymbolTableRecord
100
AcDbBlockTableRecord
  2
*Paper_Space
340
1C
  0
BLOCK_RECORD
  5
130
330
1
100
AcDbSymbolTableRecord
100
AcDbBlockTableRecord
  2
*D0
340
0
  0
BLOCK_RECORD
  5
142
330
1
100
AcDbSymbolTableRecord
100
AcDbBlockTableRecord
  2
*D1
340
0
  0
BLOCK_RECORD
  5
153
330
1
100
AcDbSymbolTableRecord
100
AcDbBlockTableRecord
  2
*D2
340
0
  0
BLOCK_RECORD
  5
17A
330
1
100
AcDbSymbolTableRecord
100
AcDbBlockTableRecord
  2
*D3
340
0
  0
BLOCK_RECORD
  5
18E
330
1
100
AcDbSymbolTableRecord
100
AcDbBlockTableRecord
  2
*D4
340
0
  0
ENDTAB
  0
ENDSEC
  0
SECTION
  2
BLOCKS
  0
BLOCK
  5
A0
330
1D
100
AcDbEntity
  8
0
100
AcDbBlockBegin
  2
*Model_Space
 70
     0
 10
0.0
 20
0.0
 30
0.0
  3
*Model_Space
  1

  0
ENDBLK
  5
A1
330
1D
100
AcDbEntity
  8
0
100
AcDbBlockEnd
  0
BLOCK
  5
9E
330
1B
100
AcDbEntity
 67
     1
  8
0
100
AcDbBlockBegin
  2
*Paper_Space
 70
     0
 10
0.0
 20
0.0
 30
0.0
  3
*Paper_Space
  1

  0
ENDBLK
  5
9F
330
1B
100
AcDbEntity
 67
     1
  8
0
100
AcDbBlockEnd
  0
BLOCK
  5
131
330
130
100
AcDbEntity
  8
0
100
AcDbBlockBegin
  2
*D0
 70
     1
 10
0.0
 20
0.0
 30
0.0
  3
*D0
  1

  0
LINE
  5
133
330
130
100
AcDbEntity
  8
2
 62
     0
370
    -2
100
AcDbLine
 10
14.0
 20
-7.375
 30
0.0
 11
14.0
 21
-13.65
 31
0.0
  0
LINE
  5
134
330
130
100
AcDbEntity
  8
2
 62
     0
370
    -2
100
AcDbLine
 10
0.0
 20
-8.375
 30
0.0
 11
0.0
 21
-13.65
 31
0.0
  0
LINE
  5
135
330
130
100
AcDbEntity
  8
2
 62
     0
370
    -2
100
AcDbLine
 10
11.5
 20
-12.4
 30
0.0
 11
2.5
 21
-12.4
 31
0.0
  0
SOLID
  5
136
330
130
100
AcDbEntity
  8
2
 62
     0
100
AcDbTrace
 10
11.5
 20
-12.81666666666667
 30
0.0
 11
11.5
 21
-11.98333333333333
 31
0.0
 12
14.0
 22
-12.4
 32
0.0
 13
14.0
 23
-12.4
 33
0.0
  0
SOLID
  5
137
330
130
100
AcDbEntity
  8
2
 62
     0
100
AcDbTrace
 10
2.5
 20
-11.98333333333333
 30
0.0
 11
2.5
 21
-12.81666666666667
 31
0.0
 12
0.0
 22
-12.4
 32
0.0
 13
0.0
 23
-12.4
 33
0.0
  0
MTEXT
  5
138
330
130
100
AcDbEntity
  8
2
 62
     0
100
AcDbMText
 10
6.950405056831251
 20
-10.525
 30
0.0
 40
2.5
 41
0.0
 71
     5
 72
     1
  1
14
 73
     1
 44
1.0
  0
POINT
  5
139
330
130
100
AcDbEntity
  8
Defpoints
 62
     0
100
AcDbPoint
 10
14.0
 20
-6.75
 30
0.0
  0
POINT
  5
13A
330
130
100
AcDbEntity
  8
Defpoints
 62
     0
100
AcDbPoint
 10
0.0
 20
-7.75
 30
0.0
  0
POINT
  5
13B
330
130
100
AcDbEntity
  8
Defpoints
 62
     0
100
AcDbPoint
 10
0.0
 20
-12.4
 30
0.0
  0
ENDBLK
  5
132
330
130
100
AcDbEntity
  8
0
100
AcDbBlockEnd
  0
BLOCK
  5
143
330
142
100
AcDbEntity
  8
0
100
AcDbBlockBegin
  2
*D1
 70
     1
 10
0.0
 20
0.0
 30
0.0
  3
*D1
  1

  0
LINE
  5
145
330
142
100
AcDbEntity
  8
2
 62
     0
370
    -2
100
AcDbLine
 10
-0.625
 20
-7.75
 30
0.0
 11
-9.150000000000002
 21
-7.749999999999999
 31
0.0
  0
LINE
  5
146
330
142
100
AcDbEntity
  8
2
 62
     0
370
    -2
100
AcDbLine
 10
-0.625
 20
7.75
 30
0.0
 11
-9.150000000000002
 21
7.750000000000001
 31
0.0
  0
LINE
  5
147
330
142
100
AcDbEntity
  8
2
 62
     0
370
    -2
100
AcDbLine
 10
-7.900000000000003
 20
-5.249999999999999
 30
0.0
 11
-7.900000000000002
 21
5.250000000000001
 31
0.0
  0
SOLID
  5
148
330
142
100
AcDbEntity
  8
2
 62
     0
100
AcDbTrace
 10
-8.31666666666667
 20
-5.249999999999999
 30
0.0
 11
-7.483333333333336
 21
-5.249999999999999
 31
0.0
 12
-7.900000000000003
 22
-7.749999999999999
 32
0.0
 13
-7.900000000000003
 23
-7.749999999999999
 33
0.0
  0
SOLID
  5
149
330
142
100
AcDbEntity
  8
2
 62
     0
100
AcDbTrace
 10
-7.483333333333335
 20
5.250000000000001
 30
0.0
 11
-8.316666666666668
 21
5.250000000000001
 31
0.0
 12
-7.900000000000002
 22
7.750000000000001
 32
0.0
 13
-7.900000000000002
 23
7.750000000000001
 33
0.0
  0
MTEXT
  5
14A
330
142
100
AcDbEntity
  8
2
 62
     0
100
AcDbMText
 10
-9.775000000000002
 20
0.2031408872192096
 30
0.0
 40
2.5
 41
0.0
 71
     5
 72
     1
  1
ø15.5
 11
5.730183352904034E-17
 21
1.0
 31
0.0
 73
     1
 44
1.0
  0
POINT
  5
14B
330
142
100
AcDbEntity
  8
Defpoints
 62
     0
100
AcDbPoint
 10
0.0
 20
-7.75
 30
0.0
  0
POINT
  5
14C
330
142
100
AcDbEntity
  8
Defpoints
 62
     0
100
AcDbPoint
 10
0.0
 20
7.75
 30
0.0
  0
POINT
  5
14D
330
142
100
AcDbEntity
  8
Defpoints
 62
     0
100
AcDbPoint
 10
-7.900000000000002
 20
7.750000000000001
 30
0.0
  0
ENDBLK
  5
144
330
142
100
AcDbEntity
  8
0
100
AcDbBlockEnd
  0
BLOCK
  5
154
330
153
100
AcDbEntity
  8
0
100
AcDbBlockBegin
  2
*D2
 70
     1
 10
0.0
 20
0.0
 30
0.0
  3
*D2
  1

  0
LINE
  5
156
330
153
100
AcDbEntity
  8
2
 62
     0
370
    -2
100
AcDbLine
 10
-0.625
 20
-5.0
 30
0.0
 11
-4.900000000000001
 21
-5.0
 31
0.0
  0
LINE
  5
157
330
153
100
AcDbEntity
  8
2
 62
     0
370
    -2
100
AcDbLine
 10
-0.625
 20
5.0
 30
0.0
 11
-4.9
 21
5.0
 31
0.0
  0
LINE
  5
158
330
153
100
AcDbEntity
  8
2
 62
     0
370
    -2
100
AcDbLine
 10
-3.650000000000001
 20
-2.5
 30
0.0
 11
-3.650000000000001
 21
2.5
 31
0.0
  0
SOLID
  5
159
330
153
100
AcDbEntity
  8
2
 62
     0
100
AcDbTrace
 10
-4.066666666666668
 20
-2.5
 30
0.0
 11
-3.233333333333335
 21
-2.5
 31
0.0
 12
-3.650000000000001
 22
-5.0
 32
0.0
 13
-3.650000000000001
 23
-5.0
 33
0.0
  0
SOLID
  5
15A
330
153
100
AcDbEntity
  8
2
 62
     0
100
AcDbTrace
 10
-3.233333333333334
 20
2.5
 30
0.0
 11
-4.066666666666667
 21
2.5
 31
0.0
 12
-3.650000000000001
 22
5.0
 32
0.0
 13
-3.650000000000001
 23
5.0
 33
0.0
  0
MTEXT
  5
15B
330
153
100
AcDbEntity
  8
2
 62
     0
100
AcDbMText
 10
-5.525
 20
0.2031408872192079
 30
0.0
 40
2.5
 41
0.0
 71
     5
 72
     1
  1
M10
 11
4.440892098500626E-17
 21
1.0
 31
0.0
 73
     1
 44
1.0
  0
POINT
  5
15C
330
153
100
AcDbEntity
  8
Defpoints
 62
     0
100
AcDbPoint
 10
0.0
 20
-5.0
 30
0.0
  0
POINT
  5
15D
330
153
100
AcDbEntity
  8
Defpoints
 62
     0
100
AcDbPoint
 10
0.0
 20
5.0
 30
0.0
  0
POINT
  5
15E
330
153
100
AcDbEntity
  8
Defpoints
 62
     0
100
AcDbPoint
 10
-3.650000000000001
 20
5.0
 30
0.0
  0
ENDBLK
  5
155
330
153
100
AcDbEntity
  8
0
100
AcDbBlockEnd
  0
BLOCK
  5
17B
330
17A
100
AcDbEntity
  8
0
100
AcDbBlockBegin
  2
*D3
 70
     1
 10
0.0
 20
0.0
 30
0.0
  3
*D3
  1

  0
LINE
  5
17C
330
17A
100
AcDbEntity
  8
2
 62
     0
370
    -2
100
AcDbLine
 10
0.625
 20
23.0
 30
0.0
 11
63.14999999999998
 21
23.0
 31
0.0
  0
LINE
  5
17D
330
17A
100
AcDbEntity
  8
2
 62
     0
370
    -2
100
AcDbLine
 10
26.87499999999997
 20
0.0000000000000017
 30
0.0
 11
63.14999999999998
 21
-0.0000000000000005
 31
0.0
  0
LINE
  5
17E
330
17A
100
AcDbEntity
  8
2
 62
     0
370
    -2
100
AcDbLine
 10
61.89999999999998
 20
20.5
 30
0.0
 11
61.89999999999998
 21
2.5
 31
0.0
  0
SOLID
  5
17F
330
17A
100
AcDbEntity
  8
2
 62
     0
100
AcDbTrace
 10
62.31666666666664
 20
20.5
 30
0.0
 11
61.48333333333331
 21
20.5
 31
0.0
 12
61.89999999999998
 22
23.0
 32
0.0
 13
61.89999999999998
 23
23.0
 33
0.0
  0
SOLID
  5
180
330
17A
100
AcDbEntity
  8
2
 62
     0
100
AcDbTrace
 10
61.48333333333331
 20
2.5
 30
0.0
 11
62.31666666666664
 21
2.5
 31
0.0
 12
61.89999999999998
 22
-0.0000000000000004
 32
0.0
 13
61.89999999999998
 23
-0.0000000000000004
 33
0.0
  0
MTEXT
  5
181
330
17A
100
AcDbEntity
  8
2
 62
     0
100
AcDbMText
 10
60.02499999999998
 20
11.5
 30
0.0
 40
2.5
 41
0.0
 71
     5
 72
     1
  1
ø23
 11
0.0
 21
1.0
 31
0.0
 73
     1
 44
1.0
  0
POINT
  5
182
330
17A
100
AcDbEntity
  8
Defpoints
 62
     0
100
AcDbPoint
 10
0.0
 20
23.0
 30
0.0
  0
POINT
  5
183
330
17A
100
AcDbEntity
  8
Defpoints
 62
     0
100
AcDbPoint
 10
26.24999999999997
 20
0.0000000000000018
 30
0.0
  0
POINT
  5
184
330
17A
100
AcDbEntity
  8
Defpoints
 62
     0
100
AcDbPoint
 10
61.89999999999998
 20
-0.0000000000000004
 30
0.0
  0
ENDBLK
  5
185
330
17A
100
AcDbEntity
  8
0
100
AcDbBlockEnd
  0
BLOCK
  5
18F
330
18E
100
AcDbEntity
  8
0
100
AcDbBlockBegin
  2
*D4
 70
     1
 10
0.0
 20
0.0
 30
0.0
  3
*D4
  1

  0
LINE
  5
191
330
18E
100
AcDbEntity
  8
2
 62
     0
370
    -2
100
AcDbLine
 10
24.41849749458289
 20
14.58169602469854
 30
0.0
 11
86.94349749458287
 21
14.58169602469853
 31
0.0
  0
LINE
  5
192
330
18E
100
AcDbEntity
  8
2
 62
     0
370
    -2
100
AcDbLine
 10
50.66849749458287
 20
-8.418303975301463
 30
0.0
 11
86.94349749458287
 21
-8.418303975301464
 31
0.0
  0
LINE
  5
193
330
18E
100
AcDbEntity
  8
2
 62
     0
370
    -2
100
AcDbLine
 10
85.69349749458287
 20
12.08169602469853
 30
0.0
 11
85.69349749458287
 21
-5.918303975301464
 31
0.0
  0
SOLID
  5
194
330
18E
100
AcDbEntity
  8
2
 62
     0
100
AcDbTrace
 10
86.11016416124954
 20
12.08169602469853
 30
0.0
 11
85.2768308279162
 21
12.08169602469853
 31
0.0
 12
85.69349749458287
 22
14.58169602469853
 32
0.0
 13
85.69349749458287
 23
14.58169602469853
 33
0.0
  0
SOLID
  5
195
330
18E
100
AcDbEntity
  8
2
 62
     0
100
AcDbTrace
 10
85.2768308279162
 20
-5.918303975301464
 30
0.0
 11
86.11016416124954
 21
-5.918303975301464
 31
0.0
 12
85.69349749458287
 22
-8.418303975301464
 32
0.0
 13
85.69349749458287
 23
-8.418303975301464
 33
0.0
  0
MTEXT
  5
196
330
18E
100
AcDbEntity
  8
2
 62
     0
100
AcDbMText
 10
83.81849749458287
 20
3.081696024698534
 30
0.0
 40
2.5
 41
0.0
 71
     5
 72
     1
  1
ø23
 11
0.0
 21
1.0
 31
0.0
 73
     1
 44
1.0
  0
POINT
  5
197
330
18E
100
AcDbEntity
  8
Defpoints
 62
     0
100
AcDbPoint
 10
23.79349749458289
 20
14.58169602469854
 30
0.0
  0
POINT
  5
198
330
18E
100
AcDbEntity
  8
Defpoints
 62
     0
100
AcDbPoint
 10
50.04349749458287
 20
-8.418303975301463
 30
0.0
  0
POINT
  5
199
330
18E
100
AcDbEntity
  8
Defpoints
 62
     0
100
AcDbPoint
 10
85.69349749458287
 20
-8.418303975301464
 30
0.0
  0
ENDBLK
  5
190
330
18E
100
AcDbEntity
  8
0
100
AcDbBlockEnd
  0
ENDSEC
  0
SECTION
  2
ENTITIES
  0
LINE
  5
29
330
1D
100
AcDbEntity
  8
1
100
AcDbLine
 10
13.0
 20
-7.75
 30
0.0
 11
0.0
 21
-7.75
 31
0.0
  0
LINE
  5
2A
102
{ACAD_REACTORS
102
}
330
1D
100
AcDbEntity
  8
1
100
AcDbLine
 10
0.0
 20
-7.75
 30
0.0
 11
0.0
 21
7.75
 31
0.0
  0
LINE
  5
2B
330
1D
100
AcDbEntity
  8
1
100
AcDbLine
 10
0.0
 20
7.75
 30
0.0
 11
13.0
 21
7.75
 31
0.0
  0
LINE
  5
2C
330
1D
100
AcDbEntity
  8
1
100
AcDbLine
 10
13.0
 20
7.75
 30
0.0
 11
14.0
 21
6.75
 31
0.0
  0
LINE
  5
2D
330
1D
100
AcDbEntity
  8
1
100
AcDbLine
 10
14.0
 20
6.75
 30
0.0
 11
14.0
 21
-6.75
 31
0.0
  0
LINE
  5
2E
102
{ACAD_REACTORS
102
}
330
1D
100
AcDbEntity
  8
1
100
AcDbLine
 10
14.0
 20
-6.75
 30
0.0
 11
13.0
 21
-7.75
 31
0.0
  0
LINE
  5
2F
330
1D
100
AcDbEntity
  8
4
100
AcDbLine
 10
-1.375344664
 20
0.0
 30
0.0
 11
15.669720462
 21
0.0
 31
0.0
  0
LINE
  5
30
330
1D
100
AcDbEntity
  8
1
100
AcDbLine
 10
13.0
 20
7.75
 30
0.0
 11
13.0
 21
4.2205
 31
0.0
  0
LINE
  5
31
330
1D
100
AcDbEntity
  8
1
100
AcDbLine
 10
13.0
 20
-4.2205
 30
0.0
 11
13.0
 21
-7.75
 31
0.0
  0
LINE
  5
32
330
1D
100
AcDbEntity
  8
1
100
AcDbLine
 10
4.0
 20
4.2205
 30
0.0
 11
13.0
 21
4.2205
 31
0.0
  0
LINE
  5
33
330
1D
100
AcDbEntity
  8
1
100
AcDbLine
 10
4.0
 20
-4.2205
 30
0.0
 11
13.0
 21
-4.2205
 31
0.0
  0
LINE
  5
34
330
1D
100
AcDbEntity
  8
1
100
AcDbLine
 10
4.0
 20
4.2205
 30
0.0
 11
4.0
 21
-4.2205
 31
0.0
  0
ARC
  5
35
330
1D
100
AcDbEntity
  8
1
100
AcDbCircle
 10
4.0
 20
3.788710122
 30
0.0
 40
0.431789878
100
AcDbArc
 50
90.0
 51
136.57709431
  0
ARC
  5
36
330
1D
100
AcDbEntity
  8
1
100
AcDbCircle
 10
5.134311785
 20
2.715184209
 30
0.0
 40
1.993558462
100
AcDbArc
 50
136.577068083
 51
155.314713724
  0
ARC
  5
37
330
1D
100
AcDbEntity
  8
1
100
AcDbCircle
 10
7.112714074
 20
1.805836294
 30
0.0
 40
4.170939745
100
AcDbArc
 50
155.314713724
 51
167.876359403
  0
ARC
  5
38
330
1D
100
AcDbEntity
  8
1
100
AcDbCircle
 10
15.519124192
 20
0.0
 30
0.0
 40
12.769124192
100
AcDbArc
 50
167.876228455
 51
180.0
  0
ARC
  5
39
330
1D
100
AcDbEntity
  8
1
100
AcDbCircle
 10
15.519124192
 20
0.0
 30
0.0
 40
12.769124192
100
AcDbArc
 50
180.0
 51
192.123771545
  0
ARC
  5
3A
330
1D
100
AcDbEntity
  8
1
100
AcDbCircle
 10
7.112714074
 20
-1.805836294
 30
0.0
 40
4.170939745
100
AcDbArc
 50
192.123640597
 51
204.685286276
  0
ARC
  5
3B
330
1D
100
AcDbEntity
  8
1
100
AcDbCircle
 10
5.134311785
 20
-2.715184209
 30
0.0
 40
1.993558462
100
AcDbArc
 50
204.685286276
 51
223.422931917
  0
ARC
  5
3C
330
1D
100
AcDbEntity
  8
1
100
AcDbCircle
 10
4.0
 20
-3.788710122
 30
0.0
 40
0.431789878
100
AcDbArc
 50
223.42290569
 51
270.0
  0
LINE
  5
3D
330
1D
100
AcDbEntity
  8
1
100
AcDbLine
 10
13.0
 20
4.2205
 30
0.0
 11
14.0
 21
2.1615
 31
0.0
  0
LINE
  5
3E
330
1D
100
AcDbEntity
  8
1
100
AcDbLine
 10
14.0
 20
-2.1615
 30
0.0
 11
13.0
 21
-4.2205
 31
0.0
  0
LINE
  5
3F
330
1D
100
AcDbEntity
  8
3
100
AcDbLine
 10
8.899173212
 20
5.0
 30
0.0
 11
0.0
 21
5.0
 31
0.0
  0
LINE
  5
40
102
{ACAD_REACTORS
102
}
330
1D
100
AcDbEntity
  8
3
100
AcDbLine
 10
0.0
 20
5.0
 30
0.0
 11
0.519615297
 21
4.099999905
 31
0.0
  0
LINE
  5
41
330
1D
100
AcDbEntity
  8
3
100
AcDbLine
 10
0.519615297
 20
4.099999905
 30
0.0
 11
7.999173117
 21
4.099999905
 31
0.0
  0
LINE
  5
42
330
1D
100
AcDbEntity
  8
3
100
AcDbLine
 10
7.999173117
 20
4.099999905
 30
0.0
 11
8.982015924
 21
5.082842712
 31
0.0
  0
ARC
  5
43
330
1D
100
AcDbEntity
  8
3
100
AcDbCircle
 10
9.264858637
 20
4.8
 30
0.0
 40
0.4
100
AcDbArc
 50
90.0
 51
135.0
  0
LINE
  5
44
330
1D
100
AcDbEntity
  8
3
100
AcDbLine
 10
9.264858637
 20
5.2
 30
0.0
 11
12.6
 21
5.2
 31
0.0
  0
ARC
  5
45
330
1D
100
AcDbEntity
  8
3
100
AcDbCircle
 10
12.6
 20
4.8
 30
0.0
 40
0.4
100
AcDbArc
 50
0.0
 51
90.0
  0
ARC
  5
46
330
1D
100
AcDbEntity
  8
3
100
AcDbCircle
 10
12.6
 20
-4.8
 30
0.0
 40
0.4
100
AcDbArc
 50
270.0
 51
0.0
  0
LINE
  5
47
330
1D
100
AcDbEntity
  8
3
100
AcDbLine
 10
12.6
 20
-5.2
 30
0.0
 11
9.264858637
 21
-5.2
 31
0.0
  0
ARC
  5
48
330
1D
100
AcDbEntity
  8
3
100
AcDbCircle
 10
9.264858637
 20
-4.8
 30
0.0
 40
0.4
100
AcDbArc
 50
225.0
 51
270.0
  0
LINE
  5
49
330
1D
100
AcDbEntity
  8
3
100
AcDbLine
 10
8.982015924
 20
-5.082842712
 30
0.0
 11
7.999173117
 21
-4.099999905
 31
0.0
  0
LINE
  5
4A
330
1D
100
AcDbEntity
  8
3
100
AcDbLine
 10
7.999173117
 20
-4.099999905
 30
0.0
 11
7.999173117
 21
4.099999905
 31
0.0
  0
ARC
  5
4B
330
1D
100
AcDbEntity
  8
3
100
AcDbCircle
 10
9.264858637
 20
4.8
 30
0.0
 40
0.4
100
AcDbArc
 50
90.0
 51
122.489605463
  0
LINE
  5
4C
330
1D
100
AcDbEntity
  8
3
100
AcDbLine
 10
9.05
 20
5.137395563
 30
0.0
 11
9.05
 21
7.75
 31
0.0
  0
LINE
  5
4D
330
1D
100
AcDbEntity
  8
3
100
AcDbLine
 10
12.55
 20
7.75
 30
0.0
 11
12.55
 21
5.2
 31
0.0
  0
LINE
  5
4E
330
1D
100
AcDbEntity
  8
3
100
AcDbLine
 10
7.999173117
 20
-4.099999905
 30
0.0
 11
0.519615297
 21
-4.099999905
 31
0.0
  0
LINE
  5
4F
330
1D
100
AcDbEntity
  8
3
100
AcDbLine
 10
0.519615297
 20
-4.099999905
 30
0.0
 11
0.0
 21
-5.0
 31
0.0
  0
LINE
  5
50
330
1D
100
AcDbEntity
  8
3
100
AcDbLine
 10
0.0
 20
-5.0
 30
0.0
 11
8.899173212
 21
-5.0
 31
0.0
  0
LINE
  5
51
330
1D
100
AcDbEntity
  8
3
100
AcDbLine
 10
0.519615297
 20
-4.099999905
 30
0.0
 11
0.519615297
 21
4.099999905
 31
0.0
  0
LINE
  5
52
330
1D
100
AcDbEntity
  8
4
100
AcDbLine
 10
10.8
 20
8.690032625
 30
0.0
 11
10.8
 21
3.258577226
 31
0.0
  0
LINE
  5
53
330
1D
100
AcDbEntity
  8
3
100
AcDbLine
 10
13.0
 20
4.8
 30
0.0
 11
13.0
 21
-4.8
 31
0.0
  0
TEXT
  5
75
330
1D
100
AcDbEntity
  8
SK6
100
AcDbText
 10
7.932970716078442
 20
16.96955276819561
 30
0.0
 40
3.5
  1
615.392
  7
BMG_Text
100
AcDbText
  0
POINT
  5
76
330
1D
100
AcDbEntity
  8
1
100
AcDbPoint
 10
0.0
 20
0.0
 30
0.0
  0
LINE
  5
110
330
1D
100
AcDbEntity
  8
NOCUT
100
AcDbLine
 10
0.0
 20
0.0
 30
0.0
 11
14.0
 21
0.0
 31
0.0
  0
LINE
  5
111
330
1D
100
AcDbEntity
  8
NOCUT
100
AcDbLine
 10
14.0
 20
0.0
 30
0.0
 11
14.0
 21
6.75
 31
0.0
  0
LINE
  5
112
330
1D
100
AcDbEntity
  8
NOCUT
100
AcDbLine
 10
14.0
 20
6.75
 30
0.0
 11
13.0
 21
7.75
 31
0.0
  0
LINE
  5
113
330
1D
100
AcDbEntity
  8
NOCUT
100
AcDbLine
 10
13.0
 20
7.75
 30
0.0
 11
0.0
 21
7.75
 31
0.0
  0
LINE
  5
114
330
1D
100
AcDbEntity
  8
NOCUT
100
AcDbLine
 10
0.0
 20
7.75
 30
0.0
 11
0.0
 21
0.0
 31
0.0
  0
LWPOLYLINE
  5
124
330
1D
100
AcDbEntity
  8
INFTOTAL
100
AcDbPolyline
 90
        4
 70
     1
 43
0.0
 10
-27.70943223718395
 20
21.56385105525417
 10
-27.70943223718395
 20
-18.93436338995775
 10
30.12324520919812
 20
-18.93436338995775
 10
30.12324520919812
 20
21.56385105525417
  0
DIMENSION
  5
12D
102
{ACAD_REACTORS
102
}
102
{ACAD_XDICTIONARY
360
12E
102
}
330
1D
100
AcDbEntity
  8
2
100
AcDbDimension
  2
*D0
 10
0.0
 20
-12.4
 30
0.0
 11
6.950405056831251
 21
-12.4
 31
0.0
 70
   160
 71
     5
 42
14.0
  3
ISO-25
100
AcDbAlignedDimension
 13
14.0
 23
-6.75
 33
0.0
 14
0.0
 24
-7.75
 34
0.0
100
AcDbRotatedDimension
  0
DIMENSION
  5
13F
102
{ACAD_REACTORS
102
}
102
{ACAD_XDICTIONARY
360
140
102
}
330
1D
100
AcDbEntity
  8
2
100
AcDbDimension
  2
*D1
 10
-7.900000000000002
 20
7.750000000000001
 30
0.0
 11
-7.900000000000002
 21
0.2031408872192095
 31
0.0
 70
   160
  1
ø15.5
 71
     5
 42
15.5
  3
ISO-25
100
AcDbAlignedDimension
 13
0.0
 23
-7.75
 33
0.0
 14
0.0
 24
7.75
 34
0.0
 50
90.0
100
AcDbRotatedDimension
  0
DIMENSION
  5
150
102
{ACAD_REACTORS
102
}
102
{ACAD_XDICTIONARY
360
151
102
}
330
1D
100
AcDbEntity
  8
2
100
AcDbDimension
  2
*D2
 10
-3.650000000000001
 20
5.0
 30
0.0
 11
-3.650000000000001
 21
0.2031408872192078
 31
0.0
 70
   160
  1
M10
 71
     5
 42
10.0
  3
ISO-25
100
AcDbAlignedDimension
 13
0.0
 23
-5.0
 33
0.0
 14
0.0
 24
5.0
 34
0.0
 50
90.0
100
AcDbRotatedDimension
  0
ENDSEC
  0
SECTION
  2
OBJECTS
  0
DICTIONARY
  5
C
330
0
100
AcDbDictionary
281
     1
  3
ACAD_DETAILVIEWSTYLE
350
129
  3
ACAD_GROUP
350
D
  3
ACAD_LAYOUT
350
1A
  3
ACAD_MLINESTYLE
350
17
  3
ACAD_PLOTSETTINGS
350
19
  3
ACAD_PLOTSTYLENAME
350
E
  3
ACAD_SCALELIST
350
7C
  3
ACAD_SECTIONVIEWSTYLE
350
12A
  3
AcDbVariableDictionary
350
BD
  3
APPDATA
350
10B
  3
DWGPROPS
350
1B8
  3
FX_DICT_DIMENSION_PALETTE
350
13D
  3
FX_DICT_DIMENSION_PALETTE_RECENTLIST
350
19B
  0
DICTIONARY
  5
10C
330
2
100
AcDbDictionary
280
     1
281
     1
  3
ACAD_LAYERSTATES
360
10D
  0
DICTIONARY
  5
12E
330
12D
100
AcDbDictionary
280
     1
281
     1
  0
DICTIONARY
  5
140
330
13F
100
AcDbDictionary
280
     1
281
     1
  0
DICTIONARY
  5
151
330
150
100
AcDbDictionary
280
     1
281
     1
  0
DICTIONARY
  5
129
102
{ACAD_REACTORS
330
C
102
}
330
C
100
AcDbDictionary
281
     1
  0
DICTIONARY
  5
D
102
{ACAD_REACTORS
330
C
102
}
330
C
100
AcDbDictionary
281
     1
  0
DICTIONARY
  5
1A
102
{ACAD_REACTORS
330
C
102
}
330
C
100
AcDbDictionary
281
     1
  3
Layout1
350
1C
  3
Model
350
1E
  0
DICTIONARY
  5
17
102
{ACAD_REACTORS
330
C
102
}
330
C
100
AcDbDictionary
281
     1
  3
Standard
350
18
  0
DICTIONARY
  5
19
102
{ACAD_REACTORS
330
C
102
}
330
C
100
AcDbDictionary
281
     1
  0
ACDBDICTIONARYWDFLT
  5
E
102
{ACAD_REACTORS
330
C
102
}
330
C
100
AcDbDictionary
281
     1
  3
Normal
350
F
100
AcDbDictionaryWithDefault
340
F
  0
DICTIONARY
  5
7C
102
{ACAD_REACTORS
330
C
102
}
330
C
100
AcDbDictionary
281
     1
  3
A0
350
7D
  3
A1
350
7E
  3
A2
350
7F
  3
A3
350
80
  3
A4
350
81
  3
A5
350
82
  3
A6
350
83
  3
A7
350
84
  3
A8
350
85
  3
A9
350
86
  3
B0
350
87
  3
B1
350
88
  3
B2
350
89
  3
B3
350
8A
  3
B4
350
8B
  3
B5
350
8C
  3
B6
350
8D
  3
B7
350
8E
  3
B8
350
8F
  3
B9
350
90
  3
C0
350
91
  3
C1
350
92
  3
C2
350
93
  3
C3
350
94
  3
C4
350
95
  3
C5
350
96
  3
C6
350
97
  3
C7
350
98
  3
C8
350
99
  3
C9
350
9A
  3
D0
350
9B
  3
D1
350
9C
  3
D2
350
9D
  0
DICTIONARY
  5
12A
102
{ACAD_REACTORS
330
C
102
}
330
C
100
AcDbDictionary
281
     1
  0
DICTIONARY
  5
BD
102
{ACAD_REACTORS
330
C
102
}
330
C
100
AcDbDictionary
281
     1
  3
DIMASSOC
350
C1
  3
HIDETEXT
350
C2
  0
DICTIONARY
  5
10B
102
{ACAD_REACTORS
330
C
102
}
330
C
100
AcDbDictionary
281
     1
  0
XRECORD
  5
1B8
102
{ACAD_REACTORS
330
C
102
}
330
C
100
AcDbXrecord
280
     1
  1
DWGPROPS COOKIE
  2

  3

  4

  6

  7

  8
matthias.ochs
  9

300
=
301
=
302
=
303
=
304
=
305
=
306
=
307
=
308
=
309
=
 40
0.0
 41
2458327.466177963
 42
2458589.542282477
  1

 90
        0
  0
DICTIONARY
  5
13D
102
{ACAD_REACTORS
330
C
102
}
330
C
100
AcDbDictionary
281
     1
1001
FX_DIMP_FAV_VERSION
1071
        1
  0
DICTIONARY
  5
19B
102
{ACAD_REACTORS
330
C
102
}
330
C
100
AcDbDictionary
281
     1
  3
0
350
19D
  3
1
350
19E
1001
FX_DIMP_RECENT_VERSION
1071
        1
  0
DICTIONARY
  5
10D
102
{ACAD_REACTORS
330
10C
102
}
330
10C
100
AcDbDictionary
281
     1
  0
LAYOUT
  5
1C
102
{ACAD_REACTORS
330
1A
102
}
330
1A
100
AcDbPlotSettings
  1

  2
none_device
  4

  6

 40
0.0
 41
0.0
 42
0.0
 43
0.0
 44
0.0
 45
0.0
 46
0.0
 47
0.0
 48
0.0
 49
0.0
140
0.0
141
0.0
142
1.0
143
1.0
 70
   688
 72
     0
 73
     0
 74
     5
  7

 75
    16
147
1.0
148
0.0
149
0.0
100
AcDbLayout
  1
Layout1
 70
     1
 71
     1
 10
0.0
 20
0.0
 11
12.0
 21
9.0
 12
0.0
 22
0.0
 32
0.0
 14
1.000000000000000E+20
 24
1.000000000000000E+20
 34
1.000000000000000E+20
 15
-1.000000000000000E+20
 25
-1.000000000000000E+20
 35
-1.000000000000000E+20
146
0.0
 13
0.0
 23
0.0
 33
0.0
 16
1.0
 26
0.0
 36
0.0
 17
0.0
 27
1.0
 37
0.0
 76
     0
330
1B
  0
LAYOUT
  5
1E
102
{ACAD_REACTORS
330
1A
102
}
330
1A
100
AcDbPlotSettings
  1

  2
none_device
  4

  6

 40
0.0
 41
0.0
 42
0.0
 43
0.0
 44
0.0
 45
0.0
 46
0.0
 47
0.0
 48
0.0
 49
0.0
140
0.0
141
0.0
142
1.0
143
1.0
 70
  1712
 72
     0
 73
     0
 74
     0
  7

 75
     0
147
1.0
148
0.0
149
0.0
100
AcDbLayout
  1
Model
 70
     1
 71
     0
 10
0.0
 20
0.0
 11
12.0
 21
9.0
 12
0.0
 22
0.0
 32
0.0
 14
-27.70943223718395
 24
-18.93436338995775
 34
0.0
 15
30.12324520919812
 25
21.56385105525417
 35
0.0
146
0.0
 13
0.0
 23
0.0
 33
0.0
 16
1.0
 26
0.0
 36
0.0
 17
0.0
 27
1.0
 37
0.0
 76
     0
330
1D
331
77
  0
MLINESTYLE
  5
18
102
{ACAD_REACTORS
330
17
102
}
330
17
100
AcDbMlineStyle
  2
Standard
 70
     0
  3

 62
   256
 51
90.0
 52
90.0
 71
     2
 49
0.5
 62
   256
  6
BYLAYER
 49
-0.5
 62
   256
  6
BYLAYER
  0
ACDBPLACEHOLDER
  5
F
102
{ACAD_REACTORS
330
E
102
}
330
E
  0
SCALE
  5
7D
102
{ACAD_REACTORS
330
7C
102
}
330
7C
100
AcDbScale
 70
     0
300
1:1
140
1.0
141
1.0
290
     1
  0
SCALE
  5
7E
102
{ACAD_REACTORS
330
7C
102
}
330
7C
100
AcDbScale
 70
     0
300
1:2
140
1.0
141
2.0
290
     0
  0
SCALE
  5
7F
102
{ACAD_REACTORS
330
7C
102
}
330
7C
100
AcDbScale
 70
     0
300
1:4
140
1.0
141
4.0
290
     0
  0
SCALE
  5
80
102
{ACAD_REACTORS
330
7C
102
}
330
7C
100
AcDbScale
 70
     0
300
1:5
140
1.0
141
5.0
290
     0
  0
SCALE
  5
81
102
{ACAD_REACTORS
330
7C
102
}
330
7C
100
AcDbScale
 70
     0
300
1:8
140
1.0
141
8.0
290
     0
  0
SCALE
  5
82
102
{ACAD_REACTORS
330
7C
102
}
330
7C
100
AcDbScale
 70
     0
300
1:10
140
1.0
141
10.0
290
     0
  0
SCALE
  5
83
102
{ACAD_REACTORS
330
7C
102
}
330
7C
100
AcDbScale
 70
     0
300
1:16
140
1.0
141
16.0
290
     0
  0
SCALE
  5
84
102
{ACAD_REACTORS
330
7C
102
}
330
7C
100
AcDbScale
 70
     0
300
1:20
140
1.0
141
20.0
290
     0
  0
SCALE
  5
85
102
{ACAD_REACTORS
330
7C
102
}
330
7C
100
AcDbScale
 70
     0
300
1:30
140
1.0
141
30.0
290
     0
  0
SCALE
  5
86
102
{ACAD_REACTORS
330
7C
102
}
330
7C
100
AcDbScale
 70
     0
300
1:40
140
1.0
141
40.0
290
     0
  0
SCALE
  5
87
102
{ACAD_REACTORS
330
7C
102
}
330
7C
100
AcDbScale
 70
     0
300
1:50
140
1.0
141
50.0
290
     0
  0
SCALE
  5
88
102
{ACAD_REACTORS
330
7C
102
}
330
7C
100
AcDbScale
 70
     0
300
1:100
140
1.0
141
100.0
290
     0
  0
SCALE
  5
89
102
{ACAD_REACTORS
330
7C
102
}
330
7C
100
AcDbScale
 70
     0
300
2:1
140
2.0
141
1.0
290
     0
  0
SCALE
  5
8A
102
{ACAD_REACTORS
330
7C
102
}
330
7C
100
AcDbScale
 70
     0
300
4:1
140
4.0
141
1.0
290
     0
  0
SCALE
  5
8B
102
{ACAD_REACTORS
330
7C
102
}
330
7C
100
AcDbScale
 70
     0
300
8:1
140
8.0
141
1.0
290
     0
  0
SCALE
  5
8C
102
{ACAD_REACTORS
330
7C
102
}
330
7C
100
AcDbScale
 70
     0
300
10:1
140
10.0
141
1.0
290
     0
  0
SCALE
  5
8D
102
{ACAD_REACTORS
330
7C
102
}
330
7C
100
AcDbScale
 70
     0
300
100:1
140
100.0
141
1.0
290
     0
  0
SCALE
  5
8E
102
{ACAD_REACTORS
330
7C
102
}
330
7C
100
AcDbScale
 70
     0
300
1/128" = 1'-0"
140
0.0078125
141
12.0
290
     0
  0
SCALE
  5
8F
102
{ACAD_REACTORS
330
7C
102
}
330
7C
100
AcDbScale
 70
     0
300
1/64" = 1'-0"
140
0.015625
141
12.0
290
     0
  0
SCALE
  5
90
102
{ACAD_REACTORS
330
7C
102
}
330
7C
100
AcDbScale
 70
     0
300
1/32" = 1'-0"
140
0.03125
141
12.0
290
     0
  0
SCALE
  5
91
102
{ACAD_REACTORS
330
7C
102
}
330
7C
100
AcDbScale
 70
     0
300
1/16" = 1'-0"
140
0.0625
141
12.0
290
     0
  0
SCALE
  5
92
102
{ACAD_REACTORS
330
7C
102
}
330
7C
100
AcDbScale
 70
     0
300
3/32" = 1'-0"
140
0.09375
141
12.0
290
     0
  0
SCALE
  5
93
102
{ACAD_REACTORS
330
7C
102
}
330
7C
100
AcDbScale
 70
     0
300
1/8" = 1'-0"
140
0.125
141
12.0
290
     0
  0
SCALE
  5
94
102
{ACAD_REACTORS
330
7C
102
}
330
7C
100
AcDbScale
 70
     0
300
3/16" = 1'-0"
140
0.1875
141
12.0
290
     0
  0
SCALE
  5
95
102
{ACAD_REACTORS
330
7C
102
}
330
7C
100
AcDbScale
 70
     0
300
1/4" = 1'-0"
140
0.25
141
12.0
290
     0
  0
SCALE
  5
96
102
{ACAD_REACTORS
330
7C
102
}
330
7C
100
AcDbScale
 70
     0
300
3/8" = 1'-0"
140
0.375
141
12.0
290
     0
  0
SCALE
  5
97
102
{ACAD_REACTORS
330
7C
102
}
330
7C
100
AcDbScale
 70
     0
300
1/2" = 1'-0"
140
0.5
141
12.0
290
     0
  0
SCALE
  5
98
102
{ACAD_REACTORS
330
7C
102
}
330
7C
100
AcDbScale
 70
     0
300
3/4" = 1'-0"
140
0.75
141
12.0
290
     0
  0
SCALE
  5
99
102
{ACAD_REACTORS
330
7C
102
}
330
7C
100
AcDbScale
 70
     0
300
1" = 1'-0"
140
1.0
141
12.0
290
     0
  0
SCALE
  5
9A
102
{ACAD_REACTORS
330
7C
102
}
330
7C
100
AcDbScale
 70
     0
300
1-1/2" = 1'-0"
140
1.5
141
12.0
290
     0
  0
SCALE
  5
9B
102
{ACAD_REACTORS
330
7C
102
}
330
7C
100
AcDbScale
 70
     0
300
3" = 1'-0"
140
3.0
141
12.0
290
     0
  0
SCALE
  5
9C
102
{ACAD_REACTORS
330
7C
102
}
330
7C
100
AcDbScale
 70
     0
300
6" = 1'-0"
140
6.0
141
12.0
290
     0
  0
SCALE
  5
9D
102
{ACAD_REACTORS
330
7C
102
}
330
7C
100
AcDbScale
 70
     0
300
1'-0" = 1'-0"
140
12.0
141
12.0
290
     0
  0
DICTIONARYVAR
  5
C1
102
{ACAD_REACTORS
330
BD
102
}
330
BD
100
DictionaryVariables
280
     0
  1
2
  0
DICTIONARYVAR
  5
C2
102
{ACAD_REACTORS
330
BD
102
}
330
BD
100
DictionaryVariables
280
     0
  1
1
  0
XRECORD
  5
19D
102
{ACAD_REACTORS
330
19B
102
}
330
19B
100
AcDbXrecord
280
     1
  2

  2

  2

 40
0.0
 40
0.0
 90
        0
 40
15.5
 90
        2
 90
        2
 90
        0
 90
        5
  2

  2

  2

  2

290
     1
290
     0
  2
0
  2
ø15.5
  0
XRECORD
  5
19E
102
{ACAD_REACTORS
330
19B
102
}
330
19B
100
AcDbXrecord
280
     1
  2

  2

  2

 40
0.0
 40
0.0
 90
        0
 40
10.0
 90
        2
 90
        2
 90
        0
 90
        5
  2

  2

  2

  2

290
     1
290
     0
  2
1
  2
M10
  0
ENDSEC
  0
EOF
