  0
SECTION
  2
HEADER
  9
$ACADVER
  1
AC1009
  9
$DWGCODEPAGE
  3
ansi_1251
  9
$INSBASE
 10
0.0
 20
0.0
 30
0.0
  9
$EXTMIN
 10
1.000000000000000E+20
 20
1.000000000000000E+20
 30
1.000000000000000E+20
  9
$EXTMAX
 10
-1.000000000000000E+20
 20
-1.000000000000000E+20
 30
-1.000000000000000E+20
  9
$LIMMIN
 10
0.0
 20
0.0
  9
$LIMMAX
 10
420.0
 20
297.0
  9
$ORTHOMODE
 70
     1
  9
$REGENMODE
 70
     1
  9
$FILLMODE
 70
     1
  9
$QTEXTMODE
 70
     0
  9
$MIRRTEXT
 70
     0
  9
$DRAGMODE
 70
     2
  9
$LTSCALE
 40
1.0
  9
$OSMODE
 70
   279
  9
$ATTMODE
 70
     1
  9
$TEXTSIZE
 40
2.5
  9
$TRACEWID
 40
1.0
  9
$TEXTSTYLE
  7
STANDARD
  9
$CLAYER
  8
SK2
  9
$CELTYPE
  6
BYLAYER
  9
$CECOLOR
 62
   256
  9
$DIMSCALE
 40
1.0
  9
$DIMASZ
 40
2.5
  9
$DIMEXO
 40
0.625
  9
$DIMDLI
 40
3.75
  9
$DIMRND
 40
0.0
  9
$DIMDLE
 40
0.0
  9
$DIMEXE
 40
1.25
  9
$DIMTP
 40
0.0
  9
$DIMTM
 40
0.0
  9
$DIMTXT
 40
2.5
  9
$DIMCEN
 40
2.5
  9
$DIMTSZ
 40
0.0
  9
$DIMTOL
 70
     0
  9
$DIMLIM
 70
     0
  9
$DIMTIH
 70
     0
  9
$DIMTOH
 70
     0
  9
$DIMSE1
 70
     0
  9
$DIMSE2
 70
     0
  9
$DIMTAD
 70
     1
  9
$DIMZIN
 70
     8
  9
$DIMBLK
  1

  9
$DIMASO
 70
     1
  9
$DIMSHO
 70
     1
  9
$DIMPOST
  1

  9
$DIMAPOST
  1

  9
$DIMALT
 70
     0
  9
$DIMALTD
 70
     3
  9
$DIMALTF
 40
0.03937007874016
  9
$DIMLFAC
 40
1.0
  9
$DIMTOFL
 70
     1
  9
$DIMTVP
 40
0.0
  9
$DIMTIX
 70
     0
  9
$DIMSOXD
 70
     0
  9
$DIMSAH
 70
     0
  9
$DIMBLK1
  1

  9
$DIMBLK2
  1

  9
$DIMSTYLE
  2
ISO-25
  9
$DIMCLRD
 70
     0
  9
$DIMCLRE
 70
     0
  9
$DIMCLRT
 70
     0
  9
$DIMTFAC
 40
1.0
  9
$DIMGAP
 40
0.625
  9
$LUNITS
 70
     2
  9
$LUPREC
 70
     3
  9
$SKETCHINC
 40
1.0
  9
$FILLETRAD
 40
10.0
  9
$AUNITS
 70
     0
  9
$AUPREC
 70
     0
  9
$MENU
  1
.
  9
$ELEVATION
 40
0.0
  9
$PELEVATION
 40
0.0
  9
$THICKNESS
 40
0.0
  9
$LIMCHECK
 70
     0
  9
$CHAMFERA
 40
10.0
  9
$CHAMFERB
 40
10.0
  9
$SKPOLY
 70
     0
  9
$TDCREATE
 40
2455022.429026158
  9
$TDUPDATE
 40
2455022.429026158
  9
$TDINDWG
 40
0.0000000116
  9
$TDUSRTIMER
 40
2458738.551736632
  9
$USRTIMER
 70
     1
  9
$ANGBASE
 50
0.0
  9
$ANGDIR
 70
     0
  9
$PDMODE
 70
     0
  9
$PDSIZE
 40
0.0
  9
$PLINEWID
 40
0.0
  9
$COORDS
 70
     1
  9
$SPLFRAME
 70
     0
  9
$SPLINETYPE
 70
     6
  9
$SPLINESEGS
 70
     8
  9
$ATTDIA
 70
     0
  9
$ATTREQ
 70
     1
  9
$HANDLING
 70
     1
  9
$HANDSEED
  5
349
  9
$SURFTAB1
 70
     6
  9
$SURFTAB2
 70
     6
  9
$SURFTYPE
 70
     6
  9
$SURFU
 70
     6
  9
$SURFV
 70
     6
  9
$UCSNAME
  2

  9
$UCSORG
 10
0.0
 20
0.0
 30
0.0
  9
$UCSXDIR
 10
1.0
 20
0.0
 30
0.0
  9
$UCSYDIR
 10
0.0
 20
1.0
 30
0.0
  9
$PUCSNAME
  2

  9
$PUCSORG
 10
0.0
 20
0.0
 30
0.0
  9
$PUCSXDIR
 10
1.0
 20
0.0
 30
0.0
  9
$PUCSYDIR
 10
0.0
 20
1.0
 30
0.0
  9
$USERI1
 70
     0
  9
$USERI2
 70
     0
  9
$USERI3
 70
     0
  9
$USERI4
 70
     0
  9
$USERI5
 70
     0
  9
$USERR1
 40
0.0
  9
$USERR2
 40
0.0
  9
$USERR3
 40
0.0
  9
$USERR4
 40
0.0
  9
$USERR5
 40
0.0
  9
$WORLDVIEW
 70
     1
  9
$SHADEDGE
 70
     3
  9
$SHADEDIF
 70
    70
  9
$TILEMODE
 70
     1
  9
$MAXACTVP
 70
    64
  9
$PLIMCHECK
 70
     0
  9
$PEXTMIN
 10
1.000000000000000E+20
 20
1.000000000000000E+20
 30
1.000000000000000E+20
  9
$PEXTMAX
 10
-1.000000000000000E+20
 20
-1.000000000000000E+20
 30
-1.000000000000000E+20
  9
$PLIMMIN
 10
0.0
 20
0.0
  9
$PLIMMAX
 10
420.0
 20
297.0
  9
$UNITMODE
 70
     0
  9
$VISRETAIN
 70
     1
  9
$PLINEGEN
 70
     0
  9
$PSLTSCALE
 70
     1
  0
ENDSEC
  0
SECTION
  2
TABLES
  0
TABLE
  2
VPORT
 70
     1
  0
VPORT
  2
*ACTIVE
 70
     0
 10
0.0
 20
0.0
 11
1.0
 21
1.0
 12
137.7495227623523
 22
-6.107660850999999
 13
0.0
 23
0.0
 14
10.0
 24
10.0
 15
10.0
 25
10.0
 16
0.0
 26
0.0
 36
1.0
 17
-134.1869158878504
 27
0.0
 37
0.0
 40
105.8865383896666
 41
1.292490118577075
 42
50.0
 43
0.0
 44
0.0
 50
0.0
 51
0.0
 71
    16
 72
  1000
 73
     1
 74
     3
 75
     0
 76
     0
 77
     0
 78
     0
  0
ENDTAB
  0
TABLE
  2
LTYPE
 70
     4
  0
LTYPE
  2
CONTINUOUS
 70
     0
  3
Solid line
 72
    65
 73
     0
 40
0.0
  0
LTYPE
  2
CENTER
 70
     0
  3
 Center _____  _  _____  _  _____  _  _____  _ 
 72
    65
 73
     4
 40
50.8
 49
31.75
 49
-6.35
 49
6.35
 49
-6.35
  0
LTYPE
  2
DASHED
 70
     0
  3
Dashed __  __  __  __  __  __  __  __  __  __  
 72
    65
 73
     2
 40
19.05
 49
12.7
 49
-6.35
  0
LTYPE
  2
STRICHPUNKT
 70
     0
  3
--.--.--.--.--
 72
    65
 73
     4
 40
8.8
 49
5.5
 49
-1.3
 49
0.7
 49
-1.3
  0
ENDTAB
  0
TABLE
  2
LAYER
 70
    31
  0
LAYER
  2
0
 70
     0
 62
     7
  6
CONTINUOUS
  0
LAYER
  2
1
 70
     0
 62
     4
  6
CONTINUOUS
  0
LAYER
  2
2
 70
     0
 62
     7
  6
CONTINUOUS
  0
LAYER
  2
3
 70
     0
 62
     1
  6
DASHED
  0
LAYER
  2
4
 70
     0
 62
     2
  6
CENTER
  0
LAYER
  2
6
 70
     0
 62
     5
  6
CONTINUOUS
  0
LAYER
  2
7
 70
     0
 62
     5
  6
CONTINUOUS
  0
LAYER
  2
11
 70
     0
 62
     4
  6
CONTINUOUS
  0
LAYER
  2
SK1
 70
     0
 62
     4
  6
CONTINUOUS
  0
LAYER
  2
SK2
 70
     0
 62
     7
  6
CONTINUOUS
  0
LAYER
  2
SK3
 70
     0
 62
     1
  6
DASHED
  0
LAYER
  2
SK4
 70
     0
 62
     2
  6
CENTER
  0
LAYER
  2
SK6
 70
     0
 62
     5
  6
CONTINUOUS
  0
LAYER
  2
SK7
 70
     0
 62
     5
  6
CONTINUOUS
  0
LAYER
  2
SK11
 70
     0
 62
     4
  6
CONTINUOUS
  0
LAYER
  2
CUT
 70
     0
 62
     1
  6
CONTINUOUS
  0
LAYER
  2
NOCUT
 70
     0
 62
     7
  6
CONTINUOUS
  0
LAYER
  2
SKVIEW1
 70
     0
 62
     4
  6
CONTINUOUS
  0
LAYER
  2
SKVIEW2
 70
     0
 62
     7
  6
CONTINUOUS
  0
LAYER
  2
SKVIEW3
 70
     0
 62
     1
  6
DASHED
  0
LAYER
  2
SKVIEW4
 70
     0
 62
     2
  6
CENTER
  0
LAYER
  2
SKVIEW6
 70
     0
 62
     5
  6
CONTINUOUS
  0
LAYER
  2
SKVIEW7
 70
     0
 62
     5
  6
CONTINUOUS
  0
LAYER
  2
SKVIEW11
 70
     0
 62
     4
  6
CONTINUOUS
  0
LAYER
  2
INFTOTAL
 70
     0
 62
     9
  6
CONTINUOUS
  0
LAYER
  2
DEFPOINTS
 70
     0
 62
     7
  6
CONTINUOUS
  0
LAYER
  2
AUFNAHME
 70
     0
 62
     7
  6
CONTINUOUS
  0
LAYER
  2
ZAPFEN
 70
     0
 62
     7
  6
CONTINUOUS
  0
LAYER
  2
FIKTIV
 70
     0
 62
     7
  6
CONTINUOUS
  0
LAYER
  2
MASS
 70
     0
 62
     7
  6
CONTINUOUS
  0
LAYER
  2
TEXT
 70
     0
 62
     7
  6
CONTINUOUS
  0
ENDTAB
  0
TABLE
  2
STYLE
 70
     1
  0
STYLE
  2
STANDARD
 70
     0
 40
0.0
 41
1.0
 50
0.0
 71
     0
 42
2.5
  3
txt
  4

  0
ENDTAB
  0
TABLE
  2
VIEW
 70
     0
  0
ENDTAB
  0
TABLE
  2
UCS
 70
     0
  0
ENDTAB
  0
TABLE
  2
APPID
 70
     2
  0
APPID
  2
ACAD
 70
     0
  0
APPID
  2
ACAECLAYERSTANDARD
 70
     0
  0
ENDTAB
  0
TABLE
  2
DIMSTYLE
 70
     1
  0
DIMSTYLE
  2
ISO-25
 70
     0
  3

  4

  5

  6

  7

 40
1.0
 41
2.5
 42
0.625
 43
3.75
 44
1.25
 45
0.0
 46
0.0
 47
0.0
 48
0.0
140
2.5
141
2.5
142
0.0
143
0.03937007874016
144
1.0
145
0.0
146
1.0
147
0.625
 71
     0
 72
     0
 73
     0
 74
     0
 75
     0
 76
     0
 77
     1
 78
     8
170
     0
171
     3
172
     1
173
     0
174
     0
175
     0
176
     0
177
     0
178
     0
  0
ENDTAB
  0
ENDSEC
  0
SECTION
  2
BLOCKS
  0
BLOCK
  8
0
  2
$MODEL_SPACE
 70
     0
 10
0.0
 20
0.0
 30
0.0
  3
$MODEL_SPACE
  1

  0
ENDBLK
  5
21
  8
0
  0
BLOCK
 67
     1
  8
0
  2
$PAPER_SPACE
 70
     0
 10
0.0
 20
0.0
 30
0.0
  3
$PAPER_SPACE
  1

  0
ENDBLK
  5
1D
 67
     1
  8
0
  0
BLOCK
  8
0
  2
*D0
 70
     1
 10
0.0
 20
0.0
 30
0.0
  3
*D0
  1

  0
LINE
  5
33C
  8
SK2
 62
     0
 10
-50.625
 20
7.9375
 30
0.0
 11
-61.64930712499624
 21
7.937500000000001
 31
0.0
  0
LINE
  5
33D
  8
SK2
 62
     0
 10
-50.625
 20
-7.9375
 30
0.0
 11
-61.64930712499624
 21
-7.937499999999999
 31
0.0
  0
LINE
  5
33E
  8
SK2
 62
     0
 10
-60.39930712499624
 20
5.437500000000001
 30
0.0
 11
-60.39930712499624
 21
-5.437499999999999
 31
0.0
  0
SOLID
  5
33F
  8
SK2
 62
     0
 10
-59.98264045832958
 20
5.437500000000001
 30
0.0
 11
-60.81597379166291
 21
5.437500000000001
 31
0.0
 12
-60.39930712499624
 22
7.937500000000001
 32
0.0
 13
-60.39930712499624
 23
7.937500000000001
 33
0.0
  0
SOLID
  5
340
  8
SK2
 62
     0
 10
-60.81597379166291
 20
-5.437499999999999
 30
0.0
 11
-59.98264045832958
 21
-5.437499999999999
 31
0.0
 12
-60.39930712499624
 22
-7.937499999999999
 32
0.0
 13
-60.39930712499624
 23
-7.937499999999999
 33
0.0
  0
TEXT
  5
341
  8
SK2
  6
CONTINUOUS
 62
     0
 10
-61.02430712499624
 20
-5.833333333333329
 30
0.0
 40
2.5
  1
15.875
 50
90.0
  0
POINT
  5
342
  8
DEFPOINTS
 62
     0
 10
-50.0
 20
7.9375
 30
0.0
  0
POINT
  5
343
  8
DEFPOINTS
 62
     0
 10
-50.0
 20
-7.9375
 30
0.0
  0
POINT
  5
344
  8
DEFPOINTS
 62
     0
 10
-60.39930712499624
 20
-7.937499999999999
 30
0.0
  0
ENDBLK
  5
346
  8
0
  0
ENDSEC
  0
SECTION
  2
ENTITIES
  0
LINE
  5
293
  8
AUFNAHME
  6
CONTINUOUS
 62
     7
 10
9.0
 20
13.0
 30
0.0
 11
9.0
 21
37.0
 31
0.0
  0
LINE
  5
295
  8
AUFNAHME
  6
CONTINUOUS
 62
     7
 10
9.0
 20
37.0
 30
0.0
 11
20.0
 21
37.0
 31
0.0
  0
LINE
  5
296
  8
AUFNAHME
  6
CONTINUOUS
 62
     7
 10
20.0
 20
37.0
 30
0.0
 11
20.0
 21
-37.0
 31
0.0
  0
LINE
  5
297
  8
AUFNAHME
  6
CONTINUOUS
 62
     7
 10
20.0
 20
-37.0
 30
0.0
 11
9.0
 21
-37.0
 31
0.0
  0
LINE
  5
298
  8
AUFNAHME
  6
CONTINUOUS
 62
     7
 10
9.0
 20
-37.0
 30
0.0
 11
9.0
 21
-13.0
 31
0.0
  0
ARC
  5
299
  8
AUFNAHME
  6
CONTINUOUS
 62
     7
 10
4.0
 20
-12.9375
 30
0.0
 40
5.0
 50
0.0
 51
90.0
  0
LINE
  5
29A
  8
AUFNAHME
  6
CONTINUOUS
 62
     7
 10
4.0
 20
-7.9375
 30
0.0
 11
0.0
 21
-7.9375
 31
0.0
  0
LINE
  5
29B
  8
ZAPFEN
  6
CONTINUOUS
 62
     4
 10
0.0
 20
-7.9375
 30
0.0
 11
-50.0
 21
-7.9375
 31
0.0
  0
LINE
  5
29D
  8
ZAPFEN
  6
CONTINUOUS
 62
     4
 10
-50.0
 20
-7.9375
 30
0.0
 11
-51.0
 21
-6.9375
 31
0.0
  0
LINE
  5
29E
  8
ZAPFEN
  6
CONTINUOUS
 62
     4
 10
-51.0
 20
-7.0
 30
0.0
 11
-51.0
 21
7.0
 31
0.0
  0
LINE
  5
29F
  8
ZAPFEN
  6
CONTINUOUS
 62
     4
 10
-51.0
 20
6.9375
 30
0.0
 11
-50.0
 21
7.9375
 31
0.0
  0
LINE
  5
2A0
  8
ZAPFEN
  6
CONTINUOUS
 62
     4
 10
-50.0
 20
7.9375
 30
0.0
 11
0.0
 21
7.9375
 31
0.0
  0
LINE
  5
2A1
  8
AUFNAHME
  6
CONTINUOUS
 62
     7
 10
0.0
 20
7.9375
 30
0.0
 11
4.0
 21
7.9375
 31
0.0
  0
ARC
  5
2A2
  8
AUFNAHME
  6
CONTINUOUS
 62
     7
 10
4.0
 20
12.9375
 30
0.0
 40
5.0
 50
270.0
 51
0.0
  0
LINE
  5
2A3
  8
AUFNAHME
  6
CONTINUOUS
 62
     7
 10
9.0
 20
13.0
 30
0.0
 11
9.0
 21
-13.0
 31
0.0
  0
LINE
  5
2A4
  8
AUFNAHME
  6
CONTINUOUS
 62
     7
 10
9.0
 20
29.8
 30
0.0
 11
9.0
 21
34.81495457599999
 31
0.0
  0
LINE
  5
2A5
  8
AUFNAHME
  6
CONTINUOUS
 62
     7
 10
9.0
 20
34.81495457599999
 30
0.0
 11
3.400000000000006
 21
34.81495457599999
 31
0.0
  0
ARC
  5
2A6
  8
AUFNAHME
  6
CONTINUOUS
 62
     7
 10
7.166666667000001
 20
32.216878365
 30
0.0
 40
4.575781658
 50
145.403845218
 51
183.61705592
  0
LINE
  5
2A7
  8
AUFNAHME
  6
CONTINUOUS
 62
     7
 10
2.599999999999994
 20
31.92820323000001
 30
0.0
 11
2.599999999999994
 21
18.07179676999999
 31
0.0
  0
ARC
  5
2A8
  8
AUFNAHME
  6
CONTINUOUS
 62
     7
 10
7.166666667000001
 20
17.783121635
 30
0.0
 40
4.575781658
 50
176.38294408
 51
214.596154782
  0
LINE
  5
2A9
  8
AUFNAHME
  6
CONTINUOUS
 62
     7
 10
3.400000000000006
 20
15.18504542399999
 30
0.0
 11
9.0
 21
15.18504542399999
 31
0.0
  0
LINE
  5
2AA
  8
AUFNAHME
  6
CONTINUOUS
 62
     7
 10
9.0
 20
15.18504542399999
 30
0.0
 11
9.0
 21
20.2
 31
0.0
  0
LINE
  5
2AB
  8
AUFNAHME
  6
CONTINUOUS
 62
     7
 10
20.0
 20
17.0
 30
0.0
 11
20.0
 21
33.0
 31
0.0
  0
LINE
  5
2AC
  8
AUFNAHME
  6
CONTINUOUS
 62
     7
 10
20.0
 20
33.0
 30
0.0
 11
40.5
 21
33.0
 31
0.0
  0
LINE
  5
2AD
  8
AUFNAHME
  6
CONTINUOUS
 62
     7
 10
40.5
 20
33.0
 30
0.0
 11
41.5
 21
32.0
 31
0.0
  0
LINE
  5
2AE
  8
AUFNAHME
  6
CONTINUOUS
 62
     7
 10
41.5
 20
32.0
 30
0.0
 11
41.5
 21
18.0
 31
0.0
  0
LINE
  5
2AF
  8
AUFNAHME
  6
CONTINUOUS
 62
     7
 10
41.5
 20
18.0
 30
0.0
 11
40.5
 21
17.0
 31
0.0
  0
LINE
  5
2B0
  8
AUFNAHME
  6
CONTINUOUS
 62
     7
 10
40.5
 20
17.0
 30
0.0
 11
20.0
 21
17.0
 31
0.0
  0
LINE
  5
2B1
  8
AUFNAHME
  6
CONTINUOUS
 62
     7
 10
9.0
 20
-20.2
 30
0.0
 11
9.0
 21
-15.185045424
 31
0.0
  0
LINE
  5
2B2
  8
AUFNAHME
  6
CONTINUOUS
 62
     7
 10
9.0
 20
-15.185045424
 30
0.0
 11
3.400000000000006
 21
-15.185045424
 31
0.0
  0
ARC
  5
2B3
  8
AUFNAHME
  6
CONTINUOUS
 62
     7
 10
7.166666667000001
 20
-17.783121635
 30
0.0
 40
4.575781658
 50
145.403845218
 51
183.61705592
  0
LINE
  5
2B4
  8
AUFNAHME
  6
CONTINUOUS
 62
     7
 10
2.599999999999994
 20
-18.07179677
 30
0.0
 11
2.599999999999994
 21
-31.92820323
 31
0.0
  0
ARC
  5
2B5
  8
AUFNAHME
  6
CONTINUOUS
 62
     7
 10
7.166666667000001
 20
-32.216878365
 30
0.0
 40
4.575781658
 50
176.38294408
 51
214.596154782
  0
LINE
  5
2B6
  8
AUFNAHME
  6
CONTINUOUS
 62
     7
 10
3.400000000000006
 20
-34.814954576
 30
0.0
 11
9.0
 21
-34.814954576
 31
0.0
  0
LINE
  5
2B7
  8
AUFNAHME
  6
CONTINUOUS
 62
     7
 10
9.0
 20
-34.814954576
 30
0.0
 11
9.0
 21
-29.8
 31
0.0
  0
LINE
  5
2B8
  8
AUFNAHME
  6
CONTINUOUS
 62
     7
 10
9.0
 20
29.907477288
 30
0.0
 11
3.400000000000006
 21
29.907477288
 31
0.0
  0
ARC
  5
2B9
  8
AUFNAHME
  6
CONTINUOUS
 62
     7
 10
17.141666667
 20
25.0
 30
0.0
 40
14.591666667
 50
160.347140368
 51
199.652859632
  0
LINE
  5
2BA
  8
AUFNAHME
  6
CONTINUOUS
 62
     7
 10
3.400000000000006
 20
20.092522712
 30
0.0
 11
9.0
 21
20.092522712
 31
0.0
  0
LINE
  5
2BB
  8
AUFNAHME
  6
CONTINUOUS
 62
     7
 10
9.0
 20
-20.092522712
 30
0.0
 11
3.400000000000006
 21
-20.092522712
 31
0.0
  0
ARC
  5
2BC
  8
AUFNAHME
  6
CONTINUOUS
 62
     7
 10
17.141666667
 20
-25.0
 30
0.0
 40
14.591666667
 50
160.347140368
 51
199.652859632
  0
LINE
  5
2BD
  8
AUFNAHME
  6
CONTINUOUS
 62
     7
 10
3.400000000000006
 20
-29.907477288
 30
0.0
 11
9.0
 21
-29.907477288
 31
0.0
  0
ARC
  5
2BE
  8
AUFNAHME
  6
CONTINUOUS
 62
     7
 10
5.916666667000001
 20
17.92745920199999
 30
0.0
 40
3.319805885
 50
139.294914352
 51
177.5081250539999
  0
ARC
  5
2BF
  8
AUFNAHME
  6
CONTINUOUS
 62
     7
 10
5.916666667000001
 20
32.07254079800001
 30
0.0
 40
3.319805885
 50
182.4918749460001
 51
220.705085648
  0
ARC
  5
2C0
  8
AUFNAHME
  6
CONTINUOUS
 62
     7
 10
5.916666667000001
 20
-32.072540798
 30
0.0
 40
3.319805885
 50
139.2949143520001
 51
177.508125054
  0
ARC
  5
2C1
  8
AUFNAHME
  6
CONTINUOUS
 62
     7
 10
5.916666667000001
 20
-17.927459202
 30
0.0
 40
3.319805885
 50
182.491874946
 51
220.7050856479999
  0
LINE
  5
2C2
  8
ZAPFEN
  6
STRICHPUNKT
 62
     4
 10
-52.518373374
 20
0.0
 30
0.0
 11
23.357156934
 21
0.0
 31
0.0
  0
LINE
  5
2C4
  8
AUFNAHME
  6
CONTINUOUS
 62
     7
 10
4.0
 20
8.0
 30
0.0
 11
4.0
 21
-8.0
 31
0.0
  0
LINE
  5
2C5
  8
ZAPFEN
  6
CONTINUOUS
 62
     4
 10
-50.0
 20
8.0
 30
0.0
 11
-50.0
 21
-8.0
 31
0.0
  0
LINE
  5
2C6
  8
ZAPFEN
  6
STRICHPUNKT
 62
     4
 10
1.305136709999999
 20
25.0
 30
0.0
 11
44.09443450399999
 21
25.0
 31
0.0
  0
LINE
  5
2C7
  8
ZAPFEN
  6
STRICHPUNKT
 62
     4
 10
13.5
 20
-39.392387962
 30
0.0
 11
13.5
 21
37.978052932
 31
0.0
  0
LINE
  5
2C8
  8
FIKTIV
  6
CONTINUOUS
 62
     5
 10
20.0
 20
-32.800003052
 30
0.0
 11
20.19999694800001
 21
-33.0
 31
0.0
  0
LINE
  5
2CA
  8
FIKTIV
  6
CONTINUOUS
 62
     5
 10
20.20000076299999
 20
-16.999996185
 30
0.0
 11
20.0
 21
-17.199996948
 31
0.0
  0
ARC
  5
2CB
  8
FIKTIV
  6
CONTINUOUS
 62
     5
 10
33.05500030499999
 20
-25.0
 30
0.0
 40
4.000000013
 50
9.593254258000012
 51
20.44568762199998
  0
LINE
  5
2CC
  8
FIKTIV
  6
CONTINUOUS
 62
     5
 10
37.05500030499999
 20
-18.0
 30
0.0
 11
45.00002288799999
 21
-16.88337326
 31
0.0
  0
LINE
  5
2CD
  8
FIKTIV
  6
CONTINUOUS
 62
     5
 10
21.05500030499999
 20
-33.0
 30
0.0
 11
20.19999694800001
 21
-33.0
 31
0.0
  0
LINE
  5
2CE
  8
FIKTIV
  6
CONTINUOUS
 62
     5
 10
23.05500030499999
 20
-18.0
 30
0.0
 11
23.05500030499999
 21
-32.0
 31
0.0
  0
LINE
  5
2CF
  8
FIKTIV
  6
CONTINUOUS
 62
     5
 10
23.05500030499999
 20
-18.0
 30
0.0
 11
21.55500030499999
 21
-18.0
 31
0.0
  0
LINE
  5
2D0
  8
FIKTIV
  6
CONTINUOUS
 62
     5
 10
23.05500030499999
 20
-32.0
 30
0.0
 11
21.55500030499999
 21
-32.0
 31
0.0
  0
LINE
  5
2D1
  8
FIKTIV
  6
CONTINUOUS
 62
     5
 10
30.05500030499999
 20
-18.0
 30
0.0
 11
30.05500030499999
 21
-32.0
 31
0.0
  0
LINE
  5
2D2
  8
FIKTIV
  6
CONTINUOUS
 62
     5
 10
30.05500030499999
 20
-18.0
 30
0.0
 11
37.05500030499999
 21
-18.0
 31
0.0
  0
ARC
  5
2D3
  8
FIKTIV
  6
CONTINUOUS
 62
     5
 10
36.75339508100001
 20
-20.0
 30
0.0
 40
12.000001272
 50
270.0
 51
322.9431981449999
  0
LINE
  5
2D4
  8
FIKTIV
  6
CONTINUOUS
 62
     5
 10
30.05500030499999
 20
-31.0
 30
0.0
 11
23.05500030499999
 21
-31.0
 31
0.0
  0
LINE
  5
2D5
  8
FIKTIV
  6
CONTINUOUS
 62
     5
 10
30.05500030499999
 20
-19.0
 30
0.0
 11
23.05500030499999
 21
-19.0
 31
0.0
  0
LINE
  5
2D6
  8
FIKTIV
  6
CONTINUOUS
 62
     5
 10
41.994636536
 20
-30.794830322
 30
0.0
 11
38.111991882
 21
-24.069885254
 31
0.0
  0
ARC
  5
2D7
  8
FIKTIV
  6
CONTINUOUS
 62
     5
 10
40.078986915
 20
-18.08693231
 30
0.0
 40
8.673072159
 50
179.425699927
 51
193.0113234629999
  0
ARC
  5
2D8
  8
FIKTIV
  6
CONTINUOUS
 62
     5
 10
49.210978471
 20
-15.97684784
 30
0.0
 40
18.046396871
 50
193.011004983
 51
209.999839783
  0
ARC
  5
2D9
  8
FIKTIV
  6
CONTINUOUS
 62
     5
 10
49.210978471
 20
-15.97684784
 30
0.0
 40
18.046396871
 50
209.999839783
 51
226.988674583
  0
ARC
  5
2DA
  8
FIKTIV
  6
CONTINUOUS
 62
     5
 10
42.817557609
 20
-22.830306524
 30
0.0
 40
8.673791778
 50
226.988356102
 51
242.2042175459999
  0
ARC
  5
2DB
  8
FIKTIV
  6
CONTINUOUS
 62
     5
 10
41.324880021
 20
-25.661926698
 30
0.0
 40
5.472829548
 50
242.2042175460001
 51
261.5498589599999
  0
ARC
  5
2DC
  8
FIKTIV
  6
CONTINUOUS
 62
     5
 10
40.85546810700001
 20
-28.821763359
 30
0.0
 40
2.278316241
 50
261.5494090179997
 51
299.9995326229997
  0
ARC
  5
2DD
  8
FIKTIV
  6
CONTINUOUS
 62
     5
 10
35.83485938699999
 20
-22.316904023
 30
0.0
 40
0.67477659
 50
119.9996528629998
 51
153.1602158219997
  0
ARC
  5
2DE
  8
FIKTIV
  6
CONTINUOUS
 62
     5
 10
36.205034462
 20
-22.504228704
 30
0.0
 40
1.089650212
 50
153.1596031250002
 51
172.305550613
  0
ARC
  5
2DF
  8
FIKTIV
  6
CONTINUOUS
 62
     5
 10
36.532559405
 20
-22.548479504
 30
0.0
 40
1.420150925
 50
172.3055506129999
 51
189.0922133440001
  0
ARC
  5
2E0
  8
FIKTIV
  6
CONTINUOUS
 62
     5
 10
37.300177327
 20
-22.425647422
 30
0.0
 40
2.197534353
 50
189.0918685340002
 51
209.9996528630002
  0
ARC
  5
2E1
  8
FIKTIV
  6
CONTINUOUS
 62
     5
 10
37.300177327
 20
-22.425647422
 30
0.0
 40
2.197534353
 50
209.9996528630002
 51
230.9074371909998
  0
ARC
  5
2E2
  8
FIKTIV
  6
CONTINUOUS
 62
     5
 10
36.809985352
 20
-23.029002062
 30
0.0
 40
1.420150925
 50
230.9070923809997
 51
247.6937551119996
  0
ARC
  5
2E3
  8
FIKTIV
  6
CONTINUOUS
 62
     5
 10
36.684541493
 20
-23.334770864
 30
0.0
 40
1.089650212
 50
247.6937551119998
 51
266.8397025999997
  0
ARC
  5
2E4
  8
FIKTIV
  6
CONTINUOUS
 62
     5
 10
36.661676868
 20
-23.74901394600001
 30
0.0
 40
0.67477659
 50
266.8390899029998
 51
299.9996528629998
  0
LINE
  5
2E5
  8
FIKTIV
  6
CONTINUOUS
 62
     5
 10
36.501365662
 20
-21.280181885
 30
0.0
 11
34.607551575
 21
-18.0
 31
0.0
  0
ARC
  5
2E6
  8
FIKTIV
  6
CONTINUOUS
 62
     5
 10
34.350250073
 20
-19.74555622600001
 30
0.0
 40
5.297578121
 50
300.000061035
 51
306.344391963
  0
LINE
  5
2E7
  8
FIKTIV
  6
CONTINUOUS
 62
     5
 10
21.05500030499999
 20
-16.999996185
 30
0.0
 11
21.05500030499999
 21
-33.0
 31
0.0
  0
ARC
  5
2E8
  8
FIKTIV
  6
CONTINUOUS
 62
     5
 10
21.55500030499999
 20
-17.5
 30
0.0
 40
0.5
 50
180.0
 51
270.0000031880015
  0
ARC
  5
2E9
  8
FIKTIV
  6
CONTINUOUS
 62
     5
 10
21.55500030499999
 20
-32.499984741
 30
0.0
 40
0.50000006
 50
90.0
 51
180.0
  0
LINE
  5
2EA
  8
FIKTIV
  6
CONTINUOUS
 62
     5
 10
21.05500030499999
 20
-16.999996185
 30
0.0
 11
20.20000076299999
 21
-16.999996185
 31
0.0
  0
LINE
  5
2EB
  8
FIKTIV
  6
CONTINUOUS
 62
     5
 10
46.333778381
 20
-26.756988525
 30
0.0
 11
46.329856873
 21
-27.231277466
 31
0.0
  0
LINE
  5
2EC
  8
FIKTIV
  6
CONTINUOUS
 62
     5
 10
46.11041259800001
 20
-26.489837646
 30
0.0
 11
46.169319153
 21
-26.560287476
 31
0.0
  0
LINE
  5
2ED
  8
ZAPFEN
  6
STRICHPUNKT
 62
     4
 10
47.188491821
 20
-25.0
 30
0.0
 11
0.9430308710000048
 21
-25.0
 31
0.0
  0
ARC
  5
2EE
  8
FIKTIV
  6
CONTINUOUS
 62
     5
 10
37.6103241
 20
-23.814493755
 30
0.0
 40
2.73479457
 50
101.8248508630001
 51
102.0714713750001
  0
ARC
  5
2EF
  8
FIKTIV
  6
CONTINUOUS
 62
     5
 10
38.146225147
 20
-26.320361743
 30
0.0
 40
5.297578121
 50
102.071412378
 51
120.0000610349999
  0
ARC
  5
2F0
  8
FIKTIV
  6
CONTINUOUS
 62
     5
 10
33.05500030499999
 20
-25.0
 30
0.0
 40
4.00000015
 50
34.13111288699995
 51
53.62444250099988
  0
LINE
  5
2F1
  8
FIKTIV
  6
CONTINUOUS
 62
     5
 10
45.02021789599999
 20
-16.92301178
 30
0.0
 11
45.00002288799999
 21
-16.88337326
 31
0.0
  0
LINE
  5
2F2
  8
FIKTIV
  6
CONTINUOUS
 62
     5
 10
46.169319153
 20
-26.560287476
 30
0.0
 11
46.33380889899999
 21
-26.757003784
 31
0.0
  0
LINE
  5
2F3
  8
FIKTIV
  6
CONTINUOUS
 62
     5
 10
30.05500030499999
 20
-32.0
 30
0.0
 11
36.75339508100001
 21
-32.0
 31
0.0
  0
CIRCLE
  5
2F4
  8
FIKTIV
  6
CONTINUOUS
 62
     5
 10
43.579776764
 20
-21.208366394
 30
0.0
 40
1.899999972
  0
LINE
  5
2F5
  8
FIKTIV
  6
CONTINUOUS
 62
     5
 10
38.67139053299999
 20
-23.89100647
 30
0.0
 11
40.469978333
 21
-22.974586487
 31
0.0
  0
LINE
  5
2F6
  8
FIKTIV
  6
CONTINUOUS
 62
     5
 10
37.2186203
 20
-21.039802551
 30
0.0
 11
37.64947891200001
 21
-20.820274353
 31
0.0
  0
LINE
  5
2F7
  8
FIKTIV
  6
CONTINUOUS
 62
     5
 10
37.85577774000001
 20
-20.561508179
 30
0.0
 11
46.420921326
 21
-16.197349548
 31
0.0
  0
ARC
  5
2F8
  8
FIKTIV
  6
CONTINUOUS
 62
     5
 10
46.602516174
 20
-16.553749084
 30
0.0
 40
0.399999548
 50
357.0000000000002
 51
117.0000438090007
  0
ARC
  5
2F9
  8
FIKTIV
  6
CONTINUOUS
 62
     5
 10
37.94499969500001
 20
-22.465408325
 30
0.0
 40
1.600000206
 50
116.9999499320002
 51
296.9999821189994
  0
LINE
  5
2FA
  8
FIKTIV
  6
CONTINUOUS
 62
     5
 10
45.881565094
 20
-26.488922119
 30
0.0
 11
37.819519043
 21
-21.253372192
 31
0.0
  0
LINE
  5
2FB
  8
FIKTIV
  6
CONTINUOUS
 62
     5
 10
47.00196838400001
 20
-16.574676514
 30
0.0
 11
46.498867035
 21
-26.174385071
 31
0.0
  0
ARC
  5
2FC
  8
FIKTIV
  6
CONTINUOUS
 62
     5
 10
46.099422455
 20
-26.153457642
 30
0.0
 40
0.400000051
 50
236.9998569490002
 51
357.0000000000006
  0
ARC
  5
2FD
  8
FIKTIV
  6
CONTINUOUS
 62
     5
 10
38.037380219
 20
-20.917900085
 30
0.0
 40
0.400001243
 50
117.0000169870003
 51
236.9999642369996
  0
LINE
  5
2FE
  8
FIKTIV
  6
CONTINUOUS
 62
     5
 10
43.579776764
 20
-18.058364868
 30
0.0
 11
43.579776764
 21
-24.35836792
 31
0.0
  0
LINE
  5
2FF
  8
FIKTIV
  6
CONTINUOUS
 62
     5
 10
40.42977523799999
 20
-21.208366394
 30
0.0
 11
46.72977829
 21
-21.208366394
 31
0.0
  0
LINE
  5
30E
  8
MASS
  6
CONTINUOUS
 62
     4
 10
58.999999223
 20
1.615376612999995
 30
0.0
 11
58.99999877300002
 21
11.915799691
 31
0.0
  0
LINE
  5
30F
  8
MASS
  6
CONTINUOUS
 62
     4
 10
61.0
 20
-16.153748907
 30
0.0
 11
46.602516174
 21
-16.153749536
 31
0.0
  0
LINE
  5
310
  8
MASS
  6
CONTINUOUS
 62
     4
 10
59.0
 20
-16.153748994
 30
0.0
 11
58.54999984700001
 21
-12.653749014
 31
0.0
  0
LINE
  5
311
  8
MASS
  6
CONTINUOUS
 62
     4
 10
58.54999984700001
 20
-12.653749014
 30
0.0
 11
59.44999984700002
 21
-12.653748974
 31
0.0
  0
LINE
  5
312
  8
MASS
  6
CONTINUOUS
 62
     4
 10
59.44999984700002
 20
-12.653748974
 30
0.0
 11
59.0
 21
-16.153748994
 31
0.0
  0
LINE
  5
313
  8
MASS
  6
CONTINUOUS
 62
     4
 10
58.999999847
 20
-12.653748994
 30
0.0
 11
58.999999223
 21
1.615376612999995
 31
0.0
  0
TEXT
  5
314
  8
MASS
  6
CONTINUOUS
 62
     4
 10
57.67603717200001
 20
-2.055058262000003
 30
0.0
 40
3.5
  1
1
 50
90.00000250400001
  0
CIRCLE
  5
315
  8
MASS
  6
CONTINUOUS
 62
     4
 10
56.42603726999999
 20
-4.305058317000004
 30
0.0
 40
1.25
  0
LINE
  5
316
  8
MASS
  6
CONTINUOUS
 62
     4
 10
57.67603732500001
 20
-5.555058262000003
 30
0.0
 11
55.176037216
 21
-3.055058371000001
 31
0.0
  0
TEXT
  5
317
  8
MASS
  6
CONTINUOUS
 62
     4
 10
57.676037092
 20
-0.2334957619999969
 30
0.0
 40
3.5
  1
-32
 50
90.00000250400001
  0
TEXT
  5
318
  8
TEXT
  6
CONTINUOUS
 62
     4
 10
18.556
 20
-22.963
 30
0.0
 40
3.5
  1
615.391
 50
90.0
  0
LINE
  5
31A
  8
MASS
  6
CONTINUOUS
 62
     4
 10
-51.0
 20
-50.193374634
 30
0.0
 11
-51.0
 21
-7.0
 31
0.0
  0
LINE
  5
31B
  8
MASS
  6
CONTINUOUS
 62
     4
 10
-51.0
 20
-48.193374634
 30
0.0
 11
-47.500000012
 21
-47.74337454
 31
0.0
  0
LINE
  5
31C
  8
MASS
  6
CONTINUOUS
 62
     4
 10
-47.500000012
 20
-47.74337454
 30
0.0
 11
-47.499999988
 21
-48.64337454
 31
0.0
  0
LINE
  5
31D
  8
MASS
  6
CONTINUOUS
 62
     4
 10
-47.499999988
 20
-48.64337454
 30
0.0
 11
-51.0
 21
-48.193374634
 31
0.0
  0
LINE
  5
31E
  8
MASS
  6
CONTINUOUS
 62
     4
 10
20.0
 20
-50.193372726
 30
0.0
 11
20.0
 21
-37.0
 31
0.0
  0
LINE
  5
31F
  8
MASS
  6
CONTINUOUS
 62
     4
 10
20.0
 20
-48.193372726
 30
0.0
 11
16.500000012
 21
-48.64337282
 31
0.0
  0
LINE
  5
320
  8
MASS
  6
CONTINUOUS
 62
     4
 10
16.500000012
 20
-48.64337282
 30
0.0
 11
16.499999988
 21
-47.74337282
 31
0.0
  0
LINE
  5
321
  8
MASS
  6
CONTINUOUS
 62
     4
 10
16.499999988
 20
-47.74337282
 30
0.0
 11
20.0
 21
-48.193372726
 31
0.0
  0
LINE
  5
322
  8
MASS
  6
CONTINUOUS
 62
     4
 10
-47.5
 20
-48.19337454
 30
0.0
 11
16.5
 21
-48.19337282
 31
0.0
  0
TEXT
  5
323
  8
MASS
  6
CONTINUOUS
 62
     4
 10
-16.781875834
 20
-46.693373715
 30
0.0
 40
3.5
  1
71
 50
0.000001539
  0
LINE
  5
324
  8
MASS
  6
CONTINUOUS
 62
     4
 10
20.0
 20
-50.193372726
 30
0.0
 11
20.0
 21
-37.0
 31
0.0
  0
LINE
  5
325
  8
MASS
  6
CONTINUOUS
 62
     4
 10
20.0
 20
-48.193372726
 30
0.0
 11
23.5
 21
-47.743372726
 31
0.0
  0
LINE
  5
326
  8
MASS
  6
CONTINUOUS
 62
     4
 10
23.5
 20
-47.743372726
 30
0.0
 11
23.5
 21
-48.643372726
 31
0.0
  0
LINE
  5
327
  8
MASS
  6
CONTINUOUS
 62
     4
 10
23.5
 20
-48.643372726
 30
0.0
 11
20.0
 21
-48.193372726
 31
0.0
  0
LINE
  5
328
  8
MASS
  6
CONTINUOUS
 62
     4
 10
47.002515722
 20
-50.193372726
 30
0.0
 11
47.002515722
 21
-16.553749084
 31
0.0
  0
LINE
  5
329
  8
MASS
  6
CONTINUOUS
 62
     4
 10
47.002515722
 20
-48.193372726
 30
0.0
 11
43.502515722
 21
-48.643372726
 31
0.0
  0
LINE
  5
32A
  8
MASS
  6
CONTINUOUS
 62
     4
 10
43.502515722
 20
-48.643372726
 30
0.0
 11
43.502515722
 21
-47.743372726
 31
0.0
  0
LINE
  5
32B
  8
MASS
  6
CONTINUOUS
 62
     4
 10
43.502515722
 20
-47.743372726
 30
0.0
 11
47.002515722
 21
-48.193372726
 31
0.0
  0
LINE
  5
32C
  8
MASS
  6
CONTINUOUS
 62
     4
 10
23.5
 20
-48.193372726
 30
0.0
 11
43.502515722
 21
-48.193372726
 31
0.0
  0
TEXT
  5
32D
  8
MASS
  6
CONTINUOUS
 62
     4
 10
31.836570059
 20
-46.693372726
 30
0.0
 40
3.5
  1
27
  0
LINE
  5
32E
  8
MASS
  6
CONTINUOUS
 62
     4
 10
70.64952087400002
 20
-37.0
 30
0.0
 11
20.0
 21
-37.0
 31
0.0
  0
LINE
  5
32F
  8
MASS
  6
CONTINUOUS
 62
     4
 10
68.64952087400002
 20
-37.0
 30
0.0
 11
68.199520874
 21
-33.5
 31
0.0
  0
LINE
  5
330
  8
MASS
  6
CONTINUOUS
 62
     4
 10
68.199520874
 20
-33.5
 30
0.0
 11
69.099520874
 21
-33.5
 31
0.0
  0
LINE
  5
331
  8
MASS
  6
CONTINUOUS
 62
     4
 10
69.099520874
 20
-33.5
 30
0.0
 11
68.64952087400002
 21
-37.0
 31
0.0
  0
LINE
  5
332
  8
MASS
  6
CONTINUOUS
 62
     4
 10
70.64952087400002
 20
37.0
 30
0.0
 11
20.0
 21
37.0
 31
0.0
  0
LINE
  5
333
  8
MASS
  6
CONTINUOUS
 62
     4
 10
68.64952087400002
 20
37.0
 30
0.0
 11
69.099520874
 21
33.5
 31
0.0
  0
LINE
  5
334
  8
MASS
  6
CONTINUOUS
 62
     4
 10
69.099520874
 20
33.5
 30
0.0
 11
68.199520874
 21
33.5
 31
0.0
  0
LINE
  5
335
  8
MASS
  6
CONTINUOUS
 62
     4
 10
68.199520874
 20
33.5
 30
0.0
 11
68.64952087400002
 21
37.0
 31
0.0
  0
LINE
  5
336
  8
MASS
  6
CONTINUOUS
 62
     4
 10
68.64952087400002
 20
-33.5
 30
0.0
 11
68.64952087400002
 21
33.5
 31
0.0
  0
TEXT
  5
337
  8
MASS
  6
CONTINUOUS
 62
     4
 10
67.14952087400002
 20
-1.664688327
 30
0.0
 40
3.5
  1
74
 50
90.0
  0
DIMENSION
  5
338
  8
SK2
  2
*D0
 10
-60.39930712499624
 20
-7.937499999999999
 30
0.0
 11
-62.27430712499624
 21
0.0000000000000009
 31
0.0
 70
    32
  3
ISO-25
 13
-50.0
 23
7.9375
 33
0.0
 14
-50.0
 24
-7.9375
 34
0.0
 50
90.0
1001
ACAD
1000
DSTYLE
1002
{
1070
   287
1070
     5
1070
   271
1070
     3
1070
   272
1070
     3
1070
   279
1070
     2
1002
}
  0
ENDSEC
  0
EOF
