  0
SECTION
  2
HEADER
  9
$ACADVER
  1
AC1014
  9
$ACADMAINTVER
 70
     9
  9
$DWGCODEPAGE
  3
ANSI_1252
  9
$INSBASE
 10
0.0
 20
0.0
 30
0.0
  9
$EXTMIN
 10
0.0
 20
0.0
 30
0.0
  9
$EXTMAX
 10
210.0
 20
297.0
 30
0.0
  9
$LIMMIN
 10
0.0
 20
0.0
  9
$LIMMAX
 10
210.0
 20
297.0
  9
$ORTHOMODE
 70
     0
  9
$REGENMODE
 70
     1
  9
$FILLMODE
 70
     1
  9
$QTEXTMODE
 70
     0
  9
$MIRRTEXT
 70
     1
  9
$DRAGMODE
 70
     2
  9
$LTSCALE
 40
1.0
  9
$OSMODE
 70
    37
  9
$ATTMODE
 70
     1
  9
$TEXTSIZE
 40
3.5
  9
$TRACEWID
 40
1.0
  9
$TEXTSTYLE
  7
STANDARD
  9
$CLAYER
  8
0
  9
$CELTYPE
  6
BYLAYER
  9
$CECOLOR
 62
   256
  9
$CELTSCALE
 40
1.0
  9
$DELOBJ
 70
     1
  9
$DISPSILH
 70
     0
  9
$DIMSCALE
 40
1.0
  9
$DIMASZ
 40
3.5
  9
$DIMEXO
 40
0.0
  9
$DIMDLI
 40
3.75
  9
$DIMRND
 40
0.0
  9
$DIMDLE
 40
0.0
  9
$DIMEXE
 40
1.0
  9
$DIMTP
 40
0.0
  9
$DIMTM
 40
0.0
  9
$DIMTXT
 40
3.5
  9
$DIMCEN
 40
2.5
  9
$DIMTSZ
 40
0.0
  9
$DIMTOL
 70
     0
  9
$DIMLIM
 70
     0
  9
$DIMTIH
 70
     1
  9
$DIMTOH
 70
     1
  9
$DIMSE1
 70
     0
  9
$DIMSE2
 70
     0
  9
$DIMTAD
 70
     1
  9
$DIMZIN
 70
     0
  9
$DIMBLK
  1

  9
$DIMASO
 70
     1
  9
$DIMSHO
 70
     1
  9
$DIMPOST
  1

  9
$DIMAPOST
  1

  9
$DIMALT
 70
     0
  9
$DIMALTD
 70
     3
  9
$DIMALTF
 40
0.0393700787
  9
$DIMLFAC
 40
1.0
  9
$DIMTOFL
 70
     1
  9
$DIMTVP
 40
0.0
  9
$DIMTIX
 70
     0
  9
$DIMSOXD
 70
     0
  9
$DIMSAH
 70
     0
  9
$DIMBLK1
  1

  9
$DIMBLK2
  1

  9
$DIMSTYLE
  2
ISO-25
  9
$DIMCLRD
 70
     0
  9
$DIMCLRE
 70
     0
  9
$DIMCLRT
 70
     0
  9
$DIMTFAC
 40
1.0
  9
$DIMGAP
 40
1.5
  9
$DIMJUST
 70
     0
  9
$DIMSD1
 70
     0
  9
$DIMSD2
 70
     0
  9
$DIMTOLJ
 70
     0
  9
$DIMTZIN
 70
     0
  9
$DIMALTZ
 70
     0
  9
$DIMALTTZ
 70
     0
  9
$DIMFIT
 70
     3
  9
$DIMUPT
 70
     0
  9
$DIMUNIT
 70
     2
  9
$DIMDEC
 70
     2
  9
$DIMTDEC
 70
     3
  9
$DIMALTU
 70
     2
  9
$DIMALTTD
 70
     3
  9
$DIMTXSTY
  7
STANDARD
  9
$DIMAUNIT
 70
     0
  9
$LUNITS
 70
     2
  9
$LUPREC
 70
     2
  9
$SKETCHINC
 40
1.0
  9
$FILLETRAD
 40
10.0
  9
$AUNITS
 70
     0
  9
$AUPREC
 70
     2
  9
$MENU
  1
.
  9
$ELEVATION
 40
0.0
  9
$PELEVATION
 40
0.0
  9
$THICKNESS
 40
0.0
  9
$LIMCHECK
 70
     0
  9
$CHAMFERA
 40
0.0
  9
$CHAMFERB
 40
0.0
  9
$CHAMFERC
 40
0.0
  9
$CHAMFERD
 40
0.0
  9
$SKPOLY
 70
     0
  9
$TDCREATE
 40
2456801.366754954
  9
$TDUPDATE
 40
2456801.366755498
  9
$TDINDWG
 40
0.0000000116
  9
$TDUSRTIMER
 40
0.0000000116
  9
$USRTIMER
 70
     1
  9
$ANGBASE
 50
0.0
  9
$ANGDIR
 70
     0
  9
$PDMODE
 70
     0
  9
$PDSIZE
 40
-1.0
  9
$PLINEWID
 40
0.0
  9
$COORDS
 70
     1
  9
$SPLFRAME
 70
     0
  9
$SPLINETYPE
 70
     6
  9
$SPLINESEGS
 70
     8
  9
$ATTDIA
 70
     0
  9
$ATTREQ
 70
     1
  9
$HANDLING
 70
     1
  9
$HANDSEED
  5
102
  9
$SURFTAB1
 70
     6
  9
$SURFTAB2
 70
     6
  9
$SURFTYPE
 70
     6
  9
$SURFU
 70
     6
  9
$SURFV
 70
     6
  9
$UCSNAME
  2

  9
$UCSORG
 10
0.0
 20
0.0
 30
0.0
  9
$UCSXDIR
 10
1.0
 20
0.0
 30
0.0
  9
$UCSYDIR
 10
0.0
 20
1.0
 30
0.0
  9
$PUCSNAME
  2

  9
$PUCSORG
 10
0.0
 20
0.0
 30
0.0
  9
$PUCSXDIR
 10
1.0
 20
0.0
 30
0.0
  9
$PUCSYDIR
 10
0.0
 20
1.0
 30
0.0
  9
$USERI1
 70
     0
  9
$USERI2
 70
     0
  9
$USERI3
 70
     0
  9
$USERI4
 70
     0
  9
$USERI5
 70
     0
  9
$USERR1
 40
0.0
  9
$USERR2
 40
0.0
  9
$USERR3
 40
0.0
  9
$USERR4
 40
0.0
  9
$USERR5
 40
0.0
  9
$WORLDVIEW
 70
     1
  9
$SHADEDGE
 70
     3
  9
$SHADEDIF
 70
    70
  9
$TILEMODE
 70
     1
  9
$MAXACTVP
 70
    64
  9
$PINSBASE
 10
0.0
 20
0.0
 30
0.0
  9
$PLIMCHECK
 70
     0
  9
$PEXTMIN
 10
1.0000000000E+20
 20
1.0000000000E+20
 30
1.0000000000E+20
  9
$PEXTMAX
 10
-1.0000000000E+20
 20
-1.0000000000E+20
 30
-1.0000000000E+20
  9
$PLIMMIN
 10
0.0
 20
0.0
  9
$PLIMMAX
 10
420.0
 20
297.0
  9
$UNITMODE
 70
     0
  9
$VISRETAIN
 70
     1
  9
$PLINEGEN
 70
     0
  9
$PSLTSCALE
 70
     1
  9
$TREEDEPTH
 70
  3020
  9
$PICKSTYLE
 70
     1
  9
$CMLSTYLE
  2
STANDARD
  9
$CMLJUST
 70
     0
  9
$CMLSCALE
 40
20.0
  9
$PROXYGRAPHICS
 70
     1
  9
$MEASUREMENT
 70
     1
  0
ENDSEC
  0
SECTION
  2
CLASSES
  0
CLASS
  1
ACDBDICTIONARYWDFLT
  2
AcDbDictionaryWithDefault
  3
ObjectDBX Classes
 90
        0
280
     0
281
     0
  0
CLASS
  1
VISUALSTYLE
  2
AcDbVisualStyle
  3
ObjectDBX Classes
 90
     4095
280
     0
281
     0
  0
CLASS
  1
MATERIAL
  2
AcDbMaterial
  3
ObjectDBX Classes
 90
     1153
280
     0
281
     0
  0
CLASS
  1
SCALE
  2
AcDbScale
  3
ObjectDBX Classes
 90
     1153
280
     0
281
     0
  0
CLASS
  1
SUN
  2
AcDbSun
  3
SCENEOE
 90
     1153
280
     0
281
     0
  0
CLASS
  1
XRECORD
  2
AcDbXrecord
  3
ObjectDBX Classes
 90
        0
280
     0
281
     0
  0
CLASS
  1
LWPOLYLINE
  2
AcDbPolyline
  3
ObjectDBX Classes
 90
        0
280
     0
281
     1
  0
CLASS
  1
HATCH
  2
AcDbHatch
  3
ObjectDBX Classes
 90
        0
280
     0
281
     1
  0
ENDSEC
  0
SECTION
  2
TABLES
  0
TABLE
  2
VPORT
  5
8
330
0
100
AcDbSymbolTable
 70
     1
  0
VPORT
  5
29
330
8
100
AcDbSymbolTableRecord
100
AcDbViewportTableRecord
  2
*ACTIVE
 70
     0
 10
0.0
 20
0.0
 11
1.0
 21
1.0
 12
105.0
 22
148.5
 13
0.0
 23
0.0
 14
10.0
 24
10.0
 15
10.0
 25
10.0
 16
0.0
 26
0.0
 36
1.0
 17
0.0
 27
0.0
 37
0.0
 40
297.0
 41
0.7070707071
 42
50.0
 43
0.0
 44
0.0
 50
0.0
 51
0.0
 71
     0
 72
  2000
 73
     1
 74
     3
 75
     0
 76
     0
 77
     0
 78
     0
  0
ENDTAB
  0
TABLE
  2
LTYPE
  5
5
330
0
100
AcDbSymbolTable
 70
     6
  0
LTYPE
  5
14
330
5
100
AcDbSymbolTableRecord
100
AcDbLinetypeTableRecord
  2
BYBLOCK
 70
     0
  3

 72
    65
 73
     0
 40
0.0
  0
LTYPE
  5
15
330
5
100
AcDbSymbolTableRecord
100
AcDbLinetypeTableRecord
  2
BYLAYER
 70
     0
  3

 72
    65
 73
     0
 40
0.0
  0
LTYPE
  5
16
330
5
100
AcDbSymbolTableRecord
100
AcDbLinetypeTableRecord
  2
CONTINUOUS
 70
     0
  3
Solid line
 72
    65
 73
     0
 40
0.0
  0
LTYPE
  5
6A
330
5
100
AcDbSymbolTableRecord
100
AcDbLinetypeTableRecord
  2
HIDDEN
 70
     0
  3
Hidden __ __ __ __ __ __ __ __ __ __ __ __ __ __
 72
    65
 73
     2
 40
1.905
 49
1.27
 74
     0
 49
-0.635
 74
     0
  0
LTYPE
  5
6B
330
5
100
AcDbSymbolTableRecord
100
AcDbLinetypeTableRecord
  2
PHANTOM
 70
     0
  3
Phantom ______  __  __  ______  __  __  ______
 72
    65
 73
     6
 40
12.7
 49
6.35
 74
     0
 49
-1.27
 74
     0
 49
1.27
 74
     0
 49
-1.27
 74
     0
 49
1.27
 74
     0
 49
-1.27
 74
     0
  0
LTYPE
  5
6C
330
5
100
AcDbSymbolTableRecord
100
AcDbLinetypeTableRecord
  2
CENTER
 70
     0
  3
Center ____ _ ____ _ ____ _ ____ _ ____ _ ____
 72
    65
 73
     4
 40
10.16
 49
6.35
 74
     0
 49
-1.27
 74
     0
 49
1.27
 74
     0
 49
-1.27
 74
     0
  0
LTYPE
  5
6D
330
5
100
AcDbSymbolTableRecord
100
AcDbLinetypeTableRecord
  2
CENTERX2
 70
     0
  3
Center (2x) ________  __  ________  __  _____
 72
    65
 73
     4
 40
20.32
 49
12.7
 74
     0
 49
-2.54
 74
     0
 49
2.54
 74
     0
 49
-2.54
 74
     0
  0
LTYPE
  5
6E
330
5
100
AcDbSymbolTableRecord
100
AcDbLinetypeTableRecord
  2
DOT2
 70
     0
  3
Dot (.5x) ........................................
 72
    65
 73
     2
 40
0.635
 49
0.0
 74
     0
 49
-0.635
 74
     0
  0
ENDTAB
  0
TABLE
  2
LAYER
  5
2
330
0
100
AcDbSymbolTable
 70
     7
  0
LAYER
  5
10
330
2
100
AcDbSymbolTableRecord
100
AcDbLayerTableRecord
  2
0
 70
     0
 62
     7
  6
CONTINUOUS
  0
LAYER
  5
6F
330
2
100
AcDbSymbolTableRecord
100
AcDbLayerTableRecord
  2
AUFNAHME
 70
     0
 62
     7
  6
CONTINUOUS
  0
LAYER
  5
70
330
2
100
AcDbSymbolTableRecord
100
AcDbLayerTableRecord
  2
MASS
 70
     0
 62
     4
  6
CONTINUOUS
  0
LAYER
  5
71
330
2
100
AcDbSymbolTableRecord
100
AcDbLayerTableRecord
  2
EW
 70
     0
 62
     1
  6
HIDDEN
  0
LAYER
  5
72
330
2
100
AcDbSymbolTableRecord
100
AcDbLayerTableRecord
  2
UNSICHT
 70
     0
 62
     4
  6
CENTER
  0
LAYER
  5
73
330
2
100
AcDbSymbolTableRecord
100
AcDbLayerTableRecord
  2
TEXT
 70
     0
 62
     7
  6
CONTINUOUS
  0
LAYER
  5
74
330
2
100
AcDbSymbolTableRecord
100
AcDbLayerTableRecord
  2
ZAPFEN
 70
     0
 62
     4
  6
CONTINUOUS
  0
ENDTAB
  0
TABLE
  2
STYLE
  5
3
330
0
100
AcDbSymbolTable
 70
     2
  0
STYLE
  5
11
330
3
100
AcDbSymbolTableRecord
100
AcDbTextStyleTableRecord
  2
STANDARD
 70
     0
 40
0.0
 41
1.0
 50
0.0
 71
     0
 42
3.5
  3
txt
  4

  0
STYLE
  5
D4
330
3
100
AcDbSymbolTableRecord
100
AcDbTextStyleTableRecord
  2
SLDTEXTSTYLE0
 70
     0
 40
0.0
 41
0.605
 50
0.0
 71
     0
 42
3.5
  3
TXT
  4

  0
ENDTAB
  0
TABLE
  2
VIEW
  5
6
330
0
100
AcDbSymbolTable
 70
     0
  0
ENDTAB
  0
TABLE
  2
UCS
  5
7
330
0
100
AcDbSymbolTable
 70
     0
  0
ENDTAB
  0
TABLE
  2
APPID
  5
9
330
0
100
AcDbSymbolTable
 70
     1
  0
APPID
  5
12
330
9
100
AcDbSymbolTableRecord
100
AcDbRegAppTableRecord
  2
ACAD
 70
     0
  0
ENDTAB
  0
TABLE
  2
DIMSTYLE
  5
A
330
0
100
AcDbSymbolTable
 70
     3
  0
DIMSTYLE
105
27
330
A
100
AcDbSymbolTableRecord
100
AcDbDimStyleTableRecord
  2
ISO-25
 70
     0
  3

  4

  5

  6

  7

 40
1.0
 41
2.5
 42
0.625
 43
3.75
 44
1.25
 45
0.0
 46
0.0
 47
0.0
 48
0.0
140
2.5
141
2.5
142
0.0
143
0.0393700787
144
1.0
145
0.0
146
1.0
147
0.625
 71
     0
 72
     0
 73
     0
 74
     0
 75
     0
 76
     0
 77
     1
 78
     8
170
     0
171
     3
172
     1
173
     0
174
     0
175
     0
176
     0
177
     0
178
     0
270
     2
271
     2
272
     2
273
     2
274
     3
340
11
275
     0
280
     0
281
     0
282
     0
283
     0
284
     8
285
     0
286
     0
287
     3
288
     0
  0
DIMSTYLE
105
D5
102
{ACAD_REACTORS
330
D3
330
EC
330
F6
102
}
330
A
100
AcDbSymbolTableRecord
100
AcDbDimStyleTableRecord
  2
SLDDIMSTYLE0
 70
     0
  3

  4

  5

  6

  7

 40
1.0
 41
3.5
 42
0.0625
 43
0.38
 44
0.0
 45
0.000000001
 46
0.0
 47
0.0
 48
0.0
140
3.5
141
0.09
142
0.0
143
25.4
144
1.0
145
0.0
146
1.0
147
0.875
 71
     0
 72
     0
 73
     0
 74
     0
 75
     0
 76
     0
 77
     1
 78
    12
170
     0
171
     2
172
     0
173
     1
174
     0
175
     0
176
     0
177
     0
178
     0
270
     2
271
     2
272
     3
273
     2
274
     2
340
D4
275
     0
280
     0
281
     0
282
     0
283
     1
284
    12
285
     0
286
     0
287
     3
288
     0
  0
DIMSTYLE
105
E0
102
{ACAD_REACTORS
330
DF
102
}
330
A
100
AcDbSymbolTableRecord
100
AcDbDimStyleTableRecord
  2
SLDDIMSTYLE1
 70
     0
  3

  4

  5

  6

  7

 40
1.0
 41
3.5
 42
0.0625
 43
0.38
 44
0.0
 45
0.000000001
 46
0.0
 47
0.0
 48
0.0
140
3.5
141
0.09
142
0.0
143
25.4
144
1.0
145
0.0
146
1.0
147
0.875
 71
     0
 72
     0
 73
     0
 74
     0
 75
     0
 76
     0
 77
     1
 78
    12
170
     0
171
     2
172
     1
173
     1
174
     0
175
     0
176
     0
177
     0
178
     0
270
     2
271
     2
272
     3
273
     2
274
     2
340
D4
275
     0
280
     0
281
     0
282
     0
283
     1
284
    12
285
     0
286
     0
288
     0
  0
ENDTAB
  0
TABLE
  2
BLOCK_RECORD
  5
1
330
0
100
AcDbSymbolTable
 70
     5
  0
BLOCK_RECORD
  5
1F
330
1
100
AcDbSymbolTableRecord
100
AcDbBlockTableRecord
  2
*MODEL_SPACE
  0
BLOCK_RECORD
  5
1B
330
1
100
AcDbSymbolTableRecord
100
AcDbBlockTableRecord
  2
*PAPER_SPACE
  0
BLOCK_RECORD
  5
23
330
1
100
AcDbSymbolTableRecord
100
AcDbBlockTableRecord
  2
*PAPER_SPACE0
  0
BLOCK_RECORD
  5
D6
330
1
100
AcDbSymbolTableRecord
100
AcDbBlockTableRecord
  2
_D
  0
BLOCK_RECORD
  5
E1
330
1
100
AcDbSymbolTableRecord
100
AcDbBlockTableRecord
  2
_D_1
  0
BLOCK_RECORD
  5
ED
330
1
100
AcDbSymbolTableRecord
100
AcDbBlockTableRecord
  2
_D_2
  0
BLOCK_RECORD
  5
F7
330
1
100
AcDbSymbolTableRecord
100
AcDbBlockTableRecord
  2
_D_3
  0
ENDTAB
  0
ENDSEC
  0
SECTION
  2
BLOCKS
  0
BLOCK
  5
20
330
1F
100
AcDbEntity
  8
0
100
AcDbBlockBegin
  2
*MODEL_SPACE
 70
     0
 10
0.0
 20
0.0
 30
0.0
  3
*MODEL_SPACE
  1

  0
ENDBLK
  5
21
330
1F
100
AcDbEntity
  8
0
100
AcDbBlockEnd
  0
BLOCK
  5
1C
330
1B
100
AcDbEntity
 67
     1
  8
0
100
AcDbBlockBegin
  2
*PAPER_SPACE
 70
     0
 10
0.0
 20
0.0
 30
0.0
  3
*PAPER_SPACE
  1

  0
ENDBLK
  5
1D
330
1B
100
AcDbEntity
 67
     1
  8
0
100
AcDbBlockEnd
  0
BLOCK
  5
24
330
23
100
AcDbEntity
  8
0
100
AcDbBlockBegin
  2
*PAPER_SPACE0
 70
     0
 10
0.0
 20
0.0
 30
0.0
  3
*PAPER_SPACE0
  1
*PAPER_SPACE0
  0
ENDBLK
  5
25
330
23
100
AcDbEntity
  8
0
100
AcDbBlockEnd
  0
BLOCK
  5
D7
330
D6
100
AcDbEntity
  8
0
100
AcDbBlockBegin
  2
_D
 70
     0
 10
0.0
 20
0.0
 30
0.0
  3
_D
  1
_D
  0
SOLID
  5
D9
330
D6
100
AcDbEntity
  8
MASS
100
AcDbTrace
 10
16.5873956824
 20
23.5
 30
0.0
 11
16.1373956824
 21
20.0
 31
0.0
 12
17.0373956824
 22
20.0
 32
0.0
 13
17.0373956824
 23
20.0
 33
0.0
  0
SOLID
  5
DA
330
D6
100
AcDbEntity
  8
MASS
100
AcDbTrace
 10
16.5873956824
 20
-25.5
 30
0.0
 11
17.0373956824
 21
-22.0
 31
0.0
 12
16.1373956824
 22
-22.0
 32
0.0
 13
16.1373956824
 23
-22.0
 33
0.0
  0
LINE
  5
DB
330
D6
100
AcDbEntity
  8
MASS
100
AcDbLine
 10
8.002781845
 20
23.5
 30
0.0
 11
17.5873956824
 21
23.5
 31
0.0
  0
LINE
  5
DC
330
D6
100
AcDbEntity
  8
MASS
100
AcDbLine
 10
8.002781845
 20
-25.5
 30
0.0
 11
17.5873956824
 21
-25.5
 31
0.0
  0
LINE
  5
DD
330
D6
100
AcDbEntity
  8
MASS
100
AcDbLine
 10
16.5873956824
 20
23.5
 30
0.0
 11
16.5873956824
 21
-25.5
 31
0.0
  0
MTEXT
  5
DE
330
D6
100
AcDbEntity
  8
MASS
100
AcDbMText
 10
12.075658826
 20
-3.1923610475
 30
0.0
 40
3.5
 41
0.0
 71
     1
 72
     1
  1
49
  7
SLDTEXTSTYLE0
 11
-7.044195017643634E-15
 21
1.0
 31
0.0
  0
ENDBLK
  5
D8
330
D6
100
AcDbEntity
  8
0
100
AcDbBlockEnd
  0
BLOCK
  5
E2
330
E1
100
AcDbEntity
  8
0
100
AcDbBlockBegin
  2
_D_1
 70
     0
 10
0.0
 20
0.0
 30
0.0
  3
_D_1
  1
_D_1
  0
SOLID
  5
E4
330
E1
100
AcDbEntity
  8
MASS
100
AcDbTrace
 10
8.502781845
 20
32.1358590881
 30
0.0
 11
12.002781845
 21
31.6858590881
 31
0.0
 12
12.002781845
 22
32.5858590881
 32
0.0
 13
12.002781845
 23
32.5858590881
 33
0.0
  0
SOLID
  5
E5
330
E1
100
AcDbEntity
  8
MASS
100
AcDbTrace
 10
0.002781845
 20
32.1358590881
 30
0.0
 11
-3.497218155
 21
32.5858590881
 31
0.0
 12
-3.497218155
 22
31.6858590881
 32
0.0
 13
-3.497218155
 23
31.6858590881
 33
0.0
  0
LINE
  5
E6
330
E1
100
AcDbEntity
  8
MASS
100
AcDbLine
 10
8.502781845
 20
21.9954541698
 30
0.0
 11
8.502781845
 21
33.1358590881
 31
0.0
  0
LINE
  5
E7
330
E1
100
AcDbEntity
  8
MASS
100
AcDbLine
 10
0.002781845
 20
22.3747197296
 30
0.0
 11
0.002781845
 21
33.1358590881
 31
0.0
  0
LINE
  5
E8
330
E1
100
AcDbEntity
  8
MASS
100
AcDbLine
 10
8.502781845
 20
32.1358590881
 30
0.0
 11
13.502781845
 21
32.1358590881
 31
0.0
  0
LINE
  5
E9
330
E1
100
AcDbEntity
  8
MASS
100
AcDbLine
 10
8.502781845
 20
32.1358590881
 30
0.0
 11
0.002781845
 21
32.1358590881
 31
0.0
  0
LINE
  5
EA
330
E1
100
AcDbEntity
  8
MASS
100
AcDbLine
 10
0.002781845
 20
32.1358590881
 30
0.0
 11
-4.997218155
 21
32.1358590881
 31
0.0
  0
MTEXT
  5
EB
330
E1
100
AcDbEntity
  8
MASS
100
AcDbMText
 10
1.5111153343
 20
36.6475959445
 30
0.0
 40
3.5
 41
0.0
 71
     1
 72
     1
  1
8.5
  7
SLDTEXTSTYLE0
  0
ENDBLK
  5
E3
330
E1
100
AcDbEntity
  8
0
100
AcDbBlockEnd
  0
BLOCK
  5
EE
330
ED
100
AcDbEntity
  8
0
100
AcDbBlockBegin
  2
_D_2
 70
     0
 10
0.0
 20
0.0
 30
0.0
  3
_D_2
  1
_D_2
  0
SOLID
  5
F0
330
ED
100
AcDbEntity
  8
MASS
100
AcDbTrace
 10
-63.497218155
 20
32.1358590881
 30
0.0
 11
-59.997218155
 21
31.6858590881
 31
0.0
 12
-59.997218155
 22
32.5858590881
 32
0.0
 13
-59.997218155
 23
32.5858590881
 33
0.0
  0
SOLID
  5
F1
330
ED
100
AcDbEntity
  8
MASS
100
AcDbTrace
 10
0.002781845
 20
32.1358590881
 30
0.0
 11
-3.497218155
 21
32.5858590881
 31
0.0
 12
-3.497218155
 22
31.6858590881
 32
0.0
 13
-3.497218155
 23
31.6858590881
 33
0.0
  0
LINE
  5
F2
330
ED
100
AcDbEntity
  8
MASS
100
AcDbLine
 10
-63.497218155
 20
7.0
 30
0.0
 11
-63.497218155
 21
33.1358590881
 31
0.0
  0
LINE
  5
F3
330
ED
100
AcDbEntity
  8
MASS
100
AcDbLine
 10
0.002781845
 20
22.3747197296
 30
0.0
 11
0.002781845
 21
33.1358590881
 31
0.0
  0
LINE
  5
F4
330
ED
100
AcDbEntity
  8
MASS
100
AcDbLine
 10
-63.497218155
 20
32.1358590881
 30
0.0
 11
0.002781845
 21
32.1358590881
 31
0.0
  0
MTEXT
  5
F5
330
ED
100
AcDbEntity
  8
MASS
100
AcDbMText
 10
-35.5850653058
 20
36.6475959445
 30
0.0
 40
3.5
 41
0.0
 71
     1
 72
     1
  1
63.5
  7
SLDTEXTSTYLE0
  0
ENDBLK
  5
EF
330
ED
100
AcDbEntity
  8
0
100
AcDbBlockEnd
  0
BLOCK
  5
F8
330
F7
100
AcDbEntity
  8
0
100
AcDbBlockBegin
  2
_D_3
 70
     0
 10
0.0
 20
0.0
 30
0.0
  3
_D_3
  1
_D_3
  0
SOLID
  5
FA
330
F7
100
AcDbEntity
  8
MASS
100
AcDbTrace
 10
-71.8392236284
 20
8.0
 30
0.0
 11
-72.2892236284
 21
4.5
 31
0.0
 12
-71.3892236284
 22
4.5
 32
0.0
 13
-71.3892236284
 23
4.5
 33
0.0
  0
SOLID
  5
FB
330
F7
100
AcDbEntity
  8
MASS
100
AcDbTrace
 10
-71.8392236284
 20
-8.0
 30
0.0
 11
-71.3892236284
 21
-4.5
 31
0.0
 12
-72.2892236284
 22
-4.5
 32
0.0
 13
-72.2892236284
 23
-4.5
 33
0.0
  0
LINE
  5
FC
330
F7
100
AcDbEntity
  8
MASS
100
AcDbLine
 10
-62.497218155
 20
8.0
 30
0.0
 11
-72.8392236284
 21
8.0
 31
0.0
  0
LINE
  5
FD
330
F7
100
AcDbEntity
  8
MASS
100
AcDbLine
 10
-62.497218155
 20
-8.0
 30
0.0
 11
-72.8392236284
 21
-8.0
 31
0.0
  0
LINE
  5
FE
330
F7
100
AcDbEntity
  8
MASS
100
AcDbLine
 10
-71.8392236284
 20
8.0
 30
0.0
 11
-71.8392236284
 21
-8.0
 31
0.0
  0
MTEXT
  5
FF
330
F7
100
AcDbEntity
  8
MASS
100
AcDbMText
 10
-76.3509609504
 20
-4.778472241
 30
0.0
 40
3.5
 41
0.0
 71
     1
 72
     1
  1
%%c
  7
SLDTEXTSTYLE0
 11
-7.044195017643634E-15
 21
1.0
 31
0.0
  0
MTEXT
  5
100
330
F7
100
AcDbEntity
  8
MASS
100
AcDbMText
 10
-76.3509609504
 20
0.393750146
 30
0.0
 40
3.5
 41
0.0
 71
     1
 72
     1
  1
16
  7
SLDTEXTSTYLE0
 11
-7.044195017643634E-15
 21
1.0
 31
0.0
  0
ENDBLK
  5
F9
330
F7
100
AcDbEntity
  8
0
100
AcDbBlockEnd
  0
ENDSEC
  0
SECTION
  2
ENTITIES
  0
LINE
  5
75
330
1F
100
AcDbEntity
  8
AUFNAHME
  6
CONTINUOUS
100
AcDbLine
 10
-4.997218155
 20
-8.3
 30
0.0
 11
-0.197218155
 21
-8.3
 31
0.0
  0
LINE
  5
76
330
1F
100
AcDbEntity
  8
AUFNAHME
  6
CONTINUOUS
100
AcDbLine
 10
8.502781845
 20
23.0
 30
0.0
 11
8.002781845
 21
23.5
 31
0.0
  0
LINE
  5
77
330
1F
100
AcDbEntity
  8
AUFNAHME
  6
CONTINUOUS
100
AcDbLine
 10
-0.197218155
 20
10.0
 30
0.0
 11
-4.997218155
 21
10.0
 31
0.0
  0
LINE
  5
78
330
1F
100
AcDbEntity
  8
AUFNAHME
  6
CONTINUOUS
100
AcDbLine
 10
8.002781845
 20
23.5
 30
0.0
 11
0.002781845
 21
23.5
 31
0.0
  0
LINE
  5
79
330
1F
100
AcDbEntity
  8
ZAPFEN
100
AcDbLine
 10
-62.497218155
 20
8.0
 30
0.0
 11
-63.497218155
 21
7.0
 31
0.0
  0
LINE
  5
7A
330
1F
100
AcDbEntity
  8
ZAPFEN
100
AcDbLine
 10
-63.497218155
 20
-7.0
 30
0.0
 11
-62.497218155
 21
-8.0
 31
0.0
  0
LINE
  5
7B
330
1F
100
AcDbEntity
  8
AUFNAHME
  6
CONTINUOUS
100
AcDbLine
 10
-7.097218155
 20
-8.0
 30
0.0
 11
-6.3508079935
 21
-7.8
 31
0.0
  0
LINE
  5
7C
330
1F
100
AcDbEntity
  8
AUFNAHME
  6
CONTINUOUS
100
AcDbLine
 10
-6.3508079935
 20
7.8
 30
0.0
 11
-7.097218155
 21
8.0
 31
0.0
  0
LINE
  5
7D
330
1F
100
AcDbEntity
  8
ZAPFEN
100
AcDbLine
 10
-62.497218155
 20
-8.0
 30
0.0
 11
-27.997218155
 21
-8.0
 31
0.0
  0
LINE
  5
7E
330
1F
100
AcDbEntity
  8
ZAPFEN
100
AcDbLine
 10
-27.997218155
 20
8.0
 30
0.0
 11
-62.497218155
 21
8.0
 31
0.0
  0
LINE
  5
7F
330
1F
100
AcDbEntity
  8
AUFNAHME
  6
CONTINUOUS
100
AcDbLine
 10
8.002781845
 20
-25.5
 30
0.0
 11
8.502781845
 21
-25.0
 31
0.0
  0
LINE
  5
80
330
1F
100
AcDbEntity
  8
AUFNAHME
  6
CONTINUOUS
100
AcDbLine
 10
0.002781845
 20
-25.5
 30
0.0
 11
8.002781845
 21
-25.5
 31
0.0
  0
LINE
  5
81
330
1F
100
AcDbEntity
  8
AUFNAHME
  6
CONTINUOUS
100
AcDbLine
 10
-6.3508079935
 20
-7.8
 30
0.0
 11
-5.397218155
 21
-7.8
 31
0.0
  0
LINE
  5
82
330
1F
100
AcDbEntity
  8
AUFNAHME
  6
CONTINUOUS
100
AcDbLine
 10
-5.397218155
 20
7.8
 30
0.0
 11
-6.3508079935
 21
7.8
 31
0.0
  0
LINE
  5
83
330
1F
100
AcDbEntity
  8
AUFNAHME
  6
CONTINUOUS
100
AcDbLine
 10
0.002781845
 20
-2.770753572
 30
0.0
 11
0.002781845
 21
-22.6046863561
 31
0.0
  0
LINE
  5
84
330
1F
100
AcDbEntity
  8
AUFNAHME
  6
CONTINUOUS
100
AcDbLine
 10
-0.197218155
 20
-2.065564437
 30
0.0
 11
-0.1772198969
 21
-2.0696632327
 31
0.0
  0
LINE
  5
85
330
1F
100
AcDbEntity
  8
AUFNAHME
  6
CONTINUOUS
100
AcDbLine
 10
-0.1772198969
 20
-2.0696632327
 30
0.0
 11
-0.1558502542
 21
-2.083194919
 31
0.0
  0
LINE
  5
86
330
1F
100
AcDbEntity
  8
AUFNAHME
  6
CONTINUOUS
100
AcDbLine
 10
-0.1558502542
 20
-2.083194919
 30
0.0
 11
-0.1256224303
 21
-2.1191465367
 31
0.0
  0
LINE
  5
87
330
1F
100
AcDbEntity
  8
AUFNAHME
  6
CONTINUOUS
100
AcDbLine
 10
-0.1256224303
 20
-2.1191465367
 30
0.0
 11
-0.0904074042
 21
-2.1885669719
 31
0.0
  0
LINE
  5
88
330
1F
100
AcDbEntity
  8
AUFNAHME
  6
CONTINUOUS
100
AcDbLine
 10
-0.0904074042
 20
-2.1885669719
 30
0.0
 11
-0.0641731757
 21
-2.263853098
 31
0.0
  0
LINE
  5
89
330
1F
100
AcDbEntity
  8
AUFNAHME
  6
CONTINUOUS
100
AcDbLine
 10
-0.0641731757
 20
-2.263853098
 30
0.0
 11
-0.0137667834
 21
-2.5122356643
 31
0.0
  0
LINE
  5
8A
330
1F
100
AcDbEntity
  8
AUFNAHME
  6
CONTINUOUS
100
AcDbLine
 10
-0.0137667834
 20
-2.5122356643
 30
0.0
 11
0.002781845
 21
-2.770753572
 31
0.0
  0
LINE
  5
8B
330
1F
100
AcDbEntity
  8
AUFNAHME
  6
CONTINUOUS
100
AcDbLine
 10
-0.197218155
 20
-2.065564437
 30
0.0
 11
-4.997218155
 21
-2.065564437
 31
0.0
  0
LINE
  5
8C
330
1F
100
AcDbEntity
  8
AUFNAHME
  6
CONTINUOUS
100
AcDbLine
 10
-4.997218155
 20
1.8
 30
0.0
 11
-4.997218155
 21
-1.8
 31
0.0
  0
LINE
  5
8D
330
1F
100
AcDbEntity
  8
AUFNAHME
  6
CONTINUOUS
100
AcDbLine
 10
-4.997218155
 20
3.7655644371
 30
0.0
 11
-4.997218155
 21
1.8
 31
0.0
  0
LINE
  5
8E
330
1F
100
AcDbEntity
  8
AUFNAHME
  6
CONTINUOUS
100
AcDbLine
 10
-0.197218155
 20
3.7655644371
 30
0.0
 11
-4.997218155
 21
3.7655644371
 31
0.0
  0
LINE
  5
8F
330
1F
100
AcDbEntity
  8
AUFNAHME
  6
CONTINUOUS
100
AcDbLine
 10
0.002781845
 20
4.4707535721
 30
0.0
 11
-0.0071554992
 21
4.2707535721
 31
0.0
  0
LINE
  5
90
330
1F
100
AcDbEntity
  8
AUFNAHME
  6
CONTINUOUS
100
AcDbLine
 10
-0.0071554992
 20
4.2707535721
 30
0.0
 11
-0.0373534979
 21
4.0707535721
 31
0.0
  0
LINE
  5
91
330
1F
100
AcDbEntity
  8
AUFNAHME
  6
CONTINUOUS
100
AcDbLine
 10
-0.0373534979
 20
4.0707535721
 30
0.0
 11
-0.0647432173
 21
3.9619553749
 31
0.0
  0
LINE
  5
92
330
1F
100
AcDbEntity
  8
AUFNAHME
  6
CONTINUOUS
100
AcDbLine
 10
-0.0647432173
 20
3.9619553749
 30
0.0
 11
-0.0906172027
 21
3.8880544575
 31
0.0
  0
LINE
  5
93
330
1F
100
AcDbEntity
  8
AUFNAHME
  6
CONTINUOUS
100
AcDbLine
 10
-0.0906172027
 20
3.8880544575
 30
0.0
 11
-0.1245505429
 21
3.8208011759
 31
0.0
  0
LINE
  5
94
330
1F
100
AcDbEntity
  8
AUFNAHME
  6
CONTINUOUS
100
AcDbLine
 10
-0.1245505429
 20
3.8208011759
 30
0.0
 11
-0.1487829884
 21
3.7897962152
 31
0.0
  0
LINE
  5
95
330
1F
100
AcDbEntity
  8
AUFNAHME
  6
CONTINUOUS
100
AcDbLine
 10
-0.1487829884
 20
3.7897962152
 30
0.0
 11
-0.1705666307
 21
3.772853048
 31
0.0
  0
LINE
  5
96
330
1F
100
AcDbEntity
  8
AUFNAHME
  6
CONTINUOUS
100
AcDbLine
 10
-0.1705666307
 20
3.772853048
 30
0.0
 11
-0.1881287742
 21
3.7664101143
 31
0.0
  0
LINE
  5
97
330
1F
100
AcDbEntity
  8
AUFNAHME
  6
CONTINUOUS
100
AcDbLine
 10
-0.1881287742
 20
3.7664101143
 30
0.0
 11
-0.197218155
 21
3.7655644371
 31
0.0
  0
LINE
  5
98
330
1F
100
AcDbEntity
  8
AUFNAHME
  6
CONTINUOUS
100
AcDbLine
 10
0.002781845
 20
22.3747197296
 30
0.0
 11
0.002781845
 21
4.4707535721
 31
0.0
  0
LINE
  5
99
330
1F
100
AcDbEntity
  8
AUFNAHME
  6
CONTINUOUS
100
AcDbLine
 10
8.002781845
 20
22.3747197296
 30
0.0
 11
0.002781845
 21
22.3747197296
 31
0.0
  0
LINE
  5
9A
330
1F
100
AcDbEntity
  8
AUFNAHME
  6
CONTINUOUS
100
AcDbLine
 10
8.002781845
 20
-22.6046863561
 30
0.0
 11
8.002781845
 21
22.3747197296
 31
0.0
  0
LINE
  5
9B
330
1F
100
AcDbEntity
  8
AUFNAHME
  6
CONTINUOUS
100
AcDbLine
 10
8.002781845
 20
-22.6046863561
 30
0.0
 11
0.002781845
 21
-22.6046863561
 31
0.0
  0
LINE
  5
9C
330
1F
100
AcDbEntity
  8
AUFNAHME
  6
CONTINUOUS
100
AcDbLine
 10
-4.997218155
 20
-1.8
 30
0.0
 11
-4.997218155
 21
-2.065564437
 31
0.0
  0
LINE
  5
9D
330
1F
100
AcDbEntity
  8
AUFNAHME
  6
CONTINUOUS
100
AcDbLine
 10
-4.997218155
 20
-2.065564437
 30
0.0
 11
-4.997218155
 21
-8.3
 31
0.0
  0
LINE
  5
9E
330
1F
100
AcDbEntity
  8
AUFNAHME
  6
CONTINUOUS
100
AcDbLine
 10
8.502781845
 20
23.0
 30
0.0
 11
8.502781845
 21
21.9954541698
 31
0.0
  0
LINE
  5
9F
330
1F
100
AcDbEntity
  8
AUFNAHME
  6
CONTINUOUS
100
AcDbLine
 10
8.002781845
 20
22.3747197296
 30
0.0
 11
8.502781845
 21
21.9954541698
 31
0.0
  0
LINE
  5
A0
330
1F
100
AcDbEntity
  8
AUFNAHME
  6
CONTINUOUS
100
AcDbLine
 10
8.002781845
 20
22.3747197296
 30
0.0
 11
8.002781845
 21
23.5
 31
0.0
  0
LINE
  5
A1
330
1F
100
AcDbEntity
  8
AUFNAHME
  6
CONTINUOUS
100
AcDbLine
 10
8.502781845
 20
21.9954541698
 30
0.0
 11
8.502781845
 21
-22.3674969976
 31
0.0
  0
LINE
  5
A2
330
1F
100
AcDbEntity
  8
AUFNAHME
  6
CONTINUOUS
100
AcDbLine
 10
8.002781845
 20
-22.6046863561
 30
0.0
 11
8.502781845
 21
-22.3674969976
 31
0.0
  0
LINE
  5
A3
330
1F
100
AcDbEntity
  8
AUFNAHME
  6
CONTINUOUS
100
AcDbLine
 10
-4.997218155
 20
10.0
 30
0.0
 11
-4.997218155
 21
3.7655644371
 31
0.0
  0
LINE
  5
A4
330
1F
100
AcDbEntity
  8
AUFNAHME
  6
CONTINUOUS
100
AcDbLine
 10
0.002781845
 20
23.5
 30
0.0
 11
0.002781845
 21
22.3747197296
 31
0.0
  0
LINE
  5
A5
330
1F
100
AcDbEntity
  8
ZAPFEN
100
AcDbLine
 10
-63.497218155
 20
0.0
 30
0.0
 11
-63.497218155
 21
7.0
 31
0.0
  0
LINE
  5
A6
330
1F
100
AcDbEntity
  8
ZAPFEN
100
AcDbLine
 10
-63.497218155
 20
-7.0
 30
0.0
 11
-63.497218155
 21
0.0
 31
0.0
  0
LINE
  5
A7
330
1F
100
AcDbEntity
  8
ZAPFEN
100
AcDbLine
 10
-62.497218155
 20
0.0
 30
0.0
 11
-62.497218155
 21
-8.0
 31
0.0
  0
LINE
  5
A8
330
1F
100
AcDbEntity
  8
ZAPFEN
100
AcDbLine
 10
-62.497218155
 20
8.0
 30
0.0
 11
-62.497218155
 21
0.0
 31
0.0
  0
LINE
  5
A9
330
1F
100
AcDbEntity
  8
AUFNAHME
  6
CONTINUOUS
100
AcDbLine
 10
-6.3508079935
 20
0.0
 30
0.0
 11
-6.3508079935
 21
7.8
 31
0.0
  0
LINE
  5
AA
330
1F
100
AcDbEntity
  8
AUFNAHME
  6
CONTINUOUS
100
AcDbLine
 10
-6.3508079935
 20
-7.8
 30
0.0
 11
-6.3508079935
 21
0.0
 31
0.0
  0
LINE
  5
AB
330
1F
100
AcDbEntity
  8
AUFNAHME
  6
CONTINUOUS
100
AcDbLine
 10
-7.097218155
 20
0.0
 30
0.0
 11
-7.097218155
 21
-8.0
 31
0.0
  0
LINE
  5
AC
330
1F
100
AcDbEntity
  8
AUFNAHME
  6
CONTINUOUS
100
AcDbLine
 10
-7.097218155
 20
8.0
 30
0.0
 11
-7.097218155
 21
0.0
 31
0.0
  0
LINE
  5
AD
330
1F
100
AcDbEntity
  8
AUFNAHME
  6
CONTINUOUS
100
AcDbLine
 10
8.502781845
 20
-22.3674969976
 30
0.0
 11
8.502781845
 21
-25.0
 31
0.0
  0
LINE
  5
AE
330
1F
100
AcDbEntity
  8
AUFNAHME
  6
CONTINUOUS
100
AcDbLine
 10
8.002781845
 20
-25.5
 30
0.0
 11
8.002781845
 21
-22.6046863561
 31
0.0
  0
LINE
  5
AF
330
1F
100
AcDbEntity
  8
AUFNAHME
  6
CONTINUOUS
100
AcDbLine
 10
0.002781845
 20
-22.6046863561
 30
0.0
 11
0.002781845
 21
-25.5
 31
0.0
  0
LINE
  5
B0
330
1F
100
AcDbEntity
  8
AUFNAHME
  6
CONTINUOUS
100
AcDbLine
 10
-5.397218155
 20
-7.8
 30
0.0
 11
-5.397218155
 21
-1.7121951219
 31
0.0
  0
LINE
  5
B1
330
1F
100
AcDbEntity
  8
AUFNAHME
  6
CONTINUOUS
100
AcDbLine
 10
-0.197218155
 20
-8.3
 30
0.0
 11
-0.197218155
 21
-2.065564437
 31
0.0
  0
LINE
  5
B2
330
1F
100
AcDbEntity
  8
AUFNAHME
  6
CONTINUOUS
100
AcDbLine
 10
-0.197218155
 20
3.7655644371
 30
0.0
 11
-0.197218155
 21
10.0
 31
0.0
  0
LINE
  5
B3
330
1F
100
AcDbEntity
  8
AUFNAHME
  6
CONTINUOUS
100
AcDbLine
 10
-5.397218155
 20
1.7121951219
 30
0.0
 11
-5.397218155
 21
7.8
 31
0.0
  0
LINE
  5
B4
330
1F
100
AcDbEntity
  8
AUFNAHME
  6
CONTINUOUS
100
AcDbLine
 10
0.002781845
 20
-2.770753572
 30
0.0
 11
-0.0016683211
 21
-2.6811890769
 31
0.0
  0
LINE
  5
B5
330
1F
100
AcDbEntity
  8
AUFNAHME
  6
CONTINUOUS
100
AcDbLine
 10
0.002781845
 20
4.4707535721
 30
0.0
 11
-0.0016683211
 21
-2.6811890769
 31
0.0
  0
LINE
  5
B6
330
1F
100
AcDbEntity
  8
AUFNAHME
  6
CONTINUOUS
100
AcDbLine
 10
-0.0016683211
 20
-2.6811890769
 30
0.0
 11
-0.0037693631
 21
-2.6604419844
 31
0.0
  0
LINE
  5
B7
330
1F
100
AcDbEntity
  8
UNSICHT
  6
CENTER
100
AcDbLine
 10
-65.413658974
 20
0.0
 30
0.0
 11
9.857313225
 21
0.0
 31
0.0
  0
LINE
  5
B8
330
1F
100
AcDbEntity
  8
AUFNAHME
  6
CONTINUOUS
100
AcDbLine
 10
-27.997218155
 20
8.0
 30
0.0
 11
-7.097218155
 21
8.0
 31
0.0
  0
LINE
  5
B9
330
1F
100
AcDbEntity
  8
AUFNAHME
  6
CONTINUOUS
100
AcDbLine
 10
-7.097218155
 20
-8.0
 30
0.0
 11
-27.997218155
 21
-8.0
 31
0.0
  0
LINE
  5
BA
330
1F
100
AcDbEntity
  8
ZAPFEN
100
AcDbLine
 10
-62.6311927512
 20
0.0
 30
0.0
 11
-62.6311927512
 21
3.0
 31
0.0
  0
LINE
  5
BB
330
1F
100
AcDbEntity
  8
ZAPFEN
100
AcDbLine
 10
-62.6311927512
 20
-3.0
 30
0.0
 11
-62.6311927512
 21
0.0
 31
0.0
  0
LINE
  5
BC
330
1F
100
AcDbEntity
  8
ZAPFEN
100
AcDbLine
 10
-8.497218155
 20
1.2564320534
 30
0.0
 11
-8.497218155
 21
3.0
 31
0.0
  0
LINE
  5
BD
330
1F
100
AcDbEntity
  8
ZAPFEN
100
AcDbLine
 10
-8.497218155
 20
-3.0
 30
0.0
 11
-8.497218155
 21
-1.2564320533
 31
0.0
  0
LINE
  5
BE
330
1F
100
AcDbEntity
  8
EW
  6
HIDDEN
100
AcDbLine
 10
8.502781845
 20
1.5
 30
0.0
 11
-8.2945515291
 21
1.5
 31
0.0
  0
LINE
  5
BF
330
1F
100
AcDbEntity
  8
EW
  6
HIDDEN
100
AcDbLine
 10
-8.2941147095
 20
-1.5
 30
0.0
 11
8.502781845
 21
-1.5
 31
0.0
  0
LINE
  5
C0
330
1F
100
AcDbEntity
  8
ZAPFEN
100
AcDbLine
 10
-63.497218155
 20
-3.5
 30
0.0
 11
-62.6311927512
 21
-3.0
 31
0.0
  0
LINE
  5
C1
330
1F
100
AcDbEntity
  8
ZAPFEN
100
AcDbLine
 10
-62.6311927512
 20
3.0
 30
0.0
 11
-63.497218155
 21
3.5
 31
0.0
  0
LINE
  5
C2
330
1F
100
AcDbEntity
  8
ZAPFEN
100
AcDbLine
 10
-62.6311927512
 20
-3.0
 30
0.0
 11
-8.497218155
 21
-3.0
 31
0.0
  0
LINE
  5
C3
330
1F
100
AcDbEntity
  8
ZAPFEN
100
AcDbLine
 10
-8.497218155
 20
3.0
 30
0.0
 11
-62.6311927512
 21
3.0
 31
0.0
  0
LINE
  5
C4
330
1F
100
AcDbEntity
  8
AUFNAHME
  6
CONTINUOUS
100
AcDbLine
 10
-0.497218155
 20
-7.5
 30
0.0
 11
-0.487218155
 21
-7.5
 31
0.0
  0
LINE
  5
C5
330
1F
100
AcDbEntity
  8
ZAPFEN
100
AcDbLine
 10
-8.497218155
 20
-3.0
 30
0.0
 11
-7.4053074522
 21
0.0
 31
0.0
  0
LINE
  5
C6
330
1F
100
AcDbEntity
  8
ZAPFEN
100
AcDbLine
 10
-7.4053074522
 20
0.0
 30
0.0
 11
-8.497218155
 21
3.0
 31
0.0
  0
LINE
  5
C7
330
1F
100
AcDbEntity
  8
AUFNAHME
  6
CONTINUOUS
100
AcDbLine
 10
-5.397218155
 20
-1.7121951219
 30
0.0
 11
-5.397218155
 21
-7.8
 31
0.0
  0
LINE
  5
C8
330
1F
100
AcDbEntity
  8
AUFNAHME
  6
CONTINUOUS
100
AcDbLine
 10
-0.197218155
 20
-2.065564437
 30
0.0
 11
-0.197218155
 21
-8.3
 31
0.0
  0
ARC
  5
C9
330
1F
100
AcDbEntity
  8
AUFNAHME
  6
CONTINUOUS
100
AcDbCircle
 10
-5.397218155
 20
-8.2
 30
0.0
 40
0.400000000000011
100
AcDbArc
 50
0.0
 51
90.0
  0
ARC
  5
CA
330
1F
100
AcDbEntity
  8
AUFNAHME
  6
CONTINUOUS
100
AcDbCircle
 10
-0.197218155
 20
-8.5
 30
0.0
 40
0.199999999999978
100
AcDbArc
 50
0.0
 51
90.0
  0
ARC
  5
CB
330
1F
100
AcDbEntity
  8
AUFNAHME
  6
CONTINUOUS
100
AcDbCircle
 10
-0.197218155
 20
10.2
 30
0.0
 40
0.2000000000000348
100
AcDbArc
 50
270.0
 51
0.0
  0
ARC
  5
CC
330
1F
100
AcDbEntity
  8
AUFNAHME
  6
CONTINUOUS
100
AcDbCircle
 10
-5.397218155
 20
8.2
 30
0.0
 40
0.400000000000011
100
AcDbArc
 50
270.0
 51
0.0
  0
ARC
  5
CD
330
1F
100
AcDbEntity
  8
AUFNAHME
  6
CONTINUOUS
100
AcDbCircle
 10
-5.3020367154
 20
-2.233604336
 30
0.0
 40
0.5300255418161679
100
AcDbArc
 50
54.8932493097
 51
100.3452368261
  0
ARC
  5
CE
330
1F
100
AcDbEntity
  8
AUFNAHME
  6
CONTINUOUS
100
AcDbCircle
 10
-53.4893385204
 20
0.0
 30
0.0
 40
48.12258984485055
100
AcDbArc
 50
357.9609936927
 51
2.0390063073
  0
ARC
  5
CF
330
1F
100
AcDbEntity
  8
AUFNAHME
  6
CONTINUOUS
100
AcDbCircle
 10
-5.3020367154
 20
2.2336043361
 30
0.0
 40
0.5300255418921337
100
AcDbArc
 50
259.6547631802
 51
305.1067506903
  0
ARC
  5
D0
330
1F
100
AcDbEntity
  8
AUFNAHME
  6
CONTINUOUS
100
AcDbCircle
 10
-5.3020367154
 20
-2.233604336
 30
0.0
 40
0.5300255418161679
100
AcDbArc
 50
54.8932493097
 51
100.3452368261
  0
ARC
  5
D1
330
1F
100
AcDbEntity
  8
AUFNAHME
  6
CONTINUOUS
100
AcDbCircle
 10
-5.3020367154
 20
2.2336043361
 30
0.0
 40
0.5300255418921337
100
AcDbArc
 50
259.6547631802
 51
305.1067506903
  0
ARC
  5
D2
330
1F
100
AcDbEntity
  8
AUFNAHME
  6
CONTINUOUS
100
AcDbCircle
 10
-53.4893385204
 20
0.0
 30
0.0
 40
48.12258984485055
100
AcDbArc
 50
357.9609936927
 51
2.0390063073
  0
DIMENSION
  5
D3
330
1F
100
AcDbEntity
  8
MASS
100
AcDbDimension
  2
_D
 10
16.5873956824
 20
-25.5
 30
0.0
 11
16.5873956824
 21
-1.0
 31
0.0
 70
   160
  1
<>
  3
SLDDIMSTYLE0
100
AcDbAlignedDimension
 13
8.002781845
 23
23.5
 33
0.0
 14
8.002781845
 24
-25.5
 34
0.0
 50
90.0
100
AcDbRotatedDimension
  0
DIMENSION
  5
DF
330
1F
100
AcDbEntity
  8
MASS
100
AcDbDimension
  2
_D_1
 10
0.002781845
 20
32.1358590881
 30
0.0
 11
4.252781845
 21
32.1358590881
 31
0.0
 70
   160
  1
<>
  3
SLDDIMSTYLE1
100
AcDbAlignedDimension
 13
8.502781845
 23
21.9954541698
 33
0.0
 14
0.002781845
 24
22.3747197296
 34
0.0
100
AcDbRotatedDimension
  0
DIMENSION
  5
EC
330
1F
100
AcDbEntity
  8
MASS
100
AcDbDimension
  2
_D_2
 10
0.002781845
 20
32.1358590881
 30
0.0
 11
-31.747218155
 21
32.1358590881
 31
0.0
 70
   160
  1
<>
  3
SLDDIMSTYLE0
100
AcDbAlignedDimension
 13
-63.497218155
 23
7.0
 33
0.0
 14
0.002781845
 24
22.3747197296
 34
0.0
100
AcDbRotatedDimension
  0
DIMENSION
  5
F6
330
1F
100
AcDbEntity
  8
MASS
100
AcDbDimension
  2
_D_3
 10
-71.8392236284
 20
-8.0
 30
0.0
 11
-71.8392236284
 21
0.0
 31
0.0
 70
   160
  1
%%c<>
  3
SLDDIMSTYLE0
100
AcDbAlignedDimension
 13
-62.497218155
 23
8.0
 33
0.0
 14
-62.497218155
 24
-8.0
 34
0.0
 50
90.0
100
AcDbRotatedDimension
  0
MTEXT
  5
101
330
1F
100
AcDbEntity
  8
TEXT
100
AcDbMText
 10
1.118381102
 20
-20.9256383242
 30
0.0
 40
3.5
 41
0.0
 71
     1
 72
     1
  1
615.387B
  7
SLDTEXTSTYLE0
 11
-3.491481338843133E-15
 21
1.0
 31
0.0
  0
ENDSEC
  0
SECTION
  2
OBJECTS
  0
DICTIONARY
  5
C
330
0
100
AcDbDictionary
  3
ACAD_GROUP
350
D
  3
ACAD_MLINESTYLE
350
17
  3
ACAD_SCALELIST
350
47
  0
DICTIONARY
  5
D
102
{ACAD_REACTORS
330
C
102
}
330
C
100
AcDbDictionary
  0
DICTIONARY
  5
17
102
{ACAD_REACTORS
330
C
102
}
330
C
100
AcDbDictionary
  3
STANDARD
350
18
  0
DICTIONARY
  5
47
102
{ACAD_REACTORS
330
C
102
}
330
C
100
AcDbDictionary
  0
MLINESTYLE
  5
18
102
{ACAD_REACTORS
330
17
102
}
330
17
100
AcDbMlineStyle
  2
Standard
 70
     0
  3

 62
   256
 51
90.0
 52
90.0
 71
     2
 49
0.5
 62
   256
  6
BYLAYER
 49
-0.5
 62
   256
  6
BYLAYER
  0
ENDSEC
  0
EOF
