  0
SECTION
  2
HEADER
  9
$ACADVER
  1
AC1014
  9
$ACADMAINTVER
 70
     9
  9
$DWGCODEPAGE
  3
ANSI_1252
  9
$INSBASE
 10
0.0
 20
0.0
 30
0.0
  9
$EXTMIN
 10
0.0
 20
0.0
 30
0.0
  9
$EXTMAX
 10
420.0
 20
297.0
 30
0.0
  9
$LIMMIN
 10
0.0
 20
0.0
  9
$LIMMAX
 10
420.0
 20
297.0
  9
$ORTHOMODE
 70
     0
  9
$REGENMODE
 70
     1
  9
$FILLMODE
 70
     1
  9
$QTEXTMODE
 70
     0
  9
$MIRRTEXT
 70
     1
  9
$DRAGMODE
 70
     2
  9
$LTSCALE
 40
1.0
  9
$OSMODE
 70
    37
  9
$ATTMODE
 70
     1
  9
$TEXTSIZE
 40
3.5
  9
$TRACEWID
 40
1.0
  9
$TEXTSTYLE
  7
STANDARD
  9
$CLAYER
  8
0
  9
$CELTYPE
  6
BYLAYER
  9
$CECOLOR
 62
   256
  9
$CELTSCALE
 40
1.0
  9
$DELOBJ
 70
     1
  9
$DISPSILH
 70
     0
  9
$DIMSCALE
 40
1.0
  9
$DIMASZ
 40
3.5
  9
$DIMEXO
 40
0.0
  9
$DIMDLI
 40
3.75
  9
$DIMRND
 40
0.0
  9
$DIMDLE
 40
0.0
  9
$DIMEXE
 40
1.0
  9
$DIMTP
 40
0.0
  9
$DIMTM
 40
0.0
  9
$DIMTXT
 40
3.5
  9
$DIMCEN
 40
2.5
  9
$DIMTSZ
 40
0.0
  9
$DIMTOL
 70
     0
  9
$DIMLIM
 70
     0
  9
$DIMTIH
 70
     1
  9
$DIMTOH
 70
     1
  9
$DIMSE1
 70
     0
  9
$DIMSE2
 70
     0
  9
$DIMTAD
 70
     1
  9
$DIMZIN
 70
     0
  9
$DIMBLK
  1

  9
$DIMASO
 70
     1
  9
$DIMSHO
 70
     1
  9
$DIMPOST
  1

  9
$DIMAPOST
  1

  9
$DIMALT
 70
     0
  9
$DIMALTD
 70
     3
  9
$DIMALTF
 40
0.0393700787
  9
$DIMLFAC
 40
1.0
  9
$DIMTOFL
 70
     1
  9
$DIMTVP
 40
0.0
  9
$DIMTIX
 70
     0
  9
$DIMSOXD
 70
     0
  9
$DIMSAH
 70
     0
  9
$DIMBLK1
  1

  9
$DIMBLK2
  1

  9
$DIMSTYLE
  2
ISO-25
  9
$DIMCLRD
 70
     0
  9
$DIMCLRE
 70
     0
  9
$DIMCLRT
 70
     0
  9
$DIMTFAC
 40
1.0
  9
$DIMGAP
 40
1.5
  9
$DIMJUST
 70
     0
  9
$DIMSD1
 70
     0
  9
$DIMSD2
 70
     0
  9
$DIMTOLJ
 70
     0
  9
$DIMTZIN
 70
     0
  9
$DIMALTZ
 70
     0
  9
$DIMALTTZ
 70
     0
  9
$DIMFIT
 70
     3
  9
$DIMUPT
 70
     0
  9
$DIMUNIT
 70
     2
  9
$DIMDEC
 70
     2
  9
$DIMTDEC
 70
     3
  9
$DIMALTU
 70
     2
  9
$DIMALTTD
 70
     3
  9
$DIMTXSTY
  7
STANDARD
  9
$DIMAUNIT
 70
     0
  9
$LUNITS
 70
     2
  9
$LUPREC
 70
     2
  9
$SKETCHINC
 40
1.0
  9
$FILLETRAD
 40
10.0
  9
$AUNITS
 70
     0
  9
$AUPREC
 70
     2
  9
$MENU
  1
.
  9
$ELEVATION
 40
0.0
  9
$PELEVATION
 40
0.0
  9
$THICKNESS
 40
0.0
  9
$LIMCHECK
 70
     0
  9
$CHAMFERA
 40
0.0
  9
$CHAMFERB
 40
0.0
  9
$CHAMFERC
 40
0.0
  9
$CHAMFERD
 40
0.0
  9
$SKPOLY
 70
     0
  9
$TDCREATE
 40
2457086.49418353
  9
$TDUPDATE
 40
2457086.494183715
  9
$TDINDWG
 40
0.0000000116
  9
$TDUSRTIMER
 40
0.0000000116
  9
$USRTIMER
 70
     1
  9
$ANGBASE
 50
0.0
  9
$ANGDIR
 70
     0
  9
$PDMODE
 70
     0
  9
$PDSIZE
 40
-1.0
  9
$PLINEWID
 40
0.0
  9
$COORDS
 70
     1
  9
$SPLFRAME
 70
     0
  9
$SPLINETYPE
 70
     6
  9
$SPLINESEGS
 70
     8
  9
$ATTDIA
 70
     0
  9
$ATTREQ
 70
     1
  9
$HANDLING
 70
     1
  9
$HANDSEED
  5
FF
  9
$SURFTAB1
 70
     6
  9
$SURFTAB2
 70
     6
  9
$SURFTYPE
 70
     6
  9
$SURFU
 70
     6
  9
$SURFV
 70
     6
  9
$UCSNAME
  2

  9
$UCSORG
 10
0.0
 20
0.0
 30
0.0
  9
$UCSXDIR
 10
1.0
 20
0.0
 30
0.0
  9
$UCSYDIR
 10
0.0
 20
1.0
 30
0.0
  9
$PUCSNAME
  2

  9
$PUCSORG
 10
0.0
 20
0.0
 30
0.0
  9
$PUCSXDIR
 10
1.0
 20
0.0
 30
0.0
  9
$PUCSYDIR
 10
0.0
 20
1.0
 30
0.0
  9
$USERI1
 70
     0
  9
$USERI2
 70
     0
  9
$USERI3
 70
     0
  9
$USERI4
 70
     0
  9
$USERI5
 70
     0
  9
$USERR1
 40
0.0
  9
$USERR2
 40
0.0
  9
$USERR3
 40
0.0
  9
$USERR4
 40
0.0
  9
$USERR5
 40
0.0
  9
$WORLDVIEW
 70
     1
  9
$SHADEDGE
 70
     3
  9
$SHADEDIF
 70
    70
  9
$TILEMODE
 70
     1
  9
$MAXACTVP
 70
    64
  9
$PINSBASE
 10
0.0
 20
0.0
 30
0.0
  9
$PLIMCHECK
 70
     0
  9
$PEXTMIN
 10
1.0000000000E+20
 20
1.0000000000E+20
 30
1.0000000000E+20
  9
$PEXTMAX
 10
-1.0000000000E+20
 20
-1.0000000000E+20
 30
-1.0000000000E+20
  9
$PLIMMIN
 10
0.0
 20
0.0
  9
$PLIMMAX
 10
420.0
 20
297.0
  9
$UNITMODE
 70
     0
  9
$VISRETAIN
 70
     1
  9
$PLINEGEN
 70
     0
  9
$PSLTSCALE
 70
     1
  9
$TREEDEPTH
 70
  3020
  9
$PICKSTYLE
 70
     1
  9
$CMLSTYLE
  2
STANDARD
  9
$CMLJUST
 70
     0
  9
$CMLSCALE
 40
20.0
  9
$PROXYGRAPHICS
 70
     1
  9
$MEASUREMENT
 70
     1
  0
ENDSEC
  0
SECTION
  2
CLASSES
  0
CLASS
  1
ACDBDICTIONARYWDFLT
  2
AcDbDictionaryWithDefault
  3
ObjectDBX Classes
 90
        0
280
     0
281
     0
  0
CLASS
  1
VISUALSTYLE
  2
AcDbVisualStyle
  3
ObjectDBX Classes
 90
     4095
280
     0
281
     0
  0
CLASS
  1
MATERIAL
  2
AcDbMaterial
  3
ObjectDBX Classes
 90
     1153
280
     0
281
     0
  0
CLASS
  1
SCALE
  2
AcDbScale
  3
ObjectDBX Classes
 90
     1153
280
     0
281
     0
  0
CLASS
  1
SUN
  2
AcDbSun
  3
SCENEOE
 90
     1153
280
     0
281
     0
  0
CLASS
  1
XRECORD
  2
AcDbXrecord
  3
ObjectDBX Classes
 90
        0
280
     0
281
     0
  0
CLASS
  1
LWPOLYLINE
  2
AcDbPolyline
  3
ObjectDBX Classes
 90
        0
280
     0
281
     1
  0
CLASS
  1
HATCH
  2
AcDbHatch
  3
ObjectDBX Classes
 90
        0
280
     0
281
     1
  0
ENDSEC
  0
SECTION
  2
TABLES
  0
TABLE
  2
VPORT
  5
8
330
0
100
AcDbSymbolTable
 70
     1
  0
VPORT
  5
29
330
8
100
AcDbSymbolTableRecord
100
AcDbViewportTableRecord
  2
*ACTIVE
 70
     0
 10
0.0
 20
0.0
 11
1.0
 21
1.0
 12
210.0
 22
148.5
 13
0.0
 23
0.0
 14
10.0
 24
10.0
 15
10.0
 25
10.0
 16
0.0
 26
0.0
 36
1.0
 17
0.0
 27
0.0
 37
0.0
 40
297.0
 41
1.4141414141
 42
50.0
 43
0.0
 44
0.0
 50
0.0
 51
0.0
 71
     0
 72
  2000
 73
     1
 74
     3
 75
     0
 76
     0
 77
     0
 78
     0
  0
ENDTAB
  0
TABLE
  2
LTYPE
  5
5
330
0
100
AcDbSymbolTable
 70
     6
  0
LTYPE
  5
14
330
5
100
AcDbSymbolTableRecord
100
AcDbLinetypeTableRecord
  2
BYBLOCK
 70
     0
  3

 72
    65
 73
     0
 40
0.0
  0
LTYPE
  5
15
330
5
100
AcDbSymbolTableRecord
100
AcDbLinetypeTableRecord
  2
BYLAYER
 70
     0
  3

 72
    65
 73
     0
 40
0.0
  0
LTYPE
  5
16
330
5
100
AcDbSymbolTableRecord
100
AcDbLinetypeTableRecord
  2
CONTINUOUS
 70
     0
  3
Solid line
 72
    65
 73
     0
 40
0.0
  0
LTYPE
  5
6A
330
5
100
AcDbSymbolTableRecord
100
AcDbLinetypeTableRecord
  2
HIDDEN
 70
     0
  3
Hidden __ __ __ __ __ __ __ __ __ __ __ __ __ __
 72
    65
 73
     2
 40
1.905
 49
1.27
 74
     0
 49
-0.635
 74
     0
  0
LTYPE
  5
6B
330
5
100
AcDbSymbolTableRecord
100
AcDbLinetypeTableRecord
  2
PHANTOM
 70
     0
  3
Phantom ______  __  __  ______  __  __  ______
 72
    65
 73
     6
 40
12.7
 49
6.35
 74
     0
 49
-1.27
 74
     0
 49
1.27
 74
     0
 49
-1.27
 74
     0
 49
1.27
 74
     0
 49
-1.27
 74
     0
  0
LTYPE
  5
6C
330
5
100
AcDbSymbolTableRecord
100
AcDbLinetypeTableRecord
  2
CENTER
 70
     0
  3
Center ____ _ ____ _ ____ _ ____ _ ____ _ ____
 72
    65
 73
     4
 40
10.16
 49
6.35
 74
     0
 49
-1.27
 74
     0
 49
1.27
 74
     0
 49
-1.27
 74
     0
  0
LTYPE
  5
6D
330
5
100
AcDbSymbolTableRecord
100
AcDbLinetypeTableRecord
  2
CENTERX2
 70
     0
  3
Center (2x) ________  __  ________  __  _____
 72
    65
 73
     4
 40
20.32
 49
12.7
 74
     0
 49
-2.54
 74
     0
 49
2.54
 74
     0
 49
-2.54
 74
     0
  0
LTYPE
  5
6E
330
5
100
AcDbSymbolTableRecord
100
AcDbLinetypeTableRecord
  2
DOT2
 70
     0
  3
Dot (.5x) ........................................
 72
    65
 73
     2
 40
0.635
 49
0.0
 74
     0
 49
-0.635
 74
     0
  0
ENDTAB
  0
TABLE
  2
LAYER
  5
2
330
0
100
AcDbSymbolTable
 70
     7
  0
LAYER
  5
10
330
2
100
AcDbSymbolTableRecord
100
AcDbLayerTableRecord
  2
0
 70
     0
 62
     7
  6
CONTINUOUS
  0
LAYER
  5
6F
330
2
100
AcDbSymbolTableRecord
100
AcDbLayerTableRecord
  2
AUFNAHME
 70
     0
 62
     7
  6
CONTINUOUS
  0
LAYER
  5
70
330
2
100
AcDbSymbolTableRecord
100
AcDbLayerTableRecord
  2
MASS
 70
     0
 62
     4
  6
CONTINUOUS
  0
LAYER
  5
71
330
2
100
AcDbSymbolTableRecord
100
AcDbLayerTableRecord
  2
EW
 70
     0
 62
     1
  6
HIDDEN
  0
LAYER
  5
72
330
2
100
AcDbSymbolTableRecord
100
AcDbLayerTableRecord
  2
UNSICHT
 70
     0
 62
     4
  6
CENTER
  0
LAYER
  5
73
330
2
100
AcDbSymbolTableRecord
100
AcDbLayerTableRecord
  2
TEXT
 70
     0
 62
     7
  6
CONTINUOUS
  0
LAYER
  5
74
330
2
100
AcDbSymbolTableRecord
100
AcDbLayerTableRecord
  2
ZAPFEN
 70
     0
 62
     4
  6
CONTINUOUS
  0
ENDTAB
  0
TABLE
  2
STYLE
  5
3
330
0
100
AcDbSymbolTable
 70
     3
  0
STYLE
  5
11
330
3
100
AcDbSymbolTableRecord
100
AcDbTextStyleTableRecord
  2
STANDARD
 70
     0
 40
0.0
 41
1.0
 50
0.0
 71
     0
 42
3.5
  3
txt
  4

  0
STYLE
  5
C7
330
3
100
AcDbSymbolTableRecord
100
AcDbTextStyleTableRecord
  2
SLDTEXTSTYLE0
 70
     0
 40
0.0
 41
0.605
 50
0.0
 71
     0
 42
3.5
  3
TXT
  4

  0
STYLE
  5
E7
330
3
100
AcDbSymbolTableRecord
100
AcDbTextStyleTableRecord
  2
SLDTEXTSTYLE1
 70
     0
 40
0.0
 41
0.575
 50
0.0
 71
     0
 42
3.5
  3
TXT
  4

  0
ENDTAB
  0
TABLE
  2
VIEW
  5
6
330
0
100
AcDbSymbolTable
 70
     0
  0
ENDTAB
  0
TABLE
  2
UCS
  5
7
330
0
100
AcDbSymbolTable
 70
     0
  0
ENDTAB
  0
TABLE
  2
APPID
  5
9
330
0
100
AcDbSymbolTable
 70
     1
  0
APPID
  5
12
330
9
100
AcDbSymbolTableRecord
100
AcDbRegAppTableRecord
  2
ACAD
 70
     0
  0
ENDTAB
  0
TABLE
  2
DIMSTYLE
  5
A
330
0
100
AcDbSymbolTable
 70
     3
  0
DIMSTYLE
105
27
330
A
100
AcDbSymbolTableRecord
100
AcDbDimStyleTableRecord
  2
ISO-25
 70
     0
  3

  4

  5

  6

  7

 40
1.0
 41
2.5
 42
0.625
 43
3.75
 44
1.25
 45
0.0
 46
0.0
 47
0.0
 48
0.0
140
2.5
141
2.5
142
0.0
143
0.0393700787
144
1.0
145
0.0
146
1.0
147
0.625
 71
     0
 72
     0
 73
     0
 74
     0
 75
     0
 76
     0
 77
     1
 78
     8
170
     0
171
     3
172
     1
173
     0
174
     0
175
     0
176
     0
177
     0
178
     0
270
     2
271
     2
272
     2
273
     2
274
     3
340
11
275
     0
280
     0
281
     0
282
     0
283
     0
284
     8
285
     0
286
     0
287
     3
288
     0
  0
DIMSTYLE
105
C8
102
{ACAD_REACTORS
330
C6
330
D3
330
DE
330
E9
102
}
330
A
100
AcDbSymbolTableRecord
100
AcDbDimStyleTableRecord
  2
SLDDIMSTYLE0
 70
     0
  3

  4

  5

  6

  7

 40
1.0
 41
3.5
 42
0.0625
 43
0.38
 44
0.0
 45
0.000000001
 46
0.0
 47
0.0
 48
0.0
140
3.5
141
0.09
142
0.0
143
25.4
144
1.0
145
0.0
146
1.0
147
0.875
 71
     0
 72
     0
 73
     0
 74
     0
 75
     0
 76
     0
 77
     1
 78
    12
170
     0
171
     2
172
     0
173
     1
174
     0
175
     0
176
     0
177
     0
178
     0
270
     2
271
     2
272
     3
273
     2
274
     2
340
C7
275
     0
280
     0
281
     0
282
     0
283
     1
284
    12
285
     0
286
     0
287
     3
288
     0
  0
DIMSTYLE
105
F4
102
{ACAD_REACTORS
330
F3
102
}
330
A
100
AcDbSymbolTableRecord
100
AcDbDimStyleTableRecord
  2
SLDDIMSTYLE1
 70
     0
  3

  4

  5

  6

  7

 40
1.0
 41
3.5
 42
0.0625
 43
0.38
 44
0.0
 45
0.000000001
 46
0.0
 47
0.0
 48
0.0
140
3.5
141
0.09
142
0.0
143
25.4
144
1.0
145
0.0
146
1.0
147
0.875
 71
     0
 72
     0
 73
     0
 74
     0
 75
     0
 76
     0
 77
     1
 78
    12
170
     0
171
     2
172
     0
173
     1
174
     0
175
     0
176
     0
177
     0
178
     0
270
     2
271
     2
272
     3
273
     2
274
     2
340
C7
275
     0
280
     0
281
     0
282
     0
283
     1
284
    12
285
     0
286
     0
287
     3
288
     0
  0
ENDTAB
  0
TABLE
  2
BLOCK_RECORD
  5
1
330
0
100
AcDbSymbolTable
 70
     6
  0
BLOCK_RECORD
  5
1F
330
1
100
AcDbSymbolTableRecord
100
AcDbBlockTableRecord
  2
*MODEL_SPACE
  0
BLOCK_RECORD
  5
1B
330
1
100
AcDbSymbolTableRecord
100
AcDbBlockTableRecord
  2
*PAPER_SPACE
  0
BLOCK_RECORD
  5
23
330
1
100
AcDbSymbolTableRecord
100
AcDbBlockTableRecord
  2
*PAPER_SPACE0
  0
BLOCK_RECORD
  5
C9
330
1
100
AcDbSymbolTableRecord
100
AcDbBlockTableRecord
  2
_D
  0
BLOCK_RECORD
  5
D4
330
1
100
AcDbSymbolTableRecord
100
AcDbBlockTableRecord
  2
_D_1
  0
BLOCK_RECORD
  5
DF
330
1
100
AcDbSymbolTableRecord
100
AcDbBlockTableRecord
  2
_D_2
  0
BLOCK_RECORD
  5
EA
330
1
100
AcDbSymbolTableRecord
100
AcDbBlockTableRecord
  2
_D_3
  0
BLOCK_RECORD
  5
F5
330
1
100
AcDbSymbolTableRecord
100
AcDbBlockTableRecord
  2
_D_4
  0
ENDTAB
  0
ENDSEC
  0
SECTION
  2
BLOCKS
  0
BLOCK
  5
20
330
1F
100
AcDbEntity
  8
0
100
AcDbBlockBegin
  2
*MODEL_SPACE
 70
     0
 10
0.0
 20
0.0
 30
0.0
  3
*MODEL_SPACE
  1

  0
ENDBLK
  5
21
330
1F
100
AcDbEntity
  8
0
100
AcDbBlockEnd
  0
BLOCK
  5
1C
330
1B
100
AcDbEntity
 67
     1
  8
0
100
AcDbBlockBegin
  2
*PAPER_SPACE
 70
     0
 10
0.0
 20
0.0
 30
0.0
  3
*PAPER_SPACE
  1

  0
ENDBLK
  5
1D
330
1B
100
AcDbEntity
 67
     1
  8
0
100
AcDbBlockEnd
  0
BLOCK
  5
24
330
23
100
AcDbEntity
  8
0
100
AcDbBlockBegin
  2
*PAPER_SPACE0
 70
     0
 10
0.0
 20
0.0
 30
0.0
  3
*PAPER_SPACE0
  1
*PAPER_SPACE0
  0
ENDBLK
  5
25
330
23
100
AcDbEntity
  8
0
100
AcDbBlockEnd
  0
BLOCK
  5
CA
330
C9
100
AcDbEntity
  8
0
100
AcDbBlockBegin
  2
_D
 70
     0
 10
0.0
 20
0.0
 30
0.0
  3
_D
  1
_D
  0
SOLID
  5
CC
330
C9
100
AcDbEntity
  8
MASS
100
AcDbTrace
 10
-37.2792606017
 20
6.0
 30
0.0
 11
-37.7292606017
 21
2.5
 31
0.0
 12
-36.8292606017
 22
2.5
 32
0.0
 13
-36.8292606017
 23
2.5
 33
0.0
  0
SOLID
  5
CD
330
C9
100
AcDbEntity
  8
MASS
100
AcDbTrace
 10
-37.2792606017
 20
-6.0
 30
0.0
 11
-36.8292606017
 21
-2.5
 31
0.0
 12
-37.7292606017
 22
-2.5
 32
0.0
 13
-37.7292606017
 23
-2.5
 33
0.0
  0
LINE
  5
CE
330
C9
100
AcDbEntity
  8
MASS
100
AcDbLine
 10
-29.0
 20
6.0
 30
0.0
 11
-38.2792606017
 21
6.0
 31
0.0
  0
LINE
  5
CF
330
C9
100
AcDbEntity
  8
MASS
100
AcDbLine
 10
-29.0
 20
-6.0
 30
0.0
 11
-38.2792606017
 21
-6.0
 31
0.0
  0
LINE
  5
D0
330
C9
100
AcDbEntity
  8
MASS
100
AcDbLine
 10
-37.2792606017
 20
6.0
 30
0.0
 11
-37.2792606017
 21
-6.0
 31
0.0
  0
MTEXT
  5
D1
330
C9
100
AcDbEntity
  8
MASS
100
AcDbMText
 10
-41.7909979237
 20
-4.778472241
 30
0.0
 40
3.5
 41
0.0
 71
     1
 72
     1
  1
%%c
  7
SLDTEXTSTYLE0
 11
-7.044195017643634E-15
 21
1.0
 31
0.0
  0
MTEXT
  5
D2
330
C9
100
AcDbEntity
  8
MASS
100
AcDbMText
 10
-41.7909979237
 20
0.393750146
 30
0.0
 40
3.5
 41
0.0
 71
     1
 72
     1
  1
12
  7
SLDTEXTSTYLE0
 11
-7.044195017643634E-15
 21
1.0
 31
0.0
  0
ENDBLK
  5
CB
330
C9
100
AcDbEntity
  8
0
100
AcDbBlockEnd
  0
BLOCK
  5
D5
330
D4
100
AcDbEntity
  8
0
100
AcDbBlockBegin
  2
_D_1
 70
     0
 10
0.0
 20
0.0
 30
0.0
  3
_D_1
  1
_D_1
  0
SOLID
  5
D7
330
D4
100
AcDbEntity
  8
MASS
100
AcDbTrace
 10
-30.0
 20
-15.4232374103
 30
0.0
 11
-26.5
 21
-15.8732374103
 31
0.0
 12
-26.5
 22
-14.9732374103
 32
0.0
 13
-26.5
 23
-14.9732374103
 33
0.0
  0
SOLID
  5
D8
330
D4
100
AcDbEntity
  8
MASS
100
AcDbTrace
 10
0.0
 20
-15.4232374103
 30
0.0
 11
-3.5
 21
-14.9732374103
 31
0.0
 12
-3.5
 22
-15.8732374103
 32
0.0
 13
-3.5
 23
-15.8732374103
 33
0.0
  0
LINE
  5
D9
330
D4
100
AcDbEntity
  8
MASS
100
AcDbLine
 10
-30.0
 20
-5.0
 30
0.0
 11
-30.0
 21
-16.4232374103
 31
0.0
  0
LINE
  5
DA
330
D4
100
AcDbEntity
  8
MASS
100
AcDbLine
 10
0.0
 20
-6.0
 30
0.0
 11
0.0
 21
-16.4232374103
 31
0.0
  0
LINE
  5
DB
330
D4
100
AcDbEntity
  8
MASS
100
AcDbLine
 10
-30.0
 20
-15.4232374103
 30
0.0
 11
0.0
 21
-15.4232374103
 31
0.0
  0
MTEXT
  5
DC
330
D4
100
AcDbEntity
  8
MASS
100
AcDbMText
 10
-21.4677088521
 20
-10.9115005539
 30
0.0
 40
3.5
 41
0.0
 71
     1
 72
     1
  1
min.
  7
SLDTEXTSTYLE0
  0
MTEXT
  5
DD
330
D4
100
AcDbEntity
  8
MASS
100
AcDbMText
 10
-12.9170146398
 20
-10.9115005539
 30
0.0
 40
3.5
 41
0.0
 71
     1
 72
     1
  1
30
  7
SLDTEXTSTYLE0
  0
ENDBLK
  5
D6
330
D4
100
AcDbEntity
  8
0
100
AcDbBlockEnd
  0
BLOCK
  5
E0
330
DF
100
AcDbEntity
  8
0
100
AcDbBlockBegin
  2
_D_2
 70
     0
 10
0.0
 20
0.0
 30
0.0
  3
_D_2
  1
_D_2
  0
SOLID
  5
E2
330
DF
100
AcDbEntity
  8
MASS
100
AcDbTrace
 10
59.9972783654
 20
-15.4232374103
 30
0.0
 11
56.4972783654
 21
-14.9732374103
 31
0.0
 12
56.4972783654
 22
-15.8732374103
 32
0.0
 13
56.4972783654
 23
-15.8732374103
 33
0.0
  0
SOLID
  5
E3
330
DF
100
AcDbEntity
  8
MASS
100
AcDbTrace
 10
0.0
 20
-15.4232374103
 30
0.0
 11
3.5
 21
-15.8732374103
 31
0.0
 12
3.5
 22
-14.9732374103
 32
0.0
 13
3.5
 23
-14.9732374103
 33
0.0
  0
LINE
  5
E4
330
DF
100
AcDbEntity
  8
MASS
100
AcDbLine
 10
59.9972783654
 20
6.631004613
 30
0.0
 11
59.9972783654
 21
-16.4232374103
 31
0.0
  0
LINE
  5
E5
330
DF
100
AcDbEntity
  8
MASS
100
AcDbLine
 10
0.0
 20
-6.0
 30
0.0
 11
0.0
 21
-16.4232374103
 31
0.0
  0
LINE
  5
E6
330
DF
100
AcDbEntity
  8
MASS
100
AcDbLine
 10
59.9972783654
 20
-15.4232374103
 30
0.0
 11
0.0
 21
-15.4232374103
 31
0.0
  0
MTEXT
  5
E8
330
DF
100
AcDbEntity
  8
MASS
100
AcDbMText
 10
23.8590557627
 20
-10.9115005539
 30
0.0
 40
3.5
 41
0.0
 71
     1
 72
     1
  1
25 - 60
  7
SLDTEXTSTYLE1
  0
ENDBLK
  5
E1
330
DF
100
AcDbEntity
  8
0
100
AcDbBlockEnd
  0
BLOCK
  5
EB
330
EA
100
AcDbEntity
  8
0
100
AcDbBlockBegin
  2
_D_3
 70
     0
 10
0.0
 20
0.0
 30
0.0
  3
_D_3
  1
_D_3
  0
SOLID
  5
ED
330
EA
100
AcDbEntity
  8
MASS
100
AcDbTrace
 10
49.9970633807
 20
13.3773704539
 30
0.0
 11
46.4970633807
 21
13.8273704539
 31
0.0
 12
46.4970633807
 22
12.9273704539
 32
0.0
 13
46.4970633807
 23
12.9273704539
 33
0.0
  0
SOLID
  5
EE
330
EA
100
AcDbEntity
  8
MASS
100
AcDbTrace
 10
-30.0
 20
13.3773704539
 30
0.0
 11
-26.5
 21
12.9273704539
 31
0.0
 12
-26.5
 22
13.8273704539
 32
0.0
 13
-26.5
 23
13.8273704539
 33
0.0
  0
LINE
  5
EF
330
EA
100
AcDbEntity
  8
MASS
100
AcDbLine
 10
49.9970633807
 20
5.7662812968
 30
0.0
 11
49.9970633807
 21
14.3773704539
 31
0.0
  0
LINE
  5
F0
330
EA
100
AcDbEntity
  8
MASS
100
AcDbLine
 10
-30.0
 20
5.0
 30
0.0
 11
-30.0
 21
14.3773704539
 31
0.0
  0
LINE
  5
F1
330
EA
100
AcDbEntity
  8
MASS
100
AcDbLine
 10
49.9970633807
 20
13.3773704539
 30
0.0
 11
-30.0
 21
13.3773704539
 31
0.0
  0
MTEXT
  5
F2
330
EA
100
AcDbEntity
  8
MASS
100
AcDbMText
 10
7.8061706429
 20
17.8891073103
 30
0.0
 40
3.5
 41
0.0
 71
     1
 72
     1
  1
80
  7
SLDTEXTSTYLE0
  0
ENDBLK
  5
EC
330
EA
100
AcDbEntity
  8
0
100
AcDbBlockEnd
  0
BLOCK
  5
F6
330
F5
100
AcDbEntity
  8
0
100
AcDbBlockBegin
  2
_D_4
 70
     0
 10
0.0
 20
0.0
 30
0.0
  3
_D_4
  1
_D_4
  0
SOLID
  5
F8
330
F5
100
AcDbEntity
  8
MASS
100
AcDbTrace
 10
71.6378551756
 20
6.8858914066
 30
0.0
 11
71.1878551756
 21
3.3858914066
 31
0.0
 12
72.0878551756
 22
3.3858914066
 32
0.0
 13
72.0878551756
 23
3.3858914066
 33
0.0
  0
LINE
  5
F9
330
F5
100
AcDbEntity
  8
MASS
100
AcDbLine
 10
59.6062034285
 20
6.8858914066
 30
0.0
 11
72.6378551756
 21
6.8858914066
 31
0.0
  0
LINE
  5
FA
330
F5
100
AcDbEntity
  8
MASS
100
AcDbLine
 10
71.6378551756
 20
-6.4999999999
 30
0.0
 11
71.6378551756
 21
6.8858914066
 31
0.0
  0
LINE
  5
FB
330
F5
100
AcDbEntity
  8
MASS
100
AcDbLine
 10
71.6378551756
 20
6.8858914066
 30
0.0
 11
71.6378551756
 21
-21.7783539792
 31
0.0
  0
MTEXT
  5
FC
330
F5
100
AcDbEntity
  8
MASS
100
AcDbMText
 10
67.1261183192
 20
-21.7783539792
 30
0.0
 40
3.5
 41
0.0
 71
     1
 72
     1
  1
%%c
  7
SLDTEXTSTYLE0
 11
-7.044195017643634E-15
 21
1.0
 31
0.0
  0
MTEXT
  5
FD
330
F5
100
AcDbEntity
  8
MASS
100
AcDbMText
 10
67.1261183192
 20
-16.6061315922
 30
0.0
 40
3.5
 41
0.0
 71
     1
 72
     1
  1
13.8 - 17.0
  7
SLDTEXTSTYLE0
 11
-7.044195017643634E-15
 21
1.0
 31
0.0
  0
ENDBLK
  5
F7
330
F5
100
AcDbEntity
  8
0
100
AcDbBlockEnd
  0
ENDSEC
  0
SECTION
  2
ENTITIES
  0
LINE
  5
75
330
1F
100
AcDbEntity
  8
EW
  6
HIDDEN
100
AcDbLine
 10
37.681785453
 20
-0.225162916
 30
0.0
 11
37.448188032
 21
1.997368084
 31
0.0
  0
LINE
  5
76
330
1F
100
AcDbEntity
  8
AUFNAHME
  6
CONTINUOUS
100
AcDbLine
 10
36.9686751345
 20
6.4999999999
 30
0.0
 11
36.68
 21
6.0
 31
0.0
  0
LINE
  5
77
330
1F
100
AcDbEntity
  8
AUFNAHME
  6
CONTINUOUS
100
AcDbLine
 10
36.68
 20
-6.0
 30
0.0
 11
36.9686751345
 21
-6.4999999999
 31
0.0
  0
LINE
  5
78
330
1F
100
AcDbEntity
  8
AUFNAHME
  6
CONTINUOUS
100
AcDbLine
 10
36.9686751345
 20
-6.4999999999
 30
0.0
 11
45.6504689257
 21
-6.4999999999
 31
0.0
  0
LINE
  5
79
330
1F
100
AcDbEntity
  8
AUFNAHME
  6
CONTINUOUS
100
AcDbLine
 10
40.4875046926
 20
6.4999999999
 30
0.0
 11
36.9686751345
 21
6.4999999999
 31
0.0
  0
LINE
  5
7A
330
1F
100
AcDbEntity
  8
ZAPFEN
100
AcDbLine
 10
-29.0
 20
-6.0
 30
0.0
 11
0.0
 21
-6.0
 31
0.0
  0
LINE
  5
7B
330
1F
100
AcDbEntity
  8
AUFNAHME
  6
CONTINUOUS
100
AcDbLine
 10
0.0
 20
-6.0
 30
0.0
 11
36.68
 21
-6.0
 31
0.0
  0
LINE
  5
7C
330
1F
100
AcDbEntity
  8
AUFNAHME
  6
CONTINUOUS
100
AcDbLine
 10
36.68
 20
6.0
 30
0.0
 11
0.0
 21
6.0
 31
0.0
  0
LINE
  5
7D
330
1F
100
AcDbEntity
  8
ZAPFEN
100
AcDbLine
 10
0.0
 20
6.0
 30
0.0
 11
-29.0
 21
6.0
 31
0.0
  0
LINE
  5
7E
330
1F
100
AcDbEntity
  8
ZAPFEN
100
AcDbLine
 10
-29.0
 20
6.0
 30
0.0
 11
-30.0
 21
5.0
 31
0.0
  0
LINE
  5
7F
330
1F
100
AcDbEntity
  8
ZAPFEN
100
AcDbLine
 10
-30.0
 20
-5.0
 30
0.0
 11
-29.0
 21
-6.0
 31
0.0
  0
LINE
  5
80
330
1F
100
AcDbEntity
  8
AUFNAHME
  6
CONTINUOUS
100
AcDbLine
 10
36.9686751345
 20
-6.4999999999
 30
0.0
 11
36.9686751345
 21
6.4999999999
 31
0.0
  0
LINE
  5
81
330
1F
100
AcDbEntity
  8
AUFNAHME
  6
CONTINUOUS
100
AcDbLine
 10
49.9970633807
 20
5.7662812968
 30
0.0
 11
48.7087963438
 21
5.7662812968
 31
0.0
  0
LINE
  5
82
330
1F
100
AcDbEntity
  8
AUFNAHME
  6
CONTINUOUS
100
AcDbLine
 10
48.8917329627
 20
6.4999999999
 30
0.0
 11
40.4875046926
 21
6.4999999999
 31
0.0
  0
LINE
  5
83
330
1F
100
AcDbEntity
  8
AUFNAHME
  6
CONTINUOUS
100
AcDbLine
 10
46.4799999997
 20
3.7999999998
 30
0.0
 11
49.5068143917
 21
3.7999999998
 31
0.0
  0
LINE
  5
84
330
1F
100
AcDbEntity
  8
ZAPFEN
100
AcDbLine
 10
0.0
 20
6.0
 30
0.0
 11
0.0
 21
-6.0
 31
0.0
  0
LINE
  5
85
330
1F
100
AcDbEntity
  8
AUFNAHME
  6
CONTINUOUS
100
AcDbLine
 10
48.8917329627
 20
6.4999999999
 30
0.0
 11
45.6504689257
 21
-6.4999999999
 31
0.0
  0
LINE
  5
86
330
1F
100
AcDbEntity
  8
AUFNAHME
  6
CONTINUOUS
100
AcDbLine
 10
49.9970633807
 20
5.7662812968
 30
0.0
 11
47.1216725817
 21
-5.7662812972
 31
0.0
  0
LINE
  5
87
330
1F
100
AcDbEntity
  8
AUFNAHME
  6
CONTINUOUS
100
AcDbLine
 10
47.1216725817
 20
-5.7662812972
 30
0.0
 11
45.8334055445
 21
-5.7662812972
 31
0.0
  0
LINE
  5
88
330
1F
100
AcDbEntity
  8
ZAPFEN
100
AcDbLine
 10
-29.0
 20
-6.0
 30
0.0
 11
-29.0
 21
6.0
 31
0.0
  0
LINE
  5
89
330
1F
100
AcDbEntity
  8
ZAPFEN
100
AcDbLine
 10
-30.0
 20
-5.0
 30
0.0
 11
-30.0
 21
5.0
 31
0.0
  0
LINE
  5
8A
330
1F
100
AcDbEntity
  8
EW
  6
HIDDEN
100
AcDbLine
 10
46.257197758
 20
-3.033152199
 30
0.0
 11
47.587768183
 21
2.303474296
 31
0.0
  0
LINE
  5
8B
330
1F
100
AcDbEntity
  8
EW
  6
HIDDEN
100
AcDbLine
 10
46.184893794
 20
-2.345225937
 30
0.0
 11
47.200965755
 21
1.730016114
 31
0.0
  0
LINE
  5
8C
330
1F
100
AcDbEntity
  8
EW
  6
HIDDEN
100
AcDbLine
 10
38.545609464
 20
-0.852783883
 30
0.0
 11
39.755218942
 21
3.998694748
 31
0.0
  0
LINE
  5
8D
330
1F
100
AcDbEntity
  8
EW
  6
HIDDEN
100
AcDbLine
 10
39.020926712
 20
1.053609473
 30
0.0
 11
39.029524546
 21
1.046757846
 31
0.0
  0
LINE
  5
8E
330
1F
100
AcDbEntity
  8
EW
  6
HIDDEN
100
AcDbLine
 10
38.697857415
 20
3.850079134
 30
0.0
 11
37.681785453
 21
-0.225162916
 31
0.0
  0
LINE
  5
8F
330
1F
100
AcDbEntity
  8
EW
  6
HIDDEN
100
AcDbLine
 10
47.587768183
 20
2.303474296
 30
0.0
 11
47.200965755
 21
1.730016114
 31
0.0
  0
LINE
  5
90
330
1F
100
AcDbEntity
  8
EW
  6
HIDDEN
100
AcDbLine
 10
46.184893794
 20
-2.345225937
 30
0.0
 11
46.257197758
 21
-3.033152199
 31
0.0
  0
LINE
  5
91
330
1F
100
AcDbEntity
  8
EW
  6
HIDDEN
100
AcDbLine
 10
46.257197758
 20
-3.033152199
 30
0.0
 11
46.499771689
 21
-3.093632673
 31
0.0
  0
LINE
  5
92
330
1F
100
AcDbEntity
  8
EW
  6
HIDDEN
100
AcDbLine
 10
47.830342115
 20
2.242993822
 30
0.0
 11
47.587768183
 21
2.303474296
 31
0.0
  0
LINE
  5
93
330
1F
100
AcDbEntity
  8
EW
  6
HIDDEN
100
AcDbLine
 10
37.681785453
 20
-0.225162916
 30
0.0
 11
46.184893794
 21
-2.345225937
 31
0.0
  0
LINE
  5
94
330
1F
100
AcDbEntity
  8
EW
  6
HIDDEN
100
AcDbLine
 10
47.200965755
 20
1.730016114
 30
0.0
 11
38.697857415
 21
3.850079134
 31
0.0
  0
LINE
  5
95
330
1F
100
AcDbEntity
  8
EW
  6
HIDDEN
100
AcDbLine
 10
38.697857415
 20
3.850079134
 30
0.0
 11
37.448188032
 21
1.997368084
 31
0.0
  0
LINE
  5
96
330
1F
100
AcDbEntity
  8
EW
  6
HIDDEN
100
AcDbLine
 10
-30.0
 20
-2.0
 30
0.0
 11
16.3722489078
 21
-2.0
 31
0.0
  0
LINE
  5
97
330
1F
100
AcDbEntity
  8
EW
  6
HIDDEN
100
AcDbLine
 10
33.682108361
 20
-2.0
 30
0.0
 11
36.68
 21
-2.0
 31
0.0
  0
LINE
  5
98
330
1F
100
AcDbEntity
  8
EW
  6
HIDDEN
100
AcDbLine
 10
36.68
 20
2.0
 30
0.0
 11
-30.0
 21
2.0
 31
0.0
  0
LINE
  5
99
330
1F
100
AcDbEntity
  8
EW
  6
HIDDEN
100
AcDbLine
 10
47.438998019
 20
2.082913457
 30
0.0
 11
39.764921899
 21
3.996275529
 31
0.0
  0
LINE
  5
9A
330
1F
100
AcDbEntity
  8
EW
  6
HIDDEN
100
AcDbLine
 10
46.229388541
 20
-2.768565175
 30
0.0
 11
38.545609464
 21
-0.852783883
 31
0.0
  0
LINE
  5
9B
330
1F
100
AcDbEntity
  8
AUFNAHME
  6
CONTINUOUS
100
AcDbLine
 10
36.68
 20
6.0
 30
0.0
 11
36.68
 21
-6.0
 31
0.0
  0
LINE
  5
9C
330
1F
100
AcDbEntity
  8
UNSICHT
  6
CENTER
100
AcDbLine
 10
-31.751918727
 20
0.1084995651
 30
0.0
 11
60.8589476743
 21
0.1084995651
 31
0.0
  0
LINE
  5
9D
330
1F
100
AcDbEntity
  8
ZAPFEN
100
AcDbLine
 10
45.9081223337
 20
-6.5000000075
 30
0.0
 11
49.6225768507
 21
-6.5000000075
 31
0.0
  0
LINE
  5
9E
330
1F
100
AcDbEntity
  8
ZAPFEN
100
AcDbLine
 10
59.9972783654
 20
6.631004613
 30
0.0
 11
59.667317697
 21
0.3349799978
 31
0.0
  0
LINE
  5
9F
330
1F
100
AcDbEntity
  8
ZAPFEN
100
AcDbLine
 10
59.251742185
 20
0.1223679632
 30
0.0
 11
53.9849537339
 21
3.555047211
 31
0.0
  0
LINE
  5
A0
330
1F
100
AcDbEntity
  8
ZAPFEN
100
AcDbLine
 10
54.0094543092
 20
4.0225460387
 30
0.0
 11
59.6062034285
 21
6.8858914066
 31
0.0
  0
LINE
  5
A1
330
1F
100
AcDbEntity
  8
ZAPFEN
100
AcDbLine
 10
49.5068143917
 20
3.7999999998
 30
0.0
 11
52.2814742657
 21
3.7999999998
 31
0.0
  0
LINE
  5
A2
330
1F
100
AcDbEntity
  8
ZAPFEN
100
AcDbLine
 10
59.2132307686
 20
-0.7015353144
 30
0.0
 11
56.2969497855
 21
-2.3852509251
 31
0.0
  0
LINE
  5
A3
330
1F
100
AcDbEntity
  8
EW
  6
HIDDEN
100
AcDbLine
 10
56.2969497855
 20
-2.3852509251
 30
0.0
 11
49.1257814305
 21
2.2717602569
 31
0.0
  0
LINE
  5
A4
330
1F
100
AcDbEntity
  8
EW
  6
HIDDEN
100
AcDbLine
 10
47.9360479737
 20
-2.5000000075
 30
0.0
 11
56.0981985447
 21
-2.5000000075
 31
0.0
  0
LINE
  5
A5
330
1F
100
AcDbEntity
  8
EW
  6
HIDDEN
100
AcDbLine
 10
56.0981985447
 20
-2.5000000075
 30
0.0
 11
56.2969497855
 21
-2.3852509251
 31
0.0
  0
LINE
  5
A6
330
1F
100
AcDbEntity
  8
ZAPFEN
100
AcDbLine
 10
45.9081223337
 20
-6.5000000075
 30
0.0
 11
49.1493863707
 21
6.4999999925
 31
0.0
  0
LINE
  5
A7
330
1F
100
AcDbEntity
  8
EW
  6
HIDDEN
100
AcDbLine
 10
53.5001223336
 20
-4.0000000073
 30
0.0
 11
51.0271824846
 21
-4.0000000073
 31
0.0
  0
LINE
  5
A8
330
1F
100
AcDbEntity
  8
ZAPFEN
100
AcDbLine
 10
50.056886758
 20
-4.7580781119
 30
0.0
 11
49.6225768507
 21
-6.5000000075
 31
0.0
  0
LINE
  5
A9
330
1F
100
AcDbEntity
  8
EW
  6
HIDDEN
100
AcDbLine
 10
56.0981985447
 20
-2.5000000075
 30
0.0
 11
53.5001223336
 21
-4.0000000073
 31
0.0
  0
LINE
  5
AA
330
1F
100
AcDbEntity
  8
EW
  6
HIDDEN
100
AcDbLine
 10
49.5068143917
 20
3.7999999998
 30
0.0
 11
48.4762007627
 21
3.7999999998
 31
0.0
  0
LINE
  5
AB
330
1F
100
AcDbEntity
  8
ZAPFEN
100
AcDbLine
 10
52.9577096375
 20
3.7999999998
 30
0.0
 11
59.3291833632
 21
-0.3376834174
 31
0.0
  0
LINE
  5
AC
330
1F
100
AcDbEntity
  8
ZAPFEN
100
AcDbLine
 10
59.3131376397
 20
-0.6438540555
 30
0.0
 11
59.3291833632
 21
-0.3376834174
 31
0.0
  0
LINE
  5
AD
330
1F
100
AcDbEntity
  8
ZAPFEN
100
AcDbLine
 10
52.2814742657
 20
3.7999999998
 30
0.0
 11
52.9577096375
 21
3.7999999998
 31
0.0
  0
LINE
  5
AE
330
1F
100
AcDbEntity
  8
ZAPFEN
100
AcDbLine
 10
59.3131376397
 20
-0.6438540555
 30
0.0
 11
59.2132307686
 21
-0.7015353144
 31
0.0
  0
LINE
  5
AF
330
1F
100
AcDbEntity
  8
ZAPFEN
100
AcDbLine
 10
55.639063077
 20
4.856268011
 30
0.0
 11
54.808015181
 21
5.394010204
 31
0.0
  0
LINE
  5
B0
330
1F
100
AcDbEntity
  8
ZAPFEN
100
AcDbLine
 10
53.605613241
 20
3.549154861
 30
0.0
 11
55.289561463
 21
2.459530528
 31
0.0
  0
LINE
  5
B1
330
1F
100
AcDbEntity
  8
ZAPFEN
100
AcDbLine
 10
49.1493863707
 20
6.4999999925
 30
0.0
 11
58.6014391297
 21
6.4999999925
 31
0.0
  0
LINE
  5
B2
330
1F
100
AcDbEntity
  8
ZAPFEN
100
AcDbLine
 10
59.3512283897
 20
0.0829607415
 30
0.0
 11
59.3291833632
 21
-0.3376834174
 31
0.0
  0
LINE
  5
B3
330
1F
100
AcDbEntity
  8
EW
  6
HIDDEN
100
AcDbLine
 10
50.056886758
 20
-4.7580781119
 30
0.0
 11
51.9335812367
 21
2.7689323225
 31
0.0
  0
LINE
  5
B4
330
1F
100
AcDbEntity
  8
EW
  6
HIDDEN
100
AcDbLine
 10
54.1531737727
 20
-3.6229605835
 30
0.0
 11
55.5236754247
 21
1.8738213085
 31
0.0
  0
LINE
  5
B5
330
1F
100
AcDbEntity
  8
EW
  6
HIDDEN
100
AcDbLine
 10
57.959054601
 20
4.355501463
 30
0.0
 11
57.95821808
 21
4.355379732
 31
0.0
  0
LINE
  5
B6
330
1F
100
AcDbEntity
  8
EW
  6
HIDDEN
100
AcDbLine
 10
55.5236754247
 20
1.8738213085
 30
0.0
 11
51.9335812367
 21
2.7689323225
 31
0.0
  0
LINE
  5
B7
330
1F
100
AcDbEntity
  8
EW
  6
HIDDEN
100
AcDbLine
 10
46.392279623
 20
-4.558151174
 30
0.0
 11
49.88934122
 21
-5.430066557
 31
0.0
  0
LINE
  5
B8
330
1F
100
AcDbEntity
  8
EW
  6
HIDDEN
100
AcDbLine
 10
59.034047768
 20
-0.804986661
 30
0.0
 11
55.100312107
 21
0.175803795
 31
0.0
  0
LINE
  5
B9
330
1F
100
AcDbEntity
  8
EW
  6
HIDDEN
100
AcDbLine
 10
51.51021792
 20
1.070914809
 30
0.0
 11
48.013156324
 21
1.942830192
 31
0.0
  0
LINE
  5
BA
330
1F
100
AcDbEntity
  8
ZAPFEN
100
AcDbLine
 10
55.798862794
 20
3.59218052
 30
0.0
 11
59.698862794
 21
3.59218052
 31
0.0
  0
LINE
  5
BB
330
1F
100
AcDbEntity
  8
ZAPFEN
100
AcDbLine
 10
57.748862794
 20
1.64218052
 30
0.0
 11
57.748862794
 21
5.54218052
 31
0.0
  0
ARC
  5
BC
330
1F
100
AcDbEntity
  8
AUFNAHME
  6
CONTINUOUS
100
AcDbCircle
 10
46.4799999994
 20
11.8
 30
0.0
 40
8.000000000138039
100
AcDbArc
 50
221.4908168553
 51
270.0000000022
  0
ARC
  5
BD
330
1F
100
AcDbEntity
  8
ZAPFEN
100
AcDbCircle
 10
59.728416354
 20
6.645945551
 30
0.0
 40
0.2692768330000465
100
AcDbArc
 50
356.8192861702
 51
116.9913559804
  0
ARC
  5
BE
330
1F
100
AcDbEntity
  8
ZAPFEN
100
AcDbCircle
 10
59.3983667868
 20
0.3482246408
 30
0.0
 40
0.2692768327841659
100
AcDbArc
 50
237.008644024
 51
357.1807137948
  0
ARC
  5
BF
330
1F
100
AcDbEntity
  8
ZAPFEN
100
AcDbCircle
 10
54.133097431
 20
3.7816747531
 30
0.0
 40
0.2707519119096768
100
AcDbArc
 50
117.172162077
 51
236.8278379385
  0
ARC
  5
C0
330
1F
100
AcDbEntity
  8
EW
  6
HIDDEN
100
AcDbCircle
 10
51.0272890456
 20
-5.0001363995
 30
0.0
 40
1.00013639783847
100
AcDbArc
 50
90.0061046629
 51
165.993895334
  0
ARC
  5
C1
330
1F
100
AcDbEntity
  8
ZAPFEN
100
AcDbCircle
 10
54.206814211
 20
4.471582532
 30
0.0
 40
1.101248066000019
100
AcDbArc
 50
56.900143707
 51
236.900143707
  0
ARC
  5
C2
330
1F
100
AcDbEntity
  8
ZAPFEN
100
AcDbCircle
 10
55.890762433
 20
3.3819582
 30
0.0
 40
1.101248066000026
100
AcDbArc
 50
236.900143707
 51
272.389334227
  0
ARC
  5
C3
330
1F
100
AcDbEntity
  8
ZAPFEN
100
AcDbCircle
 10
56.916115286
 20
4.544334318
 30
0.0
 40
2.608235040000021
100
AcDbArc
 50
46.331624053
 51
48.470838322
  0
ARC
  5
C4
330
1F
100
AcDbEntity
  8
ZAPFEN
100
AcDbCircle
 10
58.606486361
 20
6.45299218
 30
0.0
 40
0.0484857140000211
100
AcDbArc
 50
48.471396384
 51
96.128372291
  0
CIRCLE
  5
C5
330
1F
100
AcDbEntity
  8
ZAPFEN
100
AcDbCircle
 10
57.748862794
 20
3.59218052
 30
0.0
 40
1.300000000000026
  0
DIMENSION
  5
C6
330
1F
100
AcDbEntity
  8
MASS
100
AcDbDimension
  2
_D
 10
-37.2792606017
 20
-6.0
 30
0.0
 11
-37.2792606017
 21
0.0
 31
0.0
 70
   160
  1
%%c<>
  3
SLDDIMSTYLE0
100
AcDbAlignedDimension
 13
-29.0
 23
6.0
 33
0.0
 14
-29.0
 24
-6.0
 34
0.0
 50
90.0
100
AcDbRotatedDimension
  0
DIMENSION
  5
D3
330
1F
100
AcDbEntity
  8
MASS
100
AcDbDimension
  2
_D_1
 10
0.0
 20
-15.4232374103
 30
0.0
 11
-15.0
 21
-15.4232374103
 31
0.0
 70
   160
  1
min. <>
  3
SLDDIMSTYLE0
100
AcDbAlignedDimension
 13
-30.0
 23
-5.0
 33
0.0
 14
0.0
 24
-6.0
 34
0.0
 50
0.0
100
AcDbRotatedDimension
  0
DIMENSION
  5
DE
330
1F
100
AcDbEntity
  8
MASS
100
AcDbDimension
  2
_D_2
 10
0.0
 20
-15.4232374103
 30
0.0
 11
29.9986391827
 21
-15.4232374103
 31
0.0
 70
   160
  1
25 - 60
  3
SLDDIMSTYLE0
100
AcDbAlignedDimension
 13
59.9972783654
 23
6.631004613
 33
0.0
 14
0.0
 24
-6.0
 34
0.0
 50
0.0
100
AcDbRotatedDimension
  0
DIMENSION
  5
E9
330
1F
100
AcDbEntity
  8
MASS
100
AcDbDimension
  2
_D_3
 10
-30.0
 20
13.3773704539
 30
0.0
 11
9.9985316903
 21
13.3773704539
 31
0.0
 70
   160
  1
<>
  3
SLDDIMSTYLE0
100
AcDbAlignedDimension
 13
49.9970633807
 23
5.7662812968
 33
0.0
 14
-30.0
 24
5.0
 34
0.0
 50
0.0
100
AcDbRotatedDimension
  0
DIMENSION
  5
F3
330
1F
100
AcDbEntity
  8
MASS
100
AcDbDimension
  2
_D_4
 10
71.6378551756
 20
-6.4999999999
 30
0.0
 11
71.6378551756
 21
-9.7616869261
 31
0.0
 70
   160
  1
%%c13.8 - 17.0
  3
SLDDIMSTYLE1
100
AcDbAlignedDimension
 13
59.6062034285
 23
6.8858914066
 33
0.0
 14
45.6504689257
 24
-6.4999999999
 34
0.0
 50
90.0
100
AcDbRotatedDimension
  0
MTEXT
  5
FE
330
1F
100
AcDbEntity
  8
TEXT
100
AcDbMText
 10
18.6178675672
 20
-0.8823600402
 30
0.0
 40
3.5
 41
0.0
 71
     1
 72
     1
  1
615.355
  7
SLDTEXTSTYLE0
  0
ENDSEC
  0
SECTION
  2
OBJECTS
  0
DICTIONARY
  5
C
330
0
100
AcDbDictionary
  3
ACAD_GROUP
350
D
  3
ACAD_MLINESTYLE
350
17
  3
ACAD_SCALELIST
350
47
  0
DICTIONARY
  5
D
102
{ACAD_REACTORS
330
C
102
}
330
C
100
AcDbDictionary
  0
DICTIONARY
  5
17
102
{ACAD_REACTORS
330
C
102
}
330
C
100
AcDbDictionary
  3
STANDARD
350
18
  0
DICTIONARY
  5
47
102
{ACAD_REACTORS
330
C
102
}
330
C
100
AcDbDictionary
  0
MLINESTYLE
  5
18
102
{ACAD_REACTORS
330
17
102
}
330
17
100
AcDbMlineStyle
  2
Standard
 70
     0
  3

 62
   256
 51
90.0
 52
90.0
 71
     2
 49
0.5
 62
   256
  6
BYLAYER
 49
-0.5
 62
   256
  6
BYLAYER
  0
ENDSEC
  0
EOF
