  0
SECTION
  2
HEADER
  9
$ACADVER
  1
AC1014
  9
$ACADMAINTVER
 70
     9
  9
$DWGCODEPAGE
  3
ANSI_1252
  9
$INSBASE
 10
0.0
 20
0.0
 30
0.0
  9
$EXTMIN
 10
0.0
 20
0.0
 30
0.0
  9
$EXTMAX
 10
420.0
 20
297.0
 30
0.0
  9
$LIMMIN
 10
0.0
 20
0.0
  9
$LIMMAX
 10
420.0
 20
297.0
  9
$ORTHOMODE
 70
     0
  9
$REGENMODE
 70
     1
  9
$FILLMODE
 70
     1
  9
$QTEXTMODE
 70
     0
  9
$MIRRTEXT
 70
     1
  9
$DRAGMODE
 70
     2
  9
$LTSCALE
 40
1.0
  9
$OSMODE
 70
    37
  9
$ATTMODE
 70
     1
  9
$TEXTSIZE
 40
3.5
  9
$TRACEWID
 40
1.0
  9
$TEXTSTYLE
  7
STANDARD
  9
$CLAYER
  8
0
  9
$CELTYPE
  6
BYLAYER
  9
$CECOLOR
 62
   256
  9
$CELTSCALE
 40
1.0
  9
$DELOBJ
 70
     1
  9
$DISPSILH
 70
     0
  9
$DIMSCALE
 40
1.0
  9
$DIMASZ
 40
3.5
  9
$DIMEXO
 40
0.0
  9
$DIMDLI
 40
3.75
  9
$DIMRND
 40
0.0
  9
$DIMDLE
 40
0.0
  9
$DIMEXE
 40
1.0
  9
$DIMTP
 40
0.0
  9
$DIMTM
 40
0.0
  9
$DIMTXT
 40
3.5
  9
$DIMCEN
 40
2.5
  9
$DIMTSZ
 40
0.0
  9
$DIMTOL
 70
     0
  9
$DIMLIM
 70
     0
  9
$DIMTIH
 70
     1
  9
$DIMTOH
 70
     1
  9
$DIMSE1
 70
     0
  9
$DIMSE2
 70
     0
  9
$DIMTAD
 70
     1
  9
$DIMZIN
 70
     0
  9
$DIMBLK
  1

  9
$DIMASO
 70
     1
  9
$DIMSHO
 70
     1
  9
$DIMPOST
  1

  9
$DIMAPOST
  1

  9
$DIMALT
 70
     0
  9
$DIMALTD
 70
     3
  9
$DIMALTF
 40
0.0393700787
  9
$DIMLFAC
 40
1.0
  9
$DIMTOFL
 70
     1
  9
$DIMTVP
 40
0.0
  9
$DIMTIX
 70
     0
  9
$DIMSOXD
 70
     0
  9
$DIMSAH
 70
     0
  9
$DIMBLK1
  1

  9
$DIMBLK2
  1

  9
$DIMSTYLE
  2
ISO-25
  9
$DIMCLRD
 70
     0
  9
$DIMCLRE
 70
     0
  9
$DIMCLRT
 70
     0
  9
$DIMTFAC
 40
1.0
  9
$DIMGAP
 40
1.5
  9
$DIMJUST
 70
     0
  9
$DIMSD1
 70
     0
  9
$DIMSD2
 70
     0
  9
$DIMTOLJ
 70
     0
  9
$DIMTZIN
 70
     0
  9
$DIMALTZ
 70
     0
  9
$DIMALTTZ
 70
     0
  9
$DIMFIT
 70
     3
  9
$DIMUPT
 70
     0
  9
$DIMUNIT
 70
     2
  9
$DIMDEC
 70
     2
  9
$DIMTDEC
 70
     3
  9
$DIMALTU
 70
     2
  9
$DIMALTTD
 70
     3
  9
$DIMTXSTY
  7
STANDARD
  9
$DIMAUNIT
 70
     0
  9
$LUNITS
 70
     2
  9
$LUPREC
 70
     2
  9
$SKETCHINC
 40
1.0
  9
$FILLETRAD
 40
10.0
  9
$AUNITS
 70
     0
  9
$AUPREC
 70
     2
  9
$MENU
  1
.
  9
$ELEVATION
 40
0.0
  9
$PELEVATION
 40
0.0
  9
$THICKNESS
 40
0.0
  9
$LIMCHECK
 70
     0
  9
$CHAMFERA
 40
0.0
  9
$CHAMFERB
 40
0.0
  9
$CHAMFERC
 40
0.0
  9
$CHAMFERD
 40
0.0
  9
$SKPOLY
 70
     0
  9
$TDCREATE
 40
2457086.486260116
  9
$TDUPDATE
 40
2457086.486260301
  9
$TDINDWG
 40
0.0000000116
  9
$TDUSRTIMER
 40
0.0000000116
  9
$USRTIMER
 70
     1
  9
$ANGBASE
 50
0.0
  9
$ANGDIR
 70
     0
  9
$PDMODE
 70
     0
  9
$PDSIZE
 40
-1.0
  9
$PLINEWID
 40
0.0
  9
$COORDS
 70
     1
  9
$SPLFRAME
 70
     0
  9
$SPLINETYPE
 70
     6
  9
$SPLINESEGS
 70
     8
  9
$ATTDIA
 70
     0
  9
$ATTREQ
 70
     1
  9
$HANDLING
 70
     1
  9
$HANDSEED
  5
102
  9
$SURFTAB1
 70
     6
  9
$SURFTAB2
 70
     6
  9
$SURFTYPE
 70
     6
  9
$SURFU
 70
     6
  9
$SURFV
 70
     6
  9
$UCSNAME
  2

  9
$UCSORG
 10
0.0
 20
0.0
 30
0.0
  9
$UCSXDIR
 10
1.0
 20
0.0
 30
0.0
  9
$UCSYDIR
 10
0.0
 20
1.0
 30
0.0
  9
$PUCSNAME
  2

  9
$PUCSORG
 10
0.0
 20
0.0
 30
0.0
  9
$PUCSXDIR
 10
1.0
 20
0.0
 30
0.0
  9
$PUCSYDIR
 10
0.0
 20
1.0
 30
0.0
  9
$USERI1
 70
     0
  9
$USERI2
 70
     0
  9
$USERI3
 70
     0
  9
$USERI4
 70
     0
  9
$USERI5
 70
     0
  9
$USERR1
 40
0.0
  9
$USERR2
 40
0.0
  9
$USERR3
 40
0.0
  9
$USERR4
 40
0.0
  9
$USERR5
 40
0.0
  9
$WORLDVIEW
 70
     1
  9
$SHADEDGE
 70
     3
  9
$SHADEDIF
 70
    70
  9
$TILEMODE
 70
     1
  9
$MAXACTVP
 70
    64
  9
$PINSBASE
 10
0.0
 20
0.0
 30
0.0
  9
$PLIMCHECK
 70
     0
  9
$PEXTMIN
 10
1.0000000000E+20
 20
1.0000000000E+20
 30
1.0000000000E+20
  9
$PEXTMAX
 10
-1.0000000000E+20
 20
-1.0000000000E+20
 30
-1.0000000000E+20
  9
$PLIMMIN
 10
0.0
 20
0.0
  9
$PLIMMAX
 10
420.0
 20
297.0
  9
$UNITMODE
 70
     0
  9
$VISRETAIN
 70
     1
  9
$PLINEGEN
 70
     0
  9
$PSLTSCALE
 70
     1
  9
$TREEDEPTH
 70
  3020
  9
$PICKSTYLE
 70
     1
  9
$CMLSTYLE
  2
STANDARD
  9
$CMLJUST
 70
     0
  9
$CMLSCALE
 40
20.0
  9
$PROXYGRAPHICS
 70
     1
  9
$MEASUREMENT
 70
     1
  0
ENDSEC
  0
SECTION
  2
CLASSES
  0
CLASS
  1
ACDBDICTIONARYWDFLT
  2
AcDbDictionaryWithDefault
  3
ObjectDBX Classes
 90
        0
280
     0
281
     0
  0
CLASS
  1
VISUALSTYLE
  2
AcDbVisualStyle
  3
ObjectDBX Classes
 90
     4095
280
     0
281
     0
  0
CLASS
  1
MATERIAL
  2
AcDbMaterial
  3
ObjectDBX Classes
 90
     1153
280
     0
281
     0
  0
CLASS
  1
SCALE
  2
AcDbScale
  3
ObjectDBX Classes
 90
     1153
280
     0
281
     0
  0
CLASS
  1
SUN
  2
AcDbSun
  3
SCENEOE
 90
     1153
280
     0
281
     0
  0
CLASS
  1
XRECORD
  2
AcDbXrecord
  3
ObjectDBX Classes
 90
        0
280
     0
281
     0
  0
CLASS
  1
LWPOLYLINE
  2
AcDbPolyline
  3
ObjectDBX Classes
 90
        0
280
     0
281
     1
  0
CLASS
  1
HATCH
  2
AcDbHatch
  3
ObjectDBX Classes
 90
        0
280
     0
281
     1
  0
ENDSEC
  0
SECTION
  2
TABLES
  0
TABLE
  2
VPORT
  5
8
330
0
100
AcDbSymbolTable
 70
     1
  0
VPORT
  5
29
330
8
100
AcDbSymbolTableRecord
100
AcDbViewportTableRecord
  2
*ACTIVE
 70
     0
 10
0.0
 20
0.0
 11
1.0
 21
1.0
 12
210.0
 22
148.5
 13
0.0
 23
0.0
 14
10.0
 24
10.0
 15
10.0
 25
10.0
 16
0.0
 26
0.0
 36
1.0
 17
0.0
 27
0.0
 37
0.0
 40
297.0
 41
1.4141414141
 42
50.0
 43
0.0
 44
0.0
 50
0.0
 51
0.0
 71
     0
 72
  2000
 73
     1
 74
     3
 75
     0
 76
     0
 77
     0
 78
     0
  0
ENDTAB
  0
TABLE
  2
LTYPE
  5
5
330
0
100
AcDbSymbolTable
 70
     6
  0
LTYPE
  5
14
330
5
100
AcDbSymbolTableRecord
100
AcDbLinetypeTableRecord
  2
BYBLOCK
 70
     0
  3

 72
    65
 73
     0
 40
0.0
  0
LTYPE
  5
15
330
5
100
AcDbSymbolTableRecord
100
AcDbLinetypeTableRecord
  2
BYLAYER
 70
     0
  3

 72
    65
 73
     0
 40
0.0
  0
LTYPE
  5
16
330
5
100
AcDbSymbolTableRecord
100
AcDbLinetypeTableRecord
  2
CONTINUOUS
 70
     0
  3
Solid line
 72
    65
 73
     0
 40
0.0
  0
LTYPE
  5
6A
330
5
100
AcDbSymbolTableRecord
100
AcDbLinetypeTableRecord
  2
HIDDEN
 70
     0
  3
Hidden __ __ __ __ __ __ __ __ __ __ __ __ __ __
 72
    65
 73
     2
 40
1.905
 49
1.27
 74
     0
 49
-0.635
 74
     0
  0
LTYPE
  5
6B
330
5
100
AcDbSymbolTableRecord
100
AcDbLinetypeTableRecord
  2
PHANTOM
 70
     0
  3
Phantom ______  __  __  ______  __  __  ______
 72
    65
 73
     6
 40
12.7
 49
6.35
 74
     0
 49
-1.27
 74
     0
 49
1.27
 74
     0
 49
-1.27
 74
     0
 49
1.27
 74
     0
 49
-1.27
 74
     0
  0
LTYPE
  5
6C
330
5
100
AcDbSymbolTableRecord
100
AcDbLinetypeTableRecord
  2
CENTER
 70
     0
  3
Center ____ _ ____ _ ____ _ ____ _ ____ _ ____
 72
    65
 73
     4
 40
10.16
 49
6.35
 74
     0
 49
-1.27
 74
     0
 49
1.27
 74
     0
 49
-1.27
 74
     0
  0
LTYPE
  5
6D
330
5
100
AcDbSymbolTableRecord
100
AcDbLinetypeTableRecord
  2
CENTERX2
 70
     0
  3
Center (2x) ________  __  ________  __  _____
 72
    65
 73
     4
 40
20.32
 49
12.7
 74
     0
 49
-2.54
 74
     0
 49
2.54
 74
     0
 49
-2.54
 74
     0
  0
LTYPE
  5
6E
330
5
100
AcDbSymbolTableRecord
100
AcDbLinetypeTableRecord
  2
DOT2
 70
     0
  3
Dot (.5x) ........................................
 72
    65
 73
     2
 40
0.635
 49
0.0
 74
     0
 49
-0.635
 74
     0
  0
ENDTAB
  0
TABLE
  2
LAYER
  5
2
330
0
100
AcDbSymbolTable
 70
     7
  0
LAYER
  5
10
330
2
100
AcDbSymbolTableRecord
100
AcDbLayerTableRecord
  2
0
 70
     0
 62
     7
  6
CONTINUOUS
  0
LAYER
  5
6F
330
2
100
AcDbSymbolTableRecord
100
AcDbLayerTableRecord
  2
AUFNAHME
 70
     0
 62
     7
  6
CONTINUOUS
  0
LAYER
  5
70
330
2
100
AcDbSymbolTableRecord
100
AcDbLayerTableRecord
  2
MASS
 70
     0
 62
     4
  6
CONTINUOUS
  0
LAYER
  5
71
330
2
100
AcDbSymbolTableRecord
100
AcDbLayerTableRecord
  2
EW
 70
     0
 62
     1
  6
HIDDEN
  0
LAYER
  5
72
330
2
100
AcDbSymbolTableRecord
100
AcDbLayerTableRecord
  2
UNSICHT
 70
     0
 62
     4
  6
CENTER
  0
LAYER
  5
73
330
2
100
AcDbSymbolTableRecord
100
AcDbLayerTableRecord
  2
TEXT
 70
     0
 62
     7
  6
CONTINUOUS
  0
LAYER
  5
74
330
2
100
AcDbSymbolTableRecord
100
AcDbLayerTableRecord
  2
ZAPFEN
 70
     0
 62
     4
  6
CONTINUOUS
  0
ENDTAB
  0
TABLE
  2
STYLE
  5
3
330
0
100
AcDbSymbolTable
 70
     3
  0
STYLE
  5
11
330
3
100
AcDbSymbolTableRecord
100
AcDbTextStyleTableRecord
  2
STANDARD
 70
     0
 40
0.0
 41
1.0
 50
0.0
 71
     0
 42
3.5
  3
txt
  4

  0
STYLE
  5
CA
330
3
100
AcDbSymbolTableRecord
100
AcDbTextStyleTableRecord
  2
SLDTEXTSTYLE0
 70
     0
 40
0.0
 41
0.605
 50
0.0
 71
     0
 42
3.5
  3
TXT
  4

  0
STYLE
  5
F4
330
3
100
AcDbSymbolTableRecord
100
AcDbTextStyleTableRecord
  2
SLDTEXTSTYLE1
 70
     0
 40
0.0
 41
0.575
 50
0.0
 71
     0
 42
3.5
  3
TXT
  4

  0
ENDTAB
  0
TABLE
  2
VIEW
  5
6
330
0
100
AcDbSymbolTable
 70
     0
  0
ENDTAB
  0
TABLE
  2
UCS
  5
7
330
0
100
AcDbSymbolTable
 70
     0
  0
ENDTAB
  0
TABLE
  2
APPID
  5
9
330
0
100
AcDbSymbolTable
 70
     1
  0
APPID
  5
12
330
9
100
AcDbSymbolTableRecord
100
AcDbRegAppTableRecord
  2
ACAD
 70
     0
  0
ENDTAB
  0
TABLE
  2
DIMSTYLE
  5
A
330
0
100
AcDbSymbolTable
 70
     3
  0
DIMSTYLE
105
27
330
A
100
AcDbSymbolTableRecord
100
AcDbDimStyleTableRecord
  2
ISO-25
 70
     0
  3

  4

  5

  6

  7

 40
1.0
 41
2.5
 42
0.625
 43
3.75
 44
1.25
 45
0.0
 46
0.0
 47
0.0
 48
0.0
140
2.5
141
2.5
142
0.0
143
0.0393700787
144
1.0
145
0.0
146
1.0
147
0.625
 71
     0
 72
     0
 73
     0
 74
     0
 75
     0
 76
     0
 77
     1
 78
     8
170
     0
171
     3
172
     1
173
     0
174
     0
175
     0
176
     0
177
     0
178
     0
270
     2
271
     2
272
     2
273
     2
274
     3
340
11
275
     0
280
     0
281
     0
282
     0
283
     0
284
     8
285
     0
286
     0
287
     3
288
     0
  0
DIMSTYLE
105
CB
102
{ACAD_REACTORS
330
C9
330
D5
330
E0
330
EB
102
}
330
A
100
AcDbSymbolTableRecord
100
AcDbDimStyleTableRecord
  2
SLDDIMSTYLE0
 70
     0
  3

  4

  5

  6

  7

 40
1.0
 41
3.5
 42
0.0625
 43
0.38
 44
0.0
 45
0.000000001
 46
0.0
 47
0.0
 48
0.0
140
3.5
141
0.09
142
0.0
143
25.4
144
1.0
145
0.0
146
1.0
147
0.875
 71
     0
 72
     0
 73
     0
 74
     0
 75
     0
 76
     0
 77
     1
 78
    12
170
     0
171
     2
172
     0
173
     1
174
     0
175
     0
176
     0
177
     0
178
     0
270
     2
271
     2
272
     3
273
     2
274
     2
340
CA
275
     0
280
     0
281
     0
282
     0
283
     1
284
    12
285
     0
286
     0
287
     3
288
     0
  0
DIMSTYLE
105
F7
102
{ACAD_REACTORS
330
F6
102
}
330
A
100
AcDbSymbolTableRecord
100
AcDbDimStyleTableRecord
  2
SLDDIMSTYLE1
 70
     0
  3

  4

  5

  6

  7

 40
1.0
 41
3.5
 42
0.0625
 43
0.38
 44
0.0
 45
0.000000001
 46
0.0
 47
0.0
 48
0.0
140
3.5
141
0.09
142
0.0
143
25.4
144
1.0
145
0.0
146
1.0
147
0.875
 71
     0
 72
     0
 73
     0
 74
     0
 75
     0
 76
     0
 77
     1
 78
    12
170
     0
171
     2
172
     0
173
     1
174
     0
175
     0
176
     0
177
     0
178
     0
270
     2
271
     2
272
     3
273
     2
274
     2
340
CA
275
     0
280
     0
281
     0
282
     0
283
     1
284
    12
285
     0
286
     0
287
     3
288
     0
  0
ENDTAB
  0
TABLE
  2
BLOCK_RECORD
  5
1
330
0
100
AcDbSymbolTable
 70
     6
  0
BLOCK_RECORD
  5
1F
330
1
100
AcDbSymbolTableRecord
100
AcDbBlockTableRecord
  2
*MODEL_SPACE
  0
BLOCK_RECORD
  5
1B
330
1
100
AcDbSymbolTableRecord
100
AcDbBlockTableRecord
  2
*PAPER_SPACE
  0
BLOCK_RECORD
  5
23
330
1
100
AcDbSymbolTableRecord
100
AcDbBlockTableRecord
  2
*PAPER_SPACE0
  0
BLOCK_RECORD
  5
CC
330
1
100
AcDbSymbolTableRecord
100
AcDbBlockTableRecord
  2
_D
  0
BLOCK_RECORD
  5
D6
330
1
100
AcDbSymbolTableRecord
100
AcDbBlockTableRecord
  2
_D_1
  0
BLOCK_RECORD
  5
E1
330
1
100
AcDbSymbolTableRecord
100
AcDbBlockTableRecord
  2
_D_2
  0
BLOCK_RECORD
  5
EC
330
1
100
AcDbSymbolTableRecord
100
AcDbBlockTableRecord
  2
_D_3
  0
BLOCK_RECORD
  5
F8
330
1
100
AcDbSymbolTableRecord
100
AcDbBlockTableRecord
  2
_D_4
  0
ENDTAB
  0
ENDSEC
  0
SECTION
  2
BLOCKS
  0
BLOCK
  5
20
330
1F
100
AcDbEntity
  8
0
100
AcDbBlockBegin
  2
*MODEL_SPACE
 70
     0
 10
0.0
 20
0.0
 30
0.0
  3
*MODEL_SPACE
  1

  0
ENDBLK
  5
21
330
1F
100
AcDbEntity
  8
0
100
AcDbBlockEnd
  0
BLOCK
  5
1C
330
1B
100
AcDbEntity
 67
     1
  8
0
100
AcDbBlockBegin
  2
*PAPER_SPACE
 70
     0
 10
0.0
 20
0.0
 30
0.0
  3
*PAPER_SPACE
  1

  0
ENDBLK
  5
1D
330
1B
100
AcDbEntity
 67
     1
  8
0
100
AcDbBlockEnd
  0
BLOCK
  5
24
330
23
100
AcDbEntity
  8
0
100
AcDbBlockBegin
  2
*PAPER_SPACE0
 70
     0
 10
0.0
 20
0.0
 30
0.0
  3
*PAPER_SPACE0
  1
*PAPER_SPACE0
  0
ENDBLK
  5
25
330
23
100
AcDbEntity
  8
0
100
AcDbBlockEnd
  0
BLOCK
  5
CD
330
CC
100
AcDbEntity
  8
0
100
AcDbBlockBegin
  2
_D
 70
     0
 10
0.0
 20
0.0
 30
0.0
  3
_D
  1
_D
  0
SOLID
  5
CF
330
CC
100
AcDbEntity
  8
MASS
100
AcDbTrace
 10
55.0001487547
 20
13.594972827
 30
0.0
 11
51.5001487547
 21
14.044972827
 31
0.0
 12
51.5001487547
 22
13.144972827
 32
0.0
 13
51.5001487547
 23
13.144972827
 33
0.0
  0
SOLID
  5
D0
330
CC
100
AcDbEntity
  8
MASS
100
AcDbTrace
 10
-30.0
 20
13.594972827
 30
0.0
 11
-26.5
 21
13.144972827
 31
0.0
 12
-26.5
 22
14.044972827
 32
0.0
 13
-26.5
 23
14.044972827
 33
0.0
  0
LINE
  5
D1
330
CC
100
AcDbEntity
  8
MASS
100
AcDbLine
 10
55.0001487547
 20
5.0333357358
 30
0.0
 11
55.0001487547
 21
14.594972827
 31
0.0
  0
LINE
  5
D2
330
CC
100
AcDbEntity
  8
MASS
100
AcDbLine
 10
-30.0
 20
4.13435625
 30
0.0
 11
-30.0
 21
14.594972827
 31
0.0
  0
LINE
  5
D3
330
CC
100
AcDbEntity
  8
MASS
100
AcDbLine
 10
55.0001487547
 20
13.594972827
 30
0.0
 11
-30.0
 21
13.594972827
 31
0.0
  0
MTEXT
  5
D4
330
CC
100
AcDbEntity
  8
MASS
100
AcDbMText
 10
10.3077133299
 20
18.1067096833
 30
0.0
 40
3.5
 41
0.0
 71
     1
 72
     1
  1
85
  7
SLDTEXTSTYLE0
  0
ENDBLK
  5
CE
330
CC
100
AcDbEntity
  8
0
100
AcDbBlockEnd
  0
BLOCK
  5
D7
330
D6
100
AcDbEntity
  8
0
100
AcDbBlockBegin
  2
_D_1
 70
     0
 10
0.0
 20
0.0
 30
0.0
  3
_D_1
  1
_D_1
  0
SOLID
  5
D9
330
D6
100
AcDbEntity
  8
MASS
100
AcDbTrace
 10
-37.1822753515
 20
5.13435625
 30
0.0
 11
-37.6322753515
 21
1.63435625
 31
0.0
 12
-36.7322753515
 22
1.63435625
 32
0.0
 13
-36.7322753515
 23
1.63435625
 33
0.0
  0
SOLID
  5
DA
330
D6
100
AcDbEntity
  8
MASS
100
AcDbTrace
 10
-37.1822753515
 20
-4.86564375
 30
0.0
 11
-36.7322753515
 21
-1.36564375
 31
0.0
 12
-37.6322753515
 22
-1.36564375
 32
0.0
 13
-37.6322753515
 23
-1.36564375
 33
0.0
  0
LINE
  5
DB
330
D6
100
AcDbEntity
  8
MASS
100
AcDbLine
 10
-29.0
 20
5.13435625
 30
0.0
 11
-38.1822753515
 21
5.13435625
 31
0.0
  0
LINE
  5
DC
330
D6
100
AcDbEntity
  8
MASS
100
AcDbLine
 10
-29.0
 20
-4.86564375
 30
0.0
 11
-38.1822753515
 21
-4.86564375
 31
0.0
  0
LINE
  5
DD
330
D6
100
AcDbEntity
  8
MASS
100
AcDbLine
 10
-37.1822753515
 20
5.13435625
 30
0.0
 11
-37.1822753515
 21
-4.86564375
 31
0.0
  0
MTEXT
  5
DE
330
D6
100
AcDbEntity
  8
MASS
100
AcDbMText
 10
-41.6940126735
 20
-4.644115991
 30
0.0
 40
3.5
 41
0.0
 71
     1
 72
     1
  1
%%c
  7
SLDTEXTSTYLE0
 11
-7.044195017643634E-15
 21
1.0
 31
0.0
  0
MTEXT
  5
DF
330
D6
100
AcDbEntity
  8
MASS
100
AcDbMText
 10
-41.6940126735
 20
0.528106396
 30
0.0
 40
3.5
 41
0.0
 71
     1
 72
     1
  1
10
  7
SLDTEXTSTYLE0
 11
-7.044195017643634E-15
 21
1.0
 31
0.0
  0
ENDBLK
  5
D8
330
D6
100
AcDbEntity
  8
0
100
AcDbBlockEnd
  0
BLOCK
  5
E2
330
E1
100
AcDbEntity
  8
0
100
AcDbBlockBegin
  2
_D_2
 70
     0
 10
0.0
 20
0.0
 30
0.0
  3
_D_2
  1
_D_2
  0
SOLID
  5
E4
330
E1
100
AcDbEntity
  8
MASS
100
AcDbTrace
 10
0.0
 20
-14.2039178768
 30
0.0
 11
-3.5
 21
-13.7539178768
 31
0.0
 12
-3.5
 22
-14.6539178768
 32
0.0
 13
-3.5
 23
-14.6539178768
 33
0.0
  0
SOLID
  5
E5
330
E1
100
AcDbEntity
  8
MASS
100
AcDbTrace
 10
-30.0
 20
-14.2039178768
 30
0.0
 11
-26.5
 21
-14.6539178768
 31
0.0
 12
-26.5
 22
-13.7539178768
 32
0.0
 13
-26.5
 23
-13.7539178768
 33
0.0
  0
LINE
  5
E6
330
E1
100
AcDbEntity
  8
MASS
100
AcDbLine
 10
0.0
 20
-4.86564375
 30
0.0
 11
0.0
 21
-15.2039178768
 31
0.0
  0
LINE
  5
E7
330
E1
100
AcDbEntity
  8
MASS
100
AcDbLine
 10
-30.0
 20
-3.86564375
 30
0.0
 11
-30.0
 21
-15.2039178768
 31
0.0
  0
LINE
  5
E8
330
E1
100
AcDbEntity
  8
MASS
100
AcDbLine
 10
0.0
 20
-14.2039178768
 30
0.0
 11
-30.0
 21
-14.2039178768
 31
0.0
  0
MTEXT
  5
E9
330
E1
100
AcDbEntity
  8
MASS
100
AcDbMText
 10
-21.4677088521
 20
-9.6921810205
 30
0.0
 40
3.5
 41
0.0
 71
     1
 72
     1
  1
min.
  7
SLDTEXTSTYLE0
  0
MTEXT
  5
EA
330
E1
100
AcDbEntity
  8
MASS
100
AcDbMText
 10
-12.9170146398
 20
-9.6921810205
 30
0.0
 40
3.5
 41
0.0
 71
     1
 72
     1
  1
30
  7
SLDTEXTSTYLE0
  0
ENDBLK
  5
E3
330
E1
100
AcDbEntity
  8
0
100
AcDbBlockEnd
  0
BLOCK
  5
ED
330
EC
100
AcDbEntity
  8
0
100
AcDbBlockBegin
  2
_D_3
 70
     0
 10
0.0
 20
0.0
 30
0.0
  3
_D_3
  1
_D_3
  0
SOLID
  5
EF
330
EC
100
AcDbEntity
  8
MASS
100
AcDbTrace
 10
65.0018382811
 20
-14.2039178768
 30
0.0
 11
61.5018382811
 21
-13.7539178768
 31
0.0
 12
61.5018382811
 22
-14.6539178768
 32
0.0
 13
61.5018382811
 23
-14.6539178768
 33
0.0
  0
SOLID
  5
F0
330
EC
100
AcDbEntity
  8
MASS
100
AcDbTrace
 10
0.0
 20
-14.2039178768
 30
0.0
 11
3.5
 21
-14.6539178768
 31
0.0
 12
3.5
 22
-13.7539178768
 32
0.0
 13
3.5
 23
-13.7539178768
 33
0.0
  0
LINE
  5
F1
330
EC
100
AcDbEntity
  8
MASS
100
AcDbLine
 10
65.0018382811
 20
5.7619357739
 30
0.0
 11
65.0018382811
 21
-15.2039178768
 31
0.0
  0
LINE
  5
F2
330
EC
100
AcDbEntity
  8
MASS
100
AcDbLine
 10
0.0
 20
-4.86564375
 30
0.0
 11
0.0
 21
-15.2039178768
 31
0.0
  0
LINE
  5
F3
330
EC
100
AcDbEntity
  8
MASS
100
AcDbLine
 10
65.0018382811
 20
-14.2039178768
 30
0.0
 11
0.0
 21
-14.2039178768
 31
0.0
  0
MTEXT
  5
F5
330
EC
100
AcDbEntity
  8
MASS
100
AcDbMText
 10
26.3613357206
 20
-9.6921810205
 30
0.0
 40
3.5
 41
0.0
 71
     1
 72
     1
  1
30 - 65
  7
SLDTEXTSTYLE1
  0
ENDBLK
  5
EE
330
EC
100
AcDbEntity
  8
0
100
AcDbBlockEnd
  0
BLOCK
  5
F9
330
F8
100
AcDbEntity
  8
0
100
AcDbBlockBegin
  2
_D_4
 70
     0
 10
0.0
 20
0.0
 30
0.0
  3
_D_4
  1
_D_4
  0
SOLID
  5
FB
330
F8
100
AcDbEntity
  8
MASS
100
AcDbTrace
 10
76.2480219271
 20
6.0168225669
 30
0.0
 11
75.7980219271
 21
2.5168225669
 31
0.0
 12
76.6980219271
 22
2.5168225669
 32
0.0
 13
76.6980219271
 23
2.5168225669
 33
0.0
  0
LINE
  5
FC
330
F8
100
AcDbEntity
  8
MASS
100
AcDbLine
 10
64.6107633447
 20
6.0168225669
 30
0.0
 11
77.2480219271
 21
6.0168225669
 31
0.0
  0
LINE
  5
FD
330
F8
100
AcDbEntity
  8
MASS
100
AcDbLine
 10
76.2480219271
 20
-5.3656437502
 30
0.0
 11
76.2480219271
 21
6.0168225669
 31
0.0
  0
LINE
  5
FE
330
F8
100
AcDbEntity
  8
MASS
100
AcDbLine
 10
76.2480219271
 20
6.0168225669
 30
0.0
 11
76.2480219271
 21
-20.4038393032
 31
0.0
  0
MTEXT
  5
FF
330
F8
100
AcDbEntity
  8
MASS
100
AcDbMText
 10
71.7362850707
 20
-20.4038393032
 30
0.0
 40
3.5
 41
0.0
 71
     1
 72
     1
  1
%%c
  7
SLDTEXTSTYLE0
 11
-7.044195017643634E-15
 21
1.0
 31
0.0
  0
MTEXT
  5
100
330
F8
100
AcDbEntity
  8
MASS
100
AcDbMText
 10
71.7362850707
 20
-15.2316169161
 30
0.0
 40
3.5
 41
0.0
 71
     1
 72
     1
  1
11.8-14.0
  7
SLDTEXTSTYLE0
 11
-7.044195017643634E-15
 21
1.0
 31
0.0
  0
ENDBLK
  5
FA
330
F8
100
AcDbEntity
  8
0
100
AcDbBlockEnd
  0
ENDSEC
  0
SECTION
  2
ENTITIES
  0
LINE
  5
75
330
1F
100
AcDbEntity
  8
EW
  6
HIDDEN
100
AcDbLine
 10
44.999053571
 20
0.058620704
 30
0.0
 11
44.815673932
 21
1.803361422
 31
0.0
  0
LINE
  5
76
330
1F
100
AcDbEntity
  8
EW
  6
HIDDEN
100
AcDbLine
 10
45.797296396
 20
3.258017662
 30
0.0
 11
44.81541331
 21
1.802316122
 31
0.0
  0
LINE
  5
77
330
1F
100
AcDbEntity
  8
EW
  6
HIDDEN
100
AcDbLine
 10
45.875004557
 20
-0.522541766
 30
0.0
 11
46.841319504
 21
3.353135798
 31
0.0
  0
LINE
  5
78
330
1F
100
AcDbEntity
  8
AUFNAHME
  6
CONTINUOUS
100
AcDbLine
 10
53.8617329627
 20
5.6343562502
 30
0.0
 11
51.1191249317
 21
-5.3656437502
 31
0.0
  0
LINE
  5
79
330
1F
100
AcDbEntity
  8
AUFNAHME
  6
CONTINUOUS
100
AcDbLine
 10
53.8617329627
 20
5.6343562502
 30
0.0
 11
47.1584973773
 21
5.6343562502
 31
0.0
  0
LINE
  5
7A
330
1F
100
AcDbEntity
  8
AUFNAHME
  6
CONTINUOUS
100
AcDbLine
 10
52.4499999997
 20
3.6343562498
 30
0.0
 11
54.6513439937
 21
3.6343562498
 31
0.0
  0
LINE
  5
7B
330
1F
100
AcDbEntity
  8
AUFNAHME
  6
CONTINUOUS
100
AcDbLine
 10
55.0001487547
 20
5.0333357358
 30
0.0
 11
52.5572432127
 21
-4.7646232362
 31
0.0
  0
LINE
  5
7C
330
1F
100
AcDbEntity
  8
AUFNAHME
  6
CONTINUOUS
100
AcDbLine
 10
55.0001487547
 20
5.0333357358
 30
0.0
 11
53.7118817184
 21
5.0333357358
 31
0.0
  0
LINE
  5
7D
330
1F
100
AcDbEntity
  8
AUFNAHME
  6
CONTINUOUS
100
AcDbLine
 10
52.5572432127
 20
-4.7646232362
 30
0.0
 11
51.2689761767
 21
-4.7646232362
 31
0.0
  0
LINE
  5
7E
330
1F
100
AcDbEntity
  8
AUFNAHME
  6
CONTINUOUS
100
AcDbLine
 10
51.1191249317
 20
-5.3656437502
 30
0.0
 11
44.4386751347
 21
-5.3656437502
 31
0.0
  0
LINE
  5
7F
330
1F
100
AcDbEntity
  8
AUFNAHME
  6
CONTINUOUS
100
AcDbLine
 10
47.1584973773
 20
5.6343562502
 30
0.0
 11
44.4386751347
 21
5.6343562502
 31
0.0
  0
LINE
  5
80
330
1F
100
AcDbEntity
  8
AUFNAHME
  6
CONTINUOUS
100
AcDbLine
 10
44.4386751347
 20
5.6343562502
 30
0.0
 11
44.15
 21
5.13435625
 31
0.0
  0
LINE
  5
81
330
1F
100
AcDbEntity
  8
AUFNAHME
  6
CONTINUOUS
100
AcDbLine
 10
44.15
 20
5.13435625
 30
0.0
 11
42.15
 21
5.13435625
 31
0.0
  0
LINE
  5
82
330
1F
100
AcDbEntity
  8
AUFNAHME
  6
CONTINUOUS
100
AcDbLine
 10
42.15
 20
5.13435625
 30
0.0
 11
0.0
 21
5.13435625
 31
0.0
  0
LINE
  5
83
330
1F
100
AcDbEntity
  8
ZAPFEN
100
AcDbLine
 10
0.0
 20
5.13435625
 30
0.0
 11
-29.0
 21
5.13435625
 31
0.0
  0
LINE
  5
84
330
1F
100
AcDbEntity
  8
ZAPFEN
100
AcDbLine
 10
-29.0
 20
5.13435625
 30
0.0
 11
-30.0
 21
4.13435625
 31
0.0
  0
LINE
  5
85
330
1F
100
AcDbEntity
  8
ZAPFEN
100
AcDbLine
 10
-30.0
 20
4.13435625
 30
0.0
 11
-30.0
 21
-3.86564375
 31
0.0
  0
LINE
  5
86
330
1F
100
AcDbEntity
  8
ZAPFEN
100
AcDbLine
 10
-30.0
 20
-3.86564375
 30
0.0
 11
-29.0
 21
-4.86564375
 31
0.0
  0
LINE
  5
87
330
1F
100
AcDbEntity
  8
ZAPFEN
100
AcDbLine
 10
-29.0
 20
-4.86564375
 30
0.0
 11
0.0
 21
-4.86564375
 31
0.0
  0
LINE
  5
88
330
1F
100
AcDbEntity
  8
AUFNAHME
  6
CONTINUOUS
100
AcDbLine
 10
0.0
 20
-4.86564375
 30
0.0
 11
42.15
 21
-4.86564375
 31
0.0
  0
LINE
  5
89
330
1F
100
AcDbEntity
  8
AUFNAHME
  6
CONTINUOUS
100
AcDbLine
 10
42.15
 20
-4.86564375
 30
0.0
 11
44.15
 21
-4.86564375
 31
0.0
  0
LINE
  5
8A
330
1F
100
AcDbEntity
  8
AUFNAHME
  6
CONTINUOUS
100
AcDbLine
 10
44.15
 20
-4.86564375
 30
0.0
 11
44.4386751347
 21
-5.3656437502
 31
0.0
  0
LINE
  5
8B
330
1F
100
AcDbEntity
  8
AUFNAHME
  6
CONTINUOUS
100
AcDbLine
 10
44.4386751347
 20
-5.3656437502
 30
0.0
 11
44.4386751347
 21
5.6343562502
 31
0.0
  0
LINE
  5
8C
330
1F
100
AcDbEntity
  8
AUFNAHME
  6
CONTINUOUS
100
AcDbLine
 10
44.15
 20
-4.86564375
 30
0.0
 11
44.15
 21
5.13435625
 31
0.0
  0
LINE
  5
8D
330
1F
100
AcDbEntity
  8
EW
  6
HIDDEN
100
AcDbLine
 10
52.977093549
 20
2.086261354
 30
0.0
 11
52.734519617
 21
2.146741828
 31
0.0
  0
LINE
  5
8E
330
1F
100
AcDbEntity
  8
EW
  6
HIDDEN
100
AcDbLine
 10
52.734519617
 20
2.146741828
 30
0.0
 11
52.377471222
 21
1.617395814
 31
0.0
  0
LINE
  5
8F
330
1F
100
AcDbEntity
  8
EW
  6
HIDDEN
100
AcDbLine
 10
52.377471222
 20
1.617395814
 30
0.0
 11
51.579128967
 21
-1.584580083
 31
0.0
  0
LINE
  5
90
330
1F
100
AcDbEntity
  8
EW
  6
HIDDEN
100
AcDbLine
 10
51.579128967
 20
-1.584580083
 30
0.0
 11
44.999053571
 21
0.058620704
 31
0.0
  0
LINE
  5
91
330
1F
100
AcDbEntity
  8
EW
  6
HIDDEN
100
AcDbLine
 10
45.797296396
 20
3.258017662
 30
0.0
 11
52.377471222
 21
1.617395814
 31
0.0
  0
LINE
  5
92
330
1F
100
AcDbEntity
  8
ZAPFEN
100
AcDbLine
 10
-29.0
 20
-4.86564375
 30
0.0
 11
-29.0
 21
5.13435625
 31
0.0
  0
LINE
  5
93
330
1F
100
AcDbEntity
  8
EW
  6
HIDDEN
100
AcDbLine
 10
51.888445019
 20
-2.280069414
 30
0.0
 11
51.645871087
 21
-2.21958894
 31
0.0
  0
LINE
  5
94
330
1F
100
AcDbEntity
  8
EW
  6
HIDDEN
100
AcDbLine
 10
51.645871087
 20
-2.21958894
 30
0.0
 11
52.734519617
 21
2.146741828
 31
0.0
  0
LINE
  5
95
330
1F
100
AcDbEntity
  8
EW
  6
HIDDEN
100
AcDbLine
 10
51.579128967
 20
-1.584580083
 30
0.0
 11
51.645871087
 21
-2.21958894
 31
0.0
  0
LINE
  5
96
330
1F
100
AcDbEntity
  8
EW
  6
HIDDEN
100
AcDbLine
 10
-30.0
 20
-1.86564375
 30
0.0
 11
26.6546125874
 21
-1.86564375
 31
0.0
  0
LINE
  5
97
330
1F
100
AcDbEntity
  8
EW
  6
HIDDEN
100
AcDbLine
 10
41.916912752
 20
-1.86564375
 30
0.0
 11
44.15
 21
-1.86564375
 31
0.0
  0
LINE
  5
98
330
1F
100
AcDbEntity
  8
EW
  6
HIDDEN
100
AcDbLine
 10
44.15
 20
2.13435625
 30
0.0
 11
0.0
 21
2.13435625
 31
0.0
  0
LINE
  5
99
330
1F
100
AcDbEntity
  8
UNSICHT
  6
CENTER
100
AcDbLine
 10
44.702158919
 20
1.831108754
 30
0.0
 11
52.631857392
 21
-0.14598713
 31
0.0
  0
LINE
  5
9A
330
1F
100
AcDbEntity
  8
EW
  6
HIDDEN
100
AcDbLine
 10
46.84269214
 20
3.358641139
 30
0.0
 11
52.586069993
 21
1.92665621
 31
0.0
  0
LINE
  5
9B
330
1F
100
AcDbEntity
  8
EW
  6
HIDDEN
100
AcDbLine
 10
45.875004557
 20
-0.522541766
 30
0.0
 11
51.618001953
 21
-1.954431837
 31
0.0
  0
LINE
  5
9C
330
1F
100
AcDbEntity
  8
EW
  6
HIDDEN
100
AcDbLine
 10
45.797296396
 20
3.258017662
 30
0.0
 11
44.999053571
 21
0.058620704
 31
0.0
  0
LINE
  5
9D
330
1F
100
AcDbEntity
  8
UNSICHT
  6
CENTER
100
AcDbLine
 10
-31.056807138
 20
0.0
 30
0.0
 11
67.0000035249
 21
0.0
 31
0.0
  0
LINE
  5
9E
330
1F
100
AcDbEntity
  8
ZAPFEN
100
AcDbLine
 10
0.0
 20
5.13435625
 30
0.0
 11
0.0
 21
-4.86564375
 31
0.0
  0
LINE
  5
9F
330
1F
100
AcDbEntity
  8
EW
  6
HIDDEN
100
AcDbLine
 10
0.0
 20
2.13435625
 30
0.0
 11
-30.0
 21
2.13435625
 31
0.0
  0
LINE
  5
A0
330
1F
100
AcDbEntity
  8
ZAPFEN
100
AcDbLine
 10
51.3767783387
 20
-5.3656437502
 30
0.0
 11
54.4992328567
 21
-5.3656437502
 31
0.0
  0
LINE
  5
A1
330
1F
100
AcDbEntity
  8
ZAPFEN
100
AcDbLine
 10
65.0018382811
 20
5.7619357739
 30
0.0
 11
64.6718776121
 21
-0.5340888421
 31
0.0
  0
LINE
  5
A2
330
1F
100
AcDbEntity
  8
ZAPFEN
100
AcDbLine
 10
64.2563021005
 20
-0.7467008765
 30
0.0
 11
58.9895136491
 21
2.685978371
 31
0.0
  0
LINE
  5
A3
330
1F
100
AcDbEntity
  8
ZAPFEN
100
AcDbLine
 10
59.0140142247
 20
3.1534771977
 30
0.0
 11
64.6107633447
 21
6.0168225669
 31
0.0
  0
LINE
  5
A4
330
1F
100
AcDbEntity
  8
ZAPFEN
100
AcDbLine
 10
54.6513439937
 20
3.6343562498
 30
0.0
 11
56.1315677287
 21
3.6343562498
 31
0.0
  0
LINE
  5
A5
330
1F
100
AcDbEntity
  8
ZAPFEN
100
AcDbLine
 10
63.7302774355
 20
-1.2158805449
 30
0.0
 11
61.4735796229
 21
-2.5187856345
 31
0.0
  0
LINE
  5
A6
330
1F
100
AcDbEntity
  8
ZAPFEN
100
AcDbLine
 10
60.5817714238
 20
-2.1569315982
 30
0.0
 11
54.2169310477
 21
1.8920210845
 31
0.0
  0
LINE
  5
A7
330
1F
100
AcDbEntity
  8
ZAPFEN
100
AcDbLine
 10
53.2074137607
 20
-2.1569315982
 30
0.0
 11
60.5817714238
 21
-2.1569315982
 31
0.0
  0
LINE
  5
A8
330
1F
100
AcDbEntity
  8
ZAPFEN
100
AcDbLine
 10
60.0067783389
 20
-3.3656437506
 30
0.0
 11
55.3885316759
 21
-3.3656437506
 31
0.0
  0
LINE
  5
A9
330
1F
100
AcDbEntity
  8
ZAPFEN
100
AcDbLine
 10
54.9033838124
 20
-3.7446828028
 30
0.0
 11
54.4992328567
 21
-5.3656437502
 31
0.0
  0
LINE
  5
AA
330
1F
100
AcDbEntity
  8
ZAPFEN
100
AcDbLine
 10
51.3767783387
 20
-5.3656437502
 30
0.0
 11
51.5266295837
 21
-4.7646232362
 31
0.0
  0
LINE
  5
AB
330
1F
100
AcDbEntity
  8
ZAPFEN
100
AcDbLine
 10
61.4735796229
 20
-2.5187856345
 30
0.0
 11
60.0067783389
 21
-3.3656437506
 31
0.0
  0
LINE
  5
AC
330
1F
100
AcDbEntity
  8
ZAPFEN
100
AcDbLine
 10
51.5266295837
 20
-4.7646232362
 30
0.0
 11
53.6207303647
 21
3.6343562498
 31
0.0
  0
LINE
  5
AD
330
1F
100
AcDbEntity
  8
ZAPFEN
100
AcDbLine
 10
54.6513439937
 20
3.6343562498
 30
0.0
 11
53.6207303647
 21
3.6343562498
 31
0.0
  0
LINE
  5
AE
330
1F
100
AcDbEntity
  8
ZAPFEN
100
AcDbLine
 10
56.8984645567
 20
3.6343562498
 30
0.0
 11
64.1362488487
 21
-0.9814928402
 31
0.0
  0
LINE
  5
AF
330
1F
100
AcDbEntity
  8
ZAPFEN
100
AcDbLine
 10
56.1315677287
 20
3.6343562498
 30
0.0
 11
56.8984645567
 21
3.6343562498
 31
0.0
  0
LINE
  5
B0
330
1F
100
AcDbEntity
  8
ZAPFEN
100
AcDbLine
 10
64.1362488487
 20
-0.9814928402
 30
0.0
 11
63.7302774355
 21
-1.2158805449
 31
0.0
  0
LINE
  5
B1
330
1F
100
AcDbEntity
  8
ZAPFEN
100
AcDbLine
 10
54.1193863707
 20
5.6343562498
 30
0.0
 11
63.6042516607
 21
5.6343562498
 31
0.0
  0
LINE
  5
B2
330
1F
100
AcDbEntity
  8
ZAPFEN
100
AcDbLine
 10
60.643625588
 20
3.987200499
 30
0.0
 11
59.812580154
 21
4.524941099
 31
0.0
  0
LINE
  5
B3
330
1F
100
AcDbEntity
  8
ZAPFEN
100
AcDbLine
 10
58.6101782142
 20
2.6800857565
 30
0.0
 11
60.294126435
 21
1.590461423
 31
0.0
  0
LINE
  5
B4
330
1F
100
AcDbEntity
  8
ZAPFEN
100
AcDbLine
 10
64.3551151381
 20
-0.7859871438
 30
0.0
 11
64.3513638041
 21
-0.8572961628
 31
0.0
  0
LINE
  5
B5
330
1F
100
AcDbEntity
  8
ZAPFEN
100
AcDbLine
 10
53.6207303647
 20
3.6343562498
 30
0.0
 11
54.1193863707
 21
5.6343562498
 31
0.0
  0
LINE
  5
B6
330
1F
100
AcDbEntity
  8
ZAPFEN
100
AcDbLine
 10
64.3513638041
 20
-0.8572961628
 30
0.0
 11
64.1362488487
 21
-0.9814928402
 31
0.0
  0
LINE
  5
B7
330
1F
100
AcDbEntity
  8
EW
  6
HIDDEN
100
AcDbLine
 10
54.9033838124
 20
-3.7446828028
 30
0.0
 11
55.5522433857
 21
-1.1422491972
 31
0.0
  0
LINE
  5
B8
330
1F
100
AcDbEntity
  8
EW
  6
HIDDEN
100
AcDbLine
 10
58.3989138387
 20
-3.3656437502
 30
0.0
 11
58.7542192827
 21
-1.9405914522
 31
0.0
  0
LINE
  5
B9
330
1F
100
AcDbEntity
  8
EW
  6
HIDDEN
100
AcDbLine
 10
58.7542192827
 20
-1.9405914522
 30
0.0
 11
59.6251381067
 21
1.5524731618
 31
0.0
  0
LINE
  5
BA
330
1F
100
AcDbEntity
  8
EW
  6
HIDDEN
100
AcDbLine
 10
55.5522433857
 20
-1.1422491972
 30
0.0
 11
56.4231622097
 21
2.3508154178
 31
0.0
  0
LINE
  5
BB
330
1F
100
AcDbEntity
  8
EW
  6
HIDDEN
100
AcDbLine
 10
59.6251381067
 20
1.5524731618
 30
0.0
 11
56.4231622097
 21
2.3508154178
 31
0.0
  0
LINE
  5
BC
330
1F
100
AcDbEntity
  8
EW
  6
HIDDEN
100
AcDbLine
 10
51.862576401
 20
-3.417214147
 30
0.0
 11
54.80228551
 21
-4.150165948
 31
0.0
  0
LINE
  5
BD
330
1F
100
AcDbEntity
  8
EW
  6
HIDDEN
100
AcDbLine
 10
56.060279367
 20
0.895371828
 30
0.0
 11
53.120570258
 21
1.628323629
 31
0.0
  0
LINE
  5
BE
330
1F
100
AcDbEntity
  8
EW
  6
HIDDEN
100
AcDbLine
 10
63.885426487
 20
-1.126305198
 30
0.0
 11
59.238063074
 21
0.0
 31
0.0
  0
ARC
  5
BF
330
1F
100
AcDbEntity
  8
AUFNAHME
  6
CONTINUOUS
100
AcDbCircle
 10
52.4499999998
 20
11.6343562498
 30
0.0
 40
7.999999999957264
100
AcDbArc
 50
228.5903778868
 51
269.9999999992
  0
ARC
  5
C0
330
1F
100
AcDbEntity
  8
ZAPFEN
100
AcDbCircle
 10
64.7329511242
 20
5.77683813
 30
0.0
 40
0.2692998020525975
100
AcDbArc
 50
356.8277789839
 51
116.9828632214
  0
ARC
  5
C1
330
1F
100
AcDbEntity
  8
ZAPFEN
100
AcDbCircle
 10
64.402937095
 20
-0.5208645131
 30
0.0
 40
0.2692654538550918
100
AcDbArc
 50
237.004435489
 51
357.1849223135
  0
ARC
  5
C2
330
1F
100
AcDbEntity
  8
ZAPFEN
100
AcDbCircle
 10
59.137634077
 20
2.9126071319
 30
0.0
 40
0.2707402010607651
100
AcDbArc
 50
117.167899011
 51
236.8321009075
  0
ARC
  5
C3
330
1F
100
AcDbEntity
  8
ZAPFEN
100
AcDbCircle
 10
76.1177795838
 20
34.852492122
 30
0.0
 40
40.13807411483045
100
AcDbArc
 50
247.2280569974
 51
248.6019186757
  0
ARC
  5
C4
330
1F
100
AcDbEntity
  8
ZAPFEN
100
AcDbCircle
 10
55.3885316756
 20
-3.8656437506
 30
0.0
 40
0.5000000000000373
100
AcDbArc
 50
89.9999999603
 51
166.0000000037
  0
ARC
  5
C5
330
1F
100
AcDbEntity
  8
ZAPFEN
100
AcDbCircle
 10
59.2099641249
 20
3.6034357059
 30
0.0
 40
1.10105325390733
100
AcDbArc
 50
56.8174260081
 51
236.993216165
  0
ARC
  5
C6
330
1F
100
AcDbEntity
  8
ZAPFEN
100
AcDbCircle
 10
60.8956832779
 20
2.5205165518
 30
0.0
 40
1.107643073265087
100
AcDbArc
 50
237.1053335397
 51
272.365537453
  0
ARC
  5
C7
330
1F
100
AcDbEntity
  8
ZAPFEN
100
AcDbCircle
 10
63.5309548467
 20
5.3958385409
 30
0.0
 40
0.2495257910751633
100
AcDbArc
 50
41.250081866
 51
72.9177361823
  0
CIRCLE
  5
C8
330
1F
100
AcDbEntity
  8
ZAPFEN
100
AcDbCircle
 10
62.833688973
 20
2.716108815
 30
0.0
 40
1.362349313000003
  0
DIMENSION
  5
C9
330
1F
100
AcDbEntity
  8
MASS
100
AcDbDimension
  2
_D
 10
-30.0
 20
13.594972827
 30
0.0
 11
12.5000743773
 21
13.594972827
 31
0.0
 70
   160
  1
<>
  3
SLDDIMSTYLE0
100
AcDbAlignedDimension
 13
55.0001487547
 23
5.0333357358
 33
0.0
 14
-30.0
 24
4.13435625
 34
0.0
 50
0.0
100
AcDbRotatedDimension
  0
DIMENSION
  5
D5
330
1F
100
AcDbEntity
  8
MASS
100
AcDbDimension
  2
_D_1
 10
-37.1822753515
 20
-4.86564375
 30
0.0
 11
-37.1822753515
 21
0.13435625
 31
0.0
 70
   160
  1
%%c<>
  3
SLDDIMSTYLE0
100
AcDbAlignedDimension
 13
-29.0
 23
5.13435625
 33
0.0
 14
-29.0
 24
-4.86564375
 34
0.0
 50
90.0
100
AcDbRotatedDimension
  0
DIMENSION
  5
E0
330
1F
100
AcDbEntity
  8
MASS
100
AcDbDimension
  2
_D_2
 10
-30.0
 20
-14.2039178768
 30
0.0
 11
-15.0
 21
-14.2039178768
 31
0.0
 70
   160
  1
min. <>
  3
SLDDIMSTYLE0
100
AcDbAlignedDimension
 13
0.0
 23
-4.86564375
 33
0.0
 14
-30.0
 24
-3.86564375
 34
0.0
 50
0.0
100
AcDbRotatedDimension
  0
DIMENSION
  5
EB
330
1F
100
AcDbEntity
  8
MASS
100
AcDbDimension
  2
_D_3
 10
0.0
 20
-14.2039178768
 30
0.0
 11
32.5009191406
 21
-14.2039178768
 31
0.0
 70
   160
  1
30 - 65
  3
SLDDIMSTYLE0
100
AcDbAlignedDimension
 13
65.0018382811
 23
5.7619357739
 33
0.0
 14
0.0
 24
-4.86564375
 34
0.0
 50
0.0
100
AcDbRotatedDimension
  0
DIMENSION
  5
F6
330
1F
100
AcDbEntity
  8
MASS
100
AcDbDimension
  2
_D_4
 10
76.2480219271
 20
-5.3656437502
 30
0.0
 11
76.2480219271
 21
-9.4857836422
 31
0.0
 70
   160
  1
%%c11.8-14.0
  3
SLDDIMSTYLE1
100
AcDbAlignedDimension
 13
64.6107633447
 23
6.0168225669
 33
0.0
 14
51.1191249317
 24
-5.3656437502
 34
0.0
 50
90.0
100
AcDbRotatedDimension
  0
MTEXT
  5
101
330
1F
100
AcDbEntity
  8
TEXT
100
AcDbMText
 10
27.533423083
 20
-0.4982303189
 30
0.0
 40
3.5
 41
0.0
 71
     1
 72
     1
  1
615.354
  7
SLDTEXTSTYLE0
  0
ENDSEC
  0
SECTION
  2
OBJECTS
  0
DICTIONARY
  5
C
330
0
100
AcDbDictionary
  3
ACAD_GROUP
350
D
  3
ACAD_MLINESTYLE
350
17
  3
ACAD_SCALELIST
350
47
  0
DICTIONARY
  5
D
102
{ACAD_REACTORS
330
C
102
}
330
C
100
AcDbDictionary
  0
DICTIONARY
  5
17
102
{ACAD_REACTORS
330
C
102
}
330
C
100
AcDbDictionary
  3
STANDARD
350
18
  0
DICTIONARY
  5
47
102
{ACAD_REACTORS
330
C
102
}
330
C
100
AcDbDictionary
  0
MLINESTYLE
  5
18
102
{ACAD_REACTORS
330
17
102
}
330
17
100
AcDbMlineStyle
  2
Standard
 70
     0
  3

 62
   256
 51
90.0
 52
90.0
 71
     2
 49
0.5
 62
   256
  6
BYLAYER
 49
-0.5
 62
   256
  6
BYLAYER
  0
ENDSEC
  0
EOF
