  0
SECTION
  2
HEADER
  9
$ACADVER
  1
AC1014
  9
$ACADMAINTVER
 70
     9
  9
$DWGCODEPAGE
  3
ANSI_1252
  9
$INSBASE
 10
0.0
 20
0.0
 30
0.0
  9
$EXTMIN
 10
0.0
 20
0.0
 30
0.0
  9
$EXTMAX
 10
210.0
 20
297.0
 30
0.0
  9
$LIMMIN
 10
0.0
 20
0.0
  9
$LIMMAX
 10
210.0
 20
297.0
  9
$ORTHOMODE
 70
     0
  9
$REGENMODE
 70
     1
  9
$FILLMODE
 70
     1
  9
$QTEXTMODE
 70
     0
  9
$MIRRTEXT
 70
     1
  9
$DRAGMODE
 70
     2
  9
$LTSCALE
 40
1.0
  9
$OSMODE
 70
    37
  9
$ATTMODE
 70
     1
  9
$TEXTSIZE
 40
3.5
  9
$TRACEWID
 40
1.0
  9
$TEXTSTYLE
  7
STANDARD
  9
$CLAYER
  8
0
  9
$CELTYPE
  6
BYLAYER
  9
$CECOLOR
 62
   256
  9
$CELTSCALE
 40
1.0
  9
$DELOBJ
 70
     1
  9
$DISPSILH
 70
     0
  9
$DIMSCALE
 40
1.0
  9
$DIMASZ
 40
3.5
  9
$DIMEXO
 40
0.0
  9
$DIMDLI
 40
3.75
  9
$DIMRND
 40
0.0
  9
$DIMDLE
 40
0.0
  9
$DIMEXE
 40
1.0
  9
$DIMTP
 40
0.0
  9
$DIMTM
 40
0.0
  9
$DIMTXT
 40
3.5
  9
$DIMCEN
 40
2.5
  9
$DIMTSZ
 40
0.0
  9
$DIMTOL
 70
     0
  9
$DIMLIM
 70
     0
  9
$DIMTIH
 70
     1
  9
$DIMTOH
 70
     1
  9
$DIMSE1
 70
     0
  9
$DIMSE2
 70
     0
  9
$DIMTAD
 70
     1
  9
$DIMZIN
 70
     0
  9
$DIMBLK
  1

  9
$DIMASO
 70
     1
  9
$DIMSHO
 70
     1
  9
$DIMPOST
  1

  9
$DIMAPOST
  1

  9
$DIMALT
 70
     0
  9
$DIMALTD
 70
     3
  9
$DIMALTF
 40
0.0393700787
  9
$DIMLFAC
 40
1.0
  9
$DIMTOFL
 70
     1
  9
$DIMTVP
 40
0.0
  9
$DIMTIX
 70
     0
  9
$DIMSOXD
 70
     0
  9
$DIMSAH
 70
     0
  9
$DIMBLK1
  1

  9
$DIMBLK2
  1

  9
$DIMSTYLE
  2
ISO-25
  9
$DIMCLRD
 70
     0
  9
$DIMCLRE
 70
     0
  9
$DIMCLRT
 70
     0
  9
$DIMTFAC
 40
1.0
  9
$DIMGAP
 40
1.5
  9
$DIMJUST
 70
     0
  9
$DIMSD1
 70
     0
  9
$DIMSD2
 70
     0
  9
$DIMTOLJ
 70
     0
  9
$DIMTZIN
 70
     0
  9
$DIMALTZ
 70
     0
  9
$DIMALTTZ
 70
     0
  9
$DIMFIT
 70
     3
  9
$DIMUPT
 70
     0
  9
$DIMUNIT
 70
     2
  9
$DIMDEC
 70
     2
  9
$DIMTDEC
 70
     3
  9
$DIMALTU
 70
     2
  9
$DIMALTTD
 70
     3
  9
$DIMTXSTY
  7
STANDARD
  9
$DIMAUNIT
 70
     0
  9
$LUNITS
 70
     2
  9
$LUPREC
 70
     2
  9
$SKETCHINC
 40
1.0
  9
$FILLETRAD
 40
10.0
  9
$AUNITS
 70
     0
  9
$AUPREC
 70
     2
  9
$MENU
  1
.
  9
$ELEVATION
 40
0.0
  9
$PELEVATION
 40
0.0
  9
$THICKNESS
 40
0.0
  9
$LIMCHECK
 70
     0
  9
$CHAMFERA
 40
10.0
  9
$CHAMFERB
 40
10.0
  9
$CHAMFERC
 40
20.0
  9
$CHAMFERD
 40
0.0
  9
$SKPOLY
 70
     0
  9
$TDCREATE
 40
2456429.510187326
  9
$TDUPDATE
 40
2456429.510187789
  9
$TDINDWG
 40
0.0000000116
  9
$TDUSRTIMER
 40
0.0000000116
  9
$USRTIMER
 70
     1
  9
$ANGBASE
 50
0.0
  9
$ANGDIR
 70
     0
  9
$PDMODE
 70
     0
  9
$PDSIZE
 40
-1.0
  9
$PLINEWID
 40
0.0
  9
$COORDS
 70
     1
  9
$SPLFRAME
 70
     0
  9
$SPLINETYPE
 70
     6
  9
$SPLINESEGS
 70
     8
  9
$ATTDIA
 70
     0
  9
$ATTREQ
 70
     1
  9
$HANDLING
 70
     1
  9
$HANDSEED
  5
133
  9
$SURFTAB1
 70
     6
  9
$SURFTAB2
 70
     6
  9
$SURFTYPE
 70
     6
  9
$SURFU
 70
     6
  9
$SURFV
 70
     6
  9
$UCSNAME
  2

  9
$UCSORG
 10
0.0
 20
0.0
 30
0.0
  9
$UCSXDIR
 10
1.0
 20
0.0
 30
0.0
  9
$UCSYDIR
 10
0.0
 20
1.0
 30
0.0
  9
$PUCSNAME
  2

  9
$PUCSORG
 10
0.0
 20
0.0
 30
0.0
  9
$PUCSXDIR
 10
1.0
 20
0.0
 30
0.0
  9
$PUCSYDIR
 10
0.0
 20
1.0
 30
0.0
  9
$USERI1
 70
     0
  9
$USERI2
 70
     0
  9
$USERI3
 70
     0
  9
$USERI4
 70
     0
  9
$USERI5
 70
     0
  9
$USERR1
 40
0.0
  9
$USERR2
 40
0.0
  9
$USERR3
 40
0.0
  9
$USERR4
 40
0.0
  9
$USERR5
 40
0.0
  9
$WORLDVIEW
 70
     1
  9
$SHADEDGE
 70
     3
  9
$SHADEDIF
 70
    70
  9
$TILEMODE
 70
     1
  9
$MAXACTVP
 70
    64
  9
$PINSBASE
 10
0.0
 20
0.0
 30
0.0
  9
$PLIMCHECK
 70
     0
  9
$PEXTMIN
 10
1.0000000000E+20
 20
1.0000000000E+20
 30
1.0000000000E+20
  9
$PEXTMAX
 10
-1.0000000000E+20
 20
-1.0000000000E+20
 30
-1.0000000000E+20
  9
$PLIMMIN
 10
0.0
 20
0.0
  9
$PLIMMAX
 10
420.0
 20
297.0
  9
$UNITMODE
 70
     0
  9
$VISRETAIN
 70
     1
  9
$PLINEGEN
 70
     0
  9
$PSLTSCALE
 70
     1
  9
$TREEDEPTH
 70
  3020
  9
$PICKSTYLE
 70
     1
  9
$CMLSTYLE
  2
STANDARD
  9
$CMLJUST
 70
     0
  9
$CMLSCALE
 40
20.0
  9
$PROXYGRAPHICS
 70
     1
  9
$MEASUREMENT
 70
     1
  0
ENDSEC
  0
SECTION
  2
CLASSES
  0
CLASS
  1
ACDBDICTIONARYWDFLT
  2
AcDbDictionaryWithDefault
  3
ObjectDBX Classes
 90
        0
280
     0
281
     0
  0
CLASS
  1
VISUALSTYLE
  2
AcDbVisualStyle
  3
ObjectDBX Classes
 90
     4095
280
     0
281
     0
  0
CLASS
  1
MATERIAL
  2
AcDbMaterial
  3
ObjectDBX Classes
 90
     1153
280
     0
281
     0
  0
CLASS
  1
XRECORD
  2
AcDbXrecord
  3
AutoCAD 2000
 90
        0
280
     0
281
     0
  0
CLASS
  1
LWPOLYLINE
  2
AcDbPolyline
  3
AutoCAD 2000
 90
        0
280
     0
281
     1
  0
CLASS
  1
HATCH
  2
AcDbHatch
  3
AutoCAD 2000
 90
        0
280
     0
281
     1
  0
ENDSEC
  0
SECTION
  2
TABLES
  0
TABLE
  2
VPORT
  5
8
330
0
100
AcDbSymbolTable
 70
     1
  0
VPORT
  5
29
330
8
100
AcDbSymbolTableRecord
100
AcDbViewportTableRecord
  2
*ACTIVE
 70
     0
 10
0.0
 20
0.0
 11
1.0
 21
1.0
 12
105.0
 22
148.5
 13
0.0
 23
0.0
 14
10.0
 24
10.0
 15
10.0
 25
10.0
 16
0.0
 26
0.0
 36
1.0
 17
0.0
 27
0.0
 37
0.0
 40
297.0
 41
0.7070707071
 42
50.0
 43
0.0
 44
0.0
 50
0.0
 51
0.0
 71
     0
 72
  2000
 73
     1
 74
     3
 75
     0
 76
     0
 77
     0
 78
     0
  0
ENDTAB
  0
TABLE
  2
LTYPE
  5
5
330
0
100
AcDbSymbolTable
 70
     6
  0
LTYPE
  5
14
330
5
100
AcDbSymbolTableRecord
100
AcDbLinetypeTableRecord
  2
BYBLOCK
 70
     0
  3

 72
    65
 73
     0
 40
0.0
  0
LTYPE
  5
15
330
5
100
AcDbSymbolTableRecord
100
AcDbLinetypeTableRecord
  2
BYLAYER
 70
     0
  3

 72
    65
 73
     0
 40
0.0
  0
LTYPE
  5
16
330
5
100
AcDbSymbolTableRecord
100
AcDbLinetypeTableRecord
  2
CONTINUOUS
 70
     0
  3
Solid line
 72
    65
 73
     0
 40
0.0
  0
LTYPE
  5
3F
330
5
100
AcDbSymbolTableRecord
100
AcDbLinetypeTableRecord
  2
HIDDEN
 70
     0
  3
Hidden __ __ __ __ __ __ __ __ __ __ __ __ __ __
 72
    65
 73
     2
 40
1.905
 49
1.27
 74
     0
 49
-0.635
 74
     0
  0
LTYPE
  5
40
330
5
100
AcDbSymbolTableRecord
100
AcDbLinetypeTableRecord
  2
PHANTOM
 70
     0
  3
Phantom ______  __  __  ______  __  __  ______
 72
    65
 73
     6
 40
12.7
 49
6.35
 74
     0
 49
-1.27
 74
     0
 49
1.27
 74
     0
 49
-1.27
 74
     0
 49
1.27
 74
     0
 49
-1.27
 74
     0
  0
LTYPE
  5
41
330
5
100
AcDbSymbolTableRecord
100
AcDbLinetypeTableRecord
  2
CENTER
 70
     0
  3
Center ____ _ ____ _ ____ _ ____ _ ____ _ ____
 72
    65
 73
     4
 40
10.16
 49
6.35
 74
     0
 49
-1.27
 74
     0
 49
1.27
 74
     0
 49
-1.27
 74
     0
  0
LTYPE
  5
42
330
5
100
AcDbSymbolTableRecord
100
AcDbLinetypeTableRecord
  2
CENTERX2
 70
     0
  3
Center (2x) ________  __  ________  __  _____
 72
    65
 73
     4
 40
20.32
 49
12.7
 74
     0
 49
-2.54
 74
     0
 49
2.54
 74
     0
 49
-2.54
 74
     0
  0
LTYPE
  5
43
330
5
100
AcDbSymbolTableRecord
100
AcDbLinetypeTableRecord
  2
DOT2
 70
     0
  3
Dot (.5x) ........................................
 72
    65
 73
     2
 40
0.635
 49
0.0
 74
     0
 49
-0.635
 74
     0
  0
ENDTAB
  0
TABLE
  2
LAYER
  5
2
330
0
100
AcDbSymbolTable
 70
     7
  0
LAYER
  5
10
330
2
100
AcDbSymbolTableRecord
100
AcDbLayerTableRecord
  2
0
 70
     0
 62
     7
  6
CONTINUOUS
  0
LAYER
  5
44
330
2
100
AcDbSymbolTableRecord
100
AcDbLayerTableRecord
  2
AUFNAHME
 70
     0
 62
     7
  6
CONTINUOUS
  0
LAYER
  5
45
330
2
100
AcDbSymbolTableRecord
100
AcDbLayerTableRecord
  2
MASS
 70
     0
 62
     4
  6
CONTINUOUS
  0
LAYER
  5
46
330
2
100
AcDbSymbolTableRecord
100
AcDbLayerTableRecord
  2
EW
 70
     0
 62
     1
  6
HIDDEN
  0
LAYER
  5
47
330
2
100
AcDbSymbolTableRecord
100
AcDbLayerTableRecord
  2
UNSICHT
 70
     0
 62
     4
  6
CENTER
  0
LAYER
  5
48
330
2
100
AcDbSymbolTableRecord
100
AcDbLayerTableRecord
  2
TEXT
 70
     0
 62
     7
  6
CONTINUOUS
  0
LAYER
  5
49
330
2
100
AcDbSymbolTableRecord
100
AcDbLayerTableRecord
  2
ZAPFEN
 70
     0
 62
     4
  6
CONTINUOUS
  0
ENDTAB
  0
TABLE
  2
STYLE
  5
3
330
0
100
AcDbSymbolTable
 70
     3
  0
STYLE
  5
11
330
3
100
AcDbSymbolTableRecord
100
AcDbTextStyleTableRecord
  2
STANDARD
 70
     0
 40
0.0
 41
1.0
 50
0.0
 71
     0
 42
3.5
  3
txt
  4

  0
STYLE
  5
107
330
3
100
AcDbSymbolTableRecord
100
AcDbTextStyleTableRecord
  2
SLDTEXTSTYLE0
 70
     0
 40
0.0
 41
0.605
 50
0.0
 71
     0
 42
0.2
  3
TXT
  4

  0
STYLE
  5
111
330
3
100
AcDbSymbolTableRecord
100
AcDbTextStyleTableRecord
  2
SLDTEXTSTYLE1
 70
     0
 40
0.0
 41
0.575
 50
0.0
 71
     0
 42
0.2
  3
TXT
  4

  0
ENDTAB
  0
TABLE
  2
VIEW
  5
6
330
0
100
AcDbSymbolTable
 70
     0
  0
ENDTAB
  0
TABLE
  2
UCS
  5
7
330
0
100
AcDbSymbolTable
 70
     0
  0
ENDTAB
  0
TABLE
  2
APPID
  5
9
330
0
100
AcDbSymbolTable
 70
     1
  0
APPID
  5
12
330
9
100
AcDbSymbolTableRecord
100
AcDbRegAppTableRecord
  2
ACAD
 70
     0
  0
ENDTAB
  0
TABLE
  2
DIMSTYLE
  5
A
330
0
100
AcDbSymbolTable
 70
     2
  0
DIMSTYLE
105
27
330
A
100
AcDbSymbolTableRecord
100
AcDbDimStyleTableRecord
  2
ISO-25
 70
     0
  3

  4

  5

  6

  7

 40
1.0
 41
2.5
 42
0.625
 43
3.75
 44
1.25
 45
0.0
 46
0.0
 47
0.0
 48
0.0
140
2.5
141
2.5
142
0.0
143
0.0393700787
144
1.0
145
0.0
146
1.0
147
0.625
 71
     0
 72
     0
 73
     0
 74
     0
 75
     0
 76
     0
 77
     1
 78
     8
170
     0
171
     3
172
     1
173
     0
174
     0
175
     0
176
     0
177
     0
178
     0
270
     2
271
     2
272
     2
273
     2
274
     3
340
11
275
     0
280
     0
281
     0
282
     0
283
     0
284
     8
285
     0
286
     0
287
     3
288
     0
  0
DIMSTYLE
105
108
102
{ACAD_REACTORS
330
106
330
113
330
11D
330
128
102
}
330
A
100
AcDbSymbolTableRecord
100
AcDbDimStyleTableRecord
  2
SLDDIMSTYLE0
 70
     0
  3

  4

  5

  6

  7

 40
1.0
 41
3.5
 42
0.0625
 43
0.38
 44
0.0
 45
0.000000001
 46
0.0
 47
0.0
 48
0.0
140
3.5
141
0.09
142
0.0
143
25.4
144
1.0
145
0.0
146
1.0
147
0.875
 71
     0
 72
     0
 73
     0
 74
     0
 75
     0
 76
     0
 77
     1
 78
    12
170
     0
171
     2
172
     0
173
     1
174
     0
175
     0
176
     0
177
     0
178
     0
270
     2
271
     2
272
     3
273
     2
274
     2
340
107
275
     0
280
     0
281
     0
282
     0
283
     1
284
    12
285
     0
286
     0
287
     3
288
     0
  0
ENDTAB
  0
TABLE
  2
BLOCK_RECORD
  5
1
330
0
100
AcDbSymbolTable
 70
     5
  0
BLOCK_RECORD
  5
1F
330
1
100
AcDbSymbolTableRecord
100
AcDbBlockTableRecord
  2
*MODEL_SPACE
  0
BLOCK_RECORD
  5
1B
330
1
100
AcDbSymbolTableRecord
100
AcDbBlockTableRecord
  2
*PAPER_SPACE
  0
BLOCK_RECORD
  5
23
330
1
100
AcDbSymbolTableRecord
100
AcDbBlockTableRecord
  2
*PAPER_SPACE0
  0
BLOCK_RECORD
  5
109
330
1
100
AcDbSymbolTableRecord
100
AcDbBlockTableRecord
  2
_D
  0
BLOCK_RECORD
  5
114
330
1
100
AcDbSymbolTableRecord
100
AcDbBlockTableRecord
  2
_D_1
  0
BLOCK_RECORD
  5
11E
330
1
100
AcDbSymbolTableRecord
100
AcDbBlockTableRecord
  2
_D_2
  0
BLOCK_RECORD
  5
129
330
1
100
AcDbSymbolTableRecord
100
AcDbBlockTableRecord
  2
_D_3
  0
ENDTAB
  0
ENDSEC
  0
SECTION
  2
BLOCKS
  0
BLOCK
  5
20
330
1F
100
AcDbEntity
  8
0
100
AcDbBlockBegin
  2
*MODEL_SPACE
 70
     0
 10
0.0
 20
0.0
 30
0.0
  3
*MODEL_SPACE
  1

  0
ENDBLK
  5
21
330
1F
100
AcDbEntity
  8
0
100
AcDbBlockEnd
  0
BLOCK
  5
1C
330
1B
100
AcDbEntity
 67
     1
  8
0
100
AcDbBlockBegin
  2
*PAPER_SPACE
 70
     0
 10
0.0
 20
0.0
 30
0.0
  3
*PAPER_SPACE
  1

  0
ENDBLK
  5
1D
330
1B
100
AcDbEntity
 67
     1
  8
0
100
AcDbBlockEnd
  0
BLOCK
  5
24
330
23
100
AcDbEntity
  8
0
100
AcDbBlockBegin
  2
*PAPER_SPACE0
 70
     0
 10
0.0
 20
0.0
 30
0.0
  3
*PAPER_SPACE0
  1

  0
ENDBLK
  5
25
330
23
100
AcDbEntity
  8
0
100
AcDbBlockEnd
  0
BLOCK
  5
10A
330
109
100
AcDbEntity
  8
0
100
AcDbBlockBegin
  2
_D
 70
     0
 10
0.0
 20
0.0
 30
0.0
  3
_D
  1

  0
SOLID
  5
10C
330
109
100
AcDbEntity
  8
MASS
100
AcDbTrace
 10
80.1019419475
 20
-24.9878376775
 30
0.0
 11
76.6019419475
 21
-24.5378376775
 31
0.0
 12
76.6019419475
 22
-25.4378376775
 32
0.0
 13
76.6019419475
 23
-25.4378376775
 33
0.0
  0
SOLID
  5
10D
330
109
100
AcDbEntity
  8
MASS
100
AcDbTrace
 10
0.1019419475
 20
-24.9878376775
 30
0.0
 11
3.6019419475
 21
-25.4378376775
 31
0.0
 12
3.6019419475
 22
-24.5378376775
 32
0.0
 13
3.6019419475
 23
-24.5378376775
 33
0.0
  0
LINE
  5
10E
330
109
100
AcDbEntity
  8
MASS
100
AcDbLine
 10
80.1019419475
 20
19.5553372583
 30
0.0
 11
80.1019419475
 21
-25.9878376775
 31
0.0
  0
LINE
  5
10F
330
109
100
AcDbEntity
  8
MASS
100
AcDbLine
 10
0.1019419475
 20
-7.9754066696
 30
0.0
 11
0.1019419475
 21
-25.9878376775
 31
0.0
  0
LINE
  5
110
330
109
100
AcDbEntity
  8
MASS
100
AcDbLine
 10
80.1019419475
 20
-24.9878376775
 30
0.0
 11
0.1019419475
 21
-24.9878376775
 31
0.0
  0
MTEXT
  5
112
330
109
100
AcDbEntity
  8
MASS
100
AcDbMText
 10
33.9623580619
 20
-20.4761004719
 30
0.1
 40
3.5
 41
0.0
 71
     1
 72
     1
  1
60 - 80
  7
SLDTEXTSTYLE1
  0
ENDBLK
  5
10B
330
109
100
AcDbEntity
  8
0
100
AcDbBlockEnd
  0
BLOCK
  5
115
330
114
100
AcDbEntity
  8
0
100
AcDbBlockBegin
  2
_D_1
 70
     0
 10
0.0
 20
0.0
 30
0.0
  3
_D_1
  1

  0
SOLID
  5
117
330
114
100
AcDbEntity
  8
MASS
100
AcDbTrace
 10
63.0008766741
 20
26.560461716
 30
0.0
 11
59.5008766741
 21
27.010461716
 31
0.0
 12
59.5008766741
 22
26.110461716
 32
0.0
 13
59.5008766741
 23
26.110461716
 33
0.0
  0
SOLID
  5
118
330
114
100
AcDbEntity
  8
MASS
100
AcDbTrace
 10
-29.999123326
 20
26.560461716
 30
0.0
 11
-26.499123326
 21
26.110461716
 31
0.0
 12
-26.499123326
 22
27.010461716
 32
0.0
 13
-26.499123326
 23
27.010461716
 33
0.0
  0
LINE
  5
119
330
114
100
AcDbEntity
  8
MASS
100
AcDbLine
 10
63.0008766741
 20
13.0016492109
 30
0.0
 11
63.0008766741
 21
27.560461716
 31
0.0
  0
LINE
  5
11A
330
114
100
AcDbEntity
  8
MASS
100
AcDbLine
 10
-29.999123326
 20
6.9734346388
 30
0.0
 11
-29.999123326
 21
27.560461716
 31
0.0
  0
LINE
  5
11B
330
114
100
AcDbEntity
  8
MASS
100
AcDbLine
 10
63.0008766741
 20
26.560461716
 30
0.0
 11
-29.999123326
 21
26.560461716
 31
0.0
  0
MTEXT
  5
11C
330
114
100
AcDbEntity
  8
MASS
100
AcDbMText
 10
12.9935847759
 20
31.0721989216
 30
0.1
 40
3.5
 41
0.0
 71
     1
 72
     1
  1
93
  7
SLDTEXTSTYLE0
  0
ENDBLK
  5
116
330
114
100
AcDbEntity
  8
0
100
AcDbBlockEnd
  0
BLOCK
  5
11F
330
11E
100
AcDbEntity
  8
0
100
AcDbBlockBegin
  2
_D_2
 70
     0
 10
0.0
 20
0.0
 30
0.0
  3
_D_2
  1

  0
SOLID
  5
121
330
11E
100
AcDbEntity
  8
MASS
100
AcDbTrace
 10
-40.5128068257
 20
7.9734346388
 30
0.0
 11
-40.9628068257
 21
4.4734346388
 31
0.0
 12
-40.0628068257
 22
4.4734346388
 32
0.0
 13
-40.0628068257
 23
4.4734346388
 33
0.0
  0
SOLID
  5
122
330
11E
100
AcDbEntity
  8
MASS
100
AcDbTrace
 10
-40.5128068257
 20
-8.0265653612
 30
0.0
 11
-40.0628068257
 21
-4.5265653612
 31
0.0
 12
-40.9628068257
 22
-4.5265653612
 32
0.0
 13
-40.9628068257
 23
-4.5265653612
 33
0.0
  0
LINE
  5
123
330
11E
100
AcDbEntity
  8
MASS
100
AcDbLine
 10
-28.999123326
 20
7.9734346388
 30
0.0
 11
-41.5128068257
 21
7.9734346388
 31
0.0
  0
LINE
  5
124
330
11E
100
AcDbEntity
  8
MASS
100
AcDbLine
 10
-28.999123326
 20
-8.0265653612
 30
0.0
 11
-41.5128068257
 21
-8.0265653612
 31
0.0
  0
LINE
  5
125
330
11E
100
AcDbEntity
  8
MASS
100
AcDbLine
 10
-40.5128068257
 20
7.9734346388
 30
0.0
 11
-40.5128068257
 21
-8.0265653612
 31
0.0
  0
MTEXT
  5
126
330
11E
100
AcDbEntity
  8
MASS
100
AcDbMText
 10
-45.0245440314
 20
-6.1199686857
 30
0.1
 40
3.5
 41
0.0
 71
     1
 72
     1
  1
%%c
  7
SLDTEXTSTYLE0
 11
-7.044195017643634E-15
 21
1.0
 31
0.0
  0
MTEXT
  5
127
330
11E
100
AcDbEntity
  8
MASS
100
AcDbMText
 10
-45.0245440314
 20
-0.9477462987
 30
0.1
 40
3.5
 41
0.0
 71
     1
 72
     1
  1
16
  7
SLDTEXTSTYLE0
 11
-7.044195017643634E-15
 21
1.0
 31
0.0
  0
ENDBLK
  5
120
330
11E
100
AcDbEntity
  8
0
100
AcDbBlockEnd
  0
BLOCK
  5
12A
330
129
100
AcDbEntity
  8
0
100
AcDbBlockBegin
  2
_D_3
 70
     0
 10
0.0
 20
0.0
 30
0.0
  3
_D_3
  1

  0
SOLID
  5
12C
330
129
100
AcDbEntity
  8
MASS
100
AcDbTrace
 10
-29.8971813784
 20
-24.990674637
 30
0.0
 11
-26.3971813784
 21
-25.440674637
 31
0.0
 12
-26.3971813784
 22
-24.540674637
 32
0.0
 13
-26.3971813784
 23
-24.540674637
 33
0.0
  0
SOLID
  5
12D
330
129
100
AcDbEntity
  8
MASS
100
AcDbTrace
 10
0.1019419475
 20
-24.990674637
 30
0.0
 11
-3.3980580525
 21
-24.540674637
 31
0.0
 12
-3.3980580525
 22
-25.440674637
 32
0.0
 13
-3.3980580525
 23
-25.440674637
 33
0.0
  0
LINE
  5
12E
330
129
100
AcDbEntity
  8
MASS
100
AcDbLine
 10
-29.8971813784
 20
-7.0265653193
 30
0.0
 11
-29.8971813784
 21
-25.990674637
 31
0.0
  0
LINE
  5
12F
330
129
100
AcDbEntity
  8
MASS
100
AcDbLine
 10
0.1019419475
 20
-7.9754066696
 30
0.0
 11
0.1019419475
 21
-25.990674637
 31
0.0
  0
LINE
  5
130
330
129
100
AcDbEntity
  8
MASS
100
AcDbLine
 10
-29.8971813784
 20
-24.990674637
 30
0.0
 11
0.1019419475
 21
-24.990674637
 31
0.0
  0
MTEXT
  5
131
330
129
100
AcDbEntity
  8
MASS
100
AcDbMText
 10
-20.8160228716
 20
-20.4789374314
 30
0.1
 40
3.5
 41
0.0
 71
     1
 72
     1
  1
min 35
  7
SLDTEXTSTYLE0
  0
ENDBLK
  5
12B
330
129
100
AcDbEntity
  8
0
100
AcDbBlockEnd
  0
ENDSEC
  0
SECTION
  2
ENTITIES
  0
LINE
  5
4A
330
1F
100
AcDbEntity
  8
AUFNAHME
  6
CONTINUOUS
100
AcDbLine
 10
0.1019419475
 20
-7.9754066696
 30
0.0
 11
0.1019419475
 21
7.9754066696
 31
0.0
  0
LINE
  5
4B
330
1F
100
AcDbEntity
  8
AUFNAHME
  6
CONTINUOUS
100
AcDbLine
 10
0.1019419475
 20
-7.0265653193
 30
0.0
 11
0.1019419475
 21
-7.9754066696
 31
0.0
  0
LINE
  5
4C
330
1F
100
AcDbEntity
  8
AUFNAHME
  6
CONTINUOUS
100
AcDbLine
 10
0.1019419475
 20
7.9754066696
 30
0.0
 11
28.000876674
 21
7.9754066696
 31
0.0
  0
LINE
  5
4D
330
1F
100
AcDbEntity
  8
AUFNAHME
  6
CONTINUOUS
100
AcDbLine
 10
42.5008766741
 20
6.2781947449
 30
0.0
 11
61.3245331793
 21
6.2782026831
 31
0.0
  0
LINE
  5
4E
330
1F
100
AcDbEntity
  8
AUFNAHME
  6
CONTINUOUS
100
AcDbLine
 10
61.3245331793
 20
6.2782026831
 30
0.0
 11
63.0008766741
 21
13.0016492109
 31
0.0
  0
LINE
  5
4F
330
1F
100
AcDbEntity
  8
ZAPFEN
100
AcDbLine
 10
63.0008766741
 20
13.0016492109
 30
0.0
 11
63.0008766741
 21
13.0501314699
 31
0.0
  0
LINE
  5
50
330
1F
100
AcDbEntity
  8
AUFNAHME
  6
CONTINUOUS
100
AcDbLine
 10
63.0008766741
 20
13.0501314699
 30
0.0
 11
61.4155135331
 21
13.0501314699
 31
0.0
  0
LINE
  5
51
330
1F
100
AcDbEntity
  8
AUFNAHME
  6
CONTINUOUS
100
AcDbLine
 10
61.4155135331
 20
13.0501314699
 30
0.0
 11
61.6457188691
 21
13.9734346389
 31
0.0
  0
LINE
  5
52
330
1F
100
AcDbEntity
  8
AUFNAHME
  6
CONTINUOUS
100
AcDbLine
 10
61.6457188691
 20
13.9734346389
 30
0.0
 11
42.5008766741
 21
13.9734346389
 31
0.0
  0
LINE
  5
53
330
1F
100
AcDbEntity
  8
AUFNAHME
  6
CONTINUOUS
100
AcDbLine
 10
42.5008766741
 20
13.9734346389
 30
0.0
 11
42.5008766741
 21
6.2781947449
 31
0.0
  0
LINE
  5
54
330
1F
100
AcDbEntity
  8
AUFNAHME
  6
CONTINUOUS
100
AcDbLine
 10
42.5008766741
 20
6.2781947449
 30
0.0
 11
41.9897230191
 21
5.0428503579
 31
0.0
  0
LINE
  5
55
330
1F
100
AcDbEntity
  8
AUFNAHME
  6
CONTINUOUS
100
AcDbLine
 10
41.9897230191
 20
5.0428503579
 30
0.0
 11
41.5643850691
 21
3.7688597259
 31
0.0
  0
LINE
  5
56
330
1F
100
AcDbEntity
  8
AUFNAHME
  6
CONTINUOUS
100
AcDbLine
 10
41.5643850691
 20
3.7688597259
 30
0.0
 11
41.1499519421
 21
1.9096952449
 31
0.0
  0
LINE
  5
57
330
1F
100
AcDbEntity
  8
AUFNAHME
  6
CONTINUOUS
100
AcDbLine
 10
41.1499519421
 20
1.9096952449
 30
0.0
 11
41.0008766741
 21
-0.0265653611
 31
0.0
  0
LINE
  5
58
330
1F
100
AcDbEntity
  8
AUFNAHME
  6
CONTINUOUS
100
AcDbLine
 10
41.0008766741
 20
-0.0265653611
 30
0.0
 11
41.0299161221
 21
-0.8791083181
 31
0.0
  0
LINE
  5
59
330
1F
100
AcDbEntity
  8
AUFNAHME
  6
CONTINUOUS
100
AcDbLine
 10
41.0299161221
 20
-0.8791083181
 30
0.0
 11
41.1980901151
 21
-2.2557421551
 31
0.0
  0
LINE
  5
5A
330
1F
100
AcDbEntity
  8
AUFNAHME
  6
CONTINUOUS
100
AcDbLine
 10
41.1980901151
 20
-2.2557421551
 30
0.0
 11
41.5078926121
 21
-3.6227388291
 31
0.0
  0
LINE
  5
5B
330
1F
100
AcDbEntity
  8
AUFNAHME
  6
CONTINUOUS
100
AcDbLine
 10
41.5078926121
 20
-3.6227388291
 30
0.0
 11
41.9509209731
 21
-4.9918137581
 31
0.0
  0
LINE
  5
5C
330
1F
100
AcDbEntity
  8
AUFNAHME
  6
CONTINUOUS
100
AcDbLine
 10
41.9509209731
 20
-4.9918137581
 30
0.0
 11
42.5008766741
 21
-6.3313254671
 31
0.0
  0
LINE
  5
5D
330
1F
100
AcDbEntity
  8
AUFNAHME
  6
CONTINUOUS
100
AcDbLine
 10
42.5008766741
 20
-6.3313254671
 30
0.0
 11
58.1806247081
 21
-6.3313254671
 31
0.0
  0
LINE
  5
5E
330
1F
100
AcDbEntity
  8
AUFNAHME
  6
CONTINUOUS
100
AcDbLine
 10
58.1806247081
 20
-6.3313254671
 30
0.0
 11
61.3245331793
 21
6.2782026831
 31
0.0
  0
LINE
  5
5F
330
1F
100
AcDbEntity
  8
AUFNAHME
  6
CONTINUOUS
100
AcDbLine
 10
42.5008766741
 20
13.9734346389
 30
0.0
 11
41.0008766741
 21
12.4734346389
 31
0.0
  0
LINE
  5
60
330
1F
100
AcDbEntity
  8
AUFNAHME
  6
CONTINUOUS
100
AcDbLine
 10
41.0008766741
 20
12.4734346389
 30
0.0
 11
34.9290799041
 21
12.4734346389
 31
0.0
  0
LINE
  5
61
330
1F
100
AcDbEntity
  8
AUFNAHME
  6
CONTINUOUS
100
AcDbLine
 10
34.9290799041
 20
12.4734346389
 30
0.0
 11
28.000876674
 21
8.4734346389
 31
0.0
  0
LINE
  5
62
330
1F
100
AcDbEntity
  8
AUFNAHME
  6
CONTINUOUS
100
AcDbLine
 10
28.000876674
 20
8.4734346389
 30
0.0
 11
28.000876674
 21
-0.0265653612
 31
0.0
  0
LINE
  5
63
330
1F
100
AcDbEntity
  8
AUFNAHME
  6
CONTINUOUS
100
AcDbLine
 10
28.000876674
 20
-0.0265653612
 30
0.0
 11
28.000876674
 21
-8.5265653612
 31
0.0
  0
LINE
  5
64
330
1F
100
AcDbEntity
  8
AUFNAHME
  6
CONTINUOUS
100
AcDbLine
 10
28.000876674
 20
-8.5265653612
 30
0.0
 11
34.9290799041
 21
-12.5265653611
 31
0.0
  0
LINE
  5
65
330
1F
100
AcDbEntity
  8
AUFNAHME
  6
CONTINUOUS
100
AcDbLine
 10
34.9290799041
 20
-12.5265653611
 30
0.0
 11
41.0008766741
 21
-12.5265653611
 31
0.0
  0
LINE
  5
66
330
1F
100
AcDbEntity
  8
AUFNAHME
  6
CONTINUOUS
100
AcDbLine
 10
41.0008766741
 20
-12.5265653611
 30
0.0
 11
42.5008766741
 21
-14.0265653611
 31
0.0
  0
LINE
  5
67
330
1F
100
AcDbEntity
  8
AUFNAHME
  6
CONTINUOUS
100
AcDbLine
 10
42.5008766741
 20
-14.0265653611
 30
0.0
 11
54.6645347891
 21
-14.0265653611
 31
0.0
  0
LINE
  5
68
330
1F
100
AcDbEntity
  8
AUFNAHME
  6
CONTINUOUS
100
AcDbLine
 10
54.6645347891
 20
-14.0265653611
 30
0.0
 11
54.8947401241
 21
-13.1032621921
 31
0.0
  0
LINE
  5
69
330
1F
100
AcDbEntity
  8
AUFNAHME
  6
CONTINUOUS
100
AcDbLine
 10
54.8947401241
 20
-13.1032621921
 30
0.0
 11
56.4921912501
 21
-13.1032621921
 31
0.0
  0
LINE
  5
6A
330
1F
100
AcDbEntity
  8
AUFNAHME
  6
CONTINUOUS
100
AcDbLine
 10
56.4921912501
 20
-13.1032621921
 30
0.0
 11
58.1806247081
 21
-6.3313254671
 31
0.0
  0
LINE
  5
6B
330
1F
100
AcDbEntity
  8
AUFNAHME
  6
CONTINUOUS
100
AcDbLine
 10
0.1019419475
 20
-7.9754066696
 30
0.0
 11
28.000876674
 21
-7.9754066696
 31
0.0
  0
LINE
  5
6C
330
1F
100
AcDbEntity
  8
ZAPFEN
100
AcDbLine
 10
0.1019419475
 20
7.9754066696
 30
0.0
 11
-28.999123326
 21
7.9734346388
 31
0.0
  0
LINE
  5
6D
330
1F
100
AcDbEntity
  8
ZAPFEN
100
AcDbLine
 10
-28.999123326
 20
7.9734346388
 30
0.0
 11
-29.999123326
 21
6.9734346388
 31
0.0
  0
LINE
  5
6E
330
1F
100
AcDbEntity
  8
ZAPFEN
100
AcDbLine
 10
-29.999123326
 20
6.9734346388
 30
0.0
 11
-29.999123326
 21
-0.0265653612
 31
0.0
  0
LINE
  5
6F
330
1F
100
AcDbEntity
  8
ZAPFEN
100
AcDbLine
 10
-29.999123326
 20
-0.0265653612
 30
0.0
 11
-29.8971813784
 21
-7.0265653193
 31
0.0
  0
LINE
  5
70
330
1F
100
AcDbEntity
  8
ZAPFEN
100
AcDbLine
 10
-29.8971813784
 20
-7.0265653193
 30
0.0
 11
-28.999123326
 21
-8.0265653612
 31
0.0
  0
LINE
  5
71
330
1F
100
AcDbEntity
  8
ZAPFEN
100
AcDbLine
 10
-28.999123326
 20
-8.0265653612
 30
0.0
 11
0.1019419475
 21
-7.9754066696
 31
0.0
  0
LINE
  5
72
330
1F
100
AcDbEntity
  8
UNSICHT
  6
CENTER
100
AcDbLine
 10
-31.0633697297
 20
-0.0265653611
 30
0.0
 11
75.4174456831
 21
-0.0265653611
 31
0.0
  0
LINE
  5
73
330
1F
100
AcDbEntity
  8
AUFNAHME
  6
CONTINUOUS
100
AcDbLine
 10
42.5008766741
 20
-14.0265653611
 30
0.0
 11
42.5008766741
 21
-6.3313254671
 31
0.0
  0
LINE
  5
74
330
1F
100
AcDbEntity
  8
AUFNAHME
  6
CONTINUOUS
100
AcDbLine
 10
41.0008766741
 20
-12.5265653611
 30
0.0
 11
41.0008766741
 21
-0.0265653611
 31
0.0
  0
LINE
  5
75
330
1F
100
AcDbEntity
  8
AUFNAHME
  6
CONTINUOUS
100
AcDbLine
 10
41.0008766741
 20
-0.0265653611
 30
0.0
 11
41.0008766741
 21
12.4734346389
 31
0.0
  0
LINE
  5
76
330
1F
100
AcDbEntity
  8
AUFNAHME
  6
CONTINUOUS
100
AcDbLine
 10
34.9290799041
 20
-12.5265653611
 30
0.0
 11
34.9290799041
 21
12.4734346389
 31
0.0
  0
LINE
  5
77
330
1F
100
AcDbEntity
  8
ZAPFEN
100
AcDbLine
 10
-28.999123326
 20
-8.0265653612
 30
0.0
 11
-28.999123326
 21
-0.0265653612
 31
0.0
  0
LINE
  5
78
330
1F
100
AcDbEntity
  8
ZAPFEN
100
AcDbLine
 10
-28.999123326
 20
-0.0265653612
 30
0.0
 11
-28.999123326
 21
7.9734346388
 31
0.0
  0
LINE
  5
79
330
1F
100
AcDbEntity
  8
EW
  6
HIDDEN
100
AcDbLine
 10
61.4155135331
 20
13.0501314699
 30
0.0
 11
54.8947401241
 21
-13.1032621921
 31
0.0
  0
LINE
  5
7A
330
1F
100
AcDbEntity
  8
EW
  6
HIDDEN
100
AcDbLine
 10
58.5291188328
 20
1.4734346388
 30
0.0
 11
35.000876674
 21
1.4734346388
 31
0.0
  0
LINE
  5
7B
330
1F
100
AcDbEntity
  8
EW
  6
HIDDEN
100
AcDbLine
 10
35.000876674
 20
-1.5265653612
 30
0.0
 11
58.095090259
 21
-1.5265653612
 31
0.0
  0
LINE
  5
7C
330
1F
100
AcDbEntity
  8
EW
  6
HIDDEN
100
AcDbLine
 10
-29.999123326
 20
-2.0265653612
 30
0.0
 11
34.929079904
 21
-2.0265653612
 31
0.0
  0
LINE
  5
7D
330
1F
100
AcDbEntity
  8
EW
  6
HIDDEN
100
AcDbLine
 10
34.929079904
 20
1.9734346388
 30
0.0
 11
-29.999123326
 21
1.9734346388
 31
0.0
  0
LINE
  5
7E
330
1F
100
AcDbEntity
  8
ZAPFEN
100
AcDbLine
 10
70.9027868501
 20
11.7635976469
 30
0.0
 11
70.6757387791
 21
11.6353249709
 31
0.0
  0
LINE
  5
7F
330
1F
100
AcDbEntity
  8
ZAPFEN
100
AcDbLine
 10
70.6757387791
 20
11.6353249709
 30
0.0
 11
70.4723309551
 21
11.4920896519
 31
0.0
  0
LINE
  5
80
330
1F
100
AcDbEntity
  8
ZAPFEN
100
AcDbLine
 10
70.4723309551
 20
11.4920896519
 30
0.0
 11
70.3035845821
 21
11.3378116229
 31
0.0
  0
LINE
  5
81
330
1F
100
AcDbEntity
  8
ZAPFEN
100
AcDbLine
 10
70.3035845821
 20
11.3378116229
 30
0.0
 11
70.1724985091
 21
11.1674949919
 31
0.0
  0
LINE
  5
82
330
1F
100
AcDbEntity
  8
ZAPFEN
100
AcDbLine
 10
70.1724985091
 20
11.1674949919
 30
0.0
 11
70.1113315231
 21
11.0412207099
 31
0.0
  0
LINE
  5
83
330
1F
100
AcDbEntity
  8
ZAPFEN
100
AcDbLine
 10
70.1113315231
 20
11.0412207099
 30
0.0
 11
70.0814956951
 21
10.9085389769
 31
0.0
  0
LINE
  5
84
330
1F
100
AcDbEntity
  8
ZAPFEN
100
AcDbLine
 10
70.0814956951
 20
10.9085389769
 30
0.0
 11
70.1124979321
 21
10.7103957079
 31
0.0
  0
LINE
  5
85
330
1F
100
AcDbEntity
  8
ZAPFEN
100
AcDbLine
 10
70.1124979321
 20
10.7103957079
 30
0.0
 11
70.1691608211
 21
10.6142504299
 31
0.0
  0
LINE
  5
86
330
1F
100
AcDbEntity
  8
ZAPFEN
100
AcDbLine
 10
70.1691608211
 20
10.6142504299
 30
0.0
 11
70.2537263611
 21
10.5261154519
 31
0.0
  0
LINE
  5
87
330
1F
100
AcDbEntity
  8
ZAPFEN
100
AcDbLine
 10
70.2537263611
 20
10.5261154519
 30
0.0
 11
70.4519988671
 21
10.4049901119
 31
0.0
  0
LINE
  5
88
330
1F
100
AcDbEntity
  8
ZAPFEN
100
AcDbLine
 10
70.4519988671
 20
10.4049901119
 30
0.0
 11
70.6177218151
 21
10.3443896819
 31
0.0
  0
LINE
  5
89
330
1F
100
AcDbEntity
  8
ZAPFEN
100
AcDbLine
 10
70.6177218151
 20
10.3443896819
 30
0.0
 11
70.7960356621
 21
10.3017843179
 31
0.0
  0
LINE
  5
8A
330
1F
100
AcDbEntity
  8
ZAPFEN
100
AcDbLine
 10
70.7960356621
 20
10.3017843179
 30
0.0
 11
71.1027433851
 21
10.2640854949
 31
0.0
  0
LINE
  5
8B
330
1F
100
AcDbEntity
  8
ZAPFEN
100
AcDbLine
 10
71.1027433851
 20
10.2640854949
 30
0.0
 11
71.4151067001
 21
10.2577546529
 31
0.0
  0
LINE
  5
8C
330
1F
100
AcDbEntity
  8
ZAPFEN
100
AcDbLine
 10
71.4151067001
 20
10.2577546529
 30
0.0
 11
72.0081292481
 21
10.3054219959
 31
0.0
  0
LINE
  5
8D
330
1F
100
AcDbEntity
  8
ZAPFEN
100
AcDbLine
 10
72.0081292481
 20
10.3054219959
 30
0.0
 11
72.5863266011
 21
10.4092406889
 31
0.0
  0
LINE
  5
8E
330
1F
100
AcDbEntity
  8
ZAPFEN
100
AcDbLine
 10
72.5863266011
 20
10.4092406889
 30
0.0
 11
72.7546247301
 21
10.3159758659
 31
0.0
  0
LINE
  5
8F
330
1F
100
AcDbEntity
  8
ZAPFEN
100
AcDbLine
 10
72.7546247301
 20
10.3159758659
 30
0.0
 11
72.9103067211
 21
10.2344253979
 31
0.0
  0
LINE
  5
90
330
1F
100
AcDbEntity
  8
ZAPFEN
100
AcDbLine
 10
72.9103067211
 20
10.2344253979
 30
0.0
 11
73.0503106581
 21
10.1661931989
 31
0.0
  0
LINE
  5
91
330
1F
100
AcDbEntity
  8
ZAPFEN
100
AcDbLine
 10
73.0503106581
 20
10.1661931989
 30
0.0
 11
73.1718829781
 21
10.1126212439
 31
0.0
  0
LINE
  5
92
330
1F
100
AcDbEntity
  8
ZAPFEN
100
AcDbLine
 10
73.1718829781
 20
10.1126212439
 30
0.0
 11
73.2726326281
 21
10.0747631719
 31
0.0
  0
LINE
  5
93
330
1F
100
AcDbEntity
  8
ZAPFEN
100
AcDbLine
 10
73.2726326281
 20
10.0747631719
 30
0.0
 11
73.3505780881
 21
10.0533635659
 31
0.0
  0
LINE
  5
94
330
1F
100
AcDbEntity
  8
ZAPFEN
100
AcDbLine
 10
73.3505780881
 20
10.0533635659
 30
0.0
 11
73.4041863451
 21
10.0488433099
 31
0.0
  0
LINE
  5
95
330
1F
100
AcDbEntity
  8
ZAPFEN
100
AcDbLine
 10
73.4041863451
 20
10.0488433099
 30
0.0
 11
73.4324030461
 21
10.0612913059
 31
0.0
  0
LINE
  5
96
330
1F
100
AcDbEntity
  8
ZAPFEN
100
AcDbLine
 10
73.4324030461
 20
10.0612913059
 30
0.0
 11
73.4346732321
 21
10.0904627299
 31
0.0
  0
LINE
  5
97
330
1F
100
AcDbEntity
  8
ZAPFEN
100
AcDbLine
 10
73.4346732321
 20
10.0904627299
 30
0.0
 11
73.4109522521
 21
10.1357838449
 31
0.0
  0
LINE
  5
98
330
1F
100
AcDbEntity
  8
ZAPFEN
100
AcDbLine
 10
73.4109522521
 20
10.1357838449
 30
0.0
 11
73.3617066461
 21
10.1963632879
 31
0.0
  0
LINE
  5
99
330
1F
100
AcDbEntity
  8
ZAPFEN
100
AcDbLine
 10
73.3617066461
 20
10.1963632879
 30
0.0
 11
73.2879049641
 21
10.2710095959
 31
0.0
  0
LINE
  5
9A
330
1F
100
AcDbEntity
  8
ZAPFEN
100
AcDbLine
 10
73.2879049641
 20
10.2710095959
 30
0.0
 11
73.1909987191
 21
10.3582546439
 31
0.0
  0
LINE
  5
9B
330
1F
100
AcDbEntity
  8
ZAPFEN
100
AcDbLine
 10
73.1909987191
 20
10.3582546439
 30
0.0
 11
73.0728938401
 21
10.4563825189
 31
0.0
  0
LINE
  5
9C
330
1F
100
AcDbEntity
  8
ZAPFEN
100
AcDbLine
 10
73.0728938401
 20
10.4563825189
 30
0.0
 11
72.9359131841
 21
10.5634632649
 31
0.0
  0
LINE
  5
9D
330
1F
100
AcDbEntity
  8
ZAPFEN
100
AcDbLine
 10
72.9359131841
 20
10.5634632649
 30
0.0
 11
72.7827508521
 21
10.6773908449
 31
0.0
  0
LINE
  5
9E
330
1F
100
AcDbEntity
  8
ZAPFEN
100
AcDbLine
 10
72.7827508521
 20
10.6773908449
 30
0.0
 11
72.6164192051
 21
10.7959245579
 31
0.0
  0
LINE
  5
9F
330
1F
100
AcDbEntity
  8
ZAPFEN
100
AcDbLine
 10
72.6164192051
 20
10.7959245579
 30
0.0
 11
72.4401896121
 21
10.9167331139
 31
0.0
  0
LINE
  5
A0
330
1F
100
AcDbEntity
  8
ZAPFEN
100
AcDbLine
 10
72.4401896121
 20
10.9167331139
 30
0.0
 11
72.2575281121
 21
11.0374404779
 31
0.0
  0
LINE
  5
A1
330
1F
100
AcDbEntity
  8
ZAPFEN
100
AcDbLine
 10
72.2575281121
 20
11.0374404779
 30
0.0
 11
72.0720272491
 21
11.1556726089
 31
0.0
  0
LINE
  5
A2
330
1F
100
AcDbEntity
  8
ZAPFEN
100
AcDbLine
 10
72.0720272491
 20
11.1556726089
 30
0.0
 11
71.8873354061
 21
11.2691041459
 31
0.0
  0
LINE
  5
A3
330
1F
100
AcDbEntity
  8
ZAPFEN
100
AcDbLine
 10
71.8873354061
 20
11.2691041459
 30
0.0
 11
71.7070850591
 21
11.3755041439
 31
0.0
  0
LINE
  5
A4
330
1F
100
AcDbEntity
  8
ZAPFEN
100
AcDbLine
 10
71.7070850591
 20
11.3755041439
 30
0.0
 11
71.5348213251
 21
11.4727799569
 31
0.0
  0
LINE
  5
A5
330
1F
100
AcDbEntity
  8
ZAPFEN
100
AcDbLine
 10
71.5348213251
 20
11.4727799569
 30
0.0
 11
71.3739322461
 21
11.5590183859
 31
0.0
  0
LINE
  5
A6
330
1F
100
AcDbEntity
  8
ZAPFEN
100
AcDbLine
 10
71.3739322461
 20
11.5590183859
 30
0.0
 11
71.2275821491
 21
11.6325233149
 31
0.0
  0
LINE
  5
A7
330
1F
100
AcDbEntity
  8
ZAPFEN
100
AcDbLine
 10
71.2275821491
 20
11.6325233149
 30
0.0
 11
71.0986494121
 21
11.6918490679
 31
0.0
  0
LINE
  5
A8
330
1F
100
AcDbEntity
  8
ZAPFEN
100
AcDbLine
 10
71.0986494121
 20
11.6918490679
 30
0.0
 11
70.9896698511
 21
11.7358288389
 31
0.0
  0
LINE
  5
A9
330
1F
100
AcDbEntity
  8
ZAPFEN
100
AcDbLine
 10
70.9896698511
 20
11.7358288389
 30
0.0
 11
70.9027868501
 21
11.7635976469
 31
0.0
  0
LINE
  5
AA
330
1F
100
AcDbEntity
  8
ZAPFEN
100
AcDbLine
 10
70.9027868501
 20
11.7635976469
 30
0.0
 11
70.5790605551
 21
12.0396434019
 31
0.0
  0
LINE
  5
AB
330
1F
100
AcDbEntity
  8
ZAPFEN
100
AcDbLine
 10
70.5790605551
 20
12.0396434019
 30
0.0
 11
70.2839884911
 21
12.2985567369
 31
0.0
  0
LINE
  5
AC
330
1F
100
AcDbEntity
  8
ZAPFEN
100
AcDbLine
 10
70.2839884911
 20
12.2985567369
 30
0.0
 11
70.0179896241
 21
12.5399700289
 31
0.0
  0
LINE
  5
AD
330
1F
100
AcDbEntity
  8
ZAPFEN
100
AcDbLine
 10
70.0179896241
 20
12.5399700289
 30
0.0
 11
69.7814416361
 21
12.7635405029
 31
0.0
  0
LINE
  5
AE
330
1F
100
AcDbEntity
  8
ZAPFEN
100
AcDbLine
 10
69.7814416361
 20
12.7635405029
 30
0.0
 11
69.5746803931
 21
12.9689507189
 31
0.0
  0
LINE
  5
AF
330
1F
100
AcDbEntity
  8
ZAPFEN
100
AcDbLine
 10
69.5746803931
 20
12.9689507189
 30
0.0
 11
69.3979994701
 21
13.1559090209
 31
0.0
  0
LINE
  5
B0
330
1F
100
AcDbEntity
  8
ZAPFEN
100
AcDbLine
 10
69.3979994701
 20
13.1559090209
 30
0.0
 11
69.2516497291
 21
13.3241499539
 31
0.0
  0
LINE
  5
B1
330
1F
100
AcDbEntity
  8
ZAPFEN
100
AcDbLine
 10
69.2516497291
 20
13.3241499539
 30
0.0
 11
69.1358389691
 21
13.4734346369
 31
0.0
  0
LINE
  5
B2
330
1F
100
AcDbEntity
  8
ZAPFEN
100
AcDbLine
 10
69.1358389691
 20
13.4734346369
 30
0.0
 11
61.7787082741
 21
13.4734346369
 31
0.0
  0
LINE
  5
B3
330
1F
100
AcDbEntity
  8
ZAPFEN
100
AcDbLine
 10
61.7787082741
 20
13.4734346369
 30
0.0
 11
61.6731672722
 21
13.0501327997
 31
0.0
  0
LINE
  5
B4
330
1F
100
AcDbEntity
  8
ZAPFEN
100
AcDbLine
 10
61.6731672722
 20
13.0501327997
 30
0.0
 11
63.0129649902
 21
13.0501327997
 31
0.0
  0
LINE
  5
B5
330
1F
100
AcDbEntity
  8
ZAPFEN
100
AcDbLine
 10
63.0129649902
 20
13.0501327997
 30
0.0
 11
61.3245331793
 21
6.2782026831
 31
0.0
  0
LINE
  5
B6
330
1F
100
AcDbEntity
  8
ZAPFEN
100
AcDbLine
 10
61.3245331793
 20
6.2782026831
 30
0.0
 11
68.1766013351
 21
6.2781947449
 31
0.0
  0
LINE
  5
B7
330
1F
100
AcDbEntity
  8
ZAPFEN
100
AcDbLine
 10
68.1766013351
 20
6.2781947449
 30
0.0
 11
69.0095361711
 21
6.6465050939
 31
0.0
  0
LINE
  5
B8
330
1F
100
AcDbEntity
  8
ZAPFEN
100
AcDbLine
 10
69.0095361711
 20
6.6465050939
 30
0.0
 11
69.8827334791
 21
7.0089329949
 31
0.0
  0
LINE
  5
B9
330
1F
100
AcDbEntity
  8
ZAPFEN
100
AcDbLine
 10
69.8827334791
 20
7.0089329949
 30
0.0
 11
70.7954235171
 21
7.3651589599
 31
0.0
  0
LINE
  5
BA
330
1F
100
AcDbEntity
  8
ZAPFEN
100
AcDbLine
 10
70.7954235171
 20
7.3651589599
 30
0.0
 11
71.7468017311
 21
7.7148689679
 31
0.0
  0
LINE
  5
BB
330
1F
100
AcDbEntity
  8
ZAPFEN
100
AcDbLine
 10
71.7468017311
 20
7.7148689679
 30
0.0
 11
72.7360294601
 21
8.0577547429
 31
0.0
  0
LINE
  5
BC
330
1F
100
AcDbEntity
  8
ZAPFEN
100
AcDbLine
 10
72.7360294601
 20
8.0577547429
 30
0.0
 11
73.7622346821
 21
8.3935140239
 31
0.0
  0
LINE
  5
BD
330
1F
100
AcDbEntity
  8
ZAPFEN
100
AcDbLine
 10
73.7622346821
 20
8.3935140239
 30
0.0
 11
74.8245127741
 21
8.7218508329
 31
0.0
  0
LINE
  5
BE
330
1F
100
AcDbEntity
  8
ZAPFEN
100
AcDbLine
 10
74.8245127741
 20
8.7218508329
 30
0.0
 11
74.2211797521
 21
9.1682329079
 31
0.0
  0
LINE
  5
BF
330
1F
100
AcDbEntity
  8
ZAPFEN
100
AcDbLine
 10
74.2211797521
 20
9.1682329079
 30
0.0
 11
73.6463849901
 21
9.5987490469
 31
0.0
  0
LINE
  5
C0
330
1F
100
AcDbEntity
  8
ZAPFEN
100
AcDbLine
 10
73.6463849901
 20
9.5987490469
 30
0.0
 11
73.1011203151
 21
10.0126563779
 31
0.0
  0
LINE
  5
C1
330
1F
100
AcDbEntity
  8
ZAPFEN
100
AcDbLine
 10
73.1011203151
 20
10.0126563779
 30
0.0
 11
72.5863266011
 21
10.4092406889
 31
0.0
  0
LINE
  5
C2
330
1F
100
AcDbEntity
  8
ZAPFEN
100
AcDbLine
 10
79.0343835298
 20
9.578729601
 30
0.0
 11
79.3347406888
 21
9.383675381
 31
0.0
  0
LINE
  5
C3
330
1F
100
AcDbEntity
  8
ZAPFEN
100
AcDbLine
 10
79.3347406888
 20
9.383675381
 30
0.0
 11
79.2873172028
 21
8.478781352
 31
0.0
  0
LINE
  5
C4
330
1F
100
AcDbEntity
  8
ZAPFEN
100
AcDbLine
 10
79.2873172028
 20
8.478781352
 30
0.0
 11
79.2788111008
 21
8.282695405
 31
0.0
  0
LINE
  5
C5
330
1F
100
AcDbEntity
  8
ZAPFEN
100
AcDbLine
 10
79.2788111008
 20
8.282695405
 30
0.0
 11
79.2739740668
 21
8.090032457
 31
0.0
  0
LINE
  5
C6
330
1F
100
AcDbEntity
  8
ZAPFEN
100
AcDbLine
 10
79.2739740668
 20
8.090032457
 30
0.0
 11
79.2729453908
 21
7.906340586
 31
0.0
  0
LINE
  5
C7
330
1F
100
AcDbEntity
  8
ZAPFEN
100
AcDbLine
 10
79.2729453908
 20
7.906340586
 30
0.0
 11
79.2757546958
 21
7.736909531
 31
0.0
  0
LINE
  5
C8
330
1F
100
AcDbEntity
  8
ZAPFEN
100
AcDbLine
 10
79.2757546958
 20
7.736909531
 30
0.0
 11
79.2823210838
 21
7.586618364
 31
0.0
  0
LINE
  5
C9
330
1F
100
AcDbEntity
  8
ZAPFEN
100
AcDbLine
 10
79.2823210838
 20
7.586618364
 30
0.0
 11
79.2924554618
 21
7.459794991
 31
0.0
  0
LINE
  5
CA
330
1F
100
AcDbEntity
  8
ZAPFEN
100
AcDbLine
 10
79.2924554618
 20
7.459794991
 30
0.0
 11
79.2219834932
 21
7.3377339608
 31
0.0
  0
LINE
  5
CB
330
1F
100
AcDbEntity
  8
ZAPFEN
100
AcDbLine
 10
79.2219834932
 20
7.3377339608
 30
0.0
 11
78.6748620023
 21
6.3900917407
 31
0.0
  0
LINE
  5
CC
330
1F
100
AcDbEntity
  8
ZAPFEN
100
AcDbLine
 10
78.6748620023
 20
6.3900917407
 30
0.0
 11
74.8245127741
 21
8.7218508329
 31
0.0
  0
LINE
  5
CD
330
1F
100
AcDbEntity
  8
ZAPFEN
100
AcDbLine
 10
73.087724873
 20
16.7039159074
 30
0.0
 11
71.708336579
 21
16.7762065854
 31
0.0
  0
LINE
  5
CE
330
1F
100
AcDbEntity
  8
ZAPFEN
100
AcDbLine
 10
71.540861519
 20
13.5805920741
 30
0.0
 11
72.920249813
 21
13.5083013968
 31
0.0
  0
LINE
  5
CF
330
1F
100
AcDbEntity
  8
ZAPFEN
100
AcDbLine
 10
79.091234508
 20
9.6640775168
 30
0.0
 11
79.580986993
 21
19.0091116128
 31
0.0
  0
LINE
  5
D0
330
1F
100
AcDbEntity
  8
ZAPFEN
100
AcDbLine
 10
79.580986993
 20
19.0091116128
 30
0.0
 11
79.561729662
 21
19.1751442448
 31
0.0
  0
LINE
  5
D1
330
1F
100
AcDbEntity
  8
ZAPFEN
100
AcDbLine
 10
79.561729662
 20
19.1751442448
 30
0.0
 11
79.488443979
 21
19.3254267718
 31
0.0
  0
LINE
  5
D2
330
1F
100
AcDbEntity
  8
ZAPFEN
100
AcDbLine
 10
79.488443979
 20
19.3254267718
 30
0.0
 11
79.370162096
 21
19.4419568608
 31
0.0
  0
LINE
  5
D3
330
1F
100
AcDbEntity
  8
ZAPFEN
100
AcDbLine
 10
79.370162096
 20
19.4419568608
 30
0.0
 11
79.220320079
 21
19.5127197418
 31
0.0
  0
LINE
  5
D4
330
1F
100
AcDbEntity
  8
ZAPFEN
100
AcDbLine
 10
79.220320079
 20
19.5127197418
 30
0.0
 11
79.0844227
 21
19.5314172948
 31
0.0
  0
LINE
  5
D5
330
1F
100
AcDbEntity
  8
ZAPFEN
100
AcDbLine
 10
79.0844227
 20
19.5314172948
 30
0.0
 11
78.6370088
 21
19.5314172948
 31
0.0
  0
LINE
  5
D6
330
1F
100
AcDbEntity
  8
ZAPFEN
100
AcDbLine
 10
78.6370088
 20
19.5314172948
 30
0.0
 11
77.861458772
 21
19.5314172948
 31
0.0
  0
LINE
  5
D7
330
1F
100
AcDbEntity
  8
ZAPFEN
100
AcDbLine
 10
78.6748620023
 20
6.3900917407
 30
0.0
 11
68.6024927441
 21
-11.0557635671
 31
0.0
  0
LINE
  5
D8
330
1F
100
AcDbEntity
  8
ZAPFEN
100
AcDbLine
 10
68.6024927441
 20
-11.0557635671
 30
0.0
 11
65.2595572501
 21
-16.8458976891
 31
0.0
  0
LINE
  5
D9
330
1F
100
AcDbEntity
  8
ZAPFEN
100
AcDbLine
 10
65.2595572501
 20
-16.8458976891
 30
0.0
 11
63.000525608
 21
-18.2131125038
 31
0.0
  0
LINE
  5
DA
330
1F
100
AcDbEntity
  8
ZAPFEN
100
AcDbLine
 10
63.000525608
 20
-18.2131125038
 30
0.0
 11
63.000525608
 21
-14.3356706982
 31
0.0
  0
LINE
  5
DB
330
1F
100
AcDbEntity
  8
ZAPFEN
100
AcDbLine
 10
63.000525608
 20
-14.3356706982
 30
0.0
 11
63.0456092421
 21
-14.3010905131
 31
0.0
  0
LINE
  5
DC
330
1F
100
AcDbEntity
  8
ZAPFEN
100
AcDbLine
 10
79.2219834932
 20
7.3377339608
 30
0.0
 11
69.7623550751
 21
13.4808884849
 31
0.0
  0
LINE
  5
DD
330
1F
100
AcDbEntity
  8
ZAPFEN
100
AcDbLine
 10
69.7623550751
 20
13.4808884849
 30
0.0
 11
69.7595953601
 21
13.4767497489
 31
0.0
  0
LINE
  5
DE
330
1F
100
AcDbEntity
  8
ZAPFEN
100
AcDbLine
 10
69.7595953601
 20
13.4767497489
 30
0.0
 11
69.7542602251
 21
13.4742637589
 31
0.0
  0
LINE
  5
DF
330
1F
100
AcDbEntity
  8
ZAPFEN
100
AcDbLine
 10
69.7542602251
 20
13.4742637589
 30
0.0
 11
69.7463585161
 21
13.4734346369
 31
0.0
  0
LINE
  5
E0
330
1F
100
AcDbEntity
  8
ZAPFEN
100
AcDbLine
 10
69.7463585161
 20
13.4734346369
 30
0.0
 11
69.1358389691
 21
13.4734346369
 31
0.0
  0
LINE
  5
E1
330
1F
100
AcDbEntity
  8
ZAPFEN
100
AcDbLine
 10
79.4189519862
 20
19.9298372487
 30
0.0
 11
70.8538114242
 21
15.5656801537
 31
0.0
  0
LINE
  5
E2
330
1F
100
AcDbEntity
  8
ZAPFEN
100
AcDbLine
 10
70.81755201
 20
14.8738093166
 30
0.0
 11
78.879593201
 21
9.6382585508
 31
0.0
  0
LINE
  5
E3
330
1F
100
AcDbEntity
  8
ZAPFEN
100
AcDbLine
 10
79.4969006289
 20
9.9527923953
 30
0.0
 11
80.1019419475
 21
19.5553372583
 31
0.0
  0
LINE
  5
E4
330
1F
100
AcDbEntity
  8
ZAPFEN
100
AcDbLine
 10
63.000525608
 20
-18.2131125038
 30
0.0
 11
59.3870465349
 21
-18.2131125038
 31
0.0
  0
LINE
  5
E5
330
1F
100
AcDbEntity
  8
ZAPFEN
100
AcDbLine
 10
59.3870465349
 20
-18.2131125038
 30
0.0
 11
59.1842299581
 21
-19.0265653631
 31
0.0
  0
LINE
  5
E6
330
1F
100
AcDbEntity
  8
ZAPFEN
100
AcDbLine
 10
59.1842299581
 20
-19.0265653631
 30
0.0
 11
53.6755481811
 21
-19.0265653631
 31
0.0
  0
LINE
  5
E7
330
1F
100
AcDbEntity
  8
ZAPFEN
100
AcDbLine
 10
53.6755481811
 20
-19.0265653631
 30
0.0
 11
53.8425224521
 21
-18.3568681431
 31
0.0
  0
LINE
  5
E8
330
1F
100
AcDbEntity
  8
ZAPFEN
100
AcDbLine
 10
53.8425224521
 20
-18.3568681431
 30
0.0
 11
55.1823201701
 21
-18.3568681431
 31
0.0
  0
LINE
  5
E9
330
1F
100
AcDbEntity
  8
ZAPFEN
100
AcDbLine
 10
55.1823201701
 20
-18.3568681431
 30
0.0
 11
56.1849172982
 21
-14.3356706982
 31
0.0
  0
LINE
  5
EA
330
1F
100
AcDbEntity
  8
ZAPFEN
100
AcDbLine
 10
56.1849172982
 20
-14.3356706982
 30
0.0
 11
63.000525608
 21
-14.3356706982
 31
0.0
  0
LINE
  5
EB
330
1F
100
AcDbEntity
  8
ZAPFEN
100
AcDbLine
 10
63.0456092421
 20
-14.3010905131
 30
0.0
 11
68.1766013351
 21
6.2781947449
 31
0.0
  0
LINE
  5
EC
330
1F
100
AcDbEntity
  8
ZAPFEN
100
AcDbLine
 10
61.3245331793
 20
6.2782026831
 30
0.0
 11
56.1849172982
 21
-14.3356706982
 31
0.0
  0
LINE
  5
ED
330
1F
100
AcDbEntity
  8
ZAPFEN
100
AcDbLine
 10
53.8425224521
 20
-18.3568681431
 30
0.0
 11
61.6731672722
 21
13.0501327997
 31
0.0
  0
LINE
  5
EE
330
1F
100
AcDbEntity
  8
ZAPFEN
100
AcDbLine
 10
61.7787082741
 20
13.4734346369
 30
0.0
 11
62.0280362771
 21
14.4734346369
 31
0.0
  0
LINE
  5
EF
330
1F
100
AcDbEntity
  8
ZAPFEN
100
AcDbLine
 10
62.0280362771
 20
14.4734346369
 30
0.0
 11
63.3171620961
 21
19.6438358949
 31
0.0
  0
LINE
  5
F0
330
1F
100
AcDbEntity
  8
ZAPFEN
100
AcDbLine
 10
63.3171620961
 20
19.6438358949
 30
0.0
 11
77.8041786341
 21
19.6438358949
 31
0.0
  0
LINE
  5
F1
330
1F
100
AcDbEntity
  8
ZAPFEN
100
AcDbLine
 10
77.8041786341
 20
19.6438358949
 30
0.0
 11
78.0213053511
 21
19.2177007189
 31
0.0
  0
LINE
  5
F2
330
1F
100
AcDbEntity
  8
ZAPFEN
100
AcDbLine
 10
79.2068688748
 20
9.588983681
 30
0.0
 11
79.2339219588
 21
9.571415203
 31
0.0
  0
LINE
  5
F3
330
1F
100
AcDbEntity
  8
ZAPFEN
100
AcDbLine
 10
79.2339219588
 20
9.571415203
 30
0.0
 11
79.3347406888
 21
9.383675381
 31
0.0
  0
LINE
  5
F4
330
1F
100
AcDbEntity
  8
ZAPFEN
100
AcDbLine
 10
73.6030314651
 20
1.6019993589
 30
0.0
 11
74.0868752571
 21
3.5425908119
 31
0.0
  0
LINE
  5
F5
330
1F
100
AcDbEntity
  8
ZAPFEN
100
AcDbLine
 10
74.0868752571
 20
3.5425908119
 30
0.0
 11
75.4174456831
 21
8.8792173069
 31
0.0
  0
LINE
  5
F6
330
1F
100
AcDbEntity
  8
ZAPFEN
100
AcDbLine
 10
75.4174456831
 20
8.8792173069
 30
0.0
 11
66.6847841461
 21
11.0565143669
 31
0.0
  0
LINE
  5
F7
330
1F
100
AcDbEntity
  8
ZAPFEN
100
AcDbLine
 10
66.6847841461
 20
11.0565143669
 30
0.0
 11
59.3870465349
 21
-18.2131125038
 31
0.0
  0
LINE
  5
F8
330
1F
100
AcDbEntity
  8
ZAPFEN
100
AcDbLine
 10
63.1560755151
 20
18.9977529079
 30
0.0
 11
64.4958732341
 21
18.9977529079
 31
0.0
  0
LINE
  5
F9
330
1F
100
AcDbEntity
  8
ZAPFEN
100
AcDbLine
 10
64.4958732341
 20
18.9977529079
 30
0.0
 11
63.0129649902
 21
13.0501327997
 31
0.0
  0
LINE
  5
FA
330
1F
100
AcDbEntity
  8
ZAPFEN
100
AcDbLine
 10
59.135204786
 20
-2.5027138952
 30
0.0
 11
73.428647984
 21
10.0573012718
 31
0.0
  0
LINE
  5
FB
330
1F
100
AcDbEntity
  8
ZAPFEN
100
AcDbLine
 10
70.4379802
 20
11.4640549058
 30
0.0
 11
60.369951122
 21
2.4495831688
 31
0.0
  0
LINE
  5
FC
330
1F
100
AcDbEntity
  8
ZAPFEN
100
AcDbLine
 10
78.480922915
 20
6.0541793868
 30
0.0
 11
74.933601891
 21
6.9386258538
 31
0.0
  0
LINE
  5
FD
330
1F
100
AcDbEntity
  8
ZAPFEN
100
AcDbLine
 10
66.101398557
 20
8.7166825708
 30
0.0
 11
60.9546242
 21
10.1682139438
 31
0.0
  0
LINE
  5
FE
330
1F
100
AcDbEntity
  8
ZAPFEN
100
AcDbLine
 10
54.90657681
 20
-14.0891792132
 30
0.0
 11
60.053351167
 21
-15.5407105862
 31
0.0
  0
ARC
  5
FF
330
1F
100
AcDbEntity
  8
ZAPFEN
100
AcDbCircle
 10
71.624599049
 20
15.1783993298
 30
0.0
 40
1.600000000000001
100
AcDbArc
 50
87.0000000003
 51
211.6017136
  0
ARC
  5
100
330
1F
100
AcDbEntity
  8
ZAPFEN
100
AcDbCircle
 10
71.624599049
 20
15.1783993298
 30
0.0
 40
1.600000000000001
100
AcDbArc
 50
211.6017136
 51
262.3982864
  0
ARC
  5
101
330
1F
100
AcDbEntity
  8
ZAPFEN
100
AcDbCircle
 10
71.624599049
 20
15.1783993298
 30
0.0
 40
1.59999999999998
100
AcDbArc
 50
262.3982864
 51
267.0
  0
ARC
  5
102
330
1F
100
AcDbEntity
  8
ZAPFEN
100
AcDbCircle
 10
71.0354076241
 20
15.2092775439
 30
0.0
 40
0.4000000001683205
100
AcDbArc
 50
116.9999999922
 51
237.000000002
  0
ARC
  5
103
330
1F
100
AcDbEntity
  8
ZAPFEN
100
AcDbCircle
 10
79.0974488151
 20
9.9737267778
 30
0.0
 40
0.3999999999236557
100
AcDbArc
 50
236.9999999868
 51
357.0
  0
ARC
  5
104
330
1F
100
AcDbEntity
  8
ZAPFEN
100
AcDbCircle
 10
79.6600978581
 20
19.5595767445
 30
0.0
 40
0.4418644278152013
100
AcDbArc
 50
359.4502648818
 51
123.0756772076
  0
CIRCLE
  5
105
330
1F
100
AcDbEntity
  8
ZAPFEN
100
AcDbCircle
 10
76.577801541
 20
14.9188129868
 30
0.0
 40
1.89997360000001
  0
DIMENSION
  5
106
330
1F
100
AcDbEntity
  8
MASS
100
AcDbDimension
  2
_D
 10
0.1019419475
 20
-24.9878376775
 30
0.0
 11
40.1019419475
 21
-24.9878376775
 31
0.0
 70
   160
  1
60 - 80
  3
SLDDIMSTYLE0
100
AcDbAlignedDimension
 13
80.1019419475
 23
19.5553372583
 33
0.0
 14
0.1019419475
 24
-7.9754066696
 34
0.0
 50
0.0
100
AcDbRotatedDimension
  0
DIMENSION
  5
113
330
1F
100
AcDbEntity
  8
MASS
100
AcDbDimension
  2
_D_1
 10
-29.999123326
 20
26.560461716
 30
0.0
 11
16.5008766741
 21
26.560461716
 31
0.0
 70
   160
  1
<>
  3
SLDDIMSTYLE0
100
AcDbAlignedDimension
 13
63.0008766741
 23
13.0016492109
 33
0.0
 14
-29.999123326
 24
6.9734346388
 34
0.0
 50
0.0
100
AcDbRotatedDimension
  0
DIMENSION
  5
11D
330
1F
100
AcDbEntity
  8
MASS
100
AcDbDimension
  2
_D_2
 10
-40.5128068257
 20
-8.0265653612
 30
0.0
 11
-40.5128068257
 21
-0.0265653612
 31
0.0
 70
   160
  1
%%c<>
  3
SLDDIMSTYLE0
100
AcDbAlignedDimension
 13
-28.999123326
 23
7.9734346388
 33
0.0
 14
-28.999123326
 24
-8.0265653612
 34
0.0
 50
90.0
100
AcDbRotatedDimension
  0
DIMENSION
  5
128
330
1F
100
AcDbEntity
  8
MASS
100
AcDbDimension
  2
_D_3
 10
0.1019419475
 20
-24.990674637
 30
0.0
 11
-14.8976197155
 21
-24.990674637
 31
0.0
 70
   160
  1
min 35
  3
SLDDIMSTYLE0
100
AcDbAlignedDimension
 13
-29.8971813784
 23
-7.0265653193
 33
0.0
 14
0.1019419475
 24
-7.9754066696
 34
0.0
100
AcDbRotatedDimension
  0
MTEXT
  5
132
330
1F
100
AcDbEntity
  8
MASS
100
AcDbMText
 10
4.582321634
 20
-3.0510997171
 30
0.0
 40
3.5
 41
0.0
 71
     1
 72
     1
  1
615.267
  7
SLDTEXTSTYLE0
  0
ENDSEC
  0
SECTION
  2
OBJECTS
  0
DICTIONARY
  5
C
330
0
100
AcDbDictionary
  3
ACAD_GROUP
350
D
  3
ACAD_MLINESTYLE
350
17
  0
DICTIONARY
  5
D
102
{ACAD_REACTORS
330
C
102
}
330
C
100
AcDbDictionary
  0
DICTIONARY
  5
17
102
{ACAD_REACTORS
330
C
102
}
330
C
100
AcDbDictionary
  3
STANDARD
350
18
  0
MLINESTYLE
  5
18
102
{ACAD_REACTORS
330
17
102
}
330
17
100
AcDbMlineStyle
  2
Standard
 70
     0
  3

 62
   256
 51
90.0
 52
90.0
 71
     2
 49
0.5
 62
   256
  6
BYLAYER
 49
-0.5
 62
   256
  6
BYLAYER
  0
ENDSEC
  0
EOF
