  0
SECTION
  2
HEADER
  9
$ACADVER
  1
AC1021
  9
$ACADMAINTVER
 70
    25
  9
$DWGCODEPAGE
  3
ANSI_1252
  9
$LASTSAVEDBY
  1
Matt
  9
$CUSTOMPROPERTYTAG
  1
AmdtFileType
  9
$CUSTOMPROPERTY
  1
84
  9
$INSBASE
 10
0.0
 20
0.0
 30
0.0
  9
$EXTMIN
 10
19.98285292650833
 20
-75.10126803798181
 30
0.0
  9
$EXTMAX
 10
182.2292561629767
 20
-16.04530778897036
 30
0.0
  9
$LIMMIN
 10
0.0
 20
0.0
  9
$LIMMAX
 10
12.0
 20
9.0
  9
$ORTHOMODE
 70
     1
  9
$REGENMODE
 70
     1
  9
$FILLMODE
 70
     1
  9
$QTEXTMODE
 70
     0
  9
$MIRRTEXT
 70
     1
  9
$LTSCALE
 40
10.0
  9
$ATTMODE
 70
     1
  9
$TEXTSIZE
 40
0.2
  9
$TRACEWID
 40
0.05
  9
$TEXTSTYLE
  7
STYLE1
  9
$CLAYER
  8
0
  9
$CELTYPE
  6
ByLayer
  9
$CECOLOR
 62
   256
  9
$CELTSCALE
 40
1.0
  9
$DISPSILH
 70
     0
  9
$DIMSCALE
 40
1.0
  9
$DIMASZ
 40
2.0
  9
$DIMEXO
 40
0.0625
  9
$DIMDLI
 40
0.38
  9
$DIMRND
 40
0.0
  9
$DIMDLE
 40
0.0
  9
$DIMEXE
 40
0.0625
  9
$DIMTP
 40
0.0
  9
$DIMTM
 40
0.0
  9
$DIMTXT
 40
4.0
  9
$DIMCEN
 40
0.0
  9
$DIMTSZ
 40
0.0
  9
$DIMTOL
 70
     0
  9
$DIMLIM
 70
     0
  9
$DIMTIH
 70
     0
  9
$DIMTOH
 70
     0
  9
$DIMSE1
 70
     0
  9
$DIMSE2
 70
     0
  9
$DIMTAD
 70
     1
  9
$DIMZIN
 70
     0
  9
$DIMBLK
  1

  9
$DIMASO
 70
     1
  9
$DIMSHO
 70
     1
  9
$DIMPOST
  1

  9
$DIMAPOST
  1

  9
$DIMALT
 70
     0
  9
$DIMALTD
 70
     2
  9
$DIMALTF
 40
25.4
  9
$DIMLFAC
 40
1.0
  9
$DIMTOFL
 70
     1
  9
$DIMTVP
 40
0.0
  9
$DIMTIX
 70
     0
  9
$DIMSOXD
 70
     0
  9
$DIMSAH
 70
     0
  9
$DIMBLK1
  1

  9
$DIMBLK2
  1

  9
$DIMSTYLE
  2
Standard
  9
$DIMCLRD
 70
     0
  9
$DIMCLRE
 70
     0
  9
$DIMCLRT
 70
     0
  9
$DIMTFAC
 40
1.0
  9
$DIMGAP
 40
0.05
  9
$DIMJUST
 70
     0
  9
$DIMSD1
 70
     0
  9
$DIMSD2
 70
     0
  9
$DIMTOLJ
 70
     1
  9
$DIMTZIN
 70
     0
  9
$DIMALTZ
 70
     0
  9
$DIMALTTZ
 70
     0
  9
$DIMUPT
 70
     0
  9
$DIMDEC
 70
     0
  9
$DIMTDEC
 70
     0
  9
$DIMALTU
 70
     2
  9
$DIMALTTD
 70
     2
  9
$DIMTXSTY
  7
ROMANS
  9
$DIMAUNIT
 70
     0
  9
$DIMADEC
 70
     0
  9
$DIMALTRND
 40
0.0
  9
$DIMAZIN
 70
     0
  9
$DIMDSEP
 70
    46
  9
$DIMATFIT
 70
     3
  9
$DIMFRAC
 70
     0
  9
$DIMLDRBLK
  1

  9
$DIMLUNIT
 70
     2
  9
$DIMLWD
 70
    -2
  9
$DIMLWE
 70
    -2
  9
$DIMTMOVE
 70
     0
  9
$DIMFXL
 40
1.0
  9
$DIMFXLON
 70
     0
  9
$DIMJOGANG
 40
0.7853981633974483
  9
$DIMTFILL
 70
     0
  9
$DIMTFILLCLR
 70
     0
  9
$DIMARCSYM
 70
     0
  9
$DIMLTYPE
  6

  9
$DIMLTEX1
  6

  9
$DIMLTEX2
  6

  9
$LUNITS
 70
     2
  9
$LUPREC
 70
     4
  9
$SKETCHINC
 40
0.1
  9
$FILLETRAD
 40
0.0
  9
$AUNITS
 70
     0
  9
$AUPREC
 70
     0
  9
$MENU
  1
.
  9
$ELEVATION
 40
0.0
  9
$PELEVATION
 40
0.0
  9
$THICKNESS
 40
0.0
  9
$LIMCHECK
 70
     0
  9
$CHAMFERA
 40
0.03937
  9
$CHAMFERB
 40
0.03937
  9
$CHAMFERC
 40
0.0
  9
$CHAMFERD
 40
0.0
  9
$SKPOLY
 70
     0
  9
$TDCREATE
 40
2453353.467125822
  9
$TDUCREATE
 40
2453353.717125822
  9
$TDUPDATE
 40
2452646.426761516
  9
$TDUUPDATE
 40
2452646.676761516
  9
$TDINDWG
 40
0.0906859144
  9
$TDUSRTIMER
 40
0.0906620139
  9
$USRTIMER
 70
     1
  9
$ANGBASE
 50
0.0
  9
$ANGDIR
 70
     0
  9
$PDMODE
 70
    65
  9
$PDSIZE
 40
-2.0
  9
$PLINEWID
 40
0.0
  9
$SPLFRAME
 70
     0
  9
$SPLINETYPE
 70
     6
  9
$SPLINESEGS
 70
     8
  9
$HANDSEED
  5
B46
  9
$SURFTAB1
 70
     6
  9
$SURFTAB2
 70
     6
  9
$SURFTYPE
 70
     6
  9
$SURFU
 70
     6
  9
$SURFV
 70
     6
  9
$UCSBASE
  2

  9
$UCSNAME
  2

  9
$UCSORG
 10
0.0
 20
0.0
 30
0.0
  9
$UCSXDIR
 10
1.0
 20
0.0
 30
0.0
  9
$UCSYDIR
 10
0.0
 20
1.0
 30
0.0
  9
$UCSORTHOREF
  2

  9
$UCSORTHOVIEW
 70
     0
  9
$UCSORGTOP
 10
0.0
 20
0.0
 30
0.0
  9
$UCSORGBOTTOM
 10
0.0
 20
0.0
 30
0.0
  9
$UCSORGLEFT
 10
0.0
 20
0.0
 30
0.0
  9
$UCSORGRIGHT
 10
0.0
 20
0.0
 30
0.0
  9
$UCSORGFRONT
 10
0.0
 20
0.0
 30
0.0
  9
$UCSORGBACK
 10
0.0
 20
0.0
 30
0.0
  9
$PUCSBASE
  2

  9
$PUCSNAME
  2

  9
$PUCSORG
 10
0.0
 20
0.0
 30
0.0
  9
$PUCSXDIR
 10
1.0
 20
0.0
 30
0.0
  9
$PUCSYDIR
 10
0.0
 20
1.0
 30
0.0
  9
$PUCSORTHOREF
  2

  9
$PUCSORTHOVIEW
 70
     0
  9
$PUCSORGTOP
 10
0.0
 20
0.0
 30
0.0
  9
$PUCSORGBOTTOM
 10
0.0
 20
0.0
 30
0.0
  9
$PUCSORGLEFT
 10
0.0
 20
0.0
 30
0.0
  9
$PUCSORGRIGHT
 10
0.0
 20
0.0
 30
0.0
  9
$PUCSORGFRONT
 10
0.0
 20
0.0
 30
0.0
  9
$PUCSORGBACK
 10
0.0
 20
0.0
 30
0.0
  9
$USERI1
 70
     0
  9
$USERI2
 70
     0
  9
$USERI3
 70
     0
  9
$USERI4
 70
     0
  9
$USERI5
 70
     0
  9
$USERR1
 40
0.0
  9
$USERR2
 40
0.0
  9
$USERR3
 40
0.0
  9
$USERR4
 40
0.0
  9
$USERR5
 40
0.0
  9
$WORLDVIEW
 70
     1
  9
$SHADEDGE
 70
     3
  9
$SHADEDIF
 70
    70
  9
$TILEMODE
 70
     1
  9
$MAXACTVP
 70
    16
  9
$PINSBASE
 10
0.0
 20
0.0
 30
0.0
  9
$PLIMCHECK
 70
     0
  9
$PEXTMIN
 10
0.0
 20
0.0
 30
0.0
  9
$PEXTMAX
 10
0.0
 20
0.0
 30
0.0
  9
$PLIMMIN
 10
0.0
 20
0.0
  9
$PLIMMAX
 10
12.0
 20
9.0
  9
$UNITMODE
 70
     0
  9
$VISRETAIN
 70
     0
  9
$PLINEGEN
 70
     0
  9
$PSLTSCALE
 70
     1
  9
$TREEDEPTH
 70
  3020
  9
$CMLSTYLE
  2
Standard
  9
$CMLJUST
 70
     0
  9
$CMLSCALE
 40
1.0
  9
$PROXYGRAPHICS
 70
     1
  9
$MEASUREMENT
 70
     1
  9
$CELWEIGHT
370
    -1
  9
$ENDCAPS
280
     0
  9
$JOINSTYLE
280
     0
  9
$LWDISPLAY
290
     0
  9
$INSUNITS
 70
     4
  9
$HYPERLINKBASE
  1

  9
$STYLESHEET
  1

  9
$XEDIT
290
     0
  9
$CEPSNTYPE
380
     0
  9
$PSTYLEMODE
290
     1
  9
$FINGERPRINTGUID
  2
{D1A600B4-0B7C-4C98-A56B-7CC634BBC99F}
  9
$VERSIONGUID
  2
{2E9ECB01-B9A2-4075-BD64-B0143EA04AB7}
  9
$EXTNAMES
290
     1
  9
$PSVPSCALE
 40
0.0
  9
$OLESTARTUP
290
     0
  9
$SORTENTS
280
   127
  9
$INDEXCTL
280
     0
  9
$HIDETEXT
280
     1
  9
$XCLIPFRAME
290
     0
  9
$HALOGAP
280
     0
  9
$OBSCOLOR
 70
   257
  9
$OBSLTYPE
280
     0
  9
$INTERSECTIONDISPLAY
280
     0
  9
$INTERSECTIONCOLOR
 70
   257
  9
$DIMASSOC
280
     1
  9
$PROJECTNAME
  1

  9
$CAMERADISPLAY
290
     0
  9
$LENSLENGTH
 40
50.0
  9
$CAMERAHEIGHT
 40
0.0
  9
$STEPSPERSEC
 40
2.0
  9
$STEPSIZE
 40
6.0
  9
$3DDWFPREC
 40
2.0
  9
$PSOLWIDTH
 40
0.25
  9
$PSOLHEIGHT
 40
4.0
  9
$LOFTANG1
 40
1.570796326794897
  9
$LOFTANG2
 40
1.570796326794897
  9
$LOFTMAG1
 40
0.0
  9
$LOFTMAG2
 40
0.0
  9
$LOFTPARAM
 70
     7
  9
$LOFTNORMALS
280
     1
  9
$LATITUDE
 40
37.795
  9
$LONGITUDE
 40
-122.394
  9
$NORTHDIRECTION
 40
0.0
  9
$TIMEZONE
 70
 -8000
  9
$LIGHTGLYPHDISPLAY
280
     1
  9
$TILEMODELIGHTSYNCH
280
     1
  9
$SOLIDHIST
280
     1
  9
$SHOWHIST
280
     1
  9
$DWFFRAME
280
     2
  9
$DGNFRAME
280
     2
  9
$REALWORLDSCALE
290
     1
  9
$INTERFERECOLOR
 62
   256
  9
$CSHADOW
280
     0
  9
$SHADOWPLANELOCATION
 40
0.0
  0
ENDSEC
  0
SECTION
  2
CLASSES
  0
CLASS
  1
ACDBDICTIONARYWDFLT
  2
AcDbDictionaryWithDefault
  3
ObjectDBX Classes
 90
        0
 91
        4
280
     0
281
     0
  0
CLASS
  1
ACDBPLACEHOLDER
  2
AcDbPlaceHolder
  3
ObjectDBX Classes
 90
        0
 91
        1
280
     0
281
     0
  0
CLASS
  1
LAYOUT
  2
AcDbLayout
  3
ObjectDBX Classes
 90
        0
 91
        1
280
     0
281
     0
  0
CLASS
  1
DICTIONARYVAR
  2
AcDbDictionaryVar
  3
ObjectDBX Classes
 90
        0
 91
        4
280
     0
281
     0
  0
CLASS
  1
TABLESTYLE
  2
AcDbTableStyle
  3
ObjectDBX Classes
 90
     4095
 91
        4
280
     0
281
     0
  0
CLASS
  1
SCALE
  2
AcDbScale
  3
ObjectDBX Classes
 90
     1153
 91
        4
280
     0
281
     0
  0
CLASS
  1
CATALOGSTATE
  2
AcAmCatalogState
  3
DesignerAssemblies
 90
        0
 91
        3
280
     1
281
     0
  0
CLASS
  1
ASAPP
  2
AcAsAppObject
  3
AutoSurfServices
 90
        0
 91
        3
280
     1
281
     0
  0
CLASS
  1
ACASGREFMASTER
  2
AcAsGrefMaster
  3
AutoSurfResolverServices
 90
        0
 91
        3
280
     1
281
     0
  0
CLASS
  1
ACIMSYSVARMAN
  2
AcImSysVarManager
  3
AcMeServices
 90
        0
 91
       13
280
     1
281
     0
  0
CLASS
  1
ACGREFMASTER
  2
AcGrefMaster
  3
AcAttribServices
 90
        0
 91
        3
280
     1
281
     0
  0
CLASS
  1
ACGREFACADMASTER
  2
AcGrefacadMaster
  3
AcGrefServices
 90
        0
 91
        3
280
     1
281
     0
  0
CLASS
  1
ACMDATADICTIONARY
  2
AcmDataDictionary
  3
"AcmSymBB|Product Description: AutoCAD Mechanical 2000|Company: Autodesk"
 90
        0
 91
        3
280
     1
281
     0
  0
CLASS
  1
ACMDATAENTRYBLOCK
  2
AcmDataEntryBlock
  3
"AcmSymBB|Product Description: AutoCAD Mechanical 2000|Company: Autodesk"
 90
        0
 91
        3
280
     1
281
     0
  0
CLASS
  1
ACMSTANDARDANSI
  2
AcmStandardANSI
  3
"Amdt_StdImp|Product Description: AutoCAD Mechanical 2000|Company: Autodesk"
 90
        0
 91
        3
280
     1
281
     0
  0
CLASS
  1
ACMSURFSTANDARDANSI
  2
AcmSurfTextStdANSI
  3
"Amdt_StdImp|Product Description: AutoCAD Mechanical 2000|Company: Autodesk"
 90
        0
 91
        3
280
     1
281
     0
  0
CLASS
  1
ACMFCFSTANDARDANSI
  2
AcmFCFStdANSI
  3
"Amdt_StdImp|Product Description: AutoCAD Mechanical 2000|Company: Autodesk"
 90
        0
 91
        3
280
     1
281
     0
  0
CLASS
  1
ACMWELDSTANDARDANSI
  2
AcmWeldingStdANSI
  3
"Amdt_StdImp|Product Description: AutoCAD Mechanical 2000|Company: Autodesk"
 90
        0
 91
        3
280
     1
281
     0
  0
CLASS
  1
ACMIDSTANDARDANSI
  2
AcmIdStdANSI
  3
"Amdt_StdImp|Product Description: AutoCAD Mechanical 2000|Company: Autodesk"
 90
        0
 91
        3
280
     1
281
     0
  0
CLASS
  1
ACMDATUMSTANDARDANSI
  2
AcmDatumStdANSI
  3
"Amdt_StdImp|Product Description: AutoCAD Mechanical 2000|Company: Autodesk"
 90
        0
 91
        3
280
     1
281
     0
  0
CLASS
  1
ACMBOMSTANDARDANSI
  2
AcmBOMStdANSI
  3
"Amdt_StdImp|Product Description: AutoCAD Mechanical 2000|Company: Autodesk"
 90
        0
 91
        3
280
     1
281
     0
  0
CLASS
  1
ACMDETAILSTANDARDANSI
  2
AmdtDetailSymStdANSI
  3
"Amdt_StdImp|Product Description: AutoCAD Mechanical 2000|Company: Autodesk"
 90
        0
 91
        3
280
     1
281
     0
  0
CLASS
  1
ACMSECTIONSTANDARDANSI
  2
AmdtSectionSymStdANSI
  3
"Amdt_StdImp|Product Description: AutoCAD Mechanical 2000|Company: Autodesk"
 90
        0
 91
        3
280
     1
281
     0
  0
CLASS
  1
ACMCENTERLINESTANDARDANSI
  2
AmdtCenterLineStdANSI
  3
"Amdt_StdImp|Product Description: AutoCAD Mechanical 2000|Company: Autodesk"
 90
        0
 91
        3
280
     1
281
     0
  0
CLASS
  1
ACMTHREADLINESTANDARDANSI
  2
AmdtThreadLineStdANSI
  3
"Amdt_StdImp|Product Description: AutoCAD Mechanical 2000|Company: Autodesk"
 90
        0
 91
        3
280
     1
281
     0
  0
CLASS
  1
ACMNOTESTANDARDANSI
  2
AmdtNoteStdANSI
  3
"Amdt_StdImp|Product Description: AutoCAD Mechanical 2000|Company: Autodesk"
 90
        0
 91
        3
280
     1
281
     0
  0
CLASS
  1
ACAMGLAYSTD
  2
AcAmgLayStd
  3
"AcAmgLayStd|Product Description: AutoCAD Mechanical 2000|Company: Autodesk"
 90
        0
 91
        5
280
     1
281
     0
  0
CLASS
  1
ACAMGDIMSTD
  2
AcAmgDimStd
  3
"AcAmgDimStd|Product Description: AutoCAD Mechanical 2000|Company: Autodesk"
 90
        0
 91
        5
280
     1
281
     0
  0
CLASS
  1
ACAMGHOLECHARTSTDANSI
  2
AcAmgHoleChartStdANSI
  3
ACMSYMBB_MODULE_NAME
 90
        0
 91
        3
280
     1
281
     0
  0
CLASS
  1
ACAMGTITLESTD
  2
AcAmgTitleStd
  3
"TITLEAPP"
 90
        0
 91
        5
280
     1
281
     0
  0
CLASS
  1
ACMSTANDARDISO
  2
AcmStandardISO
  3
"Amdt_StdImp|Product Description: AutoCAD Mechanical 2000|Company: Autodesk"
 90
        0
 91
        3
280
     1
281
     0
  0
CLASS
  1
AMDTEDGESTANDARDISO
  2
AmdtEdgeStdISO
  3
"Amdt_StdImp|Product Description: AutoCAD Mechanical 2000|Company: Autodesk"
 90
        0
 91
        3
280
     1
281
     0
  0
CLASS
  1
ACMSURFSTANDARDISO
  2
AcmSurfTextStdISO
  3
"Amdt_StdImp|Product Description: AutoCAD Mechanical 2000|Company: Autodesk"
 90
        0
 91
        3
280
     1
281
     0
  0
CLASS
  1
ACMFCFSTANDARDISO
  2
AcmFCFStdISO
  3
"Amdt_StdImp|Product Description: AutoCAD Mechanical 2000|Company: Autodesk"
 90
        0
 91
        3
280
     1
281
     0
  0
CLASS
  1
ACMWELDSTANDARDISO
  2
AcmWeldingStdISO
  3
"Amdt_StdImp|Product Description: AutoCAD Mechanical 2000|Company: Autodesk"
 90
        0
 91
        3
280
     1
281
     0
  0
CLASS
  1
ACMIDSTANDARDISO
  2
AcmIdStdISO
  3
"Amdt_StdImp|Product Description: AutoCAD Mechanical 2000|Company: Autodesk"
 90
        0
 91
        3
280
     1
281
     0
  0
CLASS
  1
ACMDATUMSTANDARDISO
  2
AcmDatumStdISO
  3
"Amdt_StdImp|Product Description: AutoCAD Mechanical 2000|Company: Autodesk"
 90
        0
 91
        3
280
     1
281
     0
  0
CLASS
  1
ACMBOMSTANDARDISO
  2
AcmBOMStdISO
  3
"Amdt_StdImp|Product Description: AutoCAD Mechanical 2000|Company: Autodesk"
 90
        0
 91
        3
280
     1
281
     0
  0
CLASS
  1
ACMDETAILSTANDARDISO
  2
AmdtDetailSymStdISO
  3
"Amdt_StdImp|Product Description: AutoCAD Mechanical 2000|Company: Autodesk"
 90
        0
 91
        3
280
     1
281
     0
  0
CLASS
  1
ACMSECTIONSTANDARDISO
  2
AmdtSectionSymStdISO
  3
"Amdt_StdImp|Product Description: AutoCAD Mechanical 2000|Company: Autodesk"
 90
        0
 91
        3
280
     1
281
     0
  0
CLASS
  1
ACMCENTERLINESTANDARDISO
  2
AmdtCenterLineStdISO
  3
"Amdt_StdImp|Product Description: AutoCAD Mechanical 2000|Company: Autodesk"
 90
        0
 91
        3
280
     1
281
     0
  0
CLASS
  1
ACMTHREADLINESTANDARDISO
  2
AmdtThreadLineStdISO
  3
"Amdt_StdImp|Product Description: AutoCAD Mechanical 2000|Company: Autodesk"
 90
        0
 91
        3
280
     1
281
     0
  0
CLASS
  1
ACMNOTESTANDARDISO
  2
AmdtNoteStdISO
  3
"Amdt_StdImp|Product Description: AutoCAD Mechanical 2000|Company: Autodesk"
 90
        0
 91
        3
280
     1
281
     0
  0
CLASS
  1
ACAMGHOLECHARTSTDISO
  2
AcAmgHoleChartStdISO
  3
ACMSYMBB_MODULE_NAME
 90
        0
 91
        3
280
     1
281
     0
  0
CLASS
  1
ACMEDRAWINGMAN
  2
AcMeDrawingMan
  3
AcMeServices
 90
        0
 91
        3
280
     1
281
     0
  0
CLASS
  1
ACMECOMMANDHISTORY
  2
AcMeCommandHistory
  3
AcMeServices
 90
        0
 91
        3
280
     1
281
     0
  0
CLASS
  1
ACMESCOPE
  2
AcMeScope
  3
AcMeServices
 90
        0
 91
        3
280
     1
281
     0
  0
CLASS
  1
ACIMREALSYSVAR
  2
AcImRealSysVar
  3
AcMeServices
 90
        0
 91
       33
280
     1
281
     0
  0
CLASS
  1
ACIMINTSYSVAR
  2
AcImIntSysVar
  3
AcMeServices
 90
        0
 91
       91
280
     1
281
     0
  0
CLASS
  1
ACMEVIEW
  2
AcMeView
  3
AcMeServices
 90
        0
 91
        3
280
     1
281
     0
  0
CLASS
  1
AM_DRAWING_MGR
  2
AcDmDwgMgr
  3
AcMechDwgViewMgmt
 90
        0
 91
        3
280
     1
281
     0
  0
CLASS
  1
AM_DWG_DOCUMENT
  2
AcDmDwgDocument
  3
AcMechDwgViewMgmt
 90
        0
 91
        3
280
     1
281
     0
  0
CLASS
  1
AM_DWG_SHEET
  2
AcDmSheet
  3
AcMechDwgViewMgmt
 90
        0
 91
        3
280
     1
281
     0
  0
CLASS
  1
AM_VIEWDIMPARMAP
  2
AcDmViewDimParMap
  3
AcMechDwgViewMgmt
 90
        0
 91
        3
280
     1
281
     0
  0
CLASS
  1
ACIMSTRSYSVAR
  2
AcImStrSysVar
  3
AcMeServices
 90
        0
 91
       15
280
     1
281
     0
  0
CLASS
  1
ACIMDBLSTATICVAR
  2
AcImDblStaticVar
  3
AcMeServices
 90
        0
 91
       41
280
     1
281
     0
  0
CLASS
  1
ACIMSTRSTATICVAR
  2
AcImStrStaticVar
  3
AcMeServices
 90
        0
 91
       25
280
     1
281
     0
  0
CLASS
  1
ACIMINTSTATICVAR
  2
AcImIntStaticVar
  3
AcMeServices
 90
        0
 91
       35
280
     1
281
     0
  0
CLASS
  1
ADAPPL
  2
AcAdAppl
  3
DesignerServices
 90
        0
 91
        3
280
     1
281
     0
  0
CLASS
  1
DEPMGR
  2
AcAdDepMgr
  3
DesignerServices
 90
        0
 91
        3
280
     1
281
     0
  0
CLASS
  1
PARAMMGR
  2
AcAdParamMgr
  3
DesignerServices
 90
        0
 91
        3
280
     1
281
     0
  0
CLASS
  1
PARAMSCOPE
  2
AcAdParamScope
  3
DesignerServices
 90
        0
 91
        3
280
     1
281
     0
  0
CLASS
  1
ACAMGRCOMPDEF
  2
AcAmGrCompDef
  3
DesignerAssemblies
 90
        0
 91
        3
280
     1
281
     0
  0
CLASS
  1
ACCMCONTEXT
  2
AcCmContext
  3
DesignerAssemblies
 90
        0
 91
        3
280
     1
281
     0
  0
CLASS
  1
ACAMCOMPDEF
  2
AcAmCompDef
  3
DesignerAssemblies
 90
        0
 91
        3
280
     1
281
     0
  0
CLASS
  1
ACAMCOMPDEFMGR
  2
AcAmCompDefMgr
  3
DesignerAssemblies
 90
        0
 91
        3
280
     1
281
     0
  0
CLASS
  1
AMCONTEXTMGR
  2
AcAmContextMgr
  3
DesignerAssemblies
 90
        0
 91
        3
280
     1
281
     0
  0
CLASS
  1
ACAMCONTEXTMODELER
  2
AcAmContextModeler
  3
DesignerAssemblies
 90
        0
 91
        3
280
     1
281
     0
  0
CLASS
  1
ACMESTATEMGR
  2
AcMeStateMgr
  3
AcMeServices
 90
        0
 91
        3
280
     1
281
     0
  0
CLASS
  1
NAMEDAPPL
  2
AcAdNamedAppl
  3
DesignerServices
 90
        0
 91
        3
280
     1
281
     0
  0
CLASS
  1
ACADGREFMODULE
  2
AcAdGrefModule
  3
AdGrefServices
 90
        0
 91
        3
280
     1
281
     0
  0
CLASS
  1
MAPIADMODULE
  2
MApiAdModule
  3
MApiAdServices
 90
        0
 91
        3
280
     1
281
     0
  0
CLASS
  1
AM_DWGMGR_NAME
  2
AcDmDwgMgrName
  3
AcMechDwgViewMgmt
 90
        0
 91
        3
280
     1
281
     0
  0
CLASS
  1
AMGSETTINGSOBJ
  2
AmgSettingsObj
  3
"AcadM|Product Description: AutoCAD Mechanical 2000|Company: Autodesk"
 90
        0
 91
        9
280
     1
281
     0
  0
CLASS
  1
AMGOBJPROPCFG
  2
AmgObjPropCfg
  3
"AmgLay|Product Description: AutoCAD Mechanical 2000|Company: Autodesk"
 90
        1
 91
        3
280
     1
281
     0
  0
CLASS
  1
AMIMASTER
  2
AmiMaster
  3
AmiServices
 90
        0
 91
        3
280
     1
281
     0
  0
CLASS
  1
IM_STATIC_MAN
  2
AcImStaticVarManager
  3
AcMeServices
 90
        0
 91
        3
280
     1
281
     0
  0
CLASS
  1
ACAMPROJECT
  2
AcAmProject
  3
DesignerAssemblies
 90
        0
 91
        3
280
     1
281
     0
  0
CLASS
  1
MAPIAMMOUDLE
  2
MApiAmModule
  3
MApiAmServices
 90
        0
 91
        3
280
     1
281
     0
  0
CLASS
  1
AMDTMAPISURFMOUDULE
  2
AmdtMApiSurfModule
  3
MApiSurfServices
 90
        0
 91
        3
280
     1
281
     0
  0
CLASS
  1
LAYER_INDEX
  2
AcDbLayerIndex
  3
ObjectDBX Classes
 90
        0
 91
        4
280
     0
281
     0
  0
ENDSEC
  0
SECTION
  2
TABLES
  0
TABLE
  2
VPORT
  5
8
330
0
100
AcDbSymbolTable
 70
     2
  0
VPORT
  5
97
330
8
100
AcDbSymbolTableRecord
100
AcDbViewportTableRecord
  2
*Active
 70
     0
 10
0.0
 20
0.0
 11
1.0
 21
1.0
 12
-144.8799248650741
 22
-304.9191713768666
 13
0.0
 23
0.0
 14
1.0
 24
1.0
 15
0.0
 25
0.0
 16
0.0
 26
0.0
 36
1.0
 17
248.959651769135
 27
245.8997127951682
 37
0.0
 40
145.3590153281726
 41
1.731751824817518
 42
50.0
 43
0.0
 44
0.0
 50
0.0
 51
0.0
 71
    16
 72
  1000
 73
     1
 74
     0
 75
     0
 76
     0
 77
     0
 78
     0
281
     0
 65
     0
110
0.0
120
0.0
130
0.0
111
1.0
121
0.0
131
0.0
112
0.0
122
1.0
132
0.0
 79
     0
146
0.0
 60
     3
 61
     5
292
     1
282
     1
141
0.0
142
0.0
 63
   256
  0
ENDTAB
  0
TABLE
  2
LTYPE
  5
5
330
0
100
AcDbSymbolTable
 70
    13
  0
LTYPE
  5
14
330
5
100
AcDbSymbolTableRecord
100
AcDbLinetypeTableRecord
  2
ByBlock
 70
     0
  3

 72
    65
 73
     0
 40
0.0
  0
LTYPE
  5
15
330
5
100
AcDbSymbolTableRecord
100
AcDbLinetypeTableRecord
  2
ByLayer
 70
     0
  3

 72
    65
 73
     0
 40
0.0
  0
LTYPE
  5
16
330
5
100
AcDbSymbolTableRecord
100
AcDbLinetypeTableRecord
  2
Continuous
 70
     0
  3
Solid line
 72
    65
 73
     0
 40
0.0
  0
LTYPE
  5
ABF
330
5
100
AcDbSymbolTableRecord
100
AcDbLinetypeTableRecord
  2
HIDDEN
 70
     0
  3
__ __ __ __ __ __ __ __ __ __ __ __ __ __ __ __
 72
    65
 73
     2
 40
0.375
 49
0.25
 74
     4
 75
     0
340
0
 46
1.0
 50
0.0
 44
0.0
 45
0.0
 49
-0.125
 74
     4
 75
     0
340
0
 46
1.0
 50
0.0
 44
0.0
 45
0.0
  0
LTYPE
  5
AC0
330
5
100
AcDbSymbolTableRecord
100
AcDbLinetypeTableRecord
  2
CENTER
 70
     0
  3
____ _ ____ _ ____ _ ____ _ ____ _ ____ _ ____
 72
    65
 73
     4
 40
2.0
 49
1.25
 74
     4
 75
     0
340
0
 46
1.0
 50
0.0
 44
0.0
 45
0.0
 49
-0.25
 74
     4
 75
     0
340
0
 46
1.0
 50
0.0
 44
0.0
 45
0.0
 49
0.25
 74
     4
 75
     0
340
0
 46
1.0
 50
0.0
 44
0.0
 45
0.0
 49
-0.25
 74
     4
 75
     0
340
0
 46
1.0
 50
0.0
 44
0.0
 45
0.0
  0
LTYPE
  5
AC1
330
5
100
AcDbSymbolTableRecord
100
AcDbLinetypeTableRecord
  2
PHANTOM2
 70
     0
  3
Phantom (.5x) ___ _ _ ___ _ _ ___ _ _ ___ _ _
 72
    65
 73
     6
 40
31.74999999999999
 49
15.875
 74
     4
 75
     0
340
0
 46
1.0
 50
0.0
 44
0.0
 45
0.0
 49
-3.174999999999998
 74
     4
 75
     0
340
0
 46
1.0
 50
0.0
 44
0.0
 45
0.0
 49
3.174999999999998
 74
     4
 75
     0
340
0
 46
1.0
 50
0.0
 44
0.0
 45
0.0
 49
-3.174999999999998
 74
     4
 75
     0
340
0
 46
1.0
 50
0.0
 44
0.0
 45
0.0
 49
3.174999999999998
 74
     4
 75
     0
340
0
 46
1.0
 50
0.0
 44
0.0
 45
0.0
 49
-3.174999999999998
 74
     4
 75
     0
340
0
 46
1.0
 50
0.0
 44
0.0
 45
0.0
  0
LTYPE
  5
AC2
330
5
100
AcDbSymbolTableRecord
100
AcDbLinetypeTableRecord
  2
Amconstr
 70
     0
  3
_______________________
 72
    65
 73
     2
 40
9999.0
 49
9999.0
 74
     4
 75
     0
340
0
 46
1.0
 50
0.0
 44
0.0
 45
0.0
 49
0.0
 74
     4
 75
     0
340
0
 46
1.0
 50
0.0
 44
0.0
 45
0.0
  0
LTYPE
  5
AC3
330
5
100
AcDbSymbolTableRecord
100
AcDbLinetypeTableRecord
  2
ACISOWELD
 70
     0
  3
_ _ _ _ _
 72
    65
 73
     2
 40
3.0
 49
2.0
 74
     4
 75
     0
340
0
 46
1.0
 50
0.0
 44
0.0
 45
0.0
 49
-1.0
 74
     4
 75
     0
340
0
 46
1.0
 50
0.0
 44
0.0
 45
0.0
  0
LTYPE
  5
AC4
330
5
100
AcDbSymbolTableRecord
100
AcDbLinetypeTableRecord
  2
ACISOTGB
 70
     0
  3
__ . . __ . .
 72
    65
 73
     6
 40
9.0
 49
4.0
 74
     4
 75
     0
340
0
 46
1.0
 50
0.0
 44
0.0
 45
0.0
 49
-1.0
 74
     4
 75
     0
340
0
 46
1.0
 50
0.0
 44
0.0
 45
0.0
 49
1.0
 74
     4
 75
     0
340
0
 46
1.0
 50
0.0
 44
0.0
 45
0.0
 49
-1.0
 74
     4
 75
     0
340
0
 46
1.0
 50
0.0
 44
0.0
 45
0.0
 49
1.0
 74
     4
 75
     0
340
0
 46
1.0
 50
0.0
 44
0.0
 45
0.0
 49
-1.0
 74
     4
 75
     0
340
0
 46
1.0
 50
0.0
 44
0.0
 45
0.0
  0
LTYPE
  5
AC5
330
5
100
AcDbSymbolTableRecord
100
AcDbLinetypeTableRecord
  2
ACISOTGL
 70
     0
  3
_ _ _ _ _
 72
    65
 73
     2
 40
3.0
 49
2.0
 74
     4
 75
     0
340
0
 46
1.0
 50
0.0
 44
0.0
 45
0.0
 49
-1.0
 74
     4
 75
     0
340
0
 46
1.0
 50
0.0
 44
0.0
 45
0.0
  0
LTYPE
  5
AC6
330
5
100
AcDbSymbolTableRecord
100
AcDbLinetypeTableRecord
  2
CENTER2
 70
     0
  3
Center (.5x) ___ _ ___ _ ___ _ ___ _ ___ _ ___
 72
    65
 73
     4
 40
1.125
 49
0.75
 74
     4
 75
     0
340
0
 46
1.0
 50
0.0
 44
0.0
 45
0.0
 49
-0.125
 74
     4
 75
     0
340
0
 46
1.0
 50
0.0
 44
0.0
 45
0.0
 49
0.125
 74
     4
 75
     0
340
0
 46
1.0
 50
0.0
 44
0.0
 45
0.0
 49
-0.125
 74
     4
 75
     0
340
0
 46
1.0
 50
0.0
 44
0.0
 45
0.0
  0
LTYPE
  5
AC7
330
5
100
AcDbSymbolTableRecord
100
AcDbLinetypeTableRecord
  2
HIDDEN2
 70
     0
  3
Hidden (.5x) _ _ _ _ _ _ _ _ _ _ _ _ _ _ _ _ _
 72
    65
 73
     2
 40
0.1875
 49
0.125
 74
     4
 75
     0
340
0
 46
1.0
 50
0.0
 44
0.0
 45
0.0
 49
-0.0625
 74
     4
 75
     0
340
0
 46
1.0
 50
0.0
 44
0.0
 45
0.0
  0
LTYPE
  5
AC8
330
5
100
AcDbSymbolTableRecord
100
AcDbLinetypeTableRecord
  2
Amzigzag2
 70
     0
  3
/\/-/\/-/\/-/\/-/\/-/\/
 72
    65
 73
     2
 40
0.4401000000000002
 49
0.0001
 74
     4
 75
   135
340
3F9
 46
0.0016
 50
0.0
 44
0.0
 45
0.0
 49
-0.4400000000000002
 74
     4
 75
     0
340
0
 46
1.0
 50
0.0
 44
0.0
 45
0.0
  0
LTYPE
  5
AC9
330
5
100
AcDbSymbolTableRecord
100
AcDbLinetypeTableRecord
  2
ACANSTGBM
 70
     0
  3
__ . . __ . .
 72
    65
 73
     6
 40
9.0
 49
4.0
 74
     4
 75
     0
340
0
 46
1.0
 50
0.0
 44
0.0
 45
0.0
 49
-1.0
 74
     4
 75
     0
340
0
 46
1.0
 50
0.0
 44
0.0
 45
0.0
 49
1.0
 74
     4
 75
     0
340
0
 46
1.0
 50
0.0
 44
0.0
 45
0.0
 49
-1.0
 74
     4
 75
     0
340
0
 46
1.0
 50
0.0
 44
0.0
 45
0.0
 49
1.0
 74
     4
 75
     0
340
0
 46
1.0
 50
0.0
 44
0.0
 45
0.0
 49
-1.0
 74
     4
 75
     0
340
0
 46
1.0
 50
0.0
 44
0.0
 45
0.0
  0
LTYPE
  5
ACA
330
5
100
AcDbSymbolTableRecord
100
AcDbLinetypeTableRecord
  2
ACANSTGLM
 70
     0
  3
_ _ _ _ _
 72
    65
 73
     2
 40
3.0
 49
2.0
 74
     4
 75
     0
340
0
 46
1.0
 50
0.0
 44
0.0
 45
0.0
 49
-1.0
 74
     4
 75
     0
340
0
 46
1.0
 50
0.0
 44
0.0
 45
0.0
  0
ENDTAB
  0
TABLE
  2
LAYER
  5
2
330
0
100
AcDbSymbolTable
 70
     7
  0
LAYER
  5
10
330
2
100
AcDbSymbolTableRecord
100
AcDbLayerTableRecord
  2
0
 70
     0
 62
     7
  6
Continuous
370
    -3
390
F
347
0
  0
LAYER
  5
4CA
330
2
100
AcDbSymbolTableRecord
100
AcDbLayerTableRecord
  2
LINE
 70
     0
 62
     3
  6
Continuous
370
    -3
390
F
347
0
  0
LAYER
  5
4CB
330
2
100
AcDbSymbolTableRecord
100
AcDbLayerTableRecord
  2
HIDDEN
 70
     0
 62
     2
  6
HIDDEN
370
    -3
390
F
347
0
  0
LAYER
  5
4CC
330
2
100
AcDbSymbolTableRecord
100
AcDbLayerTableRecord
  2
DIM
 70
     0
 62
     7
  6
Continuous
370
    -3
390
F
347
0
  0
LAYER
  5
4CF
330
2
100
AcDbSymbolTableRecord
100
AcDbLayerTableRecord
  2
CTRL
 70
     0
 62
     1
  6
CENTER
370
    -3
390
F
347
0
  0
LAYER
  5
5BE
330
2
100
AcDbSymbolTableRecord
100
AcDbLayerTableRecord
  2
KA
 70
     0
 62
     3
  6
Continuous
370
    -3
390
F
347
0
  0
LAYER
  5
5C3
330
2
100
AcDbSymbolTableRecord
100
AcDbLayerTableRecord
  2
Defpoints
 70
     0
 62
     7
  6
Continuous
290
     0
370
    -3
390
F
347
0
  0
ENDTAB
  0
TABLE
  2
STYLE
  5
3
330
0
100
AcDbSymbolTable
 70
     8
  0
STYLE
  5
11
330
3
100
AcDbSymbolTableRecord
100
AcDbTextStyleTableRecord
  2
Standard
 70
     0
 40
0.0
 41
1.0
 50
0.0
 71
     0
 42
0.2
  3
ROMANS.SHX
  4

  0
STYLE
  5
1CA
330
3
100
AcDbSymbolTableRecord
100
AcDbTextStyleTableRecord
  2
ROMANS
 70
     0
 40
0.0
 41
1.0
 50
0.0
 71
     0
 42
0.24
  3
romans
  4

  0
STYLE
  5
28B
330
3
100
AcDbSymbolTableRecord
100
AcDbTextStyleTableRecord
  2
STYLE1
 70
     0
 40
0.0
 41
1.0
 50
0.0
 71
     0
 42
0.2
  3
romans.shx
  4

  0
STYLE
  5
3F9
330
3
100
AcDbSymbolTableRecord
100
AcDbTextStyleTableRecord
  2

 70
     1
 40
0.0
 41
1.0
 50
0.0
 71
     0
 42
0.2
  3
ltypeshp.shx
  4

  0
STYLE
  5
3FB
330
3
100
AcDbSymbolTableRecord
100
AcDbTextStyleTableRecord
  2
ACISOTS
 70
     0
 40
1.0
 41
1.0
 50
0.0
 71
     0
 42
0.2
  3
isocp.shx
  4

  0
STYLE
  5
408
330
3
100
AcDbSymbolTableRecord
100
AcDbTextStyleTableRecord
  2
ACISOGDT
 70
     0
 40
0.0
 41
1.0
 50
0.0
 71
     0
 42
0.2
  3
amgdt.shx
  4

  0
STYLE
  5
420
330
3
100
AcDbSymbolTableRecord
100
AcDbTextStyleTableRecord
  2
ACANSTS
 70
     0
 40
1.0
 41
1.0
 50
0.0
 71
     0
 42
0.2
  3
romans.shx
  4

  0
STYLE
  5
42C
330
3
100
AcDbSymbolTableRecord
100
AcDbTextStyleTableRecord
  2
ACANSGDT
 70
     0
 40
0.0
 41
1.0
 50
0.0
 71
     0
 42
0.2
  3
amgdtans.shx
  4

  0
ENDTAB
  0
TABLE
  2
VIEW
  5
6
330
0
100
AcDbSymbolTable
 70
     0
  0
ENDTAB
  0
TABLE
  2
UCS
  5
7
330
0
100
AcDbSymbolTable
 70
     0
  0
ENDTAB
  0
TABLE
  2
APPID
  5
9
330
0
100
AcDbSymbolTable
 70
    13
  0
APPID
  5
12
330
9
100
AcDbSymbolTableRecord
100
AcDbRegAppTableRecord
  2
ACAD
 70
     0
  0
APPID
  5
AB3
330
9
100
AcDbSymbolTableRecord
100
AcDbRegAppTableRecord
  2
GENIUS_GENDIM_13
 70
     0
  0
APPID
  5
AB4
330
9
100
AcDbSymbolTableRecord
100
AcDbRegAppTableRecord
  2
GENIUS_GENDTOL_13
 70
     0
  0
APPID
  5
AB5
330
9
100
AcDbSymbolTableRecord
100
AcDbRegAppTableRecord
  2
GENIUS_GE3DTOL_13
 70
     0
  0
APPID
  5
AB6
330
9
100
AcDbSymbolTableRecord
100
AcDbRegAppTableRecord
  2
MCAD_NO_VIS
 70
     0
  0
APPID
  5
AB7
330
9
100
AcDbSymbolTableRecord
100
AcDbRegAppTableRecord
  2
ACAD_TEMP_GRAPHIC
 70
     0
  0
APPID
  5
AB8
330
9
100
AcDbSymbolTableRecord
100
AcDbRegAppTableRecord
  2
AD_DRAW
 70
     0
  0
APPID
  5
AB9
330
9
100
AcDbSymbolTableRecord
100
AcDbRegAppTableRecord
  2
ACATTRIBSERVICES
 70
     0
  0
APPID
  5
ABA
330
9
100
AcDbSymbolTableRecord
100
AcDbRegAppTableRecord
  2
ASURF_PCURVE_APPNAME
 70
     0
  0
APPID
  5
ABB
330
9
100
AcDbSymbolTableRecord
100
AcDbRegAppTableRecord
  2
AMG_3D2D_5.0
 70
     0
  0
APPID
  5
ABC
330
9
100
AcDbSymbolTableRecord
100
AcDbRegAppTableRecord
  2
DESIGNERASSEMBLIES
 70
     0
  0
APPID
  5
ABD
330
9
100
AcDbSymbolTableRecord
100
AcDbRegAppTableRecord
  2
ACADM_DIM_EDIT
 70
     0
  0
APPID
  5
ABE
330
9
100
AcDbSymbolTableRecord
100
AcDbRegAppTableRecord
  2
AMDT_DM_ADJ
 70
     0
  0
ENDTAB
  0
TABLE
  2
DIMSTYLE
  5
A
330
0
100
AcDbSymbolTable
 70
    14
100
AcDbDimStyleTable
  0
DIMSTYLE
105
27
102
{ACAD_REACTORS
330
9B6
330
9C2
330
A9B
102
}
330
A
100
AcDbSymbolTableRecord
100
AcDbDimStyleTableRecord
  2
Standard
 70
     0
 41
0.12
 44
0.0625
 73
     0
 74
     0
 77
     1
140
0.125
141
0.0
147
0.05
172
     1
271
     3
272
     3
340
1CA
  0
DIMSTYLE
105
40F
330
A
100
AcDbSymbolTableRecord
100
AcDbDimStyleTableRecord
  2
AM_ISO
 70
     0
  4
"
 41
2.5
 42
1.0
 43
10.0
 44
1.0
 47
0.1
 48
0.1
 73
     0
 74
     0
 77
     1
 78
     8
 79
     2
140
3.5
141
0.0
143
0.0393701
146
0.71
147
1.5
172
     1
176
   256
177
   256
178
     2
271
     2
272
     3
274
     4
283
     0
284
     8
340
11
371
    -1
372
    -1
  0
DIMSTYLE
105
410
330
A
100
AcDbSymbolTableRecord
100
AcDbDimStyleTableRecord
  2
AM_ISO$3
 70
     0
  4
"
 41
2.5
 42
1.0
 43
10.0
 44
1.0
 47
0.1
 48
0.1
 73
     0
 77
     1
 78
     8
 79
     2
140
3.5
141
0.0
143
0.0393701
146
0.71
147
1.5
176
   256
177
   256
178
     2
271
     2
272
     3
274
     4
283
     0
284
     8
288
     1
289
     0
340
11
371
    -1
372
    -1
  0
DIMSTYLE
105
411
330
A
100
AcDbSymbolTableRecord
100
AcDbDimStyleTableRecord
  2
AM_ISO$4
 70
     0
  4
"
 41
2.5
 42
1.0
 43
10.0
 44
1.0
 47
0.1
 48
0.1
 73
     0
 77
     1
 78
     8
 79
     2
140
3.5
141
0.0
143
0.0393701
146
0.71
147
1.5
176
   256
177
   256
178
     2
271
     2
272
     3
274
     4
283
     0
284
     8
288
     1
289
     0
340
11
371
    -1
372
    -1
  0
DIMSTYLE
105
412
330
A
100
AcDbSymbolTableRecord
100
AcDbDimStyleTableRecord
  2
AM_ISO$6
 70
     0
  4
"
 41
2.5
 42
1.0
 43
10.0
 44
1.0
 47
0.1
 48
0.1
 73
     0
 74
     0
 78
     8
 79
     2
140
3.5
141
0.0
143
0.0393701
146
0.71
147
1.5
172
     1
176
   256
177
   256
178
     2
271
     2
272
     3
274
     4
283
     0
284
     8
340
11
371
    -1
372
    -1
  0
DIMSTYLE
105
413
330
A
100
AcDbSymbolTableRecord
100
AcDbDimStyleTableRecord
  2
AM_ISO$7
 70
     0
  4
"
 41
2.5
 42
1.0
 43
10.0
 44
1.0
 47
0.1
 48
0.1
 73
     0
 74
     0
 77
     1
 78
     8
 79
     2
140
5.0
141
0.0
143
0.0393701
146
0.71
147
1.5
172
     1
176
   256
177
   256
178
     2
271
     2
272
     3
274
     4
283
     0
284
     8
340
11
371
    -1
372
    -1
  0
DIMSTYLE
105
414
330
A
100
AcDbSymbolTableRecord
100
AcDbDimStyleTableRecord
  2
AM_ISO$SF
 70
     0
  4
"
 41
2.5
 42
1.0
 43
10.0
 44
1.0
 47
0.1
 48
0.1
 73
     0
 74
     0
 75
     1
 76
     1
 77
     1
 78
     8
 79
     2
140
3.5
141
0.0
143
0.0393701
146
0.71
147
1.5
172
     1
176
   256
177
   256
178
     2
271
     2
272
     3
274
     4
283
     0
284
     8
340
11
371
    -1
372
    -1
  0
DIMSTYLE
105
419
330
A
100
AcDbSymbolTableRecord
100
AcDbDimStyleTableRecord
  2
AM_ISO$SH
 70
     0
  4
"
 41
2.5
 42
1.0
 43
10.0
 44
1.0
 47
0.1
 48
0.1
 73
     0
 74
     0
 75
     1
 76
     1
 77
     1
 78
     8
 79
     2
140
3.5
141
0.0
143
0.0393701
144
2.0
146
0.71
147
1.5
172
     1
173
     1
176
   256
177
   256
178
     2
271
     2
272
     3
274
     4
283
     0
284
     8
340
11
371
    -1
372
    -1
  0
DIMSTYLE
105
431
330
A
100
AcDbSymbolTableRecord
100
AcDbDimStyleTableRecord
  2
AM_ANSI
 70
     0
  4
"
 41
2.5
 42
1.0
 43
10.0
 44
1.0
 47
0.1
 48
0.1
 78
     8
 79
     2
140
3.5
141
0.0
143
0.0393701
146
0.71
147
1.5
176
   256
177
   256
178
     2
271
     2
272
     3
274
     4
284
     8
340
11
371
    -1
372
    -1
  0
DIMSTYLE
105
432
330
A
100
AcDbSymbolTableRecord
100
AcDbDimStyleTableRecord
  2
AM_ANSI$3
 70
     0
  4
"
 41
2.5
 42
1.0
 43
10.0
 44
1.0
 47
0.1
 48
0.1
 78
     8
 79
     2
140
3.5
141
0.0
143
0.0393701
146
0.71
147
1.5
176
   256
177
   256
178
     2
271
     2
272
     3
274
     4
284
     8
288
     1
289
     0
340
11
371
    -1
372
    -1
  0
DIMSTYLE
105
433
330
A
100
AcDbSymbolTableRecord
100
AcDbDimStyleTableRecord
  2
AM_ANSI$4
 70
     0
  4
"
 41
2.5
 42
1.0
 43
10.0
 44
1.0
 47
0.1
 48
0.1
 78
     8
 79
     2
140
3.5
141
0.0
143
0.0393701
146
0.71
147
1.5
176
   256
177
   256
178
     2
271
     2
272
     3
274
     4
284
     8
288
     1
289
     0
340
11
371
    -1
372
    -1
  0
DIMSTYLE
105
434
330
A
100
AcDbSymbolTableRecord
100
AcDbDimStyleTableRecord
  2
AM_ANSI$7
 70
     0
  4
"
 41
2.5
 42
1.0
 43
10.0
 44
1.0
 47
0.1
 48
0.1
 78
     8
 79
     2
140
5.0
141
0.0
143
0.0393701
146
0.71
147
1.5
176
   256
177
   256
178
     2
271
     2
272
     3
274
     4
284
     8
340
11
371
    -1
372
    -1
  0
DIMSTYLE
105
435
330
A
100
AcDbSymbolTableRecord
100
AcDbDimStyleTableRecord
  2
AM_ANSI$SF
 70
     0
  4
"
 41
2.5
 42
1.0
 43
10.0
 44
1.0
 47
0.1
 48
0.1
 75
     1
 76
     1
 78
     8
 79
     2
140
3.5
141
0.0
143
0.0393701
146
0.71
147
1.5
176
   256
177
   256
178
     2
271
     2
272
     3
274
     4
284
     8
340
11
371
    -1
372
    -1
  0
DIMSTYLE
105
436
330
A
100
AcDbSymbolTableRecord
100
AcDbDimStyleTableRecord
  2
AM_ANSI$SH
 70
     0
  4
"
 41
2.5
 42
1.0
 43
10.0
 44
1.0
 47
0.1
 48
0.1
 75
     1
 76
     1
 78
     8
 79
     2
140
3.5
141
0.0
143
0.0393701
146
0.71
147
1.5
173
     1
176
   256
177
   256
178
     2
271
     2
272
     3
274
     4
284
     8
340
11
371
    -1
372
    -1
  0
ENDTAB
  0
TABLE
  2
BLOCK_RECORD
  5
1
330
0
100
AcDbSymbolTable
 70
    61
  0
BLOCK_RECORD
  5
1F
102
{ACAD_XDICTIONARY
360
B45
102
}
330
1
100
AcDbSymbolTableRecord
100
AcDbBlockTableRecord
  2
*Model_Space
340
22
 70
     0
280
     1
281
     0
  0
BLOCK_RECORD
  5
73
330
1
100
AcDbSymbolTableRecord
100
AcDbBlockTableRecord
  2
*Paper_Space
340
74
 70
     0
280
     1
281
     0
  0
BLOCK_RECORD
  5
3D6
330
1
100
AcDbSymbolTableRecord
100
AcDbBlockTableRecord
  2
*U0
340
0
 70
     0
280
     1
281
     0
  0
BLOCK_RECORD
  5
415
330
1
100
AcDbSymbolTableRecord
100
AcDbBlockTableRecord
  2
GENAXEH
340
0
 70
     0
280
     1
281
     0
  0
BLOCK_RECORD
  5
5C4
330
1
100
AcDbSymbolTableRecord
100
AcDbBlockTableRecord
  2
*D2
340
0
 70
     0
280
     1
281
     0
  0
BLOCK_RECORD
  5
5D1
330
1
100
AcDbSymbolTableRecord
100
AcDbBlockTableRecord
  2
*D3
340
0
 70
     0
280
     1
281
     0
  0
BLOCK_RECORD
  5
5F8
330
1
100
AcDbSymbolTableRecord
100
AcDbBlockTableRecord
  2
*D4
340
0
 70
     0
280
     1
281
     0
  0
BLOCK_RECORD
  5
679
330
1
100
AcDbSymbolTableRecord
100
AcDbBlockTableRecord
  2
*D5
340
0
 70
     0
280
     1
281
     0
  0
BLOCK_RECORD
  5
685
330
1
100
AcDbSymbolTableRecord
100
AcDbBlockTableRecord
  2
*D6
340
0
 70
     0
280
     1
281
     0
  0
BLOCK_RECORD
  5
690
330
1
100
AcDbSymbolTableRecord
100
AcDbBlockTableRecord
  2
*D7
340
0
 70
     0
280
     1
281
     0
  0
BLOCK_RECORD
  5
69C
330
1
100
AcDbSymbolTableRecord
100
AcDbBlockTableRecord
  2
*D8
340
0
 70
     0
280
     1
281
     0
  0
BLOCK_RECORD
  5
6BE
330
1
100
AcDbSymbolTableRecord
100
AcDbBlockTableRecord
  2
*D9
340
0
 70
     0
280
     1
281
     0
  0
BLOCK_RECORD
  5
6CA
330
1
100
AcDbSymbolTableRecord
100
AcDbBlockTableRecord
  2
*D10
340
0
 70
     0
280
     1
281
     0
  0
BLOCK_RECORD
  5
6D5
330
1
100
AcDbSymbolTableRecord
100
AcDbBlockTableRecord
  2
*D11
340
0
 70
     0
280
     1
281
     0
  0
BLOCK_RECORD
  5
6E1
330
1
100
AcDbSymbolTableRecord
100
AcDbBlockTableRecord
  2
*D12
340
0
 70
     0
280
     1
281
     0
  0
BLOCK_RECORD
  5
6EE
330
1
100
AcDbSymbolTableRecord
100
AcDbBlockTableRecord
  2
*D13
340
0
 70
     0
280
     1
281
     0
  0
BLOCK_RECORD
  5
6FA
330
1
100
AcDbSymbolTableRecord
100
AcDbBlockTableRecord
  2
*D14
340
0
 70
     0
280
     1
281
     0
  0
BLOCK_RECORD
  5
705
330
1
100
AcDbSymbolTableRecord
100
AcDbBlockTableRecord
  2
*D15
340
0
 70
     0
280
     1
281
     0
  0
BLOCK_RECORD
  5
711
330
1
100
AcDbSymbolTableRecord
100
AcDbBlockTableRecord
  2
*D16
340
0
 70
     0
280
     1
281
     0
  0
BLOCK_RECORD
  5
71C
330
1
100
AcDbSymbolTableRecord
100
AcDbBlockTableRecord
  2
*D17
340
0
 70
     0
280
     1
281
     0
  0
BLOCK_RECORD
  5
728
330
1
100
AcDbSymbolTableRecord
100
AcDbBlockTableRecord
  2
*D18
340
0
 70
     0
280
     1
281
     0
  0
BLOCK_RECORD
  5
733
330
1
100
AcDbSymbolTableRecord
100
AcDbBlockTableRecord
  2
*D19
340
0
 70
     0
280
     1
281
     0
  0
BLOCK_RECORD
  5
73F
330
1
100
AcDbSymbolTableRecord
100
AcDbBlockTableRecord
  2
*D20
340
0
 70
     0
280
     1
281
     0
  0
BLOCK_RECORD
  5
74A
330
1
100
AcDbSymbolTableRecord
100
AcDbBlockTableRecord
  2
*D21
340
0
 70
     0
280
     1
281
     0
  0
BLOCK_RECORD
  5
756
330
1
100
AcDbSymbolTableRecord
100
AcDbBlockTableRecord
  2
*D22
340
0
 70
     0
280
     1
281
     0
  0
BLOCK_RECORD
  5
761
330
1
100
AcDbSymbolTableRecord
100
AcDbBlockTableRecord
  2
*D23
340
0
 70
     0
280
     1
281
     0
  0
BLOCK_RECORD
  5
76D
330
1
100
AcDbSymbolTableRecord
100
AcDbBlockTableRecord
  2
*D24
340
0
 70
     0
280
     1
281
     0
  0
BLOCK_RECORD
  5
778
330
1
100
AcDbSymbolTableRecord
100
AcDbBlockTableRecord
  2
*D25
340
0
 70
     0
280
     1
281
     0
  0
BLOCK_RECORD
  5
783
330
1
100
AcDbSymbolTableRecord
100
AcDbBlockTableRecord
  2
*D26
340
0
 70
     0
280
     1
281
     0
  0
BLOCK_RECORD
  5
78F
330
1
100
AcDbSymbolTableRecord
100
AcDbBlockTableRecord
  2
*D27
340
0
 70
     0
280
     1
281
     0
  0
BLOCK_RECORD
  5
79A
330
1
100
AcDbSymbolTableRecord
100
AcDbBlockTableRecord
  2
*D28
340
0
 70
     0
280
     1
281
     0
  0
BLOCK_RECORD
  5
7A5
330
1
100
AcDbSymbolTableRecord
100
AcDbBlockTableRecord
  2
*D29
340
0
 70
     0
280
     1
281
     0
  0
BLOCK_RECORD
  5
7B0
330
1
100
AcDbSymbolTableRecord
100
AcDbBlockTableRecord
  2
*D30
340
0
 70
     0
280
     1
281
     0
  0
BLOCK_RECORD
  5
7BB
330
1
100
AcDbSymbolTableRecord
100
AcDbBlockTableRecord
  2
*D31
340
0
 70
     0
280
     1
281
     0
  0
BLOCK_RECORD
  5
7C7
330
1
100
AcDbSymbolTableRecord
100
AcDbBlockTableRecord
  2
*D32
340
0
 70
     0
280
     1
281
     0
  0
BLOCK_RECORD
  5
7D2
330
1
100
AcDbSymbolTableRecord
100
AcDbBlockTableRecord
  2
*D33
340
0
 70
     0
280
     1
281
     0
  0
BLOCK_RECORD
  5
7DD
330
1
100
AcDbSymbolTableRecord
100
AcDbBlockTableRecord
  2
*D34
340
0
 70
     0
280
     1
281
     0
  0
BLOCK_RECORD
  5
7E9
330
1
100
AcDbSymbolTableRecord
100
AcDbBlockTableRecord
  2
*D35
340
0
 70
     0
280
     1
281
     0
  0
BLOCK_RECORD
  5
7F4
330
1
100
AcDbSymbolTableRecord
100
AcDbBlockTableRecord
  2
*D36
340
0
 70
     0
280
     1
281
     0
  0
BLOCK_RECORD
  5
7FF
330
1
100
AcDbSymbolTableRecord
100
AcDbBlockTableRecord
  2
*D37
340
0
 70
     0
280
     1
281
     0
  0
BLOCK_RECORD
  5
80A
330
1
100
AcDbSymbolTableRecord
100
AcDbBlockTableRecord
  2
*D38
340
0
 70
     0
280
     1
281
     0
  0
BLOCK_RECORD
  5
815
330
1
100
AcDbSymbolTableRecord
100
AcDbBlockTableRecord
  2
*D39
340
0
 70
     0
280
     1
281
     0
  0
BLOCK_RECORD
  5
820
330
1
100
AcDbSymbolTableRecord
100
AcDbBlockTableRecord
  2
*D40
340
0
 70
     0
280
     1
281
     0
  0
BLOCK_RECORD
  5
82B
330
1
100
AcDbSymbolTableRecord
100
AcDbBlockTableRecord
  2
*D41
340
0
 70
     0
280
     1
281
     0
  0
BLOCK_RECORD
  5
836
330
1
100
AcDbSymbolTableRecord
100
AcDbBlockTableRecord
  2
*D42
340
0
 70
     0
280
     1
281
     0
  0
BLOCK_RECORD
  5
841
330
1
100
AcDbSymbolTableRecord
100
AcDbBlockTableRecord
  2
*D43
340
0
 70
     0
280
     1
281
     0
  0
BLOCK_RECORD
  5
962
330
1
100
AcDbSymbolTableRecord
100
AcDbBlockTableRecord
  2
*D44
340
0
 70
     0
280
     1
281
     0
  0
BLOCK_RECORD
  5
96D
330
1
100
AcDbSymbolTableRecord
100
AcDbBlockTableRecord
  2
*D45
340
0
 70
     0
280
     1
281
     0
  0
BLOCK_RECORD
  5
979
330
1
100
AcDbSymbolTableRecord
100
AcDbBlockTableRecord
  2
*D46
340
0
 70
     0
280
     1
281
     0
  0
BLOCK_RECORD
  5
984
330
1
100
AcDbSymbolTableRecord
100
AcDbBlockTableRecord
  2
*D47
340
0
 70
     0
280
     1
281
     0
  0
BLOCK_RECORD
  5
990
330
1
100
AcDbSymbolTableRecord
100
AcDbBlockTableRecord
  2
*D48
340
0
 70
     0
280
     1
281
     0
  0
BLOCK_RECORD
  5
99E
330
1
100
AcDbSymbolTableRecord
100
AcDbBlockTableRecord
  2
*D49
340
0
 70
     0
280
     1
281
     0
  0
BLOCK_RECORD
  5
9AA
330
1
100
AcDbSymbolTableRecord
100
AcDbBlockTableRecord
  2
*D50
340
0
 70
     0
280
     1
281
     0
  0
BLOCK_RECORD
  5
9B5
330
1
100
AcDbSymbolTableRecord
100
AcDbBlockTableRecord
  2
*D51
340
0
 70
     0
280
     1
281
     0
  0
BLOCK_RECORD
  5
9C1
330
1
100
AcDbSymbolTableRecord
100
AcDbBlockTableRecord
  2
*D52
340
0
 70
     0
280
     1
281
     0
  0
BLOCK_RECORD
  5
9CD
330
1
100
AcDbSymbolTableRecord
100
AcDbBlockTableRecord
  2
*D53
340
0
 70
     0
280
     1
281
     0
  0
BLOCK_RECORD
  5
9D9
330
1
100
AcDbSymbolTableRecord
100
AcDbBlockTableRecord
  2
*D54
340
0
 70
     0
280
     1
281
     0
  0
BLOCK_RECORD
  5
9E5
330
1
100
AcDbSymbolTableRecord
100
AcDbBlockTableRecord
  2
*D55
340
0
 70
     0
280
     1
281
     0
  0
BLOCK_RECORD
  5
9F0
330
1
100
AcDbSymbolTableRecord
100
AcDbBlockTableRecord
  2
*D56
340
0
 70
     0
280
     1
281
     0
  0
BLOCK_RECORD
  5
A8C
330
1
100
AcDbSymbolTableRecord
100
AcDbBlockTableRecord
  2
*D57
340
0
 70
     0
280
     1
281
     0
  0
BLOCK_RECORD
  5
A98
330
1
100
AcDbSymbolTableRecord
100
AcDbBlockTableRecord
  2
*D58
340
0
 70
     0
280
     1
281
     0
  0
BLOCK_RECORD
  5
AA6
330
1
100
AcDbSymbolTableRecord
100
AcDbBlockTableRecord
  2
*D59
340
0
 70
     0
280
     1
281
     0
  0
BLOCK_RECORD
  5
AB1
330
1
100
AcDbSymbolTableRecord
100
AcDbBlockTableRecord
  2
*D60
340
0
 70
     0
280
     1
281
     0
  0
ENDTAB
  0
ENDSEC
  0
SECTION
  2
BLOCKS
  0
BLOCK
  5
20
330
1F
100
AcDbEntity
  8
0
100
AcDbBlockBegin
  2
*Model_Space
 70
     0
 10
0.0
 20
0.0
 30
0.0
  3
*Model_Space
  1

  0
ENDBLK
  5
21
330
1F
100
AcDbEntity
  8
0
100
AcDbBlockEnd
  0
BLOCK
  5
75
330
73
100
AcDbEntity
 67
     1
  8
0
100
AcDbBlockBegin
  2
*Paper_Space
 70
     0
 10
0.0
 20
0.0
 30
0.0
  3
*Paper_Space
  1

  0
ENDBLK
  5
76
330
73
100
AcDbEntity
 67
     1
  8
0
100
AcDbBlockEnd
  0
BLOCK
  5
ACB
102
{ACAD_REACTORS
330
9B6
330
9C2
102
}
330
3D6
100
AcDbEntity
  8
0
100
AcDbBlockBegin
  2
*U0
 70
     1
 10
0.0
 20
0.0
 30
0.0
  3
*U0
  1

  0
ENDBLK
  5
ACC
330
3D6
100
AcDbEntity
  8
0
100
AcDbBlockEnd
  0
BLOCK
  5
ACD
330
415
100
AcDbEntity
  8
0
100
AcDbBlockBegin
  2
GENAXEH
 70
     0
 10
0.0
 20
0.0
 30
0.0
  3
GENAXEH
  1

  0
LINE
  5
416
330
415
100
AcDbEntity
  8
0
100
AcDbLine
 10
-1.0
 20
0.0
 30
0.0
 11
1.0
 21
0.0
 31
0.0
  0
ENDBLK
  5
ACE
330
415
100
AcDbEntity
  8
0
100
AcDbBlockEnd
  0
BLOCK
  5
ACF
330
5C4
100
AcDbEntity
  8
0
100
AcDbBlockBegin
  2
*D2
 70
     1
 10
0.0
 20
0.0
 30
0.0
  3
*D2
  1

  0
LINE
  5
623
330
5C4
100
AcDbEntity
  8
DIM
 62
     0
370
    -2
100
AcDbLine
 10
-6.924265877365272
 20
-0.3356299999999999
 30
0.0
 11
-6.924265877365272
 21
-0.971160594975288
 31
0.0
  0
LINE
  5
624
330
5C4
100
AcDbEntity
  8
DIM
 62
     0
370
    -2
100
AcDbLine
 10
-5.524265877365273
 20
-0.375
 30
0.0
 11
-5.524265877365273
 21
-0.971160594975288
 31
0.0
  0
LINE
  5
625
330
5C4
100
AcDbEntity
  8
DIM
 62
     0
370
    -2
100
AcDbLine
 10
-6.804265877365271
 20
-0.908660594975288
 30
0.0
 11
-5.644265877365273
 21
-0.908660594975288
 31
0.0
  0
SOLID
  5
626
330
5C4
100
AcDbEntity
  8
DIM
 62
     0
100
AcDbTrace
 10
-6.804265877365271
 20
-0.888660594975288
 30
0.0
 11
-6.804265877365271
 21
-0.9286605949752877
 31
0.0
 12
-6.924265877365272
 22
-0.908660594975288
 32
0.0
 13
-6.924265877365272
 23
-0.908660594975288
 33
0.0
  0
SOLID
  5
627
330
5C4
100
AcDbEntity
  8
DIM
 62
     0
100
AcDbTrace
 10
-5.644265877365273
 20
-0.888660594975288
 30
0.0
 11
-5.644265877365273
 21
-0.9286605949752877
 31
0.0
 12
-5.524265877365273
 22
-0.908660594975288
 32
0.0
 13
-5.524265877365273
 23
-0.908660594975288
 33
0.0
  0
MTEXT
  5
628
330
5C4
100
AcDbEntity
  8
DIM
 62
     0
100
AcDbMText
 10
-6.224265877365272
 20
-0.796160594975288
 30
0.0
 40
0.125
 41
0.0
 46
0.0
 71
     5
 72
     1
  1
\A1;1.4
  7
ROMANS
 73
     1
 44
1.0
  0
POINT
  5
629
330
5C4
100
AcDbEntity
  8
Defpoints
 62
     0
100
AcDbPoint
 10
-6.924265877365272
 20
-0.2731299999999999
 30
0.0
  0
POINT
  5
62A
330
5C4
100
AcDbEntity
  8
Defpoints
 62
     0
100
AcDbPoint
 10
-5.524265877365273
 20
-0.3125
 30
0.0
  0
POINT
  5
62B
330
5C4
100
AcDbEntity
  8
Defpoints
 62
     0
100
AcDbPoint
 10
-5.524265877365273
 20
-0.908660594975288
 30
0.0
  0
ENDBLK
  5
AD0
330
5C4
100
AcDbEntity
  8
0
100
AcDbBlockEnd
  0
BLOCK
  5
AD1
330
5D1
100
AcDbEntity
  8
0
100
AcDbBlockBegin
  2
*D3
 70
     1
 10
0.0
 20
0.0
 30
0.0
  3
*D3
  1

  0
LINE
  5
62C
330
5D1
100
AcDbEntity
  8
DIM
 62
     0
370
    -2
100
AcDbLine
 10
-6.947395877365272
 20
0.3125
 30
0.0
 11
-7.89634336150882
 21
0.3125000000000003
 31
0.0
  0
LINE
  5
62D
330
5D1
100
AcDbEntity
  8
DIM
 62
     0
370
    -2
100
AcDbLine
 10
-6.947395877365272
 20
-0.3125
 30
0.0
 11
-7.89634336150882
 21
-0.3124999999999996
 31
0.0
  0
LINE
  5
62E
330
5D1
100
AcDbEntity
  8
DIM
 62
     0
370
    -2
100
AcDbLine
 10
-7.83384336150882
 20
-0.1924999999999997
 30
0.0
 11
-7.83384336150882
 21
0.1925000000000002
 31
0.0
  0
LINE
  5
62F
330
5D1
100
AcDbEntity
  8
DIM
 62
     0
370
    -2
100
AcDbLine
 10
-7.83384336150882
 20
0.3125000000000002
 30
0.0
 11
-7.83384336150882
 21
1.250201323508024
 31
0.0
  0
SOLID
  5
630
330
5D1
100
AcDbEntity
  8
DIM
 62
     0
100
AcDbTrace
 10
-7.853843361508818
 20
-0.1924999999999997
 30
0.0
 11
-7.813843361508819
 21
-0.1924999999999997
 31
0.0
 12
-7.83384336150882
 22
-0.3124999999999997
 32
0.0
 13
-7.83384336150882
 23
-0.3124999999999997
 33
0.0
  0
SOLID
  5
631
330
5D1
100
AcDbEntity
  8
DIM
 62
     0
100
AcDbTrace
 10
-7.853843361508818
 20
0.1925000000000002
 30
0.0
 11
-7.813843361508819
 21
0.1925000000000002
 31
0.0
 12
-7.83384336150882
 22
0.3125000000000002
 32
0.0
 13
-7.83384336150882
 23
0.3125000000000002
 33
0.0
  0
MTEXT
  5
632
330
5D1
100
AcDbEntity
  8
DIM
 62
     0
100
AcDbMText
 10
-7.946343361508819
 20
0.8936537044604049
 30
0.0
 40
0.125
 41
0.0
 46
0.0
 71
     5
 72
     1
  1
\A1;%%c0.625
  7
ROMANS
 11
1.000000000000000E-16
 21
1.0
 31
0.0
 73
     1
 44
1.0
  0
POINT
  5
633
330
5D1
100
AcDbEntity
  8
Defpoints
 62
     0
100
AcDbPoint
 10
-6.884895877365272
 20
0.3125
 30
0.0
  0
POINT
  5
634
330
5D1
100
AcDbEntity
  8
Defpoints
 62
     0
100
AcDbPoint
 10
-6.884895877365272
 20
-0.3125
 30
0.0
  0
POINT
  5
635
330
5D1
100
AcDbEntity
  8
Defpoints
 62
     0
100
AcDbPoint
 10
-7.83384336150882
 20
-0.3124999999999997
 30
0.0
  0
ENDBLK
  5
AD2
330
5D1
100
AcDbEntity
  8
0
100
AcDbBlockEnd
  0
BLOCK
  5
AD3
330
5F8
100
AcDbEntity
  8
0
100
AcDbBlockBegin
  2
*D4
 70
     1
 10
0.0
 20
0.0
 30
0.0
  3
*D4
  1

  0
LINE
  5
636
330
5F8
100
AcDbEntity
  8
DIM
 62
     0
370
    -2
100
AcDbLine
 10
-6.924265877365272
 20
0.3356300000000001
 30
0.0
 11
-6.924265877365272
 21
1.170677152341397
 31
0.0
  0
LINE
  5
637
330
5F8
100
AcDbEntity
  8
DIM
 62
     0
370
    -2
100
AcDbLine
 10
0.0837341226347258
 20
0.375
 30
0.0
 11
0.0837341226347259
 21
1.170677152341397
 31
0.0
  0
LINE
  5
638
330
5F8
100
AcDbEntity
  8
DIM
 62
     0
370
    -2
100
AcDbLine
 10
-6.804265877365271
 20
1.108177152341397
 30
0.0
 11
-0.0362658773652741
 21
1.108177152341397
 31
0.0
  0
SOLID
  5
639
330
5F8
100
AcDbEntity
  8
DIM
 62
     0
100
AcDbTrace
 10
-6.804265877365271
 20
1.128177152341397
 30
0.0
 11
-6.804265877365271
 21
1.088177152341397
 31
0.0
 12
-6.924265877365272
 22
1.108177152341397
 32
0.0
 13
-6.924265877365272
 23
1.108177152341397
 33
0.0
  0
SOLID
  5
63A
330
5F8
100
AcDbEntity
  8
DIM
 62
     0
100
AcDbTrace
 10
-0.0362658773652741
 20
1.128177152341397
 30
0.0
 11
-0.0362658773652741
 21
1.088177152341397
 31
0.0
 12
0.0837341226347259
 22
1.108177152341397
 32
0.0
 13
0.0837341226347259
 23
1.108177152341397
 33
0.0
  0
MTEXT
  5
63B
330
5F8
100
AcDbEntity
  8
DIM
 62
     0
100
AcDbMText
 10
-3.420265877365273
 20
1.220677152341397
 30
0.0
 40
0.125
 41
0.0
 46
0.0
 71
     5
 72
     1
  1
\A1;7.008
  7
ROMANS
 73
     1
 44
1.0
  0
POINT
  5
63C
330
5F8
100
AcDbEntity
  8
Defpoints
 62
     0
100
AcDbPoint
 10
-6.924265877365272
 20
0.2731300000000001
 30
0.0
  0
POINT
  5
63D
330
5F8
100
AcDbEntity
  8
Defpoints
 62
     0
100
AcDbPoint
 10
0.0837341226347258
 20
0.3125
 30
0.0
  0
POINT
  5
63E
330
5F8
100
AcDbEntity
  8
Defpoints
 62
     0
100
AcDbPoint
 10
0.0837341226347259
 20
1.108177152341397
 30
0.0
  0
ENDBLK
  5
AD4
330
5F8
100
AcDbEntity
  8
0
100
AcDbBlockEnd
  0
BLOCK
  5
AD5
330
679
100
AcDbEntity
  8
0
100
AcDbBlockBegin
  2
*D5
 70
     1
 10
0.0
 20
0.0
 30
0.0
  3
*D5
  1

  0
POINT
  5
670
330
679
100
AcDbEntity
  8
Defpoints
  6
ByBlock
 62
     0
100
AcDbPoint
 10
-6.924265877365262
 20
1.251870000000001
 30
0.0
  0
POINT
  5
671
330
679
100
AcDbEntity
  8
Defpoints
  6
ByBlock
 62
     0
100
AcDbPoint
 10
28.63573412263472
 20
0.2518719999999974
 30
0.0
  0
LINE
  5
672
330
679
100
AcDbEntity
  8
0
  6
ByBlock
 62
     0
370
    -2
100
AcDbLine
 10
-6.924265877365262
 20
1.189370000000001
 30
0.0
 11
-6.924265877365262
 21
-14.95310711237232
 31
0.0
  0
LINE
  5
673
330
679
100
AcDbEntity
  8
0
  6
ByBlock
 62
     0
370
    -2
100
AcDbLine
 10
28.63573412263473
 20
0.1893719999999974
 30
0.0
 11
28.63573412263473
 21
-14.95310711237232
 31
0.0
  0
LINE
  5
674
330
679
100
AcDbEntity
  8
0
  6
ByBlock
 62
     0
370
    -2
100
AcDbLine
 10
-6.804265877365262
 20
-14.89060711237232
 30
0.0
 11
28.51573412263473
 21
-14.89060711237232
 31
0.0
  0
SOLID
  5
675
330
679
100
AcDbEntity
  8
0
  6
ByBlock
 62
     0
100
AcDbTrace
 10
-6.924265877365262
 20
-14.89060711237232
 30
0.0
 11
-6.804265877365262
 21
-14.91060711237232
 31
0.0
 12
-6.804265877365262
 22
-14.87060711237231
 32
0.0
 13
-6.804265877365262
 23
-14.87060711237231
 33
0.0
  0
SOLID
  5
676
330
679
100
AcDbEntity
  8
0
  6
ByBlock
 62
     0
100
AcDbTrace
 10
28.63573412263473
 20
-14.89060711237232
 30
0.0
 11
28.51573412263473
 21
-14.91060711237232
 31
0.0
 12
28.51573412263473
 22
-14.87060711237231
 32
0.0
 13
28.51573412263473
 23
-14.87060711237231
 33
0.0
  0
MTEXT
  5
677
330
679
100
AcDbEntity
  8
0
  6
ByBlock
 62
     0
100
AcDbMText
 10
10.85573412263473
 20
-14.77810711237231
 30
0.0
 40
0.125
 41
0.0
 46
0.0
 71
     5
 72
     1
  1
35.6
  7
ROMANS
 73
     1
 44
1.0
  0
ENDBLK
  5
AD6
330
679
100
AcDbEntity
  8
DIM
100
AcDbBlockEnd
  0
BLOCK
  5
AD7
330
685
100
AcDbEntity
  8
0
100
AcDbBlockBegin
  2
*D6
 70
     1
 10
0.0
 20
0.0
 30
0.0
  3
*D6
  1

  0
POINT
  5
67B
330
685
100
AcDbEntity
  8
Defpoints
  6
ByBlock
 62
     0
100
AcDbPoint
 10
-5.924267877365264
 20
16.126872
 30
0.0
  0
POINT
  5
67C
330
685
100
AcDbEntity
  8
Defpoints
  6
ByBlock
 62
     0
100
AcDbPoint
 10
-5.924267877365264
 20
0.2518719999999974
 30
0.0
  0
LINE
  5
67D
330
685
100
AcDbEntity
  8
0
  6
ByBlock
 62
     0
370
    -2
100
AcDbLine
 10
-5.986767877365264
 20
16.126872
 30
0.0
 11
-30.09003397461138
 21
16.126872
 31
0.0
  0
LINE
  5
67E
330
685
100
AcDbEntity
  8
0
  6
ByBlock
 62
     0
370
    -2
100
AcDbLine
 10
-5.986767877365264
 20
0.251871999999997
 30
0.0
 11
-30.09003397461138
 21
0.251871999999997
 31
0.0
  0
LINE
  5
67F
330
685
100
AcDbEntity
  8
0
  6
ByBlock
 62
     0
370
    -2
100
AcDbLine
 10
-30.02753397461138
 20
16.00687199999999
 30
0.0
 11
-30.02753397461138
 21
0.3718719999999962
 31
0.0
  0
SOLID
  5
680
330
685
100
AcDbEntity
  8
0
  6
ByBlock
 62
     0
100
AcDbTrace
 10
-30.02753397461138
 20
16.126872
 30
0.0
 11
-30.04753397461138
 21
16.00687199999999
 31
0.0
 12
-30.00753397461138
 22
16.00687199999999
 32
0.0
 13
-30.00753397461138
 23
16.00687199999999
 33
0.0
  0
LINE
  5
681
330
685
100
AcDbEntity
  8
0
  6
ByBlock
 62
     0
370
    -2
100
AcDbLine
 10
-30.02753397461138
 20
16.126872
 30
0.0
 11
-30.02753397461138
 21
31.00067609329428
 31
0.0
  0
SOLID
  5
682
330
685
100
AcDbEntity
  8
0
  6
ByBlock
 62
     0
100
AcDbTrace
 10
-30.02753397461138
 20
0.251871999999997
 30
0.0
 11
-30.04753397461138
 21
0.3718719999999962
 31
0.0
 12
-30.00753397461138
 22
0.3718719999999962
 32
0.0
 13
-30.00753397461138
 23
0.3718719999999962
 33
0.0
  0
MTEXT
  5
683
330
685
100
AcDbEntity
  8
0
  6
ByBlock
 62
     0
100
AcDbMText
 10
-30.14003397461138
 20
30.88817609329428
 30
0.0
 40
0.125
 41
0.0
 46
0.0
 71
     5
 72
     1
  1
%%c15.875
  7
ROMANS
 11
6.123031769111886E-17
 21
1.0
 31
0.0
 73
     1
 44
1.0
  0
ENDBLK
  5
AD8
330
685
100
AcDbEntity
  8
DIM
100
AcDbBlockEnd
  0
BLOCK
  5
AD9
330
690
100
AcDbEntity
  8
0
100
AcDbBlockBegin
  2
*D7
 70
     1
 10
0.0
 20
0.0
 30
0.0
  3
*D7
  1

  0
POINT
  5
687
330
690
100
AcDbEntity
  8
Defpoints
  6
ByBlock
 62
     0
100
AcDbPoint
 10
-6.924265877365262
 20
15.126874
 30
0.0
  0
POINT
  5
688
330
690
100
AcDbEntity
  8
Defpoints
  6
ByBlock
 62
     0
100
AcDbPoint
 10
171.0789341226347
 20
16.126872
 30
0.0
  0
LINE
  5
689
330
690
100
AcDbEntity
  8
0
  6
ByBlock
 62
     0
370
    -2
100
AcDbLine
 10
-6.924265877365262
 20
15.189374
 30
0.0
 11
-6.924265877365262
 21
36.39957166947148
 31
0.0
  0
LINE
  5
68A
330
690
100
AcDbEntity
  8
0
  6
ByBlock
 62
     0
370
    -2
100
AcDbLine
 10
171.0789341226347
 20
16.189372
 30
0.0
 11
171.0789341226347
 21
36.39957166947148
 31
0.0
  0
LINE
  5
68B
330
690
100
AcDbEntity
  8
0
  6
ByBlock
 62
     0
370
    -2
100
AcDbLine
 10
-6.804265877365262
 20
36.33707166947148
 30
0.0
 11
170.9589341226347
 21
36.33707166947148
 31
0.0
  0
SOLID
  5
68C
330
690
100
AcDbEntity
  8
0
  6
ByBlock
 62
     0
100
AcDbTrace
 10
-6.924265877365262
 20
36.33707166947148
 30
0.0
 11
-6.804265877365262
 21
36.31707166947147
 31
0.0
 12
-6.804265877365262
 22
36.35707166947148
 32
0.0
 13
-6.804265877365262
 23
36.35707166947148
 33
0.0
  0
SOLID
  5
68D
330
690
100
AcDbEntity
  8
0
  6
ByBlock
 62
     0
100
AcDbTrace
 10
171.0789341226347
 20
36.33707166947148
 30
0.0
 11
170.9589341226347
 21
36.31707166947147
 31
0.0
 12
170.9589341226347
 22
36.35707166947148
 32
0.0
 13
170.9589341226347
 23
36.35707166947148
 33
0.0
  0
MTEXT
  5
68E
330
690
100
AcDbEntity
  8
0
  6
ByBlock
 62
     0
100
AcDbMText
 10
82.07733412263471
 20
36.44957166947147
 30
0.0
 40
0.125
 41
0.0
 46
0.0
 71
     5
 72
     1
  1
178.003
  7
ROMANS
 73
     1
 44
1.0
  0
ENDBLK
  5
ADA
330
690
100
AcDbEntity
  8
DIM
100
AcDbBlockEnd
  0
BLOCK
  5
ADB
330
69C
100
AcDbEntity
  8
0
100
AcDbBlockBegin
  2
*D8
 70
     1
 10
0.0
 20
0.0
 30
0.0
  3
*D8
  1

  0
POINT
  5
693
330
69C
100
AcDbEntity
  8
Defpoints
  6
ByBlock
 62
     0
100
AcDbPoint
 10
-6.924265877365262
 20
1.189370000000001
 30
0.0
  0
POINT
  5
694
330
69C
100
AcDbEntity
  8
Defpoints
  6
ByBlock
 62
     0
100
AcDbPoint
 10
28.63573412263473
 20
0.1893719999999974
 30
0.0
  0
LINE
  5
695
330
69C
100
AcDbEntity
  8
0
  6
ByBlock
 62
     0
370
    -2
100
AcDbLine
 10
-6.924265877365262
 20
1.126870000000001
 30
0.0
 11
-6.924265877365262
 21
-20.0476157724398
 31
0.0
  0
LINE
  5
696
330
69C
100
AcDbEntity
  8
0
  6
ByBlock
 62
     0
370
    -2
100
AcDbLine
 10
28.63573412263473
 20
0.1268719999999974
 30
0.0
 11
28.63573412263473
 21
-20.0476157724398
 31
0.0
  0
LINE
  5
697
330
69C
100
AcDbEntity
  8
0
  6
ByBlock
 62
     0
370
    -2
100
AcDbLine
 10
-6.804265877365262
 20
-19.9851157724398
 30
0.0
 11
28.51573412263473
 21
-19.9851157724398
 31
0.0
  0
SOLID
  5
698
330
69C
100
AcDbEntity
  8
0
  6
ByBlock
 62
     0
100
AcDbTrace
 10
-6.924265877365262
 20
-19.9851157724398
 30
0.0
 11
-6.804265877365262
 21
-20.0051157724398
 31
0.0
 12
-6.804265877365262
 22
-19.96511577243979
 32
0.0
 13
-6.804265877365262
 23
-19.96511577243979
 33
0.0
  0
SOLID
  5
699
330
69C
100
AcDbEntity
  8
0
  6
ByBlock
 62
     0
100
AcDbTrace
 10
28.63573412263473
 20
-19.9851157724398
 30
0.0
 11
28.51573412263473
 21
-20.0051157724398
 31
0.0
 12
28.51573412263473
 22
-19.96511577243979
 32
0.0
 13
28.51573412263473
 23
-19.96511577243979
 33
0.0
  0
MTEXT
  5
69A
330
69C
100
AcDbEntity
  8
0
  6
ByBlock
 62
     0
100
AcDbMText
 10
10.85573412263473
 20
-19.8726157724398
 30
0.0
 40
0.125
 41
0.0
 46
0.0
 71
     5
 72
     1
  1
35.560
  7
ROMANS
 73
     1
 44
1.0
  0
ENDBLK
  5
ADC
330
69C
100
AcDbEntity
  8
DIM
100
AcDbBlockEnd
  0
BLOCK
  5
ADD
330
6BE
100
AcDbEntity
  8
0
100
AcDbBlockBegin
  2
*D9
 70
     1
 10
0.0
 20
0.0
 30
0.0
  3
*D9
  1

  0
POINT
  5
6B5
330
6BE
100
AcDbEntity
  8
Defpoints
  6
ByBlock
 62
     0
100
AcDbPoint
 10
-6.924265877365262
 20
1.251870000000001
 30
0.0
  0
POINT
  5
6B6
330
6BE
100
AcDbEntity
  8
Defpoints
  6
ByBlock
 62
     0
100
AcDbPoint
 10
28.63573412263472
 20
0.2518719999999974
 30
0.0
  0
LINE
  5
6B7
330
6BE
100
AcDbEntity
  8
0
  6
ByBlock
 62
     0
370
    -2
100
AcDbLine
 10
-6.924265877365262
 20
1.189370000000001
 30
0.0
 11
-6.924265877365262
 21
-14.95310711237232
 31
0.0
  0
LINE
  5
6B8
330
6BE
100
AcDbEntity
  8
0
  6
ByBlock
 62
     0
370
    -2
100
AcDbLine
 10
28.63573412263473
 20
0.1893719999999974
 30
0.0
 11
28.63573412263473
 21
-14.95310711237232
 31
0.0
  0
LINE
  5
6B9
330
6BE
100
AcDbEntity
  8
0
  6
ByBlock
 62
     0
370
    -2
100
AcDbLine
 10
-6.804265877365262
 20
-14.89060711237232
 30
0.0
 11
28.51573412263473
 21
-14.89060711237232
 31
0.0
  0
SOLID
  5
6BA
330
6BE
100
AcDbEntity
  8
0
  6
ByBlock
 62
     0
100
AcDbTrace
 10
-6.924265877365262
 20
-14.89060711237232
 30
0.0
 11
-6.804265877365262
 21
-14.91060711237232
 31
0.0
 12
-6.804265877365262
 22
-14.87060711237231
 32
0.0
 13
-6.804265877365262
 23
-14.87060711237231
 33
0.0
  0
SOLID
  5
6BB
330
6BE
100
AcDbEntity
  8
0
  6
ByBlock
 62
     0
100
AcDbTrace
 10
28.63573412263473
 20
-14.89060711237232
 30
0.0
 11
28.51573412263473
 21
-14.91060711237232
 31
0.0
 12
28.51573412263473
 22
-14.87060711237231
 32
0.0
 13
28.51573412263473
 23
-14.87060711237231
 33
0.0
  0
MTEXT
  5
6BC
330
6BE
100
AcDbEntity
  8
0
  6
ByBlock
 62
     0
100
AcDbMText
 10
10.85573412263473
 20
-14.77810711237231
 30
0.0
 40
0.125
 41
0.0
 46
0.0
 71
     5
 72
     1
  1
35.6
  7
ROMANS
 73
     1
 44
1.0
  0
ENDBLK
  5
ADE
330
6BE
100
AcDbEntity
  8
DIM
100
AcDbBlockEnd
  0
BLOCK
  5
ADF
330
6CA
100
AcDbEntity
  8
0
100
AcDbBlockBegin
  2
*D10
 70
     1
 10
0.0
 20
0.0
 30
0.0
  3
*D10
  1

  0
POINT
  5
6C0
330
6CA
100
AcDbEntity
  8
Defpoints
  6
ByBlock
 62
     0
100
AcDbPoint
 10
-5.924267877365264
 20
16.126872
 30
0.0
  0
POINT
  5
6C1
330
6CA
100
AcDbEntity
  8
Defpoints
  6
ByBlock
 62
     0
100
AcDbPoint
 10
-5.924267877365264
 20
0.2518719999999974
 30
0.0
  0
LINE
  5
6C2
330
6CA
100
AcDbEntity
  8
0
  6
ByBlock
 62
     0
370
    -2
100
AcDbLine
 10
-5.986767877365264
 20
16.126872
 30
0.0
 11
-30.09003397461138
 21
16.126872
 31
0.0
  0
LINE
  5
6C3
330
6CA
100
AcDbEntity
  8
0
  6
ByBlock
 62
     0
370
    -2
100
AcDbLine
 10
-5.986767877365264
 20
0.251871999999997
 30
0.0
 11
-30.09003397461138
 21
0.251871999999997
 31
0.0
  0
LINE
  5
6C4
330
6CA
100
AcDbEntity
  8
0
  6
ByBlock
 62
     0
370
    -2
100
AcDbLine
 10
-30.02753397461138
 20
16.00687199999999
 30
0.0
 11
-30.02753397461138
 21
0.3718719999999962
 31
0.0
  0
SOLID
  5
6C5
330
6CA
100
AcDbEntity
  8
0
  6
ByBlock
 62
     0
100
AcDbTrace
 10
-30.02753397461138
 20
16.126872
 30
0.0
 11
-30.04753397461138
 21
16.00687199999999
 31
0.0
 12
-30.00753397461138
 22
16.00687199999999
 32
0.0
 13
-30.00753397461138
 23
16.00687199999999
 33
0.0
  0
LINE
  5
6C6
330
6CA
100
AcDbEntity
  8
0
  6
ByBlock
 62
     0
370
    -2
100
AcDbLine
 10
-30.02753397461138
 20
16.126872
 30
0.0
 11
-30.02753397461138
 21
31.00067609329428
 31
0.0
  0
SOLID
  5
6C7
330
6CA
100
AcDbEntity
  8
0
  6
ByBlock
 62
     0
100
AcDbTrace
 10
-30.02753397461138
 20
0.251871999999997
 30
0.0
 11
-30.04753397461138
 21
0.3718719999999962
 31
0.0
 12
-30.00753397461138
 22
0.3718719999999962
 32
0.0
 13
-30.00753397461138
 23
0.3718719999999962
 33
0.0
  0
MTEXT
  5
6C8
330
6CA
100
AcDbEntity
  8
0
  6
ByBlock
 62
     0
100
AcDbMText
 10
-30.14003397461138
 20
30.88817609329428
 30
0.0
 40
0.125
 41
0.0
 46
0.0
 71
     5
 72
     1
  1
%%c15.875
  7
ROMANS
 11
6.123031769111886E-17
 21
1.0
 31
0.0
 73
     1
 44
1.0
  0
ENDBLK
  5
AE0
330
6CA
100
AcDbEntity
  8
DIM
100
AcDbBlockEnd
  0
BLOCK
  5
AE1
330
6D5
100
AcDbEntity
  8
0
100
AcDbBlockBegin
  2
*D11
 70
     1
 10
0.0
 20
0.0
 30
0.0
  3
*D11
  1

  0
POINT
  5
6CC
330
6D5
100
AcDbEntity
  8
Defpoints
  6
ByBlock
 62
     0
100
AcDbPoint
 10
-6.924265877365262
 20
15.126874
 30
0.0
  0
POINT
  5
6CD
330
6D5
100
AcDbEntity
  8
Defpoints
  6
ByBlock
 62
     0
100
AcDbPoint
 10
171.0789341226347
 20
16.126872
 30
0.0
  0
LINE
  5
6CE
330
6D5
100
AcDbEntity
  8
0
  6
ByBlock
 62
     0
370
    -2
100
AcDbLine
 10
-6.924265877365262
 20
15.189374
 30
0.0
 11
-6.924265877365262
 21
36.39957166947148
 31
0.0
  0
LINE
  5
6CF
330
6D5
100
AcDbEntity
  8
0
  6
ByBlock
 62
     0
370
    -2
100
AcDbLine
 10
171.0789341226347
 20
16.189372
 30
0.0
 11
171.0789341226347
 21
36.39957166947148
 31
0.0
  0
LINE
  5
6D0
330
6D5
100
AcDbEntity
  8
0
  6
ByBlock
 62
     0
370
    -2
100
AcDbLine
 10
-6.804265877365262
 20
36.33707166947148
 30
0.0
 11
170.9589341226347
 21
36.33707166947148
 31
0.0
  0
SOLID
  5
6D1
330
6D5
100
AcDbEntity
  8
0
  6
ByBlock
 62
     0
100
AcDbTrace
 10
-6.924265877365262
 20
36.33707166947148
 30
0.0
 11
-6.804265877365262
 21
36.31707166947147
 31
0.0
 12
-6.804265877365262
 22
36.35707166947148
 32
0.0
 13
-6.804265877365262
 23
36.35707166947148
 33
0.0
  0
SOLID
  5
6D2
330
6D5
100
AcDbEntity
  8
0
  6
ByBlock
 62
     0
100
AcDbTrace
 10
171.0789341226347
 20
36.33707166947148
 30
0.0
 11
170.9589341226347
 21
36.31707166947147
 31
0.0
 12
170.9589341226347
 22
36.35707166947148
 32
0.0
 13
170.9589341226347
 23
36.35707166947148
 33
0.0
  0
MTEXT
  5
6D3
330
6D5
100
AcDbEntity
  8
0
  6
ByBlock
 62
     0
100
AcDbMText
 10
82.07733412263471
 20
36.44957166947147
 30
0.0
 40
0.125
 41
0.0
 46
0.0
 71
     5
 72
     1
  1
178.003
  7
ROMANS
 73
     1
 44
1.0
  0
ENDBLK
  5
AE2
330
6D5
100
AcDbEntity
  8
DIM
100
AcDbBlockEnd
  0
BLOCK
  5
AE3
330
6E1
100
AcDbEntity
  8
0
100
AcDbBlockBegin
  2
*D12
 70
     1
 10
0.0
 20
0.0
 30
0.0
  3
*D12
  1

  0
POINT
  5
6D8
330
6E1
100
AcDbEntity
  8
Defpoints
  6
ByBlock
 62
     0
100
AcDbPoint
 10
-6.924265877365262
 20
15.189374
 30
0.0
  0
POINT
  5
6D9
330
6E1
100
AcDbEntity
  8
Defpoints
  6
ByBlock
 62
     0
100
AcDbPoint
 10
171.0789341226347
 20
16.189372
 30
0.0
  0
LINE
  5
6DA
330
6E1
100
AcDbEntity
  8
0
  6
ByBlock
 62
     0
370
    -2
100
AcDbLine
 10
-6.924265877365262
 20
15.251874
 30
0.0
 11
-6.924265877365262
 21
44.84950706312827
 31
0.0
  0
LINE
  5
6DB
330
6E1
100
AcDbEntity
  8
0
  6
ByBlock
 62
     0
370
    -2
100
AcDbLine
 10
171.0789341226347
 20
16.251872
 30
0.0
 11
171.0789341226347
 21
44.84950706312827
 31
0.0
  0
LINE
  5
6DC
330
6E1
100
AcDbEntity
  8
0
  6
ByBlock
 62
     0
370
    -2
100
AcDbLine
 10
-6.804265877365262
 20
44.78700706312827
 30
0.0
 11
170.9589341226347
 21
44.78700706312827
 31
0.0
  0
SOLID
  5
6DD
330
6E1
100
AcDbEntity
  8
0
  6
ByBlock
 62
     0
100
AcDbTrace
 10
-6.924265877365262
 20
44.78700706312827
 30
0.0
 11
-6.804265877365262
 21
44.76700706312827
 31
0.0
 12
-6.804265877365262
 22
44.80700706312827
 32
0.0
 13
-6.804265877365262
 23
44.80700706312827
 33
0.0
  0
SOLID
  5
6DE
330
6E1
100
AcDbEntity
  8
0
  6
ByBlock
 62
     0
100
AcDbTrace
 10
171.0789341226347
 20
44.78700706312827
 30
0.0
 11
170.9589341226347
 21
44.76700706312827
 31
0.0
 12
170.9589341226347
 22
44.80700706312827
 32
0.0
 13
170.9589341226347
 23
44.80700706312827
 33
0.0
  0
MTEXT
  5
6DF
330
6E1
100
AcDbEntity
  8
0
  6
ByBlock
 62
     0
100
AcDbMText
 10
82.07733412263471
 20
47.33700706312827
 30
0.0
 40
5.0
 41
0.0
 46
0.0
 71
     5
 72
     1
  1
178.003
  7
ROMANS
 73
     1
 44
1.0
  0
ENDBLK
  5
AE4
330
6E1
100
AcDbEntity
  8
DIM
100
AcDbBlockEnd
  0
BLOCK
  5
AE5
330
6EE
100
AcDbEntity
  8
0
100
AcDbBlockBegin
  2
*D13
 70
     1
 10
0.0
 20
0.0
 30
0.0
  3
*D13
  1

  0
POINT
  5
6E4
330
6EE
100
AcDbEntity
  8
Defpoints
  6
ByBlock
 62
     0
100
AcDbPoint
 10
-5.924267877365264
 20
0.2518719999999974
 30
0.0
  0
POINT
  5
6E5
330
6EE
100
AcDbEntity
  8
Defpoints
  6
ByBlock
 62
     0
100
AcDbPoint
 10
-5.924267877365264
 20
16.126872
 30
0.0
  0
LINE
  5
6E6
330
6EE
100
AcDbEntity
  8
0
  6
ByBlock
 62
     0
370
    -2
100
AcDbLine
 10
-5.986767877365264
 20
0.2518719999999974
 30
0.0
 11
-39.34681999089571
 21
0.2518719999999974
 31
0.0
  0
LINE
  5
6E7
330
6EE
100
AcDbEntity
  8
0
  6
ByBlock
 62
     0
370
    -2
100
AcDbLine
 10
-5.986767877365264
 20
16.126872
 30
0.0
 11
-39.34681999089571
 21
16.126872
 31
0.0
  0
LINE
  5
6E8
330
6EE
100
AcDbEntity
  8
0
  6
ByBlock
 62
     0
370
    -2
100
AcDbLine
 10
-39.28431999089571
 20
0.3718719999999974
 30
0.0
 11
-39.28431999089571
 21
16.006872
 31
0.0
  0
SOLID
  5
6E9
330
6EE
100
AcDbEntity
  8
0
  6
ByBlock
 62
     0
100
AcDbTrace
 10
-39.28431999089571
 20
0.2518719999999974
 30
0.0
 11
-39.26431999089571
 21
0.3718719999999974
 31
0.0
 12
-39.30431999089571
 22
0.3718719999999974
 32
0.0
 13
-39.30431999089571
 23
0.3718719999999974
 33
0.0
  0
LINE
  5
6EA
330
6EE
100
AcDbEntity
  8
0
  6
ByBlock
 62
     0
370
    -2
100
AcDbLine
 10
-39.28431999089571
 20
16.126872
 30
0.0
 11
-39.28431999089571
 21
21.346872
 31
0.0
  0
SOLID
  5
6EB
330
6EE
100
AcDbEntity
  8
0
  6
ByBlock
 62
     0
100
AcDbTrace
 10
-39.28431999089571
 20
16.126872
 30
0.0
 11
-39.26431999089571
 21
16.006872
 31
0.0
 12
-39.30431999089571
 22
16.006872
 32
0.0
 13
-39.30431999089571
 23
16.006872
 33
0.0
  0
MTEXT
  5
6EC
330
6EE
100
AcDbEntity
  8
0
  6
ByBlock
 62
     0
100
AcDbMText
 10
-41.83431999089571
 20
18.796872
 30
0.0
 40
5.0
 41
0.0
 46
0.0
 71
     5
 72
     1
  1
15.875
  7
ROMANS
 11
6.123031769111886E-17
 21
1.0
 31
0.0
 73
     1
 44
1.0
  0
ENDBLK
  5
AE6
330
6EE
100
AcDbEntity
  8
DIM
100
AcDbBlockEnd
  0
BLOCK
  5
AE7
330
6FA
100
AcDbEntity
  8
0
100
AcDbBlockBegin
  2
*D14
 70
     1
 10
0.0
 20
0.0
 30
0.0
  3
*D14
  1

  0
POINT
  5
6F1
330
6FA
100
AcDbEntity
  8
Defpoints
  6
ByBlock
 62
     0
100
AcDbPoint
 10
-6.924265877365262
 20
1.251870000000001
 30
0.0
  0
POINT
  5
6F2
330
6FA
100
AcDbEntity
  8
Defpoints
  6
ByBlock
 62
     0
100
AcDbPoint
 10
28.63573412263473
 20
0.1893719999999974
 30
0.0
  0
LINE
  5
6F3
330
6FA
100
AcDbEntity
  8
0
  6
ByBlock
 62
     0
370
    -2
100
AcDbLine
 10
-6.924265877365262
 20
1.189370000000001
 30
0.0
 11
-6.924265877365262
 21
-24.97533694638591
 31
0.0
  0
LINE
  5
6F4
330
6FA
100
AcDbEntity
  8
0
  6
ByBlock
 62
     0
370
    -2
100
AcDbLine
 10
28.63573412263473
 20
0.1268719999999974
 30
0.0
 11
28.63573412263473
 21
-24.97533694638591
 31
0.0
  0
LINE
  5
6F5
330
6FA
100
AcDbEntity
  8
0
  6
ByBlock
 62
     0
370
    -2
100
AcDbLine
 10
-6.804265877365262
 20
-24.91283694638591
 30
0.0
 11
28.51573412263473
 21
-24.91283694638591
 31
0.0
  0
SOLID
  5
6F6
330
6FA
100
AcDbEntity
  8
0
  6
ByBlock
 62
     0
100
AcDbTrace
 10
-6.924265877365262
 20
-24.91283694638591
 30
0.0
 11
-6.804265877365262
 21
-24.93283694638591
 31
0.0
 12
-6.804265877365262
 22
-24.89283694638591
 32
0.0
 13
-6.804265877365262
 23
-24.89283694638591
 33
0.0
  0
SOLID
  5
6F7
330
6FA
100
AcDbEntity
  8
0
  6
ByBlock
 62
     0
100
AcDbTrace
 10
28.63573412263473
 20
-24.91283694638591
 30
0.0
 11
28.51573412263473
 21
-24.93283694638591
 31
0.0
 12
28.51573412263473
 22
-24.89283694638591
 32
0.0
 13
28.51573412263473
 23
-24.89283694638591
 33
0.0
  0
MTEXT
  5
6F8
330
6FA
100
AcDbEntity
  8
0
  6
ByBlock
 62
     0
100
AcDbMText
 10
10.85573412263473
 20
-22.36283694638591
 30
0.0
 40
5.0
 41
0.0
 46
0.0
 71
     5
 72
     1
  1
35.560
  7
ROMANS
 73
     1
 44
1.0
  0
ENDBLK
  5
AE8
330
6FA
100
AcDbEntity
  8
DIM
100
AcDbBlockEnd
  0
BLOCK
  5
AE9
330
705
100
AcDbEntity
  8
0
100
AcDbBlockBegin
  2
*D15
 70
     1
 10
0.0
 20
0.0
 30
0.0
  3
*D15
  1

  0
POINT
  5
6FC
330
705
100
AcDbEntity
  8
Defpoints
  6
ByBlock
 62
     0
100
AcDbPoint
 10
-6.924265877365262
 20
1.251870000000001
 30
0.0
  0
POINT
  5
6FD
330
705
100
AcDbEntity
  8
Defpoints
  6
ByBlock
 62
     0
100
AcDbPoint
 10
28.63573412263473
 20
0.1893719999999974
 30
0.0
  0
LINE
  5
6FE
330
705
100
AcDbEntity
  8
0
  6
ByBlock
 62
     0
370
    -2
100
AcDbLine
 10
-6.924265877365262
 20
1.189370000000001
 30
0.0
 11
-6.924265877365262
 21
-17.48226838000548
 31
0.0
  0
LINE
  5
6FF
330
705
100
AcDbEntity
  8
0
  6
ByBlock
 62
     0
370
    -2
100
AcDbLine
 10
28.63573412263473
 20
0.1268719999999974
 30
0.0
 11
28.63573412263473
 21
-17.48226838000548
 31
0.0
  0
LINE
  5
700
330
705
100
AcDbEntity
  8
0
  6
ByBlock
 62
     0
370
    -2
100
AcDbLine
 10
-6.804265877365262
 20
-17.41976838000548
 30
0.0
 11
28.51573412263473
 21
-17.41976838000548
 31
0.0
  0
SOLID
  5
701
330
705
100
AcDbEntity
  8
0
  6
ByBlock
 62
     0
100
AcDbTrace
 10
-6.924265877365262
 20
-17.41976838000548
 30
0.0
 11
-6.804265877365262
 21
-17.43976838000548
 31
0.0
 12
-6.804265877365262
 22
-17.39976838000548
 32
0.0
 13
-6.804265877365262
 23
-17.39976838000548
 33
0.0
  0
SOLID
  5
702
330
705
100
AcDbEntity
  8
0
  6
ByBlock
 62
     0
100
AcDbTrace
 10
28.63573412263473
 20
-17.41976838000548
 30
0.0
 11
28.51573412263473
 21
-17.43976838000548
 31
0.0
 12
28.51573412263473
 22
-17.39976838000548
 32
0.0
 13
28.51573412263473
 23
-17.39976838000548
 33
0.0
  0
MTEXT
  5
703
330
705
100
AcDbEntity
  8
0
  6
ByBlock
 62
     0
100
AcDbMText
 10
9.905594703437373
 20
-14.86976838000548
 30
0.0
 40
5.0
 41
0.0
 46
0.0
 71
     5
 72
     1
  1
35.560
  7
ROMANS
 73
     1
 44
1.0
  0
ENDBLK
  5
AEA
330
705
100
AcDbEntity
  8
DIM
100
AcDbBlockEnd
  0
BLOCK
  5
AEB
330
711
100
AcDbEntity
  8
0
100
AcDbBlockBegin
  2
*D16
 70
     1
 10
0.0
 20
0.0
 30
0.0
  3
*D16
  1

  0
POINT
  5
707
330
711
100
AcDbEntity
  8
Defpoints
  6
ByBlock
 62
     0
100
AcDbPoint
 10
-5.924267877365264
 20
0.2518719999999974
 30
0.0
  0
POINT
  5
708
330
711
100
AcDbEntity
  8
Defpoints
  6
ByBlock
 62
     0
100
AcDbPoint
 10
-5.924267877365264
 20
16.126872
 30
0.0
  0
LINE
  5
709
330
711
100
AcDbEntity
  8
0
  6
ByBlock
 62
     0
370
    -2
100
AcDbLine
 10
-5.986767877365264
 20
0.2518719999999974
 30
0.0
 11
-24.58604970398102
 21
0.2518719999999974
 31
0.0
  0
LINE
  5
70A
330
711
100
AcDbEntity
  8
0
  6
ByBlock
 62
     0
370
    -2
100
AcDbLine
 10
-5.986767877365264
 20
16.126872
 30
0.0
 11
-24.58604970398102
 21
16.126872
 31
0.0
  0
LINE
  5
70B
330
711
100
AcDbEntity
  8
0
  6
ByBlock
 62
     0
370
    -2
100
AcDbLine
 10
-24.52354970398102
 20
0.3718719999999974
 30
0.0
 11
-24.52354970398102
 21
16.006872
 31
0.0
  0
SOLID
  5
70C
330
711
100
AcDbEntity
  8
0
  6
ByBlock
 62
     0
100
AcDbTrace
 10
-24.52354970398102
 20
0.2518719999999974
 30
0.0
 11
-24.50354970398102
 21
0.3718719999999974
 31
0.0
 12
-24.54354970398102
 22
0.3718719999999974
 32
0.0
 13
-24.54354970398102
 23
0.3718719999999974
 33
0.0
  0
LINE
  5
70D
330
711
100
AcDbEntity
  8
0
  6
ByBlock
 62
     0
370
    -2
100
AcDbLine
 10
-24.52354970398102
 20
16.126872
 30
0.0
 11
-24.52354970398102
 21
30.846872
 31
0.0
  0
SOLID
  5
70E
330
711
100
AcDbEntity
  8
0
  6
ByBlock
 62
     0
100
AcDbTrace
 10
-24.52354970398102
 20
16.126872
 30
0.0
 11
-24.50354970398102
 21
16.006872
 31
0.0
 12
-24.54354970398102
 22
16.006872
 32
0.0
 13
-24.54354970398102
 23
16.006872
 33
0.0
  0
MTEXT
  5
70F
330
711
100
AcDbEntity
  8
0
  6
ByBlock
 62
     0
100
AcDbMText
 10
-27.07354970398102
 20
28.296872
 30
0.0
 40
5.0
 41
0.0
 46
0.0
 71
     5
 72
     1
  1
15.875
  7
ROMANS
 11
6.123031769111886E-17
 21
1.0
 31
0.0
 73
     1
 44
1.0
  0
ENDBLK
  5
AEC
330
711
100
AcDbEntity
  8
DIM
100
AcDbBlockEnd
  0
BLOCK
  5
AED
330
71C
100
AcDbEntity
  8
0
100
AcDbBlockBegin
  2
*D17
 70
     1
 10
0.0
 20
0.0
 30
0.0
  3
*D17
  1

  0
POINT
  5
713
330
71C
100
AcDbEntity
  8
Defpoints
  6
ByBlock
 62
     0
100
AcDbPoint
 10
-6.924265877365262
 20
15.189374
 30
0.0
  0
POINT
  5
714
330
71C
100
AcDbEntity
  8
Defpoints
  6
ByBlock
 62
     0
100
AcDbPoint
 10
171.0789341226347
 20
16.189372
 30
0.0
  0
LINE
  5
715
330
71C
100
AcDbEntity
  8
0
  6
ByBlock
 62
     0
370
    -2
100
AcDbLine
 10
-6.924265877365262
 20
15.251874
 30
0.0
 11
-6.924265877365262
 21
33.80384896794862
 31
0.0
  0
LINE
  5
716
330
71C
100
AcDbEntity
  8
0
  6
ByBlock
 62
     0
370
    -2
100
AcDbLine
 10
171.0789341226347
 20
16.251872
 30
0.0
 11
171.0789341226347
 21
33.80384896794862
 31
0.0
  0
LINE
  5
717
330
71C
100
AcDbEntity
  8
0
  6
ByBlock
 62
     0
370
    -2
100
AcDbLine
 10
-6.804265877365262
 20
33.74134896794862
 30
0.0
 11
170.9589341226347
 21
33.74134896794862
 31
0.0
  0
SOLID
  5
718
330
71C
100
AcDbEntity
  8
0
  6
ByBlock
 62
     0
100
AcDbTrace
 10
-6.924265877365262
 20
33.74134896794862
 30
0.0
 11
-6.804265877365262
 21
33.72134896794862
 31
0.0
 12
-6.804265877365262
 22
33.76134896794863
 32
0.0
 13
-6.804265877365262
 23
33.76134896794863
 33
0.0
  0
SOLID
  5
719
330
71C
100
AcDbEntity
  8
0
  6
ByBlock
 62
     0
100
AcDbTrace
 10
171.0789341226347
 20
33.74134896794862
 30
0.0
 11
170.9589341226347
 21
33.72134896794862
 31
0.0
 12
170.9589341226347
 22
33.76134896794863
 32
0.0
 13
170.9589341226347
 23
33.76134896794863
 33
0.0
  0
MTEXT
  5
71A
330
71C
100
AcDbEntity
  8
0
  6
ByBlock
 62
     0
100
AcDbMText
 10
72.8676860280093
 20
36.29134896794862
 30
0.0
 40
5.0
 41
0.0
 46
0.0
 71
     5
 72
     1
  1
178.003
  7
ROMANS
 73
     1
 44
1.0
  0
ENDBLK
  5
AEE
330
71C
100
AcDbEntity
  8
DIM
100
AcDbBlockEnd
  0
BLOCK
  5
AEF
330
728
100
AcDbEntity
  8
0
100
AcDbBlockBegin
  2
*D18
 70
     1
 10
0.0
 20
0.0
 30
0.0
  3
*D18
  1

  0
POINT
  5
71F
330
728
100
AcDbEntity
  8
Defpoints
  6
ByBlock
 62
     0
100
AcDbPoint
 10
-6.924265877365262
 20
1.251870000000001
 30
0.0
  0
POINT
  5
720
330
728
100
AcDbEntity
  8
Defpoints
  6
ByBlock
 62
     0
100
AcDbPoint
 10
28.07573412263474
 20
1.251870000000001
 30
0.0
  0
LINE
  5
721
330
728
100
AcDbEntity
  8
0
  6
ByBlock
 62
     0
370
    -2
100
AcDbLine
 10
-6.924265877365262
 20
1.189370000000001
 30
0.0
 11
-6.924265877365262
 21
-17.23166329278737
 31
0.0
  0
LINE
  5
722
330
728
100
AcDbEntity
  8
0
  6
ByBlock
 62
     0
370
    -2
100
AcDbLine
 10
28.07573412263474
 20
1.189370000000001
 30
0.0
 11
28.07573412263474
 21
-17.23166329278737
 31
0.0
  0
LINE
  5
723
330
728
100
AcDbEntity
  8
0
  6
ByBlock
 62
     0
370
    -2
100
AcDbLine
 10
-6.804265877365262
 20
-17.16916329278737
 30
0.0
 11
27.95573412263474
 21
-17.16916329278737
 31
0.0
  0
SOLID
  5
724
330
728
100
AcDbEntity
  8
0
  6
ByBlock
 62
     0
100
AcDbTrace
 10
-6.924265877365262
 20
-17.16916329278737
 30
0.0
 11
-6.804265877365262
 21
-17.18916329278738
 31
0.0
 12
-6.804265877365262
 22
-17.14916329278737
 32
0.0
 13
-6.804265877365262
 23
-17.14916329278737
 33
0.0
  0
SOLID
  5
725
330
728
100
AcDbEntity
  8
0
  6
ByBlock
 62
     0
100
AcDbTrace
 10
28.07573412263474
 20
-17.16916329278737
 30
0.0
 11
27.95573412263474
 21
-17.18916329278738
 31
0.0
 12
27.95573412263474
 22
-17.14916329278737
 32
0.0
 13
27.95573412263474
 23
-17.14916329278737
 33
0.0
  0
MTEXT
  5
726
330
728
100
AcDbEntity
  8
0
  6
ByBlock
 62
     0
100
AcDbMText
 10
10.57573412263474
 20
-14.61916329278737
 30
0.0
 40
5.0
 41
0.0
 46
0.0
 71
     5
 72
     1
  1
35.000
  7
ROMANS
 73
     1
 44
1.0
  0
ENDBLK
  5
AF0
330
728
100
AcDbEntity
  8
DIM
100
AcDbBlockEnd
  0
BLOCK
  5
AF1
330
733
100
AcDbEntity
  8
0
100
AcDbBlockBegin
  2
*D19
 70
     1
 10
0.0
 20
0.0
 30
0.0
  3
*D19
  1

  0
POINT
  5
72A
330
733
100
AcDbEntity
  8
Defpoints
  6
ByBlock
 62
     0
100
AcDbPoint
 10
-6.924265877365262
 20
15.189374
 30
0.0
  0
POINT
  5
72B
330
733
100
AcDbEntity
  8
Defpoints
  6
ByBlock
 62
     0
100
AcDbPoint
 10
171.0789341226347
 20
16.189372
 30
0.0
  0
LINE
  5
72C
330
733
100
AcDbEntity
  8
0
  6
ByBlock
 62
     0
370
    -2
100
AcDbLine
 10
-6.924265877365262
 20
15.251874
 30
0.0
 11
-6.924265877365262
 21
33.80384896794862
 31
0.0
  0
LINE
  5
72D
330
733
100
AcDbEntity
  8
0
  6
ByBlock
 62
     0
370
    -2
100
AcDbLine
 10
171.0789341226347
 20
16.251872
 30
0.0
 11
171.0789341226347
 21
33.80384896794862
 31
0.0
  0
LINE
  5
72E
330
733
100
AcDbEntity
  8
0
  6
ByBlock
 62
     0
370
    -2
100
AcDbLine
 10
-6.804265877365262
 20
33.74134896794862
 30
0.0
 11
170.9589341226347
 21
33.74134896794862
 31
0.0
  0
SOLID
  5
72F
330
733
100
AcDbEntity
  8
0
  6
ByBlock
 62
     0
100
AcDbTrace
 10
-6.924265877365262
 20
33.74134896794862
 30
0.0
 11
-6.804265877365262
 21
33.72134896794862
 31
0.0
 12
-6.804265877365262
 22
33.76134896794863
 32
0.0
 13
-6.804265877365262
 23
33.76134896794863
 33
0.0
  0
SOLID
  5
730
330
733
100
AcDbEntity
  8
0
  6
ByBlock
 62
     0
100
AcDbTrace
 10
171.0789341226347
 20
33.74134896794862
 30
0.0
 11
170.9589341226347
 21
33.72134896794862
 31
0.0
 12
170.9589341226347
 22
33.76134896794863
 32
0.0
 13
170.9589341226347
 23
33.76134896794863
 33
0.0
  0
MTEXT
  5
731
330
733
100
AcDbEntity
  8
0
  6
ByBlock
 62
     0
100
AcDbMText
 10
72.8676860280093
 20
36.29134896794862
 30
0.0
 40
5.0
 41
0.0
 46
0.0
 71
     5
 72
     1
  1
178.003
  7
ROMANS
 73
     1
 44
1.0
  0
ENDBLK
  5
AF2
330
733
100
AcDbEntity
  8
DIM
100
AcDbBlockEnd
  0
BLOCK
  5
AF3
330
73F
100
AcDbEntity
  8
0
100
AcDbBlockBegin
  2
*D20
 70
     1
 10
0.0
 20
0.0
 30
0.0
  3
*D20
  1

  0
POINT
  5
735
330
73F
100
AcDbEntity
  8
Defpoints
  6
ByBlock
 62
     0
100
AcDbPoint
 10
-5.924267877365264
 20
0.2518719999999974
 30
0.0
  0
POINT
  5
736
330
73F
100
AcDbEntity
  8
Defpoints
  6
ByBlock
 62
     0
100
AcDbPoint
 10
-5.924267877365264
 20
16.126872
 30
0.0
  0
LINE
  5
737
330
73F
100
AcDbEntity
  8
0
  6
ByBlock
 62
     0
370
    -2
100
AcDbLine
 10
-5.986767877365264
 20
0.2518719999999974
 30
0.0
 11
-24.58604970398102
 21
0.2518719999999974
 31
0.0
  0
LINE
  5
738
330
73F
100
AcDbEntity
  8
0
  6
ByBlock
 62
     0
370
    -2
100
AcDbLine
 10
-5.986767877365264
 20
16.126872
 30
0.0
 11
-24.58604970398102
 21
16.126872
 31
0.0
  0
LINE
  5
739
330
73F
100
AcDbEntity
  8
0
  6
ByBlock
 62
     0
370
    -2
100
AcDbLine
 10
-24.52354970398102
 20
0.3718719999999974
 30
0.0
 11
-24.52354970398102
 21
16.006872
 31
0.0
  0
SOLID
  5
73A
330
73F
100
AcDbEntity
  8
0
  6
ByBlock
 62
     0
100
AcDbTrace
 10
-24.52354970398102
 20
0.2518719999999974
 30
0.0
 11
-24.50354970398102
 21
0.3718719999999974
 31
0.0
 12
-24.54354970398102
 22
0.3718719999999974
 32
0.0
 13
-24.54354970398102
 23
0.3718719999999974
 33
0.0
  0
LINE
  5
73B
330
73F
100
AcDbEntity
  8
0
  6
ByBlock
 62
     0
370
    -2
100
AcDbLine
 10
-24.52354970398102
 20
16.126872
 30
0.0
 11
-24.52354970398102
 21
30.846872
 31
0.0
  0
SOLID
  5
73C
330
73F
100
AcDbEntity
  8
0
  6
ByBlock
 62
     0
100
AcDbTrace
 10
-24.52354970398102
 20
16.126872
 30
0.0
 11
-24.50354970398102
 21
16.006872
 31
0.0
 12
-24.54354970398102
 22
16.006872
 32
0.0
 13
-24.54354970398102
 23
16.006872
 33
0.0
  0
MTEXT
  5
73D
330
73F
100
AcDbEntity
  8
0
  6
ByBlock
 62
     0
100
AcDbMText
 10
-27.07354970398102
 20
28.296872
 30
0.0
 40
5.0
 41
0.0
 46
0.0
 71
     5
 72
     1
  1
15.875
  7
ROMANS
 11
6.123031769111886E-17
 21
1.0
 31
0.0
 73
     1
 44
1.0
  0
ENDBLK
  5
AF4
330
73F
100
AcDbEntity
  8
DIM
100
AcDbBlockEnd
  0
BLOCK
  5
AF5
330
74A
100
AcDbEntity
  8
0
100
AcDbBlockBegin
  2
*D21
 70
     1
 10
0.0
 20
0.0
 30
0.0
  3
*D21
  1

  0
POINT
  5
741
330
74A
100
AcDbEntity
  8
Defpoints
  6
ByBlock
 62
     0
100
AcDbPoint
 10
-6.924265877365262
 20
1.251870000000001
 30
0.0
  0
POINT
  5
742
330
74A
100
AcDbEntity
  8
Defpoints
  6
ByBlock
 62
     0
100
AcDbPoint
 10
28.07573412263474
 20
1.251870000000001
 30
0.0
  0
LINE
  5
743
330
74A
100
AcDbEntity
  8
0
  6
ByBlock
 62
     0
370
    -2
100
AcDbLine
 10
-6.924265877365262
 20
1.189370000000001
 30
0.0
 11
-6.924265877365262
 21
-17.23166329278737
 31
0.0
  0
LINE
  5
744
330
74A
100
AcDbEntity
  8
0
  6
ByBlock
 62
     0
370
    -2
100
AcDbLine
 10
28.07573412263474
 20
1.189370000000001
 30
0.0
 11
28.07573412263474
 21
-17.23166329278737
 31
0.0
  0
LINE
  5
745
330
74A
100
AcDbEntity
  8
0
  6
ByBlock
 62
     0
370
    -2
100
AcDbLine
 10
-6.804265877365262
 20
-17.16916329278737
 30
0.0
 11
27.95573412263474
 21
-17.16916329278737
 31
0.0
  0
SOLID
  5
746
330
74A
100
AcDbEntity
  8
0
  6
ByBlock
 62
     0
100
AcDbTrace
 10
-6.924265877365262
 20
-17.16916329278737
 30
0.0
 11
-6.804265877365262
 21
-17.18916329278738
 31
0.0
 12
-6.804265877365262
 22
-17.14916329278737
 32
0.0
 13
-6.804265877365262
 23
-17.14916329278737
 33
0.0
  0
SOLID
  5
747
330
74A
100
AcDbEntity
  8
0
  6
ByBlock
 62
     0
100
AcDbTrace
 10
28.07573412263474
 20
-17.16916329278737
 30
0.0
 11
27.95573412263474
 21
-17.18916329278738
 31
0.0
 12
27.95573412263474
 22
-17.14916329278737
 32
0.0
 13
27.95573412263474
 23
-17.14916329278737
 33
0.0
  0
MTEXT
  5
748
330
74A
100
AcDbEntity
  8
0
  6
ByBlock
 62
     0
100
AcDbMText
 10
10.57573412263474
 20
-14.61916329278737
 30
0.0
 40
5.0
 41
0.0
 46
0.0
 71
     5
 72
     1
  1
35.000
  7
ROMANS
 73
     1
 44
1.0
  0
ENDBLK
  5
AF6
330
74A
100
AcDbEntity
  8
DIM
100
AcDbBlockEnd
  0
BLOCK
  5
AF7
330
756
100
AcDbEntity
  8
0
100
AcDbBlockBegin
  2
*D22
 70
     1
 10
0.0
 20
0.0
 30
0.0
  3
*D22
  1

  0
POINT
  5
74D
330
756
100
AcDbEntity
  8
Defpoints
  6
ByBlock
 62
     0
100
AcDbPoint
 10
-6.924265877365262
 20
15.126874
 30
0.0
  0
POINT
  5
74E
330
756
100
AcDbEntity
  8
Defpoints
  6
ByBlock
 62
     0
100
AcDbPoint
 10
171.0789341226347
 20
16.251872
 30
0.0
  0
LINE
  5
74F
330
756
100
AcDbEntity
  8
0
  6
ByBlock
 62
     0
370
    -2
100
AcDbLine
 10
-6.924265877365262
 20
15.189374
 30
0.0
 11
-6.924265877365262
 21
48.79239093171159
 31
0.0
  0
LINE
  5
750
330
756
100
AcDbEntity
  8
0
  6
ByBlock
 62
     0
370
    -2
100
AcDbLine
 10
171.0789341226347
 20
16.314372
 30
0.0
 11
171.0789341226347
 21
48.79239093171159
 31
0.0
  0
LINE
  5
751
330
756
100
AcDbEntity
  8
0
  6
ByBlock
 62
     0
370
    -2
100
AcDbLine
 10
-4.924265877365262
 20
48.72989093171159
 30
0.0
 11
169.0789341226347
 21
48.72989093171159
 31
0.0
  0
SOLID
  5
752
330
756
100
AcDbEntity
  8
0
  6
ByBlock
 62
     0
100
AcDbTrace
 10
-6.924265877365262
 20
48.72989093171159
 30
0.0
 11
-4.924265877365262
 21
48.39655759837819
 31
0.0
 12
-4.924265877365262
 22
49.06322426504499
 32
0.0
 13
-4.924265877365262
 23
49.06322426504499
 33
0.0
  0
SOLID
  5
753
330
756
100
AcDbEntity
  8
0
  6
ByBlock
 62
     0
100
AcDbTrace
 10
171.0789341226347
 20
48.72989093171159
 30
0.0
 11
169.0789341226347
 21
48.39655759837819
 31
0.0
 12
169.0789341226347
 22
49.06322426504499
 32
0.0
 13
169.0789341226347
 23
49.06322426504499
 33
0.0
  0
MTEXT
  5
754
330
756
100
AcDbEntity
  8
0
  6
ByBlock
 62
     0
100
AcDbMText
 10
82.07733412263471
 20
51.27989093171159
 30
0.0
 40
5.0
 41
0.0
 46
0.0
 71
     5
 72
     1
  1
178.003
  7
ROMANS
 73
     1
 44
1.0
  0
ENDBLK
  5
AF8
330
756
100
AcDbEntity
  8
DIM
100
AcDbBlockEnd
  0
BLOCK
  5
AF9
330
761
100
AcDbEntity
  8
0
100
AcDbBlockBegin
  2
*D23
 70
     1
 10
0.0
 20
0.0
 30
0.0
  3
*D23
  1

  0
POINT
  5
758
330
761
100
AcDbEntity
  8
Defpoints
  6
ByBlock
 62
     0
100
AcDbPoint
 10
-6.924265877365262
 20
15.189374
 30
0.0
  0
POINT
  5
759
330
761
100
AcDbEntity
  8
Defpoints
  6
ByBlock
 62
     0
100
AcDbPoint
 10
171.0789341226347
 20
16.189372
 30
0.0
  0
LINE
  5
75A
330
761
100
AcDbEntity
  8
0
  6
ByBlock
 62
     0
370
    -2
100
AcDbLine
 10
-6.924265877365262
 20
15.251874
 30
0.0
 11
-6.924265877365262
 21
33.80384896794862
 31
0.0
  0
LINE
  5
75B
330
761
100
AcDbEntity
  8
0
  6
ByBlock
 62
     0
370
    -2
100
AcDbLine
 10
171.0789341226347
 20
16.251872
 30
0.0
 11
171.0789341226347
 21
33.80384896794862
 31
0.0
  0
LINE
  5
75C
330
761
100
AcDbEntity
  8
0
  6
ByBlock
 62
     0
370
    -2
100
AcDbLine
 10
-4.924265877365262
 20
33.74134896794862
 30
0.0
 11
169.0789341226347
 21
33.74134896794862
 31
0.0
  0
SOLID
  5
75D
330
761
100
AcDbEntity
  8
0
  6
ByBlock
 62
     0
100
AcDbTrace
 10
-6.924265877365262
 20
33.74134896794862
 30
0.0
 11
-4.924265877365262
 21
33.40801563461523
 31
0.0
 12
-4.924265877365262
 22
34.07468230128202
 32
0.0
 13
-4.924265877365262
 23
34.07468230128202
 33
0.0
  0
SOLID
  5
75E
330
761
100
AcDbEntity
  8
0
  6
ByBlock
 62
     0
100
AcDbTrace
 10
171.0789341226347
 20
33.74134896794862
 30
0.0
 11
169.0789341226347
 21
33.40801563461523
 31
0.0
 12
169.0789341226347
 22
34.07468230128202
 32
0.0
 13
169.0789341226347
 23
34.07468230128202
 33
0.0
  0
MTEXT
  5
75F
330
761
100
AcDbEntity
  8
0
  6
ByBlock
 62
     0
100
AcDbMText
 10
72.8676860280093
 20
36.29134896794862
 30
0.0
 40
5.0
 41
0.0
 46
0.0
 71
     5
 72
     1
  1
178.003
  7
ROMANS
 73
     1
 44
1.0
  0
ENDBLK
  5
AFA
330
761
100
AcDbEntity
  8
0
100
AcDbBlockEnd
  0
BLOCK
  5
AFB
330
76D
100
AcDbEntity
  8
0
100
AcDbBlockBegin
  2
*D24
 70
     1
 10
0.0
 20
0.0
 30
0.0
  3
*D24
  1

  0
POINT
  5
763
330
76D
100
AcDbEntity
  8
Defpoints
  6
ByBlock
 62
     0
100
AcDbPoint
 10
-5.924267877365264
 20
0.2518719999999974
 30
0.0
  0
POINT
  5
764
330
76D
100
AcDbEntity
  8
Defpoints
  6
ByBlock
 62
     0
100
AcDbPoint
 10
-5.924267877365264
 20
16.126872
 30
0.0
  0
LINE
  5
765
330
76D
100
AcDbEntity
  8
0
  6
ByBlock
 62
     0
370
    -2
100
AcDbLine
 10
-5.986767877365264
 20
0.2518719999999974
 30
0.0
 11
-24.58604970398102
 21
0.2518719999999974
 31
0.0
  0
LINE
  5
766
330
76D
100
AcDbEntity
  8
0
  6
ByBlock
 62
     0
370
    -2
100
AcDbLine
 10
-5.986767877365264
 20
16.126872
 30
0.0
 11
-24.58604970398102
 21
16.126872
 31
0.0
  0
LINE
  5
767
330
76D
100
AcDbEntity
  8
0
  6
ByBlock
 62
     0
370
    -2
100
AcDbLine
 10
-24.52354970398102
 20
2.251871999999997
 30
0.0
 11
-24.52354970398102
 21
14.126872
 31
0.0
  0
SOLID
  5
768
330
76D
100
AcDbEntity
  8
0
  6
ByBlock
 62
     0
100
AcDbTrace
 10
-24.52354970398102
 20
0.2518719999999974
 30
0.0
 11
-24.19021637064762
 21
2.251871999999997
 31
0.0
 12
-24.85688303731442
 22
2.251871999999997
 32
0.0
 13
-24.85688303731442
 23
2.251871999999997
 33
0.0
  0
LINE
  5
769
330
76D
100
AcDbEntity
  8
0
  6
ByBlock
 62
     0
370
    -2
100
AcDbLine
 10
-24.52354970398102
 20
16.126872
 30
0.0
 11
-24.52354970398102
 21
32.72687199999999
 31
0.0
  0
SOLID
  5
76A
330
76D
100
AcDbEntity
  8
0
  6
ByBlock
 62
     0
100
AcDbTrace
 10
-24.52354970398102
 20
16.126872
 30
0.0
 11
-24.19021637064762
 21
14.126872
 31
0.0
 12
-24.85688303731442
 22
14.126872
 32
0.0
 13
-24.85688303731442
 23
14.126872
 33
0.0
  0
MTEXT
  5
76B
330
76D
100
AcDbEntity
  8
0
  6
ByBlock
 62
     0
100
AcDbMText
 10
-27.07354970398102
 20
30.176872
 30
0.0
 40
5.0
 41
0.0
 46
0.0
 71
     5
 72
     1
  1
15.875
  7
ROMANS
 11
6.123031769111886E-17
 21
1.0
 31
0.0
 73
     1
 44
1.0
  0
ENDBLK
  5
AFC
330
76D
100
AcDbEntity
  8
0
100
AcDbBlockEnd
  0
BLOCK
  5
AFD
330
778
100
AcDbEntity
  8
0
100
AcDbBlockBegin
  2
*D25
 70
     1
 10
0.0
 20
0.0
 30
0.0
  3
*D25
  1

  0
POINT
  5
76F
330
778
100
AcDbEntity
  8
Defpoints
  6
ByBlock
 62
     0
100
AcDbPoint
 10
-6.924265877365262
 20
1.251870000000001
 30
0.0
  0
POINT
  5
770
330
778
100
AcDbEntity
  8
Defpoints
  6
ByBlock
 62
     0
100
AcDbPoint
 10
28.07573412263474
 20
1.251870000000001
 30
0.0
  0
LINE
  5
771
330
778
100
AcDbEntity
  8
0
  6
ByBlock
 62
     0
370
    -2
100
AcDbLine
 10
-6.924265877365262
 20
1.189370000000001
 30
0.0
 11
-6.924265877365262
 21
-17.23166329278737
 31
0.0
  0
LINE
  5
772
330
778
100
AcDbEntity
  8
0
  6
ByBlock
 62
     0
370
    -2
100
AcDbLine
 10
28.07573412263474
 20
1.189370000000001
 30
0.0
 11
28.07573412263474
 21
-17.23166329278737
 31
0.0
  0
LINE
  5
773
330
778
100
AcDbEntity
  8
0
  6
ByBlock
 62
     0
370
    -2
100
AcDbLine
 10
-4.924265877365262
 20
-17.16916329278737
 30
0.0
 11
26.07573412263474
 21
-17.16916329278737
 31
0.0
  0
SOLID
  5
774
330
778
100
AcDbEntity
  8
0
  6
ByBlock
 62
     0
100
AcDbTrace
 10
-6.924265877365262
 20
-17.16916329278737
 30
0.0
 11
-4.924265877365262
 21
-17.50249662612077
 31
0.0
 12
-4.924265877365262
 22
-16.83582995945397
 32
0.0
 13
-4.924265877365262
 23
-16.83582995945397
 33
0.0
  0
SOLID
  5
775
330
778
100
AcDbEntity
  8
0
  6
ByBlock
 62
     0
100
AcDbTrace
 10
28.07573412263474
 20
-17.16916329278737
 30
0.0
 11
26.07573412263474
 21
-17.50249662612077
 31
0.0
 12
26.07573412263474
 22
-16.83582995945397
 32
0.0
 13
26.07573412263474
 23
-16.83582995945397
 33
0.0
  0
MTEXT
  5
776
330
778
100
AcDbEntity
  8
0
  6
ByBlock
 62
     0
100
AcDbMText
 10
10.57573412263474
 20
-14.61916329278737
 30
0.0
 40
5.0
 41
0.0
 46
0.0
 71
     5
 72
     1
  1
35.000
  7
ROMANS
 73
     1
 44
1.0
  0
ENDBLK
  5
AFE
330
778
100
AcDbEntity
  8
0
100
AcDbBlockEnd
  0
BLOCK
  5
AFF
330
783
100
AcDbEntity
  8
0
100
AcDbBlockBegin
  2
*D26
 70
     1
 10
0.0
 20
0.0
 30
0.0
  3
*D26
  1

  0
POINT
  5
77A
330
783
100
AcDbEntity
  8
Defpoints
  6
ByBlock
 62
     0
100
AcDbPoint
 10
-6.924265877365262
 20
15.189374
 30
0.0
  0
POINT
  5
77B
330
783
100
AcDbEntity
  8
Defpoints
  6
ByBlock
 62
     0
100
AcDbPoint
 10
171.0789341226347
 20
16.189372
 30
0.0
  0
LINE
  5
77C
330
783
100
AcDbEntity
  8
0
  6
ByBlock
 62
     0
370
    -2
100
AcDbLine
 10
-6.924265877365262
 20
15.251874
 30
0.0
 11
-6.924265877365262
 21
33.80384896794862
 31
0.0
  0
LINE
  5
77D
330
783
100
AcDbEntity
  8
0
  6
ByBlock
 62
     0
370
    -2
100
AcDbLine
 10
171.0789341226347
 20
16.251872
 30
0.0
 11
171.0789341226347
 21
33.80384896794862
 31
0.0
  0
LINE
  5
77E
330
783
100
AcDbEntity
  8
0
  6
ByBlock
 62
     0
370
    -2
100
AcDbLine
 10
-4.924265877365262
 20
33.74134896794862
 30
0.0
 11
169.0789341226347
 21
33.74134896794862
 31
0.0
  0
SOLID
  5
77F
330
783
100
AcDbEntity
  8
0
  6
ByBlock
 62
     0
100
AcDbTrace
 10
-6.924265877365262
 20
33.74134896794862
 30
0.0
 11
-4.924265877365262
 21
33.40801563461523
 31
0.0
 12
-4.924265877365262
 22
34.07468230128202
 32
0.0
 13
-4.924265877365262
 23
34.07468230128202
 33
0.0
  0
SOLID
  5
780
330
783
100
AcDbEntity
  8
0
  6
ByBlock
 62
     0
100
AcDbTrace
 10
171.0789341226347
 20
33.74134896794862
 30
0.0
 11
169.0789341226347
 21
33.40801563461523
 31
0.0
 12
169.0789341226347
 22
34.07468230128202
 32
0.0
 13
169.0789341226347
 23
34.07468230128202
 33
0.0
  0
MTEXT
  5
781
330
783
100
AcDbEntity
  8
0
  6
ByBlock
 62
     0
100
AcDbMText
 10
72.8676860280093
 20
36.29134896794862
 30
0.0
 40
5.0
 41
0.0
 46
0.0
 71
     5
 72
     1
  1
178.003
  7
ROMANS
 73
     1
 44
1.0
  0
ENDBLK
  5
B00
330
783
100
AcDbEntity
  8
0
100
AcDbBlockEnd
  0
BLOCK
  5
B01
330
78F
100
AcDbEntity
  8
0
100
AcDbBlockBegin
  2
*D27
 70
     1
 10
0.0
 20
0.0
 30
0.0
  3
*D27
  1

  0
POINT
  5
785
330
78F
100
AcDbEntity
  8
Defpoints
  6
ByBlock
 62
     0
100
AcDbPoint
 10
-5.924267877365264
 20
0.2518719999999974
 30
0.0
  0
POINT
  5
786
330
78F
100
AcDbEntity
  8
Defpoints
  6
ByBlock
 62
     0
100
AcDbPoint
 10
-5.924267877365264
 20
16.126872
 30
0.0
  0
LINE
  5
787
330
78F
100
AcDbEntity
  8
0
  6
ByBlock
 62
     0
370
    -2
100
AcDbLine
 10
-5.986767877365264
 20
0.2518719999999974
 30
0.0
 11
-24.58604970398102
 21
0.2518719999999974
 31
0.0
  0
LINE
  5
788
330
78F
100
AcDbEntity
  8
0
  6
ByBlock
 62
     0
370
    -2
100
AcDbLine
 10
-5.986767877365264
 20
16.126872
 30
0.0
 11
-24.58604970398102
 21
16.126872
 31
0.0
  0
LINE
  5
789
330
78F
100
AcDbEntity
  8
0
  6
ByBlock
 62
     0
370
    -2
100
AcDbLine
 10
-24.52354970398102
 20
2.251871999999997
 30
0.0
 11
-24.52354970398102
 21
14.126872
 31
0.0
  0
SOLID
  5
78A
330
78F
100
AcDbEntity
  8
0
  6
ByBlock
 62
     0
100
AcDbTrace
 10
-24.52354970398102
 20
0.2518719999999974
 30
0.0
 11
-24.19021637064762
 21
2.251871999999997
 31
0.0
 12
-24.85688303731442
 22
2.251871999999997
 32
0.0
 13
-24.85688303731442
 23
2.251871999999997
 33
0.0
  0
LINE
  5
78B
330
78F
100
AcDbEntity
  8
0
  6
ByBlock
 62
     0
370
    -2
100
AcDbLine
 10
-24.52354970398102
 20
16.126872
 30
0.0
 11
-24.52354970398102
 21
32.72687199999999
 31
0.0
  0
SOLID
  5
78C
330
78F
100
AcDbEntity
  8
0
  6
ByBlock
 62
     0
100
AcDbTrace
 10
-24.52354970398102
 20
16.126872
 30
0.0
 11
-24.19021637064762
 21
14.126872
 31
0.0
 12
-24.85688303731442
 22
14.126872
 32
0.0
 13
-24.85688303731442
 23
14.126872
 33
0.0
  0
MTEXT
  5
78D
330
78F
100
AcDbEntity
  8
0
  6
ByBlock
 62
     0
100
AcDbMText
 10
-27.07354970398102
 20
30.176872
 30
0.0
 40
5.0
 41
0.0
 46
0.0
 71
     5
 72
     1
  1
15.875
  7
ROMANS
 11
6.123031769111886E-17
 21
1.0
 31
0.0
 73
     1
 44
1.0
  0
ENDBLK
  5
B02
330
78F
100
AcDbEntity
  8
0
100
AcDbBlockEnd
  0
BLOCK
  5
B03
330
79A
100
AcDbEntity
  8
0
100
AcDbBlockBegin
  2
*D28
 70
     1
 10
0.0
 20
0.0
 30
0.0
  3
*D28
  1

  0
POINT
  5
791
330
79A
100
AcDbEntity
  8
Defpoints
  6
ByBlock
 62
     0
100
AcDbPoint
 10
-6.924265877365262
 20
1.251870000000001
 30
0.0
  0
POINT
  5
792
330
79A
100
AcDbEntity
  8
Defpoints
  6
ByBlock
 62
     0
100
AcDbPoint
 10
28.07573412263474
 20
1.251870000000001
 30
0.0
  0
LINE
  5
793
330
79A
100
AcDbEntity
  8
0
  6
ByBlock
 62
     0
370
    -2
100
AcDbLine
 10
-6.924265877365262
 20
1.189370000000001
 30
0.0
 11
-6.924265877365262
 21
-17.23166329278737
 31
0.0
  0
LINE
  5
794
330
79A
100
AcDbEntity
  8
0
  6
ByBlock
 62
     0
370
    -2
100
AcDbLine
 10
28.07573412263474
 20
1.189370000000001
 30
0.0
 11
28.07573412263474
 21
-17.23166329278737
 31
0.0
  0
LINE
  5
795
330
79A
100
AcDbEntity
  8
0
  6
ByBlock
 62
     0
370
    -2
100
AcDbLine
 10
-4.924265877365262
 20
-17.16916329278737
 30
0.0
 11
26.07573412263474
 21
-17.16916329278737
 31
0.0
  0
SOLID
  5
796
330
79A
100
AcDbEntity
  8
0
  6
ByBlock
 62
     0
100
AcDbTrace
 10
-6.924265877365262
 20
-17.16916329278737
 30
0.0
 11
-4.924265877365262
 21
-17.50249662612077
 31
0.0
 12
-4.924265877365262
 22
-16.83582995945397
 32
0.0
 13
-4.924265877365262
 23
-16.83582995945397
 33
0.0
  0
SOLID
  5
797
330
79A
100
AcDbEntity
  8
0
  6
ByBlock
 62
     0
100
AcDbTrace
 10
28.07573412263474
 20
-17.16916329278737
 30
0.0
 11
26.07573412263474
 21
-17.50249662612077
 31
0.0
 12
26.07573412263474
 22
-16.83582995945397
 32
0.0
 13
26.07573412263474
 23
-16.83582995945397
 33
0.0
  0
MTEXT
  5
798
330
79A
100
AcDbEntity
  8
0
  6
ByBlock
 62
     0
100
AcDbMText
 10
10.57573412263474
 20
-14.61916329278737
 30
0.0
 40
5.0
 41
0.0
 46
0.0
 71
     5
 72
     1
  1
35.000
  7
ROMANS
 73
     1
 44
1.0
  0
ENDBLK
  5
B04
330
79A
100
AcDbEntity
  8
0
100
AcDbBlockEnd
  0
BLOCK
  5
B05
330
7A5
100
AcDbEntity
  8
0
100
AcDbBlockBegin
  2
*D29
 70
     1
 10
0.0
 20
0.0
 30
0.0
  3
*D29
  1

  0
POINT
  5
79C
330
7A5
100
AcDbEntity
  8
Defpoints
  6
ByBlock
 62
     0
100
AcDbPoint
 10
-6.924265877365262
 20
15.189374
 30
0.0
  0
POINT
  5
79D
330
7A5
100
AcDbEntity
  8
Defpoints
  6
ByBlock
 62
     0
100
AcDbPoint
 10
171.0789341226347
 20
16.189372
 30
0.0
  0
LINE
  5
79E
330
7A5
100
AcDbEntity
  8
0
  6
ByBlock
 62
     0
370
    -2
100
AcDbLine
 10
-6.924265877365262
 20
15.251874
 30
0.0
 11
-6.924265877365262
 21
33.80384896794862
 31
0.0
  0
LINE
  5
79F
330
7A5
100
AcDbEntity
  8
0
  6
ByBlock
 62
     0
370
    -2
100
AcDbLine
 10
171.0789341226347
 20
16.251872
 30
0.0
 11
171.0789341226347
 21
33.80384896794862
 31
0.0
  0
LINE
  5
7A0
330
7A5
100
AcDbEntity
  8
0
  6
ByBlock
 62
     0
370
    -2
100
AcDbLine
 10
-4.924265877365262
 20
33.74134896794862
 30
0.0
 11
169.0789341226347
 21
33.74134896794862
 31
0.0
  0
SOLID
  5
7A1
330
7A5
100
AcDbEntity
  8
0
  6
ByBlock
 62
     0
100
AcDbTrace
 10
-6.924265877365262
 20
33.74134896794862
 30
0.0
 11
-4.924265877365262
 21
33.40801563461523
 31
0.0
 12
-4.924265877365262
 22
34.07468230128202
 32
0.0
 13
-4.924265877365262
 23
34.07468230128202
 33
0.0
  0
SOLID
  5
7A2
330
7A5
100
AcDbEntity
  8
0
  6
ByBlock
 62
     0
100
AcDbTrace
 10
171.0789341226347
 20
33.74134896794862
 30
0.0
 11
169.0789341226347
 21
33.40801563461523
 31
0.0
 12
169.0789341226347
 22
34.07468230128202
 32
0.0
 13
169.0789341226347
 23
34.07468230128202
 33
0.0
  0
MTEXT
  5
7A3
330
7A5
100
AcDbEntity
  8
0
  6
ByBlock
 62
     0
100
AcDbMText
 10
72.8676860280093
 20
36.29134896794862
 30
0.0
 40
5.0
 41
0.0
 46
0.0
 71
     5
 72
     1
  1
178.0
  7
ROMANS
 73
     1
 44
1.0
  0
ENDBLK
  5
B06
330
7A5
100
AcDbEntity
  8
0
100
AcDbBlockEnd
  0
BLOCK
  5
B07
330
7B0
100
AcDbEntity
  8
0
100
AcDbBlockBegin
  2
*D30
 70
     1
 10
0.0
 20
0.0
 30
0.0
  3
*D30
  1

  0
POINT
  5
7A7
330
7B0
100
AcDbEntity
  8
Defpoints
  6
ByBlock
 62
     0
100
AcDbPoint
 10
-6.924265877365262
 20
1.251870000000001
 30
0.0
  0
POINT
  5
7A8
330
7B0
100
AcDbEntity
  8
Defpoints
  6
ByBlock
 62
     0
100
AcDbPoint
 10
28.07573412263474
 20
1.251870000000001
 30
0.0
  0
LINE
  5
7A9
330
7B0
100
AcDbEntity
  8
0
  6
ByBlock
 62
     0
370
    -2
100
AcDbLine
 10
-6.924265877365262
 20
1.189370000000001
 30
0.0
 11
-6.924265877365262
 21
-17.23166329278737
 31
0.0
  0
LINE
  5
7AA
330
7B0
100
AcDbEntity
  8
0
  6
ByBlock
 62
     0
370
    -2
100
AcDbLine
 10
28.07573412263474
 20
1.189370000000001
 30
0.0
 11
28.07573412263474
 21
-17.23166329278737
 31
0.0
  0
LINE
  5
7AB
330
7B0
100
AcDbEntity
  8
0
  6
ByBlock
 62
     0
370
    -2
100
AcDbLine
 10
-4.924265877365262
 20
-17.16916329278737
 30
0.0
 11
26.07573412263474
 21
-17.16916329278737
 31
0.0
  0
SOLID
  5
7AC
330
7B0
100
AcDbEntity
  8
0
  6
ByBlock
 62
     0
100
AcDbTrace
 10
-6.924265877365262
 20
-17.16916329278737
 30
0.0
 11
-4.924265877365262
 21
-17.50249662612077
 31
0.0
 12
-4.924265877365262
 22
-16.83582995945397
 32
0.0
 13
-4.924265877365262
 23
-16.83582995945397
 33
0.0
  0
SOLID
  5
7AD
330
7B0
100
AcDbEntity
  8
0
  6
ByBlock
 62
     0
100
AcDbTrace
 10
28.07573412263474
 20
-17.16916329278737
 30
0.0
 11
26.07573412263474
 21
-17.50249662612077
 31
0.0
 12
26.07573412263474
 22
-16.83582995945397
 32
0.0
 13
26.07573412263474
 23
-16.83582995945397
 33
0.0
  0
MTEXT
  5
7AE
330
7B0
100
AcDbEntity
  8
0
  6
ByBlock
 62
     0
100
AcDbMText
 10
10.57573412263474
 20
-14.61916329278737
 30
0.0
 40
5.0
 41
0.0
 46
0.0
 71
     5
 72
     1
  1
35.0
  7
ROMANS
 73
     1
 44
1.0
  0
ENDBLK
  5
B08
330
7B0
100
AcDbEntity
  8
0
100
AcDbBlockEnd
  0
BLOCK
  5
B09
330
7BB
100
AcDbEntity
  8
0
100
AcDbBlockBegin
  2
*D31
 70
     1
 10
0.0
 20
0.0
 30
0.0
  3
*D31
  1

  0
POINT
  5
7B2
330
7BB
100
AcDbEntity
  8
Defpoints
  6
ByBlock
 62
     0
100
AcDbPoint
 10
-6.924265877365262
 20
15.189374
 30
0.0
  0
POINT
  5
7B3
330
7BB
100
AcDbEntity
  8
Defpoints
  6
ByBlock
 62
     0
100
AcDbPoint
 10
171.0789341226347
 20
16.189372
 30
0.0
  0
LINE
  5
7B4
330
7BB
100
AcDbEntity
  8
0
  6
ByBlock
 62
     0
370
    -2
100
AcDbLine
 10
-6.924265877365262
 20
15.251874
 30
0.0
 11
-6.924265877365262
 21
33.80384896794862
 31
0.0
  0
LINE
  5
7B5
330
7BB
100
AcDbEntity
  8
0
  6
ByBlock
 62
     0
370
    -2
100
AcDbLine
 10
171.0789341226347
 20
16.251872
 30
0.0
 11
171.0789341226347
 21
33.80384896794862
 31
0.0
  0
LINE
  5
7B6
330
7BB
100
AcDbEntity
  8
0
  6
ByBlock
 62
     0
370
    -2
100
AcDbLine
 10
-4.924265877365262
 20
33.74134896794862
 30
0.0
 11
169.0789341226347
 21
33.74134896794862
 31
0.0
  0
SOLID
  5
7B7
330
7BB
100
AcDbEntity
  8
0
  6
ByBlock
 62
     0
100
AcDbTrace
 10
-6.924265877365262
 20
33.74134896794862
 30
0.0
 11
-4.924265877365262
 21
33.40801563461523
 31
0.0
 12
-4.924265877365262
 22
34.07468230128202
 32
0.0
 13
-4.924265877365262
 23
34.07468230128202
 33
0.0
  0
SOLID
  5
7B8
330
7BB
100
AcDbEntity
  8
0
  6
ByBlock
 62
     0
100
AcDbTrace
 10
171.0789341226347
 20
33.74134896794862
 30
0.0
 11
169.0789341226347
 21
33.40801563461523
 31
0.0
 12
169.0789341226347
 22
34.07468230128202
 32
0.0
 13
169.0789341226347
 23
34.07468230128202
 33
0.0
  0
MTEXT
  5
7B9
330
7BB
100
AcDbEntity
  8
0
  6
ByBlock
 62
     0
100
AcDbMText
 10
72.8676860280093
 20
36.29134896794862
 30
0.0
 40
5.0
 41
0.0
 46
0.0
 71
     5
 72
     1
  1
178.0
  7
ROMANS
 73
     1
 44
1.0
  0
ENDBLK
  5
B0A
330
7BB
100
AcDbEntity
  8
0
100
AcDbBlockEnd
  0
BLOCK
  5
B0B
330
7C7
100
AcDbEntity
  8
0
100
AcDbBlockBegin
  2
*D32
 70
     1
 10
0.0
 20
0.0
 30
0.0
  3
*D32
  1

  0
POINT
  5
7BD
330
7C7
100
AcDbEntity
  8
Defpoints
  6
ByBlock
 62
     0
100
AcDbPoint
 10
-5.924267877365264
 20
0.2518719999999974
 30
0.0
  0
POINT
  5
7BE
330
7C7
100
AcDbEntity
  8
Defpoints
  6
ByBlock
 62
     0
100
AcDbPoint
 10
-5.924267877365264
 20
16.126872
 30
0.0
  0
LINE
  5
7BF
330
7C7
100
AcDbEntity
  8
0
  6
ByBlock
 62
     0
370
    -2
100
AcDbLine
 10
-5.986767877365264
 20
0.2518719999999974
 30
0.0
 11
-24.58604970398102
 21
0.2518719999999974
 31
0.0
  0
LINE
  5
7C0
330
7C7
100
AcDbEntity
  8
0
  6
ByBlock
 62
     0
370
    -2
100
AcDbLine
 10
-5.986767877365264
 20
16.126872
 30
0.0
 11
-24.58604970398102
 21
16.126872
 31
0.0
  0
LINE
  5
7C1
330
7C7
100
AcDbEntity
  8
0
  6
ByBlock
 62
     0
370
    -2
100
AcDbLine
 10
-24.52354970398102
 20
2.251871999999997
 30
0.0
 11
-24.52354970398102
 21
14.126872
 31
0.0
  0
SOLID
  5
7C2
330
7C7
100
AcDbEntity
  8
0
  6
ByBlock
 62
     0
100
AcDbTrace
 10
-24.52354970398102
 20
0.2518719999999974
 30
0.0
 11
-24.19021637064762
 21
2.251871999999997
 31
0.0
 12
-24.85688303731442
 22
2.251871999999997
 32
0.0
 13
-24.85688303731442
 23
2.251871999999997
 33
0.0
  0
LINE
  5
7C3
330
7C7
100
AcDbEntity
  8
0
  6
ByBlock
 62
     0
370
    -2
100
AcDbLine
 10
-24.52354970398102
 20
16.126872
 30
0.0
 11
-24.52354970398102
 21
32.72687199999999
 31
0.0
  0
SOLID
  5
7C4
330
7C7
100
AcDbEntity
  8
0
  6
ByBlock
 62
     0
100
AcDbTrace
 10
-24.52354970398102
 20
16.126872
 30
0.0
 11
-24.19021637064762
 21
14.126872
 31
0.0
 12
-24.85688303731442
 22
14.126872
 32
0.0
 13
-24.85688303731442
 23
14.126872
 33
0.0
  0
MTEXT
  5
7C5
330
7C7
100
AcDbEntity
  8
0
  6
ByBlock
 62
     0
100
AcDbMText
 10
-27.07354970398102
 20
30.176872
 30
0.0
 40
5.0
 41
0.0
 46
0.0
 71
     5
 72
     1
  1
15.875
  7
ROMANS
 11
6.123031769111886E-17
 21
1.0
 31
0.0
 73
     1
 44
1.0
  0
ENDBLK
  5
B0C
330
7C7
100
AcDbEntity
  8
0
100
AcDbBlockEnd
  0
BLOCK
  5
B0D
330
7D2
100
AcDbEntity
  8
0
100
AcDbBlockBegin
  2
*D33
 70
     1
 10
0.0
 20
0.0
 30
0.0
  3
*D33
  1

  0
POINT
  5
7C9
330
7D2
100
AcDbEntity
  8
Defpoints
  6
ByBlock
 62
     0
100
AcDbPoint
 10
-6.924265877365262
 20
1.251870000000001
 30
0.0
  0
POINT
  5
7CA
330
7D2
100
AcDbEntity
  8
Defpoints
  6
ByBlock
 62
     0
100
AcDbPoint
 10
28.07573412263474
 20
1.251870000000001
 30
0.0
  0
LINE
  5
7CB
330
7D2
100
AcDbEntity
  8
0
  6
ByBlock
 62
     0
370
    -2
100
AcDbLine
 10
-6.924265877365262
 20
1.189370000000001
 30
0.0
 11
-6.924265877365262
 21
-17.23166329278737
 31
0.0
  0
LINE
  5
7CC
330
7D2
100
AcDbEntity
  8
0
  6
ByBlock
 62
     0
370
    -2
100
AcDbLine
 10
28.07573412263474
 20
1.189370000000001
 30
0.0
 11
28.07573412263474
 21
-17.23166329278737
 31
0.0
  0
LINE
  5
7CD
330
7D2
100
AcDbEntity
  8
0
  6
ByBlock
 62
     0
370
    -2
100
AcDbLine
 10
-4.924265877365262
 20
-17.16916329278737
 30
0.0
 11
26.07573412263474
 21
-17.16916329278737
 31
0.0
  0
SOLID
  5
7CE
330
7D2
100
AcDbEntity
  8
0
  6
ByBlock
 62
     0
100
AcDbTrace
 10
-6.924265877365262
 20
-17.16916329278737
 30
0.0
 11
-4.924265877365262
 21
-17.50249662612077
 31
0.0
 12
-4.924265877365262
 22
-16.83582995945397
 32
0.0
 13
-4.924265877365262
 23
-16.83582995945397
 33
0.0
  0
SOLID
  5
7CF
330
7D2
100
AcDbEntity
  8
0
  6
ByBlock
 62
     0
100
AcDbTrace
 10
28.07573412263474
 20
-17.16916329278737
 30
0.0
 11
26.07573412263474
 21
-17.50249662612077
 31
0.0
 12
26.07573412263474
 22
-16.83582995945397
 32
0.0
 13
26.07573412263474
 23
-16.83582995945397
 33
0.0
  0
MTEXT
  5
7D0
330
7D2
100
AcDbEntity
  8
0
  6
ByBlock
 62
     0
100
AcDbMText
 10
10.57573412263474
 20
-14.61916329278737
 30
0.0
 40
5.0
 41
0.0
 46
0.0
 71
     5
 72
     1
  1
35.0
  7
ROMANS
 73
     1
 44
1.0
  0
ENDBLK
  5
B0E
330
7D2
100
AcDbEntity
  8
0
100
AcDbBlockEnd
  0
BLOCK
  5
B0F
330
7DD
100
AcDbEntity
  8
0
100
AcDbBlockBegin
  2
*D34
 70
     1
 10
0.0
 20
0.0
 30
0.0
  3
*D34
  1

  0
POINT
  5
7D4
330
7DD
100
AcDbEntity
  8
Defpoints
  6
ByBlock
 62
     0
100
AcDbPoint
 10
-6.924265877365262
 20
15.189374
 30
0.0
  0
POINT
  5
7D5
330
7DD
100
AcDbEntity
  8
Defpoints
  6
ByBlock
 62
     0
100
AcDbPoint
 10
171.0789341226347
 20
16.189372
 30
0.0
  0
LINE
  5
7D6
330
7DD
100
AcDbEntity
  8
0
  6
ByBlock
 62
     0
370
    -2
100
AcDbLine
 10
-6.924265877365262
 20
15.251874
 30
0.0
 11
-6.924265877365262
 21
33.80384896794862
 31
0.0
  0
LINE
  5
7D7
330
7DD
100
AcDbEntity
  8
0
  6
ByBlock
 62
     0
370
    -2
100
AcDbLine
 10
171.0789341226347
 20
16.251872
 30
0.0
 11
171.0789341226347
 21
33.80384896794862
 31
0.0
  0
LINE
  5
7D8
330
7DD
100
AcDbEntity
  8
0
  6
ByBlock
 62
     0
370
    -2
100
AcDbLine
 10
-4.924265877365262
 20
33.74134896794862
 30
0.0
 11
169.0789341226347
 21
33.74134896794862
 31
0.0
  0
SOLID
  5
7D9
330
7DD
100
AcDbEntity
  8
0
  6
ByBlock
 62
     0
100
AcDbTrace
 10
-6.924265877365262
 20
33.74134896794862
 30
0.0
 11
-4.924265877365262
 21
33.40801563461523
 31
0.0
 12
-4.924265877365262
 22
34.07468230128202
 32
0.0
 13
-4.924265877365262
 23
34.07468230128202
 33
0.0
  0
SOLID
  5
7DA
330
7DD
100
AcDbEntity
  8
0
  6
ByBlock
 62
     0
100
AcDbTrace
 10
171.0789341226347
 20
33.74134896794862
 30
0.0
 11
169.0789341226347
 21
33.40801563461523
 31
0.0
 12
169.0789341226347
 22
34.07468230128202
 32
0.0
 13
169.0789341226347
 23
34.07468230128202
 33
0.0
  0
MTEXT
  5
7DB
330
7DD
100
AcDbEntity
  8
0
  6
ByBlock
 62
     0
100
AcDbMText
 10
72.8676860280093
 20
35.79134896794862
 30
0.0
 40
4.0
 41
0.0
 46
0.0
 71
     5
 72
     1
  1
178.0
  7
ROMANS
 73
     1
 44
1.0
  0
ENDBLK
  5
B10
330
7DD
100
AcDbEntity
  8
0
100
AcDbBlockEnd
  0
BLOCK
  5
B11
330
7E9
100
AcDbEntity
  8
0
100
AcDbBlockBegin
  2
*D35
 70
     1
 10
0.0
 20
0.0
 30
0.0
  3
*D35
  1

  0
POINT
  5
7DF
330
7E9
100
AcDbEntity
  8
Defpoints
  6
ByBlock
 62
     0
100
AcDbPoint
 10
-5.924267877365264
 20
0.2518719999999974
 30
0.0
  0
POINT
  5
7E0
330
7E9
100
AcDbEntity
  8
Defpoints
  6
ByBlock
 62
     0
100
AcDbPoint
 10
-5.924267877365264
 20
16.126872
 30
0.0
  0
LINE
  5
7E1
330
7E9
100
AcDbEntity
  8
0
  6
ByBlock
 62
     0
370
    -2
100
AcDbLine
 10
-5.986767877365264
 20
0.2518719999999974
 30
0.0
 11
-24.58604970398102
 21
0.2518719999999974
 31
0.0
  0
LINE
  5
7E2
330
7E9
100
AcDbEntity
  8
0
  6
ByBlock
 62
     0
370
    -2
100
AcDbLine
 10
-5.986767877365264
 20
16.126872
 30
0.0
 11
-24.58604970398102
 21
16.126872
 31
0.0
  0
LINE
  5
7E3
330
7E9
100
AcDbEntity
  8
0
  6
ByBlock
 62
     0
370
    -2
100
AcDbLine
 10
-24.52354970398102
 20
2.251871999999997
 30
0.0
 11
-24.52354970398102
 21
14.126872
 31
0.0
  0
SOLID
  5
7E4
330
7E9
100
AcDbEntity
  8
0
  6
ByBlock
 62
     0
100
AcDbTrace
 10
-24.52354970398102
 20
0.2518719999999974
 30
0.0
 11
-24.19021637064762
 21
2.251871999999997
 31
0.0
 12
-24.85688303731442
 22
2.251871999999997
 32
0.0
 13
-24.85688303731442
 23
2.251871999999997
 33
0.0
  0
LINE
  5
7E5
330
7E9
100
AcDbEntity
  8
0
  6
ByBlock
 62
     0
370
    -2
100
AcDbLine
 10
-24.52354970398102
 20
16.126872
 30
0.0
 11
-24.52354970398102
 21
32.22687199999999
 31
0.0
  0
SOLID
  5
7E6
330
7E9
100
AcDbEntity
  8
0
  6
ByBlock
 62
     0
100
AcDbTrace
 10
-24.52354970398102
 20
16.126872
 30
0.0
 11
-24.19021637064762
 21
14.126872
 31
0.0
 12
-24.85688303731442
 22
14.126872
 32
0.0
 13
-24.85688303731442
 23
14.126872
 33
0.0
  0
MTEXT
  5
7E7
330
7E9
100
AcDbEntity
  8
0
  6
ByBlock
 62
     0
100
AcDbMText
 10
-26.57354970398102
 20
30.176872
 30
0.0
 40
4.0
 41
0.0
 46
0.0
 71
     5
 72
     1
  1
15.9
  7
ROMANS
 11
6.123031769111886E-17
 21
1.0
 31
0.0
 73
     1
 44
1.0
  0
ENDBLK
  5
B12
330
7E9
100
AcDbEntity
  8
0
100
AcDbBlockEnd
  0
BLOCK
  5
B13
330
7F4
100
AcDbEntity
  8
0
100
AcDbBlockBegin
  2
*D36
 70
     1
 10
0.0
 20
0.0
 30
0.0
  3
*D36
  1

  0
POINT
  5
7EB
330
7F4
100
AcDbEntity
  8
Defpoints
  6
ByBlock
 62
     0
100
AcDbPoint
 10
-6.924265877365262
 20
1.251870000000001
 30
0.0
  0
POINT
  5
7EC
330
7F4
100
AcDbEntity
  8
Defpoints
  6
ByBlock
 62
     0
100
AcDbPoint
 10
28.07573412263474
 20
1.251870000000001
 30
0.0
  0
LINE
  5
7ED
330
7F4
100
AcDbEntity
  8
0
  6
ByBlock
 62
     0
370
    -2
100
AcDbLine
 10
-6.924265877365262
 20
1.189370000000001
 30
0.0
 11
-6.924265877365262
 21
-17.23166329278737
 31
0.0
  0
LINE
  5
7EE
330
7F4
100
AcDbEntity
  8
0
  6
ByBlock
 62
     0
370
    -2
100
AcDbLine
 10
28.07573412263474
 20
1.189370000000001
 30
0.0
 11
28.07573412263474
 21
-17.23166329278737
 31
0.0
  0
LINE
  5
7EF
330
7F4
100
AcDbEntity
  8
0
  6
ByBlock
 62
     0
370
    -2
100
AcDbLine
 10
-4.924265877365262
 20
-17.16916329278737
 30
0.0
 11
26.07573412263474
 21
-17.16916329278737
 31
0.0
  0
SOLID
  5
7F0
330
7F4
100
AcDbEntity
  8
0
  6
ByBlock
 62
     0
100
AcDbTrace
 10
-6.924265877365262
 20
-17.16916329278737
 30
0.0
 11
-4.924265877365262
 21
-17.50249662612077
 31
0.0
 12
-4.924265877365262
 22
-16.83582995945397
 32
0.0
 13
-4.924265877365262
 23
-16.83582995945397
 33
0.0
  0
SOLID
  5
7F1
330
7F4
100
AcDbEntity
  8
0
  6
ByBlock
 62
     0
100
AcDbTrace
 10
28.07573412263474
 20
-17.16916329278737
 30
0.0
 11
26.07573412263474
 21
-17.50249662612077
 31
0.0
 12
26.07573412263474
 22
-16.83582995945397
 32
0.0
 13
26.07573412263474
 23
-16.83582995945397
 33
0.0
  0
MTEXT
  5
7F2
330
7F4
100
AcDbEntity
  8
0
  6
ByBlock
 62
     0
100
AcDbMText
 10
10.57573412263474
 20
-15.11916329278737
 30
0.0
 40
4.0
 41
0.0
 46
0.0
 71
     5
 72
     1
  1
35.0
  7
ROMANS
 73
     1
 44
1.0
  0
ENDBLK
  5
B14
330
7F4
100
AcDbEntity
  8
0
100
AcDbBlockEnd
  0
BLOCK
  5
B15
330
7FF
100
AcDbEntity
  8
0
100
AcDbBlockBegin
  2
*D37
 70
     1
 10
0.0
 20
0.0
 30
0.0
  3
*D37
  1

  0
POINT
  5
7F6
330
7FF
100
AcDbEntity
  8
Defpoints
  6
ByBlock
 62
     0
100
AcDbPoint
 10
-5.924267877365264
 20
0.2518719999999974
 30
0.0
  0
POINT
  5
7F7
330
7FF
100
AcDbEntity
  8
Defpoints
  6
ByBlock
 62
     0
100
AcDbPoint
 10
-5.924267877365264
 20
16.126872
 30
0.0
  0
LINE
  5
7F8
330
7FF
100
AcDbEntity
  8
0
  6
ByBlock
 62
     0
370
    -2
100
AcDbLine
 10
-5.986767877365264
 20
0.2518719999999974
 30
0.0
 11
-24.58604970398102
 21
0.2518719999999974
 31
0.0
  0
LINE
  5
7F9
330
7FF
100
AcDbEntity
  8
0
  6
ByBlock
 62
     0
370
    -2
100
AcDbLine
 10
-5.986767877365264
 20
16.126872
 30
0.0
 11
-24.58604970398102
 21
16.126872
 31
0.0
  0
LINE
  5
7FA
330
7FF
100
AcDbEntity
  8
0
  6
ByBlock
 62
     0
370
    -2
100
AcDbLine
 10
-24.52354970398102
 20
2.251871999999997
 30
0.0
 11
-24.52354970398102
 21
14.126872
 31
0.0
  0
SOLID
  5
7FB
330
7FF
100
AcDbEntity
  8
0
  6
ByBlock
 62
     0
100
AcDbTrace
 10
-24.52354970398102
 20
0.2518719999999974
 30
0.0
 11
-24.19021637064762
 21
2.251871999999997
 31
0.0
 12
-24.85688303731442
 22
2.251871999999997
 32
0.0
 13
-24.85688303731442
 23
2.251871999999997
 33
0.0
  0
SOLID
  5
7FC
330
7FF
100
AcDbEntity
  8
0
  6
ByBlock
 62
     0
100
AcDbTrace
 10
-24.52354970398102
 20
16.126872
 30
0.0
 11
-24.19021637064762
 21
14.126872
 31
0.0
 12
-24.85688303731442
 22
14.126872
 32
0.0
 13
-24.85688303731442
 23
14.126872
 33
0.0
  0
MTEXT
  5
7FD
330
7FF
100
AcDbEntity
  8
0
  6
ByBlock
 62
     0
100
AcDbMText
 10
-26.57354970398102
 20
8.189371999999997
 30
0.0
 40
4.0
 41
0.0
 46
0.0
 71
     5
 72
     1
  1
15.9
  7
ROMANS
 11
6.123031769111886E-17
 21
1.0
 31
0.0
 73
     1
 44
1.0
  0
ENDBLK
  5
B16
330
7FF
100
AcDbEntity
  8
0
100
AcDbBlockEnd
  0
BLOCK
  5
B17
330
80A
100
AcDbEntity
  8
0
100
AcDbBlockBegin
  2
*D38
 70
     1
 10
0.0
 20
0.0
 30
0.0
  3
*D38
  1

  0
POINT
  5
801
330
80A
100
AcDbEntity
  8
Defpoints
  6
ByBlock
 62
     0
100
AcDbPoint
 10
-5.924267877365264
 20
0.2518719999999974
 30
0.0
  0
POINT
  5
802
330
80A
100
AcDbEntity
  8
Defpoints
  6
ByBlock
 62
     0
100
AcDbPoint
 10
-5.924267877365264
 20
16.126872
 30
0.0
  0
LINE
  5
803
330
80A
100
AcDbEntity
  8
0
  6
ByBlock
 62
     0
370
    -2
100
AcDbLine
 10
-5.986767877365264
 20
0.2518719999999974
 30
0.0
 11
-24.58604970398102
 21
0.2518719999999974
 31
0.0
  0
LINE
  5
804
330
80A
100
AcDbEntity
  8
0
  6
ByBlock
 62
     0
370
    -2
100
AcDbLine
 10
-5.986767877365264
 20
16.126872
 30
0.0
 11
-24.58604970398102
 21
16.126872
 31
0.0
  0
LINE
  5
805
330
80A
100
AcDbEntity
  8
0
  6
ByBlock
 62
     0
370
    -2
100
AcDbLine
 10
-24.52354970398102
 20
0.2518719999999974
 30
0.0
 11
-24.52354970398102
 21
16.126872
 31
0.0
  0
SOLID
  5
806
330
80A
100
AcDbEntity
  8
0
  6
ByBlock
 62
     0
100
AcDbTrace
 10
-24.52354970398102
 20
0.2518719999999974
 30
0.0
 11
-24.19021637064762
 21
2.251871999999997
 31
0.0
 12
-24.85688303731442
 22
2.251871999999997
 32
0.0
 13
-24.85688303731442
 23
2.251871999999997
 33
0.0
  0
SOLID
  5
807
330
80A
100
AcDbEntity
  8
0
  6
ByBlock
 62
     0
100
AcDbTrace
 10
-24.52354970398102
 20
16.126872
 30
0.0
 11
-24.19021637064762
 21
14.126872
 31
0.0
 12
-24.85688303731442
 22
14.126872
 32
0.0
 13
-24.85688303731442
 23
14.126872
 33
0.0
  0
MTEXT
  5
808
330
80A
100
AcDbEntity
  8
0
  6
ByBlock
 62
     0
100
AcDbMText
 10
-26.57354970398102
 20
8.189371999999997
 30
0.0
 40
4.0
 41
0.0
 46
0.0
 71
     5
 72
     1
  1
15.875
  7
ROMANS
 11
6.123031769111886E-17
 21
1.0
 31
0.0
 73
     1
 44
1.0
  0
ENDBLK
  5
B18
330
80A
100
AcDbEntity
  8
0
100
AcDbBlockEnd
  0
BLOCK
  5
B19
330
815
100
AcDbEntity
  8
0
100
AcDbBlockBegin
  2
*D39
 70
     1
 10
0.0
 20
0.0
 30
0.0
  3
*D39
  1

  0
POINT
  5
80C
330
815
100
AcDbEntity
  8
Defpoints
  6
ByBlock
 62
     0
100
AcDbPoint
 10
-6.924265877365262
 20
15.189374
 30
0.0
  0
POINT
  5
80D
330
815
100
AcDbEntity
  8
Defpoints
  6
ByBlock
 62
     0
100
AcDbPoint
 10
171.0789341226347
 20
16.189372
 30
0.0
  0
LINE
  5
80E
330
815
100
AcDbEntity
  8
0
  6
ByBlock
 62
     0
370
    -2
100
AcDbLine
 10
-6.924265877365262
 20
15.251874
 30
0.0
 11
-6.924265877365262
 21
33.80384896794862
 31
0.0
  0
LINE
  5
80F
330
815
100
AcDbEntity
  8
0
  6
ByBlock
 62
     0
370
    -2
100
AcDbLine
 10
171.0789341226347
 20
16.251872
 30
0.0
 11
171.0789341226347
 21
33.80384896794862
 31
0.0
  0
LINE
  5
810
330
815
100
AcDbEntity
  8
0
  6
ByBlock
 62
     0
370
    -2
100
AcDbLine
 10
-4.924265877365262
 20
33.74134896794862
 30
0.0
 11
169.0789341226347
 21
33.74134896794862
 31
0.0
  0
SOLID
  5
811
330
815
100
AcDbEntity
  8
0
  6
ByBlock
 62
     0
100
AcDbTrace
 10
-6.924265877365262
 20
33.74134896794862
 30
0.0
 11
-4.924265877365262
 21
33.40801563461523
 31
0.0
 12
-4.924265877365262
 22
34.07468230128202
 32
0.0
 13
-4.924265877365262
 23
34.07468230128202
 33
0.0
  0
SOLID
  5
812
330
815
100
AcDbEntity
  8
0
  6
ByBlock
 62
     0
100
AcDbTrace
 10
171.0789341226347
 20
33.74134896794862
 30
0.0
 11
169.0789341226347
 21
33.40801563461523
 31
0.0
 12
169.0789341226347
 22
34.07468230128202
 32
0.0
 13
169.0789341226347
 23
34.07468230128202
 33
0.0
  0
MTEXT
  5
813
330
815
100
AcDbEntity
  8
0
  6
ByBlock
 62
     0
100
AcDbMText
 10
72.8676860280093
 20
35.79134896794862
 30
0.0
 40
4.0
 41
0.0
 46
0.0
 71
     5
 72
     1
  1
178.0
  7
ROMANS
 73
     1
 44
1.0
  0
ENDBLK
  5
B1A
330
815
100
AcDbEntity
  8
0
100
AcDbBlockEnd
  0
BLOCK
  5
B1B
330
820
100
AcDbEntity
  8
0
100
AcDbBlockBegin
  2
*D40
 70
     1
 10
0.0
 20
0.0
 30
0.0
  3
*D40
  1

  0
POINT
  5
817
330
820
100
AcDbEntity
  8
Defpoints
  6
ByBlock
 62
     0
100
AcDbPoint
 10
-5.924267877365264
 20
0.2518719999999974
 30
0.0
  0
POINT
  5
818
330
820
100
AcDbEntity
  8
Defpoints
  6
ByBlock
 62
     0
100
AcDbPoint
 10
-5.924267877365264
 20
16.126872
 30
0.0
  0
LINE
  5
819
330
820
100
AcDbEntity
  8
0
  6
ByBlock
 62
     0
370
    -2
100
AcDbLine
 10
-5.986767877365264
 20
0.2518719999999974
 30
0.0
 11
-24.58604970398102
 21
0.2518719999999974
 31
0.0
  0
LINE
  5
81A
330
820
100
AcDbEntity
  8
0
  6
ByBlock
 62
     0
370
    -2
100
AcDbLine
 10
-5.986767877365264
 20
16.126872
 30
0.0
 11
-24.58604970398102
 21
16.126872
 31
0.0
  0
LINE
  5
81B
330
820
100
AcDbEntity
  8
0
  6
ByBlock
 62
     0
370
    -2
100
AcDbLine
 10
-24.52354970398102
 20
0.2518719999999974
 30
0.0
 11
-24.52354970398102
 21
16.126872
 31
0.0
  0
SOLID
  5
81C
330
820
100
AcDbEntity
  8
0
  6
ByBlock
 62
     0
100
AcDbTrace
 10
-24.52354970398102
 20
0.2518719999999974
 30
0.0
 11
-24.19021637064762
 21
2.251871999999997
 31
0.0
 12
-24.85688303731442
 22
2.251871999999997
 32
0.0
 13
-24.85688303731442
 23
2.251871999999997
 33
0.0
  0
SOLID
  5
81D
330
820
100
AcDbEntity
  8
0
  6
ByBlock
 62
     0
100
AcDbTrace
 10
-24.52354970398102
 20
16.126872
 30
0.0
 11
-24.19021637064762
 21
14.126872
 31
0.0
 12
-24.85688303731442
 22
14.126872
 32
0.0
 13
-24.85688303731442
 23
14.126872
 33
0.0
  0
MTEXT
  5
81E
330
820
100
AcDbEntity
  8
0
  6
ByBlock
 62
     0
100
AcDbMText
 10
-26.57354970398102
 20
8.189371999999997
 30
0.0
 40
4.0
 41
0.0
 46
0.0
 71
     5
 72
     1
  1
15.875
  7
ROMANS
 11
6.123031769111886E-17
 21
1.0
 31
0.0
 73
     1
 44
1.0
  0
ENDBLK
  5
B1C
330
820
100
AcDbEntity
  8
0
100
AcDbBlockEnd
  0
BLOCK
  5
B1D
330
82B
100
AcDbEntity
  8
0
100
AcDbBlockBegin
  2
*D41
 70
     1
 10
0.0
 20
0.0
 30
0.0
  3
*D41
  1

  0
POINT
  5
822
330
82B
100
AcDbEntity
  8
Defpoints
  6
ByBlock
 62
     0
100
AcDbPoint
 10
-6.924265877365262
 20
1.251870000000001
 30
0.0
  0
POINT
  5
823
330
82B
100
AcDbEntity
  8
Defpoints
  6
ByBlock
 62
     0
100
AcDbPoint
 10
28.07573412263474
 20
1.251870000000001
 30
0.0
  0
LINE
  5
824
330
82B
100
AcDbEntity
  8
0
  6
ByBlock
 62
     0
370
    -2
100
AcDbLine
 10
-6.924265877365262
 20
1.189370000000001
 30
0.0
 11
-6.924265877365262
 21
-17.23166329278737
 31
0.0
  0
LINE
  5
825
330
82B
100
AcDbEntity
  8
0
  6
ByBlock
 62
     0
370
    -2
100
AcDbLine
 10
28.07573412263474
 20
1.189370000000001
 30
0.0
 11
28.07573412263474
 21
-17.23166329278737
 31
0.0
  0
LINE
  5
826
330
82B
100
AcDbEntity
  8
0
  6
ByBlock
 62
     0
370
    -2
100
AcDbLine
 10
-4.924265877365262
 20
-17.16916329278737
 30
0.0
 11
26.07573412263474
 21
-17.16916329278737
 31
0.0
  0
SOLID
  5
827
330
82B
100
AcDbEntity
  8
0
  6
ByBlock
 62
     0
100
AcDbTrace
 10
-6.924265877365262
 20
-17.16916329278737
 30
0.0
 11
-4.924265877365262
 21
-17.50249662612077
 31
0.0
 12
-4.924265877365262
 22
-16.83582995945397
 32
0.0
 13
-4.924265877365262
 23
-16.83582995945397
 33
0.0
  0
SOLID
  5
828
330
82B
100
AcDbEntity
  8
0
  6
ByBlock
 62
     0
100
AcDbTrace
 10
28.07573412263474
 20
-17.16916329278737
 30
0.0
 11
26.07573412263474
 21
-17.50249662612077
 31
0.0
 12
26.07573412263474
 22
-16.83582995945397
 32
0.0
 13
26.07573412263474
 23
-16.83582995945397
 33
0.0
  0
MTEXT
  5
829
330
82B
100
AcDbEntity
  8
0
  6
ByBlock
 62
     0
100
AcDbMText
 10
10.57573412263474
 20
-15.11916329278737
 30
0.0
 40
4.0
 41
0.0
 46
0.0
 71
     5
 72
     1
  1
35.0
  7
ROMANS
 73
     1
 44
1.0
  0
ENDBLK
  5
B1E
330
82B
100
AcDbEntity
  8
0
100
AcDbBlockEnd
  0
BLOCK
  5
B1F
330
836
100
AcDbEntity
  8
0
100
AcDbBlockBegin
  2
*D42
 70
     1
 10
0.0
 20
0.0
 30
0.0
  3
*D42
  1

  0
POINT
  5
82D
330
836
100
AcDbEntity
  8
Defpoints
  6
ByBlock
 62
     0
100
AcDbPoint
 10
-6.924265877365262
 20
15.189374
 30
0.0
  0
POINT
  5
82E
330
836
100
AcDbEntity
  8
Defpoints
  6
ByBlock
 62
     0
100
AcDbPoint
 10
171.0789341226347
 20
16.189372
 30
0.0
  0
LINE
  5
82F
330
836
100
AcDbEntity
  8
0
  6
ByBlock
 62
     0
370
    -2
100
AcDbLine
 10
-6.924265877365262
 20
15.251874
 30
0.0
 11
-6.924265877365262
 21
33.80384896794862
 31
0.0
  0
LINE
  5
830
330
836
100
AcDbEntity
  8
0
  6
ByBlock
 62
     0
370
    -2
100
AcDbLine
 10
171.0789341226347
 20
16.251872
 30
0.0
 11
171.0789341226347
 21
33.80384896794862
 31
0.0
  0
LINE
  5
831
330
836
100
AcDbEntity
  8
0
  6
ByBlock
 62
     0
370
    -2
100
AcDbLine
 10
-4.924265877365262
 20
33.74134896794862
 30
0.0
 11
169.0789341226347
 21
33.74134896794862
 31
0.0
  0
SOLID
  5
832
330
836
100
AcDbEntity
  8
0
  6
ByBlock
 62
     0
100
AcDbTrace
 10
-6.924265877365262
 20
33.74134896794862
 30
0.0
 11
-4.924265877365262
 21
33.40801563461523
 31
0.0
 12
-4.924265877365262
 22
34.07468230128202
 32
0.0
 13
-4.924265877365262
 23
34.07468230128202
 33
0.0
  0
SOLID
  5
833
330
836
100
AcDbEntity
  8
0
  6
ByBlock
 62
     0
100
AcDbTrace
 10
171.0789341226347
 20
33.74134896794862
 30
0.0
 11
169.0789341226347
 21
33.40801563461523
 31
0.0
 12
169.0789341226347
 22
34.07468230128202
 32
0.0
 13
169.0789341226347
 23
34.07468230128202
 33
0.0
  0
MTEXT
  5
834
330
836
100
AcDbEntity
  8
0
  6
ByBlock
 62
     0
100
AcDbMText
 10
72.8676860280093
 20
35.79134896794862
 30
0.0
 40
4.0
 41
0.0
 46
0.0
 71
     5
 72
     1
  1
178
  7
ROMANS
 73
     1
 44
1.0
  0
ENDBLK
  5
B20
330
836
100
AcDbEntity
  8
0
100
AcDbBlockEnd
  0
BLOCK
  5
B21
330
841
100
AcDbEntity
  8
0
100
AcDbBlockBegin
  2
*D43
 70
     1
 10
0.0
 20
0.0
 30
0.0
  3
*D43
  1

  0
POINT
  5
838
330
841
100
AcDbEntity
  8
Defpoints
  6
ByBlock
 62
     0
100
AcDbPoint
 10
-6.924265877365262
 20
1.251870000000001
 30
0.0
  0
POINT
  5
839
330
841
100
AcDbEntity
  8
Defpoints
  6
ByBlock
 62
     0
100
AcDbPoint
 10
28.07573412263474
 20
1.251870000000001
 30
0.0
  0
LINE
  5
83A
330
841
100
AcDbEntity
  8
0
  6
ByBlock
 62
     0
370
    -2
100
AcDbLine
 10
-6.924265877365262
 20
1.189370000000001
 30
0.0
 11
-6.924265877365262
 21
-17.23166329278737
 31
0.0
  0
LINE
  5
83B
330
841
100
AcDbEntity
  8
0
  6
ByBlock
 62
     0
370
    -2
100
AcDbLine
 10
28.07573412263474
 20
1.189370000000001
 30
0.0
 11
28.07573412263474
 21
-17.23166329278737
 31
0.0
  0
LINE
  5
83C
330
841
100
AcDbEntity
  8
0
  6
ByBlock
 62
     0
370
    -2
100
AcDbLine
 10
-4.924265877365262
 20
-17.16916329278737
 30
0.0
 11
26.07573412263474
 21
-17.16916329278737
 31
0.0
  0
SOLID
  5
83D
330
841
100
AcDbEntity
  8
0
  6
ByBlock
 62
     0
100
AcDbTrace
 10
-6.924265877365262
 20
-17.16916329278737
 30
0.0
 11
-4.924265877365262
 21
-17.50249662612077
 31
0.0
 12
-4.924265877365262
 22
-16.83582995945397
 32
0.0
 13
-4.924265877365262
 23
-16.83582995945397
 33
0.0
  0
SOLID
  5
83E
330
841
100
AcDbEntity
  8
0
  6
ByBlock
 62
     0
100
AcDbTrace
 10
28.07573412263474
 20
-17.16916329278737
 30
0.0
 11
26.07573412263474
 21
-17.50249662612077
 31
0.0
 12
26.07573412263474
 22
-16.83582995945397
 32
0.0
 13
26.07573412263474
 23
-16.83582995945397
 33
0.0
  0
MTEXT
  5
83F
330
841
100
AcDbEntity
  8
0
  6
ByBlock
 62
     0
100
AcDbMText
 10
10.57573412263474
 20
-15.11916329278737
 30
0.0
 40
4.0
 41
0.0
 46
0.0
 71
     5
 72
     1
  1
35
  7
ROMANS
 73
     1
 44
1.0
  0
ENDBLK
  5
B22
330
841
100
AcDbEntity
  8
0
100
AcDbBlockEnd
  0
BLOCK
  5
B23
330
962
100
AcDbEntity
  8
0
100
AcDbBlockBegin
  2
*D44
 70
     1
 10
0.0
 20
0.0
 30
0.0
  3
*D44
  1

  0
POINT
  5
959
330
962
100
AcDbEntity
  8
Defpoints
  6
ByBlock
 62
     0
100
AcDbPoint
 10
1.986726814897081
 20
-42.71042489110975
 30
0.0
  0
POINT
  5
95A
330
962
100
AcDbEntity
  8
Defpoints
  6
ByBlock
 62
     0
100
AcDbPoint
 10
1.98672681489708
 20
-58.71042489110975
 30
0.0
  0
LINE
  5
95B
330
962
100
AcDbEntity
  8
0
  6
ByBlock
 62
     0
370
    -2
100
AcDbLine
 10
1.924226814897081
 20
-42.71042489110975
 30
0.0
 11
-14.76419697375906
 21
-42.71042489110975
 31
0.0
  0
LINE
  5
95C
330
962
100
AcDbEntity
  8
0
  6
ByBlock
 62
     0
370
    -2
100
AcDbLine
 10
1.92422681489708
 20
-58.71042489110975
 30
0.0
 11
-14.76419697375906
 21
-58.71042489110975
 31
0.0
  0
LINE
  5
95D
330
962
100
AcDbEntity
  8
0
  6
ByBlock
 62
     0
370
    -2
100
AcDbLine
 10
-14.70169697375906
 20
-44.71042489110975
 30
0.0
 11
-14.70169697375906
 21
-56.71042489110975
 31
0.0
  0
SOLID
  5
95E
330
962
100
AcDbEntity
  8
0
  6
ByBlock
 62
     0
100
AcDbTrace
 10
-14.70169697375906
 20
-42.71042489110975
 30
0.0
 11
-15.03503030709246
 21
-44.71042489110975
 31
0.0
 12
-14.36836364042566
 22
-44.71042489110975
 32
0.0
 13
-14.36836364042566
 23
-44.71042489110975
 33
0.0
  0
SOLID
  5
95F
330
962
100
AcDbEntity
  8
0
  6
ByBlock
 62
     0
100
AcDbTrace
 10
-14.70169697375906
 20
-58.71042489110975
 30
0.0
 11
-15.03503030709246
 21
-56.71042489110975
 31
0.0
 12
-14.36836364042566
 22
-56.71042489110975
 32
0.0
 13
-14.36836364042566
 23
-56.71042489110975
 33
0.0
  0
MTEXT
  5
960
330
962
100
AcDbEntity
  8
0
  6
ByBlock
 62
     0
100
AcDbMText
 10
-16.75169697375906
 20
-50.71042489110975
 30
0.0
 40
4.0
 41
0.0
 46
0.0
 71
     5
 72
     1
  1
16
  7
ROMANS
 11
6.123031769111886E-17
 21
1.0
 31
0.0
 73
     1
 44
1.0
  0
ENDBLK
  5
B24
330
962
100
AcDbEntity
  8
0
100
AcDbBlockEnd
  0
BLOCK
  5
B25
330
96D
100
AcDbEntity
  8
0
100
AcDbBlockBegin
  2
*D45
 70
     1
 10
0.0
 20
0.0
 30
0.0
  3
*D45
  1

  0
POINT
  5
964
330
96D
100
AcDbEntity
  8
Defpoints
  6
ByBlock
 62
     0
100
AcDbPoint
 10
-6.924265877365262
 20
15.189374
 30
0.0
  0
POINT
  5
965
330
96D
100
AcDbEntity
  8
Defpoints
  6
ByBlock
 62
     0
100
AcDbPoint
 10
171.0789341226347
 20
16.189372
 30
0.0
  0
LINE
  5
966
330
96D
100
AcDbEntity
  8
0
  6
ByBlock
 62
     0
370
    -2
100
AcDbLine
 10
-6.924265877365262
 20
15.251874
 30
0.0
 11
-6.924265877365262
 21
33.80384896794862
 31
0.0
  0
LINE
  5
967
330
96D
100
AcDbEntity
  8
0
  6
ByBlock
 62
     0
370
    -2
100
AcDbLine
 10
171.0789341226347
 20
16.251872
 30
0.0
 11
171.0789341226347
 21
33.80384896794862
 31
0.0
  0
LINE
  5
968
330
96D
100
AcDbEntity
  8
0
  6
ByBlock
 62
     0
370
    -2
100
AcDbLine
 10
-4.924265877365262
 20
33.74134896794862
 30
0.0
 11
169.0789341226347
 21
33.74134896794862
 31
0.0
  0
SOLID
  5
969
330
96D
100
AcDbEntity
  8
0
  6
ByBlock
 62
     0
100
AcDbTrace
 10
-6.924265877365262
 20
33.74134896794862
 30
0.0
 11
-4.924265877365262
 21
33.40801563461522
 31
0.0
 12
-4.924265877365262
 22
34.07468230128202
 32
0.0
 13
-4.924265877365262
 23
34.07468230128202
 33
0.0
  0
SOLID
  5
96A
330
96D
100
AcDbEntity
  8
0
  6
ByBlock
 62
     0
100
AcDbTrace
 10
171.0789341226347
 20
33.74134896794862
 30
0.0
 11
169.0789341226347
 21
33.40801563461522
 31
0.0
 12
169.0789341226347
 22
34.07468230128202
 32
0.0
 13
169.0789341226347
 23
34.07468230128202
 33
0.0
  0
MTEXT
  5
96B
330
96D
100
AcDbEntity
  8
0
  6
ByBlock
 62
     0
100
AcDbMText
 10
82.07733412263472
 20
35.79134896794862
 30
0.0
 40
4.0
 41
0.0
 46
0.0
 71
     5
 72
     1
  1
178
  7
ROMANS
 73
     1
 44
1.0
  0
ENDBLK
  5
B26
330
96D
100
AcDbEntity
  8
0
100
AcDbBlockEnd
  0
BLOCK
  5
B27
330
979
100
AcDbEntity
  8
0
100
AcDbBlockBegin
  2
*D46
 70
     1
 10
0.0
 20
0.0
 30
0.0
  3
*D46
  1

  0
POINT
  5
96F
330
979
100
AcDbEntity
  8
Defpoints
  6
ByBlock
 62
     0
100
AcDbPoint
 10
-5.924267877365264
 20
0.2518719999999974
 30
0.0
  0
POINT
  5
970
330
979
100
AcDbEntity
  8
Defpoints
  6
ByBlock
 62
     0
100
AcDbPoint
 10
-5.924267877365264
 20
16.126872
 30
0.0
  0
LINE
  5
971
330
979
100
AcDbEntity
  8
0
  6
ByBlock
 62
     0
370
    -2
100
AcDbLine
 10
-5.986767877365264
 20
0.2518719999999974
 30
0.0
 11
-24.58604970398102
 21
0.2518719999999974
 31
0.0
  0
LINE
  5
972
330
979
100
AcDbEntity
  8
0
  6
ByBlock
 62
     0
370
    -2
100
AcDbLine
 10
-5.986767877365264
 20
16.126872
 30
0.0
 11
-24.58604970398102
 21
16.126872
 31
0.0
  0
LINE
  5
973
330
979
100
AcDbEntity
  8
0
  6
ByBlock
 62
     0
370
    -2
100
AcDbLine
 10
-24.52354970398102
 20
2.251871999999997
 30
0.0
 11
-24.52354970398102
 21
14.126872
 31
0.0
  0
SOLID
  5
974
330
979
100
AcDbEntity
  8
0
  6
ByBlock
 62
     0
100
AcDbTrace
 10
-24.52354970398102
 20
0.2518719999999974
 30
0.0
 11
-24.19021637064762
 21
2.251871999999997
 31
0.0
 12
-24.85688303731442
 22
2.251871999999997
 32
0.0
 13
-24.85688303731442
 23
2.251871999999997
 33
0.0
  0
LINE
  5
975
330
979
100
AcDbEntity
  8
0
  6
ByBlock
 62
     0
370
    -2
100
AcDbLine
 10
-24.52354970398102
 20
16.126872
 30
0.0
 11
-24.52354970398102
 21
22.226872
 31
0.0
  0
SOLID
  5
976
330
979
100
AcDbEntity
  8
0
  6
ByBlock
 62
     0
100
AcDbTrace
 10
-24.52354970398102
 20
16.126872
 30
0.0
 11
-24.19021637064762
 21
14.126872
 31
0.0
 12
-24.85688303731442
 22
14.126872
 32
0.0
 13
-24.85688303731442
 23
14.126872
 33
0.0
  0
MTEXT
  5
977
330
979
100
AcDbEntity
  8
0
  6
ByBlock
 62
     0
100
AcDbMText
 10
-26.57354970398102
 20
20.176872
 30
0.0
 40
4.0
 41
0.0
 46
0.0
 71
     5
 72
     1
  1
15.875
  7
ROMANS
 11
6.123031769111886E-17
 21
1.0
 31
0.0
 73
     1
 44
1.0
  0
ENDBLK
  5
B28
330
979
100
AcDbEntity
  8
0
100
AcDbBlockEnd
  0
BLOCK
  5
B29
330
984
100
AcDbEntity
  8
0
100
AcDbBlockBegin
  2
*D47
 70
     1
 10
0.0
 20
0.0
 30
0.0
  3
*D47
  1

  0
POINT
  5
97B
330
984
100
AcDbEntity
  8
Defpoints
  6
ByBlock
 62
     0
100
AcDbPoint
 10
-6.924265877365262
 20
1.251870000000001
 30
0.0
  0
POINT
  5
97C
330
984
100
AcDbEntity
  8
Defpoints
  6
ByBlock
 62
     0
100
AcDbPoint
 10
28.07573412263474
 20
1.251870000000001
 30
0.0
  0
LINE
  5
97D
330
984
100
AcDbEntity
  8
0
  6
ByBlock
 62
     0
370
    -2
100
AcDbLine
 10
-6.924265877365262
 20
1.189370000000001
 30
0.0
 11
-6.924265877365262
 21
-17.23166329278737
 31
0.0
  0
LINE
  5
97E
330
984
100
AcDbEntity
  8
0
  6
ByBlock
 62
     0
370
    -2
100
AcDbLine
 10
28.07573412263474
 20
1.189370000000001
 30
0.0
 11
28.07573412263474
 21
-17.23166329278737
 31
0.0
  0
LINE
  5
97F
330
984
100
AcDbEntity
  8
0
  6
ByBlock
 62
     0
370
    -2
100
AcDbLine
 10
-4.924265877365262
 20
-17.16916329278737
 30
0.0
 11
26.07573412263474
 21
-17.16916329278737
 31
0.0
  0
SOLID
  5
980
330
984
100
AcDbEntity
  8
0
  6
ByBlock
 62
     0
100
AcDbTrace
 10
-6.924265877365262
 20
-17.16916329278737
 30
0.0
 11
-4.924265877365262
 21
-17.50249662612077
 31
0.0
 12
-4.924265877365262
 22
-16.83582995945397
 32
0.0
 13
-4.924265877365262
 23
-16.83582995945397
 33
0.0
  0
SOLID
  5
981
330
984
100
AcDbEntity
  8
0
  6
ByBlock
 62
     0
100
AcDbTrace
 10
28.07573412263474
 20
-17.16916329278737
 30
0.0
 11
26.07573412263474
 21
-17.50249662612077
 31
0.0
 12
26.07573412263474
 22
-16.83582995945397
 32
0.0
 13
26.07573412263474
 23
-16.83582995945397
 33
0.0
  0
MTEXT
  5
982
330
984
100
AcDbEntity
  8
0
  6
ByBlock
 62
     0
100
AcDbMText
 10
10.57573412263474
 20
-15.11916329278737
 30
0.0
 40
4.0
 41
0.0
 46
0.0
 71
     5
 72
     1
  1
35
  7
ROMANS
 73
     1
 44
1.0
  0
ENDBLK
  5
B2A
330
984
100
AcDbEntity
  8
0
100
AcDbBlockEnd
  0
BLOCK
  5
B2B
330
990
100
AcDbEntity
  8
0
100
AcDbBlockBegin
  2
*D48
 70
     1
 10
0.0
 20
0.0
 30
0.0
  3
*D48
  1

  0
POINT
  5
987
330
990
100
AcDbEntity
  8
Defpoints
  6
ByBlock
 62
     0
100
AcDbPoint
 10
-3.168632033623268
 20
-42.77292489110975
 30
0.0
  0
POINT
  5
988
330
990
100
AcDbEntity
  8
Defpoints
  6
ByBlock
 62
     0
100
AcDbPoint
 10
-3.168632033623268
 20
-58.64792489110975
 30
0.0
  0
LINE
  5
989
330
990
100
AcDbEntity
  8
0
  6
ByBlock
 62
     0
370
    -2
100
AcDbLine
 10
-3.231132033623268
 20
-42.77292489110975
 30
0.0
 11
-12.9484458503274
 21
-42.77292489110975
 31
0.0
  0
LINE
  5
98A
330
990
100
AcDbEntity
  8
0
  6
ByBlock
 62
     0
370
    -2
100
AcDbLine
 10
-3.231132033623268
 20
-58.64792489110975
 30
0.0
 11
-12.9484458503274
 21
-58.64792489110975
 31
0.0
  0
LINE
  5
98B
330
990
100
AcDbEntity
  8
0
  6
ByBlock
 62
     0
370
    -2
100
AcDbLine
 10
-12.8859458503274
 20
-44.77292489110975
 30
0.0
 11
-12.8859458503274
 21
-56.64792489110975
 31
0.0
  0
SOLID
  5
98C
330
990
100
AcDbEntity
  8
0
  6
ByBlock
 62
     0
100
AcDbTrace
 10
-12.8859458503274
 20
-42.77292489110975
 30
0.0
 11
-13.2192791836608
 21
-44.77292489110975
 31
0.0
 12
-12.552612516994
 22
-44.77292489110975
 32
0.0
 13
-12.552612516994
 23
-44.77292489110975
 33
0.0
  0
SOLID
  5
98D
330
990
100
AcDbEntity
  8
0
  6
ByBlock
 62
     0
100
AcDbTrace
 10
-12.8859458503274
 20
-58.64792489110975
 30
0.0
 11
-13.2192791836608
 21
-56.64792489110975
 31
0.0
 12
-12.552612516994
 22
-56.64792489110975
 32
0.0
 13
-12.552612516994
 23
-56.64792489110975
 33
0.0
  0
MTEXT
  5
98E
330
990
100
AcDbEntity
  8
0
  6
ByBlock
 62
     0
100
AcDbMText
 10
-14.9359458503274
 20
-50.71042489110975
 30
0.0
 40
4.0
 41
0.0
 46
0.0
 71
     5
 72
     1
  1
15.9
  7
ROMANS
 11
6.123031769111886E-17
 21
1.0
 31
0.0
 73
     1
 44
1.0
  0
ENDBLK
  5
B2C
330
990
100
AcDbEntity
  8
0
100
AcDbBlockEnd
  0
BLOCK
  5
B2D
330
99E
100
AcDbEntity
  8
0
100
AcDbBlockBegin
  2
*D49
 70
     1
 10
0.0
 20
0.0
 30
0.0
  3
*D49
  1

  0
POINT
  5
995
330
99E
100
AcDbEntity
  8
Defpoints
  6
ByBlock
 62
     0
100
AcDbPoint
 10
-6.924265877365262
 20
15.189374
 30
0.0
  0
POINT
  5
996
330
99E
100
AcDbEntity
  8
Defpoints
  6
ByBlock
 62
     0
100
AcDbPoint
 10
171.0789341226347
 20
16.189372
 30
0.0
  0
LINE
  5
997
330
99E
100
AcDbEntity
  8
0
  6
ByBlock
 62
     0
370
    -2
100
AcDbLine
 10
-6.924265877365262
 20
15.251874
 30
0.0
 11
-6.924265877365262
 21
33.80384896794862
 31
0.0
  0
LINE
  5
998
330
99E
100
AcDbEntity
  8
0
  6
ByBlock
 62
     0
370
    -2
100
AcDbLine
 10
171.0789341226347
 20
16.251872
 30
0.0
 11
171.0789341226347
 21
33.80384896794862
 31
0.0
  0
LINE
  5
999
330
99E
100
AcDbEntity
  8
0
  6
ByBlock
 62
     0
370
    -2
100
AcDbLine
 10
-4.924265877365262
 20
33.74134896794862
 30
0.0
 11
169.0789341226347
 21
33.74134896794862
 31
0.0
  0
SOLID
  5
99A
330
99E
100
AcDbEntity
  8
0
  6
ByBlock
 62
     0
100
AcDbTrace
 10
-6.924265877365262
 20
33.74134896794862
 30
0.0
 11
-4.924265877365262
 21
33.40801563461522
 31
0.0
 12
-4.924265877365262
 22
34.07468230128202
 32
0.0
 13
-4.924265877365262
 23
34.07468230128202
 33
0.0
  0
SOLID
  5
99B
330
99E
100
AcDbEntity
  8
0
  6
ByBlock
 62
     0
100
AcDbTrace
 10
171.0789341226347
 20
33.74134896794862
 30
0.0
 11
169.0789341226347
 21
33.40801563461522
 31
0.0
 12
169.0789341226347
 22
34.07468230128202
 32
0.0
 13
169.0789341226347
 23
34.07468230128202
 33
0.0
  0
MTEXT
  5
99C
330
99E
100
AcDbEntity
  8
0
  6
ByBlock
 62
     0
100
AcDbMText
 10
82.07733412263472
 20
35.79134896794862
 30
0.0
 40
4.0
 41
0.0
 46
0.0
 71
     5
 72
     1
  1
178
  7
ROMANS
 73
     1
 44
1.0
  0
ENDBLK
  5
B2E
330
99E
100
AcDbEntity
  8
0
100
AcDbBlockEnd
  0
BLOCK
  5
B2F
330
9AA
100
AcDbEntity
  8
0
100
AcDbBlockBegin
  2
*D50
 70
     1
 10
0.0
 20
0.0
 30
0.0
  3
*D50
  1

  0
POINT
  5
9A0
330
9AA
100
AcDbEntity
  8
Defpoints
  6
ByBlock
 62
     0
100
AcDbPoint
 10
-5.924267877365264
 20
0.2518719999999974
 30
0.0
  0
POINT
  5
9A1
330
9AA
100
AcDbEntity
  8
Defpoints
  6
ByBlock
 62
     0
100
AcDbPoint
 10
-5.924267877365264
 20
16.126872
 30
0.0
  0
LINE
  5
9A2
330
9AA
100
AcDbEntity
  8
0
  6
ByBlock
 62
     0
370
    -2
100
AcDbLine
 10
-5.986767877365264
 20
0.2518719999999974
 30
0.0
 11
-24.58604970398102
 21
0.2518719999999974
 31
0.0
  0
LINE
  5
9A3
330
9AA
100
AcDbEntity
  8
0
  6
ByBlock
 62
     0
370
    -2
100
AcDbLine
 10
-5.986767877365264
 20
16.126872
 30
0.0
 11
-24.58604970398102
 21
16.126872
 31
0.0
  0
LINE
  5
9A4
330
9AA
100
AcDbEntity
  8
0
  6
ByBlock
 62
     0
370
    -2
100
AcDbLine
 10
-24.52354970398102
 20
2.251871999999997
 30
0.0
 11
-24.52354970398102
 21
14.126872
 31
0.0
  0
SOLID
  5
9A5
330
9AA
100
AcDbEntity
  8
0
  6
ByBlock
 62
     0
100
AcDbTrace
 10
-24.52354970398102
 20
0.2518719999999974
 30
0.0
 11
-24.19021637064762
 21
2.251871999999997
 31
0.0
 12
-24.85688303731442
 22
2.251871999999997
 32
0.0
 13
-24.85688303731442
 23
2.251871999999997
 33
0.0
  0
LINE
  5
9A6
330
9AA
100
AcDbEntity
  8
0
  6
ByBlock
 62
     0
370
    -2
100
AcDbLine
 10
-24.52354970398102
 20
16.126872
 30
0.0
 11
-24.52354970398102
 21
22.226872
 31
0.0
  0
SOLID
  5
9A7
330
9AA
100
AcDbEntity
  8
0
  6
ByBlock
 62
     0
100
AcDbTrace
 10
-24.52354970398102
 20
16.126872
 30
0.0
 11
-24.19021637064762
 21
14.126872
 31
0.0
 12
-24.85688303731442
 22
14.126872
 32
0.0
 13
-24.85688303731442
 23
14.126872
 33
0.0
  0
MTEXT
  5
9A8
330
9AA
100
AcDbEntity
  8
0
  6
ByBlock
 62
     0
100
AcDbMText
 10
-26.57354970398102
 20
20.176872
 30
0.0
 40
4.0
 41
0.0
 46
0.0
 71
     5
 72
     1
  1
15.875
  7
ROMANS
 11
6.123031769111886E-17
 21
1.0
 31
0.0
 73
     1
 44
1.0
  0
ENDBLK
  5
B30
330
9AA
100
AcDbEntity
  8
0
100
AcDbBlockEnd
  0
BLOCK
  5
B31
330
9B5
100
AcDbEntity
  8
0
100
AcDbBlockBegin
  2
*D51
 70
     1
 10
0.0
 20
0.0
 30
0.0
  3
*D51
  1

  0
POINT
  5
9AC
330
9B5
100
AcDbEntity
  8
Defpoints
  6
ByBlock
 62
     0
100
AcDbPoint
 10
-6.924265877365262
 20
1.251870000000001
 30
0.0
  0
POINT
  5
9AD
330
9B5
100
AcDbEntity
  8
Defpoints
  6
ByBlock
 62
     0
100
AcDbPoint
 10
28.07573412263474
 20
1.251870000000001
 30
0.0
  0
LINE
  5
9AE
330
9B5
100
AcDbEntity
  8
0
  6
ByBlock
 62
     0
370
    -2
100
AcDbLine
 10
-6.924265877365262
 20
1.189370000000001
 30
0.0
 11
-6.924265877365262
 21
-17.23166329278737
 31
0.0
  0
LINE
  5
9AF
330
9B5
100
AcDbEntity
  8
0
  6
ByBlock
 62
     0
370
    -2
100
AcDbLine
 10
28.07573412263474
 20
1.189370000000001
 30
0.0
 11
28.07573412263474
 21
-17.23166329278737
 31
0.0
  0
LINE
  5
9B0
330
9B5
100
AcDbEntity
  8
0
  6
ByBlock
 62
     0
370
    -2
100
AcDbLine
 10
-4.924265877365262
 20
-17.16916329278737
 30
0.0
 11
26.07573412263474
 21
-17.16916329278737
 31
0.0
  0
SOLID
  5
9B1
330
9B5
100
AcDbEntity
  8
0
  6
ByBlock
 62
     0
100
AcDbTrace
 10
-6.924265877365262
 20
-17.16916329278737
 30
0.0
 11
-4.924265877365262
 21
-17.50249662612077
 31
0.0
 12
-4.924265877365262
 22
-16.83582995945397
 32
0.0
 13
-4.924265877365262
 23
-16.83582995945397
 33
0.0
  0
SOLID
  5
9B2
330
9B5
100
AcDbEntity
  8
0
  6
ByBlock
 62
     0
100
AcDbTrace
 10
28.07573412263474
 20
-17.16916329278737
 30
0.0
 11
26.07573412263474
 21
-17.50249662612077
 31
0.0
 12
26.07573412263474
 22
-16.83582995945397
 32
0.0
 13
26.07573412263474
 23
-16.83582995945397
 33
0.0
  0
MTEXT
  5
9B3
330
9B5
100
AcDbEntity
  8
0
  6
ByBlock
 62
     0
100
AcDbMText
 10
10.57573412263474
 20
-15.11916329278737
 30
0.0
 40
4.0
 41
0.0
 46
0.0
 71
     5
 72
     1
  1
35
  7
ROMANS
 73
     1
 44
1.0
  0
ENDBLK
  5
B32
330
9B5
100
AcDbEntity
  8
0
100
AcDbBlockEnd
  0
BLOCK
  5
B33
330
9C1
100
AcDbEntity
  8
0
100
AcDbBlockBegin
  2
*D52
 70
     1
 10
0.0
 20
0.0
 30
0.0
  3
*D52
  1

  0
POINT
  5
9B8
330
9C1
100
AcDbEntity
  8
Defpoints
  6
ByBlock
 62
     0
100
AcDbPoint
 10
-4.168630033623266
 20
-57.64792689110975
 30
0.0
  0
POINT
  5
9B9
330
9C1
100
AcDbEntity
  8
Defpoints
  6
ByBlock
 62
     0
100
AcDbPoint
 10
30.83136996637673
 20
-57.64792689110975
 30
0.0
  0
LINE
  5
9BA
330
9C1
100
AcDbEntity
  8
0
  6
ByBlock
 62
     0
370
    -2
100
AcDbLine
 10
-4.168630033623266
 20
-57.71042689110975
 30
0.0
 11
-4.168630033623266
 21
-74.83043470464841
 31
0.0
  0
LINE
  5
9BB
330
9C1
100
AcDbEntity
  8
0
  6
ByBlock
 62
     0
370
    -2
100
AcDbLine
 10
30.83136996637673
 20
-57.71042689110975
 30
0.0
 11
30.83136996637673
 21
-74.83043470464841
 31
0.0
  0
LINE
  5
9BC
330
9C1
100
AcDbEntity
  8
0
  6
ByBlock
 62
     0
370
    -2
100
AcDbLine
 10
-2.168630033623266
 20
-74.76793470464841
 30
0.0
 11
28.83136996637673
 21
-74.76793470464841
 31
0.0
  0
SOLID
  5
9BD
330
9C1
100
AcDbEntity
  8
0
  6
ByBlock
 62
     0
100
AcDbTrace
 10
-4.168630033623266
 20
-74.76793470464841
 30
0.0
 11
-2.168630033623266
 21
-75.10126803798181
 31
0.0
 12
-2.168630033623266
 22
-74.43460137131501
 32
0.0
 13
-2.168630033623266
 23
-74.43460137131501
 33
0.0
  0
SOLID
  5
9BE
330
9C1
100
AcDbEntity
  8
0
  6
ByBlock
 62
     0
100
AcDbTrace
 10
30.83136996637673
 20
-74.76793470464841
 30
0.0
 11
28.83136996637673
 21
-75.10126803798181
 31
0.0
 12
28.83136996637673
 22
-74.43460137131501
 32
0.0
 13
28.83136996637673
 23
-74.43460137131501
 33
0.0
  0
MTEXT
  5
9BF
330
9C1
100
AcDbEntity
  8
0
  6
ByBlock
 62
     0
100
AcDbMText
 10
13.33136996637673
 20
-72.71793470464841
 30
0.0
 40
4.0
 41
0.0
 46
0.0
 71
     5
 72
     1
  1
35
  7
ROMANS
 73
     1
 44
1.0
  0
ENDBLK
  5
B34
330
9C1
100
AcDbEntity
  8
0
100
AcDbBlockEnd
  0
BLOCK
  5
B35
330
9CD
100
AcDbEntity
  8
0
100
AcDbBlockBegin
  2
*D53
 70
     1
 10
0.0
 20
0.0
 30
0.0
  3
*D53
  1

  0
POINT
  5
9C4
330
9CD
100
AcDbEntity
  8
Defpoints
  6
ByBlock
 62
     0
100
AcDbPoint
 10
-3.168632033623268
 20
-58.64792489110975
 30
0.0
  0
POINT
  5
9C5
330
9CD
100
AcDbEntity
  8
Defpoints
  6
ByBlock
 62
     0
100
AcDbPoint
 10
-3.168632033623252
 20
-42.77292489110975
 30
0.0
  0
LINE
  5
9C6
330
9CD
100
AcDbEntity
  8
0
  6
ByBlock
 62
     0
370
    -2
100
AcDbLine
 10
-3.231132033623268
 20
-58.64792489110975
 30
0.0
 11
-22.98046320642374
 21
-58.64792489110975
 31
0.0
  0
LINE
  5
9C7
330
9CD
100
AcDbEntity
  8
0
  6
ByBlock
 62
     0
370
    -2
100
AcDbLine
 10
-3.231132033623252
 20
-42.77292489110975
 30
0.0
 11
-22.98046320642374
 21
-42.77292489110975
 31
0.0
  0
LINE
  5
9C8
330
9CD
100
AcDbEntity
  8
0
  6
ByBlock
 62
     0
370
    -2
100
AcDbLine
 10
-22.91796320642374
 20
-56.64792489110975
 30
0.0
 11
-22.91796320642374
 21
-44.77292489110975
 31
0.0
  0
SOLID
  5
9C9
330
9CD
100
AcDbEntity
  8
0
  6
ByBlock
 62
     0
100
AcDbTrace
 10
-22.91796320642374
 20
-58.64792489110975
 30
0.0
 11
-22.58462987309034
 21
-56.64792489110975
 31
0.0
 12
-23.25129653975713
 22
-56.64792489110975
 32
0.0
 13
-23.25129653975713
 23
-56.64792489110975
 33
0.0
  0
SOLID
  5
9CA
330
9CD
100
AcDbEntity
  8
0
  6
ByBlock
 62
     0
100
AcDbTrace
 10
-22.91796320642374
 20
-42.77292489110975
 30
0.0
 11
-22.58462987309034
 21
-44.77292489110975
 31
0.0
 12
-23.25129653975713
 22
-44.77292489110975
 32
0.0
 13
-23.25129653975713
 23
-44.77292489110975
 33
0.0
  0
MTEXT
  5
9CB
330
9CD
100
AcDbEntity
  8
0
  6
ByBlock
 62
     0
100
AcDbMText
 10
-24.96796320642374
 20
-50.71042489110975
 30
0.0
 40
4.0
 41
0.0
 46
0.0
 71
     5
 72
     1
  1
16
  7
ROMANS
 11
6.123031769111886E-17
 21
1.0
 31
0.0
 73
     1
 44
1.0
  0
ENDBLK
  5
B36
330
9CD
100
AcDbEntity
  8
0
100
AcDbBlockEnd
  0
BLOCK
  5
B37
330
9D9
100
AcDbEntity
  8
0
100
AcDbBlockBegin
  2
*D54
 70
     1
 10
0.0
 20
0.0
 30
0.0
  3
*D54
  1

  0
POINT
  5
9D0
330
9D9
100
AcDbEntity
  8
Defpoints
  6
ByBlock
 62
     0
100
AcDbPoint
 10
-4.168630033623266
 20
-43.77292289110975
 30
0.0
  0
POINT
  5
9D1
330
9D9
100
AcDbEntity
  8
Defpoints
  6
ByBlock
 62
     0
100
AcDbPoint
 10
168.8313699663767
 20
-37.63372806050974
 30
0.0
  0
LINE
  5
9D2
330
9D9
100
AcDbEntity
  8
0
  6
ByBlock
 62
     0
370
    -2
100
AcDbLine
 10
-4.168630033623266
 20
-43.71042289110975
 30
0.0
 11
-4.168630033623266
 21
-24.99521012977371
 31
0.0
  0
LINE
  5
9D3
330
9D9
100
AcDbEntity
  8
0
  6
ByBlock
 62
     0
370
    -2
100
AcDbLine
 10
168.8313699663767
 20
-37.57122806050974
 30
0.0
 11
168.8313699663767
 21
-24.99521012977371
 31
0.0
  0
LINE
  5
9D4
330
9D9
100
AcDbEntity
  8
0
  6
ByBlock
 62
     0
370
    -2
100
AcDbLine
 10
-2.168630033623266
 20
-25.05771012977371
 30
0.0
 11
166.8313699663767
 21
-25.05771012977371
 31
0.0
  0
SOLID
  5
9D5
330
9D9
100
AcDbEntity
  8
0
  6
ByBlock
 62
     0
100
AcDbTrace
 10
-4.168630033623266
 20
-25.05771012977371
 30
0.0
 11
-2.168630033623266
 21
-25.39104346310711
 31
0.0
 12
-2.168630033623266
 22
-24.72437679644031
 32
0.0
 13
-2.168630033623266
 23
-24.72437679644031
 33
0.0
  0
SOLID
  5
9D6
330
9D9
100
AcDbEntity
  8
0
  6
ByBlock
 62
     0
100
AcDbTrace
 10
168.8313699663767
 20
-25.05771012977371
 30
0.0
 11
166.8313699663767
 21
-25.39104346310711
 31
0.0
 12
166.8313699663767
 22
-24.72437679644031
 32
0.0
 13
166.8313699663767
 23
-24.72437679644031
 33
0.0
  0
MTEXT
  5
9D7
330
9D9
100
AcDbEntity
  8
0
  6
ByBlock
 62
     0
100
AcDbMText
 10
82.33136996637674
 20
-23.00771012977371
 30
0.0
 40
4.0
 41
0.0
 46
0.0
 71
     5
 72
     1
  1
173
  7
ROMANS
 73
     1
 44
1.0
  0
ENDBLK
  5
B38
330
9D9
100
AcDbEntity
  8
0
100
AcDbBlockEnd
  0
BLOCK
  5
B39
330
9E5
100
AcDbEntity
  8
0
100
AcDbBlockBegin
  2
*D55
 70
     1
 10
0.0
 20
0.0
 30
0.0
  3
*D55
  1

  0
POINT
  5
9DB
330
9E5
100
AcDbEntity
  8
Defpoints
  6
ByBlock
 62
     0
100
AcDbPoint
 10
-3.168632033623268
 20
-58.64792489110975
 30
0.0
  0
POINT
  5
9DC
330
9E5
100
AcDbEntity
  8
Defpoints
  6
ByBlock
 62
     0
100
AcDbPoint
 10
-3.168632033623252
 20
-42.77292489110975
 30
0.0
  0
LINE
  5
9DD
330
9E5
100
AcDbEntity
  8
0
  6
ByBlock
 62
     0
370
    -2
100
AcDbLine
 10
-3.231132033623268
 20
-58.64792489110975
 30
0.0
 11
-22.98046320642374
 21
-58.64792489110975
 31
0.0
  0
LINE
  5
9DE
330
9E5
100
AcDbEntity
  8
0
  6
ByBlock
 62
     0
370
    -2
100
AcDbLine
 10
-3.231132033623252
 20
-42.77292489110975
 30
0.0
 11
-22.98046320642374
 21
-42.77292489110975
 31
0.0
  0
LINE
  5
9DF
330
9E5
100
AcDbEntity
  8
0
  6
ByBlock
 62
     0
370
    -2
100
AcDbLine
 10
-22.91796320642374
 20
-56.64792489110975
 30
0.0
 11
-22.91796320642374
 21
-44.77292489110975
 31
0.0
  0
SOLID
  5
9E0
330
9E5
100
AcDbEntity
  8
0
  6
ByBlock
 62
     0
100
AcDbTrace
 10
-22.91796320642374
 20
-58.64792489110975
 30
0.0
 11
-22.58462987309034
 21
-56.64792489110975
 31
0.0
 12
-23.25129653975713
 22
-56.64792489110975
 32
0.0
 13
-23.25129653975713
 23
-56.64792489110975
 33
0.0
  0
LINE
  5
9E1
330
9E5
100
AcDbEntity
  8
0
  6
ByBlock
 62
     0
370
    -2
100
AcDbLine
 10
-22.91796320642374
 20
-42.77292489110975
 30
0.0
 11
-22.91796320642374
 21
-36.67292489110975
 31
0.0
  0
SOLID
  5
9E2
330
9E5
100
AcDbEntity
  8
0
  6
ByBlock
 62
     0
100
AcDbTrace
 10
-22.91796320642374
 20
-42.77292489110975
 30
0.0
 11
-22.58462987309034
 21
-44.77292489110975
 31
0.0
 12
-23.25129653975713
 22
-44.77292489110975
 32
0.0
 13
-23.25129653975713
 23
-44.77292489110975
 33
0.0
  0
MTEXT
  5
9E3
330
9E5
100
AcDbEntity
  8
0
  6
ByBlock
 62
     0
100
AcDbMText
 10
-24.96796320642374
 20
-38.72292489110976
 30
0.0
 40
4.0
 41
0.0
 46
0.0
 71
     5
 72
     1
  1
15.875
  7
ROMANS
 11
6.123031769111886E-17
 21
1.0
 31
0.0
 73
     1
 44
1.0
  0
ENDBLK
  5
B3A
330
9E5
100
AcDbEntity
  8
0
100
AcDbBlockEnd
  0
BLOCK
  5
B3B
330
9F0
100
AcDbEntity
  8
0
100
AcDbBlockBegin
  2
*D56
 70
     1
 10
0.0
 20
0.0
 30
0.0
  3
*D56
  1

  0
POINT
  5
9E7
330
9F0
100
AcDbEntity
  8
Defpoints
  6
ByBlock
 62
     0
100
AcDbPoint
 10
-3.168632033623268
 20
-58.64792489110975
 30
0.0
  0
POINT
  5
9E8
330
9F0
100
AcDbEntity
  8
Defpoints
  6
ByBlock
 62
     0
100
AcDbPoint
 10
-3.168632033623252
 20
-42.77292489110975
 30
0.0
  0
LINE
  5
9E9
330
9F0
100
AcDbEntity
  8
0
  6
ByBlock
 62
     0
370
    -2
100
AcDbLine
 10
-3.231132033623268
 20
-58.64792489110975
 30
0.0
 11
-26.02964707349167
 21
-58.64792489110975
 31
0.0
  0
LINE
  5
9EA
330
9F0
100
AcDbEntity
  8
0
  6
ByBlock
 62
     0
370
    -2
100
AcDbLine
 10
-3.231132033623252
 20
-42.77292489110975
 30
0.0
 11
-26.02964707349167
 21
-42.77292489110975
 31
0.0
  0
LINE
  5
9EB
330
9F0
100
AcDbEntity
  8
0
  6
ByBlock
 62
     0
370
    -2
100
AcDbLine
 10
-25.96714707349167
 20
-58.64792489110975
 30
0.0
 11
-25.96714707349167
 21
-42.77292489110975
 31
0.0
  0
SOLID
  5
9EC
330
9F0
100
AcDbEntity
  8
0
  6
ByBlock
 62
     0
100
AcDbTrace
 10
-25.96714707349167
 20
-58.64792489110975
 30
0.0
 11
-25.63381374015827
 21
-56.64792489110975
 31
0.0
 12
-26.30048040682507
 22
-56.64792489110975
 32
0.0
 13
-26.30048040682507
 23
-56.64792489110975
 33
0.0
  0
SOLID
  5
9ED
330
9F0
100
AcDbEntity
  8
0
  6
ByBlock
 62
     0
100
AcDbTrace
 10
-25.96714707349167
 20
-42.77292489110975
 30
0.0
 11
-25.63381374015827
 21
-44.77292489110975
 31
0.0
 12
-26.30048040682507
 22
-44.77292489110975
 32
0.0
 13
-26.30048040682507
 23
-44.77292489110975
 33
0.0
  0
MTEXT
  5
9EE
330
9F0
100
AcDbEntity
  8
0
  6
ByBlock
 62
     0
100
AcDbMText
 10
-28.01714707349167
 20
-50.71042489110975
 30
0.0
 40
4.0
 41
0.0
 46
0.0
 71
     5
 72
     1
  1
15.875
  7
ROMANS
 11
6.123031769111886E-17
 21
1.0
 31
0.0
 73
     1
 44
1.0
  0
ENDBLK
  5
B3C
330
9F0
100
AcDbEntity
  8
0
100
AcDbBlockEnd
  0
BLOCK
  5
B3D
330
A8C
100
AcDbEntity
  8
0
100
AcDbBlockBegin
  2
*D57
 70
     1
 10
0.0
 20
0.0
 30
0.0
  3
*D57
  1

  0
POINT
  5
A83
330
A8C
100
AcDbEntity
  8
Defpoints
  6
ByBlock
 62
     0
100
AcDbPoint
 10
45.83136996637673
 20
-57.64792689110975
 30
0.0
  0
POINT
  5
A84
330
A8C
100
AcDbEntity
  8
Defpoints
  6
ByBlock
 62
     0
100
AcDbPoint
 10
80.83136996637673
 20
-57.64792689110975
 30
0.0
  0
LINE
  5
A85
330
A8C
100
AcDbEntity
  8
0
  6
ByBlock
 62
     0
370
    -2
100
AcDbLine
 10
45.83136996637673
 20
-57.71042689110975
 30
0.0
 11
45.83136996637673
 21
-74.83043470464841
 31
0.0
  0
LINE
  5
A86
330
A8C
100
AcDbEntity
  8
0
  6
ByBlock
 62
     0
370
    -2
100
AcDbLine
 10
80.83136996637673
 20
-57.71042689110975
 30
0.0
 11
80.83136996637673
 21
-74.83043470464841
 31
0.0
  0
LINE
  5
A87
330
A8C
100
AcDbEntity
  8
0
  6
ByBlock
 62
     0
370
    -2
100
AcDbLine
 10
47.83136996637673
 20
-74.76793470464841
 30
0.0
 11
78.83136996637673
 21
-74.76793470464841
 31
0.0
  0
SOLID
  5
A88
330
A8C
100
AcDbEntity
  8
0
  6
ByBlock
 62
     0
100
AcDbTrace
 10
45.83136996637673
 20
-74.76793470464841
 30
0.0
 11
47.83136996637673
 21
-75.10126803798181
 31
0.0
 12
47.83136996637673
 22
-74.43460137131501
 32
0.0
 13
47.83136996637673
 23
-74.43460137131501
 33
0.0
  0
SOLID
  5
A89
330
A8C
100
AcDbEntity
  8
0
  6
ByBlock
 62
     0
100
AcDbTrace
 10
80.83136996637673
 20
-74.76793470464841
 30
0.0
 11
78.83136996637673
 21
-75.10126803798181
 31
0.0
 12
78.83136996637673
 22
-74.43460137131501
 32
0.0
 13
78.83136996637673
 23
-74.43460137131501
 33
0.0
  0
MTEXT
  5
A8A
330
A8C
100
AcDbEntity
  8
0
  6
ByBlock
 62
     0
100
AcDbMText
 10
63.33136996637673
 20
-72.71793470464841
 30
0.0
 40
4.0
 41
0.0
 46
0.0
 71
     5
 72
     1
  1
35
  7
ROMANS
 73
     1
 44
1.0
  0
ENDBLK
  5
B3E
330
A8C
100
AcDbEntity
  8
0
100
AcDbBlockEnd
  0
BLOCK
  5
B3F
330
A98
100
AcDbEntity
  8
0
100
AcDbBlockBegin
  2
*D58
 70
     1
 10
0.0
 20
0.0
 30
0.0
  3
*D58
  1

  0
POINT
  5
A8E
330
A98
100
AcDbEntity
  8
Defpoints
  6
ByBlock
 62
     0
100
AcDbPoint
 10
46.83136796637673
 20
-58.64792489110975
 30
0.0
  0
POINT
  5
A8F
330
A98
100
AcDbEntity
  8
Defpoints
  6
ByBlock
 62
     0
100
AcDbPoint
 10
46.83136796637675
 20
-42.77292489110975
 30
0.0
  0
LINE
  5
A90
330
A98
100
AcDbEntity
  8
0
  6
ByBlock
 62
     0
370
    -2
100
AcDbLine
 10
46.76886796637673
 20
-58.64792489110975
 30
0.0
 11
23.97035292650833
 21
-58.64792489110975
 31
0.0
  0
LINE
  5
A91
330
A98
100
AcDbEntity
  8
0
  6
ByBlock
 62
     0
370
    -2
100
AcDbLine
 10
46.76886796637675
 20
-42.77292489110975
 30
0.0
 11
23.97035292650833
 21
-42.77292489110975
 31
0.0
  0
LINE
  5
A92
330
A98
100
AcDbEntity
  8
0
  6
ByBlock
 62
     0
370
    -2
100
AcDbLine
 10
24.03285292650833
 20
-56.64792489110975
 30
0.0
 11
24.03285292650833
 21
-44.77292489110975
 31
0.0
  0
SOLID
  5
A93
330
A98
100
AcDbEntity
  8
0
  6
ByBlock
 62
     0
100
AcDbTrace
 10
24.03285292650833
 20
-58.64792489110975
 30
0.0
 11
24.36618625984173
 21
-56.64792489110975
 31
0.0
 12
23.69951959317493
 22
-56.64792489110975
 32
0.0
 13
23.69951959317493
 23
-56.64792489110975
 33
0.0
  0
LINE
  5
A94
330
A98
100
AcDbEntity
  8
0
  6
ByBlock
 62
     0
370
    -2
100
AcDbLine
 10
24.03285292650833
 20
-42.77292489110975
 30
0.0
 11
24.03285292650833
 21
-36.67292489110975
 31
0.0
  0
SOLID
  5
A95
330
A98
100
AcDbEntity
  8
0
  6
ByBlock
 62
     0
100
AcDbTrace
 10
24.03285292650833
 20
-42.77292489110975
 30
0.0
 11
24.36618625984173
 21
-44.77292489110975
 31
0.0
 12
23.69951959317493
 22
-44.77292489110975
 32
0.0
 13
23.69951959317493
 23
-44.77292489110975
 33
0.0
  0
MTEXT
  5
A96
330
A98
100
AcDbEntity
  8
0
  6
ByBlock
 62
     0
100
AcDbMText
 10
21.98285292650833
 20
-38.72292489110976
 30
0.0
 40
4.0
 41
0.0
 46
0.0
 71
     5
 72
     1
  1
15.875
  7
ROMANS
 11
6.123031769111886E-17
 21
1.0
 31
0.0
 73
     1
 44
1.0
  0
ENDBLK
  5
B40
330
A98
100
AcDbEntity
  8
0
100
AcDbBlockEnd
  0
BLOCK
  5
B41
330
AA6
100
AcDbEntity
  8
0
100
AcDbBlockBegin
  2
*D59
 70
     1
 10
0.0
 20
0.0
 30
0.0
  3
*D59
  1

  0
POINT
  5
A9D
330
AA6
100
AcDbEntity
  8
Defpoints
  6
ByBlock
 62
     0
100
AcDbPoint
 10
45.83136996637673
 20
-43.77292289110975
 30
0.0
  0
POINT
  5
A9E
330
AA6
100
AcDbEntity
  8
Defpoints
  6
ByBlock
 62
     0
100
AcDbPoint
 10
168.8313699663767
 20
-37.68221031930975
 30
0.0
  0
LINE
  5
A9F
330
AA6
100
AcDbEntity
  8
0
  6
ByBlock
 62
     0
370
    -2
100
AcDbLine
 10
45.83136996637673
 20
-43.71042289110975
 30
0.0
 11
45.83136996637673
 21
-20.03280778897036
 31
0.0
  0
LINE
  5
AA0
330
AA6
100
AcDbEntity
  8
0
  6
ByBlock
 62
     0
370
    -2
100
AcDbLine
 10
168.8313699663767
 20
-37.61971031930975
 30
0.0
 11
168.8313699663767
 21
-20.03280778897036
 31
0.0
  0
LINE
  5
AA1
330
AA6
100
AcDbEntity
  8
0
  6
ByBlock
 62
     0
370
    -2
100
AcDbLine
 10
47.83136996637673
 20
-20.09530778897036
 30
0.0
 11
166.8313699663767
 21
-20.09530778897036
 31
0.0
  0
SOLID
  5
AA2
330
AA6
100
AcDbEntity
  8
0
  6
ByBlock
 62
     0
100
AcDbTrace
 10
45.83136996637673
 20
-20.09530778897036
 30
0.0
 11
47.83136996637673
 21
-20.42864112230376
 31
0.0
 12
47.83136996637673
 22
-19.76197445563696
 32
0.0
 13
47.83136996637673
 23
-19.76197445563696
 33
0.0
  0
SOLID
  5
AA3
330
AA6
100
AcDbEntity
  8
0
  6
ByBlock
 62
     0
100
AcDbTrace
 10
168.8313699663767
 20
-20.09530778897036
 30
0.0
 11
166.8313699663767
 21
-20.42864112230376
 31
0.0
 12
166.8313699663767
 22
-19.76197445563696
 32
0.0
 13
166.8313699663767
 23
-19.76197445563696
 33
0.0
  0
MTEXT
  5
AA4
330
AA6
100
AcDbEntity
  8
0
  6
ByBlock
 62
     0
100
AcDbMText
 10
107.3313699663767
 20
-18.04530778897036
 30
0.0
 40
4.0
 41
0.0
 46
0.0
 71
     5
 72
     1
  1
123
  7
ROMANS
 73
     1
 44
1.0
  0
ENDBLK
  5
B42
330
AA6
100
AcDbEntity
  8
0
100
AcDbBlockEnd
  0
BLOCK
  5
B43
330
AB1
100
AcDbEntity
  8
0
100
AcDbBlockBegin
  2
*D60
 70
     1
 10
0.0
 20
0.0
 30
0.0
  3
*D60
  1

  0
POINT
  5
AA8
330
AB1
100
AcDbEntity
  8
Defpoints
  6
ByBlock
 62
     0
100
AcDbPoint
 10
46.83136796637673
 20
-58.64792489110975
 30
0.0
  0
POINT
  5
AA9
330
AB1
100
AcDbEntity
  8
Defpoints
  6
ByBlock
 62
     0
100
AcDbPoint
 10
46.83136796637675
 20
-42.77292489110975
 30
0.0
  0
LINE
  5
AAA
330
AB1
100
AcDbEntity
  8
0
  6
ByBlock
 62
     0
370
    -2
100
AcDbLine
 10
46.76886796637673
 20
-58.64792489110975
 30
0.0
 11
28.47486696858113
 21
-58.64792489110975
 31
0.0
  0
LINE
  5
AAB
330
AB1
100
AcDbEntity
  8
0
  6
ByBlock
 62
     0
370
    -2
100
AcDbLine
 10
46.76886796637675
 20
-42.77292489110975
 30
0.0
 11
28.47486696858113
 21
-42.77292489110975
 31
0.0
  0
LINE
  5
AAC
330
AB1
100
AcDbEntity
  8
0
  6
ByBlock
 62
     0
370
    -2
100
AcDbLine
 10
28.53736696858113
 20
-58.64792489110975
 30
0.0
 11
28.53736696858113
 21
-42.77292489110975
 31
0.0
  0
SOLID
  5
AAD
330
AB1
100
AcDbEntity
  8
0
  6
ByBlock
 62
     0
100
AcDbTrace
 10
28.53736696858113
 20
-58.64792489110975
 30
0.0
 11
28.87070030191452
 21
-56.64792489110975
 31
0.0
 12
28.20403363524773
 22
-56.64792489110975
 32
0.0
 13
28.20403363524773
 23
-56.64792489110975
 33
0.0
  0
SOLID
  5
AAE
330
AB1
100
AcDbEntity
  8
0
  6
ByBlock
 62
     0
100
AcDbTrace
 10
28.53736696858113
 20
-42.77292489110975
 30
0.0
 11
28.87070030191452
 21
-44.77292489110975
 31
0.0
 12
28.20403363524773
 22
-44.77292489110975
 32
0.0
 13
28.20403363524773
 23
-44.77292489110975
 33
0.0
  0
MTEXT
  5
AAF
330
AB1
100
AcDbEntity
  8
0
  6
ByBlock
 62
     0
100
AcDbMText
 10
26.48736696858112
 20
-50.71042489110975
 30
0.0
 40
4.0
 41
0.0
 46
0.0
 71
     5
 72
     1
  1
15.875
  7
ROMANS
 11
6.123031769111886E-17
 21
1.0
 31
0.0
 73
     1
 44
1.0
  0
ENDBLK
  5
B44
330
AB1
100
AcDbEntity
  8
0
100
AcDbBlockEnd
  0
ENDSEC
  0
SECTION
  2
ENTITIES
  0
LINE
  5
8C8
330
1F
100
AcDbEntity
  8
LINE
100
AcDbLine
 10
148.3313699663767
 20
-36.71042489110975
 30
0.0
 11
146.8313699663767
 21
-38.21042489110975
 31
0.0
  0
LINE
  5
8C9
330
1F
100
AcDbEntity
  8
LINE
100
AcDbLine
 10
167.4762121609767
 20
-36.71042489110975
 30
0.0
 11
148.3313699663767
 21
-36.71042489110975
 31
0.0
  0
LINE
  5
8CA
330
1F
100
AcDbEntity
  8
LINE
100
AcDbLine
 10
146.8313699663767
 20
-63.21042489110975
 30
0.0
 11
148.3313699663767
 21
-64.71042489110975
 31
0.0
  0
LINE
  5
8CB
330
1F
100
AcDbEntity
  8
LINE
100
AcDbLine
 10
140.7595731966767
 20
-38.21042489110975
 30
0.0
 11
133.8313699663767
 21
-42.21042489110975
 31
0.0
  0
LINE
  5
8CC
330
1F
100
AcDbEntity
  8
LINE
100
AcDbLine
 10
133.8313699663767
 20
-59.21042489110975
 30
0.0
 11
140.7595731966767
 21
-63.21042489110975
 31
0.0
  0
LINE
  5
8CD
330
1F
100
AcDbEntity
  8
LINE
100
AcDbLine
 10
140.7595731966767
 20
-63.21042489110975
 30
0.0
 11
146.8313699663767
 21
-63.21042489110975
 31
0.0
  0
LINE
  5
8CE
330
1F
100
AcDbEntity
  8
LINE
100
AcDbLine
 10
146.8313699663767
 20
-38.21042489110975
 30
0.0
 11
140.7595731966767
 21
-38.21042489110975
 31
0.0
  0
LINE
  5
8CF
330
1F
100
AcDbEntity
  8
LINE
100
AcDbLine
 10
148.3313699663767
 20
-64.71042489110975
 30
0.0
 11
160.4950280812767
 21
-64.71042489110975
 31
0.0
  0
LINE
  5
8D0
330
1F
100
AcDbEntity
  8
LINE
100
AcDbLine
 10
46.83136796637673
 20
-58.64792489110975
 30
0.0
 11
133.8313699663767
 21
-58.64792489110975
 31
0.0
  0
LINE
  5
8D1
330
1F
100
AcDbEntity
  8
LINE
100
AcDbLine
 10
133.8313699663767
 20
-42.77292489110975
 30
0.0
 11
46.83136796637673
 21
-42.77292489110975
 31
0.0
  0
LINE
  5
8D6
330
1F
100
AcDbEntity
  8
LINE
100
AcDbLine
 10
148.3313699663767
 20
-36.71042489110975
 30
0.0
 11
148.3313699663767
 21
-44.40566478470974
 31
0.0
  0
SPLINE
  5
8D7
330
1F
100
AcDbEntity
  8
LINE
100
AcDbSpline
210
0.0
220
0.0
230
1.0
 70
     8
 71
     3
 72
    12
 73
     8
 74
     0
 42
0.00000001
 43
0.00000001
 40
0.0
 40
0.0
 40
0.0
 40
0.0
 40
0.4999999999999999
 40
0.4999999999999999
 40
0.7499999999999999
 40
0.7499999999999999
 40
1.0
 40
1.0
 40
1.0
 40
1.0
 10
146.8313699664192
 20
-50.71042489112115
 30
0.0
 10
146.8313699664192
 20
-49.61274556813315
 30
0.0
 10
146.9773580831354
 20
-48.54042905523714
 30
0.0
 10
147.3712569255305
 20
-46.96234291145365
 30
0.0
 10
147.5319537471453
 20
-46.43999401290925
 30
0.0
 10
147.9000732604194
 20
-45.41034217344314
 30
0.0
 10
148.1067448291633
 20
-44.90445488428215
 30
0.0
 10
148.3313699664192
 20
-44.40566478466185
 30
0.0
  0
LINE
  5
8D8
330
1F
100
AcDbEntity
  8
LINE
100
AcDbLine
 10
146.8313699663767
 20
-50.71042489110975
 30
0.0
 11
146.8313699663767
 21
-38.21042489110975
 31
0.0
  0
LINE
  5
8D9
330
1F
100
AcDbEntity
  8
LINE
100
AcDbLine
 10
164.0111180008767
 20
-57.01518499760975
 30
0.0
 11
167.1550244923767
 21
-44.40566478470974
 31
0.0
  0
LINE
  5
8DA
330
1F
100
AcDbEntity
  8
LINE
100
AcDbLine
 10
167.1550244923767
 20
-44.40566478470974
 30
0.0
 11
168.8313699663767
 21
-37.68221031930975
 31
0.0
  0
LINE
  5
8DB
330
1F
100
AcDbEntity
  8
LINE
100
AcDbLine
 10
162.3226845420767
 20
-63.78712172170975
 30
0.0
 11
164.0111180008767
 21
-57.01518499760975
 31
0.0
  0
LINE
  5
8DC
330
1F
100
AcDbEntity
  8
LINE
100
AcDbLine
 10
167.2460068256767
 20
-37.63372806050974
 30
0.0
 11
167.4762121609767
 21
-36.71042489110975
 31
0.0
  0
LINE
  5
8DD
330
1F
100
AcDbEntity
  8
LINE
100
AcDbLine
 10
168.8313699663767
 20
-37.63372806050974
 30
0.0
 11
167.2460068256767
 21
-37.63372806050974
 31
0.0
  0
LINE
  5
8DE
330
1F
100
AcDbEntity
  8
LINE
100
AcDbLine
 10
168.8313699663767
 20
-37.68221031930975
 30
0.0
 11
168.8313699663767
 21
-37.63372806050974
 31
0.0
  0
LINE
  5
8DF
330
1F
100
AcDbEntity
  8
LINE
100
AcDbLine
 10
148.3313699663767
 20
-44.40566478470974
 30
0.0
 11
167.1550244923767
 21
-44.40566478470974
 31
0.0
  0
LINE
  5
8E0
330
1F
100
AcDbEntity
  8
LINE
100
AcDbLine
 10
146.8313699663767
 20
-63.21042489110975
 30
0.0
 11
146.8313699663767
 21
-50.71042489110975
 31
0.0
  0
SPLINE
  5
8E1
330
1F
100
AcDbEntity
  8
LINE
100
AcDbSpline
210
0.0
220
0.0
230
1.0
 70
     8
 71
     3
 72
    12
 73
     8
 74
     0
 42
0.00000001
 43
0.00000001
 40
0.0
 40
0.0
 40
0.0
 40
0.0
 40
0.5
 40
0.5
 40
0.75
 40
0.75
 40
1.0
 40
1.0
 40
1.0
 40
1.0
 10
148.3313699664192
 20
-57.01518499758032
 30
0.0
 10
147.8826336292503
 20
-56.01874601904912
 30
0.0
 10
147.5081193238086
 20
-55.00100173584714
 30
0.0
 10
147.1129696746339
 20
-53.42655681157214
 30
0.0
 10
147.0092086572848
 20
-52.89371725003494
 30
0.0
 10
146.8680237154999
 20
-51.80899618021505
 30
0.0
 10
146.8313699664192
 20
-51.25958979997715
 30
0.0
 10
146.8313699664192
 20
-50.71042489112115
 30
0.0
  0
LINE
  5
8E2
330
1F
100
AcDbEntity
  8
LINE
100
AcDbLine
 10
148.3313699663767
 20
-64.71042489110975
 30
0.0
 11
148.3313699663767
 21
-57.01518499760975
 31
0.0
  0
LINE
  5
8E3
330
1F
100
AcDbEntity
  8
LINE
100
AcDbLine
 10
164.0111180008767
 20
-57.01518499760975
 30
0.0
 11
148.3313699663767
 21
-57.01518499760975
 31
0.0
  0
LINE
  5
8E4
330
1F
100
AcDbEntity
  8
LINE
100
AcDbLine
 10
140.7595731966767
 20
-63.21042489110975
 30
0.0
 11
140.7595731966767
 21
-38.21042489110975
 31
0.0
  0
LINE
  5
8E5
330
1F
100
AcDbEntity
  8
LINE
100
AcDbLine
 10
133.8313699663767
 20
-42.21042489110975
 30
0.0
 11
133.8313699663767
 21
-59.21042489110975
 31
0.0
  0
LINE
  5
8E6
330
1F
100
AcDbEntity
  8
LINE
100
AcDbLine
 10
160.4950280812767
 20
-64.71042489110975
 30
0.0
 11
160.7252334165767
 21
-63.78712172170975
 31
0.0
  0
LINE
  5
8E7
330
1F
100
AcDbEntity
  8
LINE
100
AcDbLine
 10
160.7252334165767
 20
-63.78712172170975
 30
0.0
 11
162.3226845420767
 21
-63.78712172170975
 31
0.0
  0
LINE
  5
91C
330
1F
100
AcDbEntity
  8
HIDDEN
100
AcDbLine
 10
160.7252334165767
 20
-63.78712172170975
 30
0.0
 11
167.2460068256767
 21
-37.63372806050974
 31
0.0
  0
LINE
  5
921
330
1F
100
AcDbEntity
  8
HIDDEN
100
AcDbLine
 10
138.8313699663767
 20
-52.71042489110975
 30
0.0
 11
138.8313699663767
 21
-48.71042489110975
 31
0.0
  0
LINE
  5
93F
330
1F
100
AcDbEntity
  8
HIDDEN
100
AcDbLine
 10
164.3596121253904
 20
-49.21042489110975
 30
0.0
 11
138.8313699663767
 21
-49.21042489110975
 31
0.0
  0
LINE
  5
940
330
1F
100
AcDbEntity
  8
HIDDEN
100
AcDbLine
 10
138.8313699663767
 20
-52.21042489110975
 30
0.0
 11
163.611628116863
 21
-52.21042489110975
 31
0.0
  0
LINE
  5
946
330
1F
100
AcDbEntity
  8
HIDDEN
100
AcDbLine
 10
138.8313699663767
 20
-48.71042489110975
 30
0.0
 11
45.83136996637675
 21
-48.71042489110975
 31
0.0
  0
LINE
  5
952
330
1F
100
AcDbEntity
  8
CTRL
100
AcDbLine
 10
182.2292561629767
 20
-50.71042489110975
 30
0.0
 11
41.29336664765245
 21
-50.71042489110975
 31
0.0
  0
LINE
  5
953
330
1F
100
AcDbEntity
  8
KA
100
AcDbLine
 10
45.83136996637673
 20
-43.77292289110975
 30
0.0
 11
45.83136996637673
 21
-57.64792689110975
 31
0.0
  0
LINE
  5
954
330
1F
100
AcDbEntity
  8
KA
100
AcDbLine
 10
46.83136796637673
 20
-42.77292489110975
 30
0.0
 11
45.83136996637673
 21
-43.77292289110975
 31
0.0
  0
LINE
  5
955
330
1F
100
AcDbEntity
  8
KA
100
AcDbLine
 10
45.83136996637673
 20
-57.64792689110975
 30
0.0
 11
46.83136796637673
 21
-58.64792489110975
 31
0.0
  0
LINE
  5
956
330
1F
100
AcDbEntity
  8
KA
100
AcDbLine
 10
46.83136796637673
 20
-42.77292489110975
 30
0.0
 11
46.83136796637673
 21
-58.64792489110975
 31
0.0
  0
DIMENSION
  5
9B6
330
1F
100
AcDbEntity
  8
0
100
AcDbDimension
  2
*D57
 10
80.83136996637673
 20
-74.76793470464841
 30
0.0
 11
63.33136996637673
 21
-72.71793470464841
 31
0.0
 70
    32
 71
     0
 72
     0
 41
0.0
 42
-1.0
 73
     0
 74
     0
 75
     0
  3
Standard
100
AcDbAlignedDimension
 13
45.83136996637673
 23
-57.64792689110975
 33
0.0
 14
80.83136996637673
 24
-57.64792689110975
 34
0.0
100
AcDbRotatedDimension
1001
ACAD
1000
DSTYLE
1002
{
1070
    41
1040
2.0
1070
   140
1040
4.0
1070
   271
1070
     0
1070
   272
1070
     0
1002
}
  0
DIMENSION
  5
9C2
330
1F
100
AcDbEntity
  8
0
100
AcDbDimension
  2
*D60
 10
28.53736696858113
 20
-42.77292489110975
 30
0.0
 11
26.48736696858112
 21
-50.71042489110975
 31
0.0
 70
    32
 71
   187
 72
   205
 41
0.0
 42
-1.0
 73
     0
 74
     0
 75
     0
 53
90.0
  3
Standard
100
AcDbAlignedDimension
 13
46.83136796637673
 23
-58.64792489110975
 33
0.0
 14
46.83136796637675
 24
-42.77292489110975
 34
0.0
 50
90.0
100
AcDbRotatedDimension
1001
ACAD
1000
DSTYLE
1002
{
1070
    41
1040
2.0
1070
   140
1040
4.0
1070
   272
1070
     0
1002
}
  0
LINE
  5
A9A
330
1F
100
AcDbEntity
  8
HIDDEN
100
AcDbLine
 10
45.83136996637673
 20
-52.71042489110975
 30
0.0
 11
138.8313699663767
 21
-52.71042489110975
 31
0.0
  0
DIMENSION
  5
A9B
330
1F
100
AcDbEntity
  8
0
100
AcDbDimension
  2
*D59
 10
168.8313699663767
 20
-20.09530778897036
 30
0.0
 11
107.3313699663767
 21
-18.04530778897036
 31
0.0
 70
    32
 71
   202
 72
   236
 41
16.08136996637673
 42
-1.0
 73
     0
 74
     0
 75
     0
  3
Standard
100
AcDbAlignedDimension
 13
45.83136996637673
 23
-43.77292289110975
 33
0.0
 14
168.8313699663767
 24
-37.68221031930975
 34
0.0
100
AcDbRotatedDimension
1001
ACAD
1000
DSTYLE
1002
{
1070
    41
1040
2.0
1070
   140
1040
4.0
1070
   271
1070
     0
1070
   272
1070
     0
1002
}
  0
ENDSEC
  0
SECTION
  2
OBJECTS
  0
DICTIONARY
  5
C
330
0
100
AcDbDictionary
281
     1
  3
ACAD_COLOR
350
6C
  3
ACAD_GROUP
350
D
  3
ACAD_LAYOUT
350
1A
  3
ACAD_MATERIAL
350
6B
  3
ACAD_MLEADERSTYLE
350
8B4
  3
ACAD_MLINESTYLE
350
17
  3
ACAD_PLOTSETTINGS
350
19
  3
ACAD_PLOTSTYLENAME
350
E
  3
ACAD_SCALELIST
350
99
  3
ACAD_TABLESTYLE
350
92
  3
ACAMCATALOGSTATE
350
3E4
  3
ACASAPPOBJECT
350
368
  3
ACASGREF_MASTER
350
3B0
  3
AcDbVariableDictionary
350
59
  3
ACDMSYSVARMGR
350
343
  3
ACGREF_MASTER
350
33D
  3
ACGREFACAD_MASTER
350
364
  3
ACMDICTIONARY
350
3E0
  3
ACME_BOM_MANAGER_NAME
350
336
  3
ACME_COMMAND_HISTORY
350
331
  3
ACME_SCOPE_NAME
350
330
  3
ACMESTATEMGR
350
33B
  3
ACMESYSVARMANAGER
350
332
  3
ACMSYSTEMVARIABLEMANAGER
350
3ED
  3
AD_APPL
350
3C8
  3
AD_GREF_MODULE
350
3B1
  3
AD_MAPI_MODULE
350
3CA
  3
ADSYSVARMGR
350
3BA
  3
AMDTNAMEDDWGMGR
350
35F
  3
AMG
350
326
  3
AMI_MASTER
350
367
  3
ASURF_STATIC_VARS
350
369
  3
AUTOCAD_ASSEMBLIES_PROJECT
350
3D5
  3
AUTOSURF_SYSVARS
350
36A
  3
DESIGNER_ASSEMBLIES_SYSVARS
350
3CC
  3
GREFAM_MODULE
350
3B3
  3
MAPISURF_MODULE
350
3B2
  0
DICTIONARY
  5
B45
330
1F
100
AcDbDictionary
280
     1
281
     1
  3
ACAD_INDEX
360
440
  0
DICTIONARY
  5
6C
102
{ACAD_REACTORS
330
C
102
}
330
C
100
AcDbDictionary
281
     1
  0
DICTIONARY
  5
D
102
{ACAD_REACTORS
330
C
102
}
330
C
100
AcDbDictionary
281
     1
  0
DICTIONARY
  5
1A
102
{ACAD_REACTORS
330
C
102
}
330
C
100
AcDbDictionary
281
     1
  3
Layout1
350
74
  3
Model
350
22
  0
DICTIONARY
  5
6B
102
{ACAD_REACTORS
330
C
102
}
330
C
100
AcDbDictionary
281
     1
  0
DICTIONARY
  5
8B4
102
{ACAD_REACTORS
330
C
102
}
330
C
100
AcDbDictionary
281
     1
  0
DICTIONARY
  5
17
102
{ACAD_REACTORS
330
C
102
}
330
C
100
AcDbDictionary
281
     1
  3
Standard
350
18
  0
DICTIONARY
  5
19
102
{ACAD_REACTORS
330
C
102
}
330
C
100
AcDbDictionary
281
     1
  0
ACDBDICTIONARYWDFLT
  5
E
102
{ACAD_REACTORS
330
C
102
}
330
C
100
AcDbDictionary
281
     1
  3
Normal
350
F
100
AcDbDictionaryWithDefault
340
F
  0
DICTIONARY
  5
99
102
{ACAD_REACTORS
330
C
102
}
330
C
100
AcDbDictionary
281
     1
  3
A0
350
64C
  3
A1
350
64D
  3
A2
350
64E
  3
A3
350
64F
  3
A4
350
650
  3
A5
350
651
  3
A6
350
652
  3
A7
350
653
  3
A8
350
654
  3
A9
350
655
  3
B0
350
656
  3
B1
350
657
  3
B2
350
658
  3
B3
350
659
  3
B4
350
65A
  3
B5
350
65B
  3
B6
350
65C
  3
B7
350
65D
  3
B8
350
65E
  3
B9
350
65F
  3
C0
350
660
  3
C1
350
661
  3
C2
350
662
  3
C3
350
663
  3
C4
350
664
  3
C5
350
665
  3
C6
350
666
  3
C7
350
667
  3
C8
350
668
  3
C9
350
669
  3
D0
350
66A
  3
D1
350
66B
  3
D2
350
66C
  0
DICTIONARY
  5
92
102
{ACAD_REACTORS
330
C
102
}
330
C
100
AcDbDictionary
281
     1
  3
Standard
350
A0A
  0
ACAD_PROXY_OBJECT
  5
3E4
102
{ACAD_REACTORS
330
C
102
}
330
C
100
AcDbProxyObject
 90
      499
 91
      506
 95
   851991
 70
     0
 93
      368
310
3FFFFFFFE00A02814028AA19D2E283937B3B930B6902334B632B9AE26A22A1B4008010101020000BFC08FE010000
  0
ACAD_PROXY_OBJECT
  5
368
102
{ACAD_REACTORS
330
C
102
}
330
C
100
AcDbProxyObject
 90
      499
 91
      507
 95
   851991
 70
     0
 93
       10
310
4040
  0
ACAD_PROXY_OBJECT
  5
3B0
102
{ACAD_REACTORS
330
C
102
}
330
C
100
AcDbProxyObject
 90
      499
 91
      508
 95
   851991
 70
     0
 93
       34
310
010000405A
  0
DICTIONARY
  5
59
102
{ACAD_REACTORS
330
C
102
}
330
C
100
AcDbDictionary
281
     1
  3
CANNOSCALE
350
8B5
  3
CTABLESTYLE
350
98
  3
DIMASSOC
350
320
  3
HIDETEXT
350
A0C
  3
INDEXCTL
350
44A
  0
ACAD_PROXY_OBJECT
  5
343
102
{ACAD_REACTORS
330
C
102
}
330
C
100
AcDbProxyObject
 90
      499
 91
      509
 95
   851991
 70
     0
 93
      240
310
4C51A47A0000000000000000000000000000000000000000000000000000
330
344
330
345
330
346
330
347
330
348
330
349
330
34A
330
34C
330
34D
330
34E
330
34F
330
350
330
351
330
352
330
353
330
354
330
355
330
356
330
357
330
358
330
359
330
35A
330
35B
330
35C
330
35D
330
35E
 94
        0
  0
ACAD_PROXY_OBJECT
  5
33D
102
{ACAD_REACTORS
330
C
102
}
330
C
100
AcDbProxyObject
 90
      499
 91
      510
 95
   851991
 70
     0
 93
       34
310
040000429A
  0
ACAD_PROXY_OBJECT
  5
364
102
{ACAD_REACTORS
330
C
102
}
330
C
100
AcDbProxyObject
 90
      499
 91
      511
 95
   851991
 70
     0
 93
      114
310
04000041C000000000000000000000
  0
DICTIONARY
  5
3E0
102
{ACAD_REACTORS
330
C
102
}
330
C
100
AcDbDictionary
281
     1
  3
ACMBOMDATA
350
3E1
  3
ACMSTDDICTIONARY
350
3EF
  0
ACAD_PROXY_OBJECT
  5
336
102
{ACAD_REACTORS
330
C
102
}
330
C
100
AcDbProxyObject
 90
      499
 91
      544
 95
   851991
 70
     0
 93
       50
310
00010040400000
330
0
330
0
330
337
 94
        0
  0
ACAD_PROXY_OBJECT
  5
331
102
{ACAD_REACTORS
330
C
102
}
330
C
100
AcDbProxyObject
 90
      499
 91
      545
 95
   851991
 70
     0
 93
     2182
310
468050E414D4454524553455444424D4F4440805084E202D20554E444F014213880B4815539113C0504554E444F80504554E444F80504554E444F80504554E444F80504554E444F80504554E444F80504554E444F80504554E444F80505524547454E805065341564541538050E414D4454524553455444424D4F444080508
310
4E202D20554E444F014213880B4815539113C0504554E444F80504554E444F80504554E444F80504554E444F80504554E444F805065341564541538050E414D4454524553455444424D4F4440805084E202D20554E444F014213880B4815539113C0504554E444F80504554E444F80504554E444F80504554E444F80504554
310
E444F805054C41594552805065341564541538
  0
ACAD_PROXY_OBJECT
  5
330
102
{ACAD_REACTORS
330
C
102
}
330
C
100
AcDbProxyObject
 90
      499
 91
      546
 95
   851991
 70
     0
 93
     1226
310
06000044400000000000000000001846220000000000000000000000000000000000000000000000000000000000000000000000000000000000000000000000000000000000000000000000000000000000000000000000000000000000000000000000000000000000000000000000000000000000000000000000000000
310
00000000000000000000000000000000000000000000AAA406AAA9
360
333
360
334
360
335
360
337
360
33E
360
33F
360
340
360
341
360
344
360
345
360
346
360
347
360
348
360
349
360
34A
360
34C
360
34D
360
34E
360
34F
360
350
360
351
360
352
360
353
360
354
360
355
360
356
360
357
360
358
360
359
360
35A
360
35B
360
35C
360
35D
360
35E
360
36B
360
36C
360
36D
360
36E
360
36F
360
370
360
371
360
372
360
373
360
374
360
375
360
376
360
377
360
378
360
379
360
37A
360
37B
360
37C
360
37D
360
37E
360
37F
360
380
360
381
360
382
360
383
360
384
360
385
360
386
360
387
360
388
360
389
360
38A
360
38B
360
38C
360
38D
360
38E
360
38F
360
390
360
391
360
392
360
393
360
394
360
395
360
396
360
397
360
398
360
399
360
39A
360
39B
360
39C
360
39D
360
39E
360
39F
360
3A0
360
3A1
360
3A2
360
3A3
360
3A4
360
3A5
360
3A6
360
3A7
360
3A8
360
3A9
360
3AA
360
3AB
360
3AC
360
3B6
360
3B7
360
3B8
360
3B9
360
3BB
360
3BC
360
3BD
360
3BE
360
3BF
360
3C0
360
3C1
360
3C2
360
3C3
360
3C4
360
3C5
360
3C6
360
3C7
360
3CD
360
3CE
360
3CF
360
3D0
360
3D1
360
3D2
360
3D3
360
3D4
360
3D9
360
3DA
360
3DB
360
3DC
360
3DD
360
3DE
360
3EE
 94
        0
  0
ACAD_PROXY_OBJECT
  5
33B
102
{ACAD_REACTORS
330
C
102
}
330
C
100
AcDbProxyObject
 90
      499
 91
      568
 95
   851991
 70
     0
 93
       50
310
06000041641280
  0
ACAD_PROXY_OBJECT
  5
332
102
{ACAD_REACTORS
330
C
102
}
330
C
100
AcDbProxyObject
 90
      499
 91
      509
 95
   851991
 70
     0
 93
       48
310
903412000000
330
333
330
334
330
335
 94
        0
  0
ACAD_PROXY_OBJECT
  5
3ED
102
{ACAD_REACTORS
330
C
102
}
330
C
100
AcDbProxyObject
 90
      499
 91
      509
 95
   851991
 70
     0
 93
       32
310
90140A00
330
3EE
 94
        0
  0
ACAD_PROXY_OBJECT
  5
3C8
102
{ACAD_REACTORS
330
C
102
}
330
C
100
AcDbProxyObject
 90
      499
 91
      569
 95
   851991
 70
     0
 93
       42
310
0006000043C3
330
3B6
 94
        0
  0
ACAD_PROXY_OBJECT
  5
3B1
102
{ACAD_REACTORS
330
C
102
}
330
C
100
AcDbProxyObject
 90
      499
 91
      570
 95
   851991
 70
     0
 93
      114
310
000000438000000000000000000000
  0
ACAD_PROXY_OBJECT
  5
3CA
102
{ACAD_REACTORS
330
C
102
}
330
C
100
AcDbProxyObject
 90
      499
 91
      571
 95
   851991
 70
     0
 93
       34
310
05000044DA
  0
ACAD_PROXY_OBJECT
  5
3BA
102
{ACAD_REACTORS
330
C
102
}
330
C
100
AcDbProxyObject
 90
      499
 91
      509
 95
   851991
 70
     0
 93
      128
310
90D44600000000000000000000000000
330
3BB
330
3BC
330
3BD
330
3BE
330
3BF
330
3C0
330
3C1
330
3C2
330
3C3
330
3C4
330
3C5
330
3C6
330
3C7
 94
        0
  0
ACAD_PROXY_OBJECT
  5
35F
102
{ACAD_REACTORS
330
C
102
}
330
C
100
AcDbProxyObject
 90
      499
 91
      572
 95
   851991
 70
     0
 93
       42
310
000100005AC3
330
33E
 94
        0
  0
DICTIONARY
  5
326
102
{ACAD_REACTORS
330
C
102
}
330
C
100
AcDbDictionary
281
     1
  3
ACMGSETTINGS
350
327
  3
AMGLAYCFG
350
3F1
  0
ACAD_PROXY_OBJECT
  5
367
102
{ACAD_REACTORS
330
C
102
}
330
C
100
AcDbProxyObject
 90
      499
 91
      575
 95
   851991
 70
     0
 93
       34
310
050000429A
  0
ACAD_PROXY_OBJECT
  5
369
102
{ACAD_REACTORS
330
C
102
}
330
C
100
AcDbProxyObject
 90
      499
 91
      576
 95
   851991
 70
     0
 93
      424
310
585314D600000000000000000000000000000000000000000000000000000000000000000000000000000000000000000000000000
330
37C
330
37D
330
37E
330
37F
330
380
330
381
330
382
330
383
330
384
330
385
330
386
330
387
330
388
330
389
330
38A
330
38B
330
38C
330
38D
330
38E
330
38F
330
390
330
391
330
392
330
393
330
394
330
395
330
396
330
397
330
398
330
399
330
39A
330
39B
330
39C
330
39D
330
39E
330
39F
330
3A0
330
3A1
330
3A2
330
3A3
330
3A4
330
3A5
330
3A6
330
3A7
330
3A8
330
3A9
330
3AA
330
3AB
330
3AC
 94
        0
  0
ACAD_PROXY_OBJECT
  5
3D5
102
{ACAD_REACTORS
330
C
102
}
330
C
100
AcDbProxyObject
 90
      499
 91
      577
 95
   851991
 70
     0
 93
       74
310
0600004A400000000000
330
3DC
330
0
330
3DD
330
0
330
0
 94
        0
  0
ACAD_PROXY_OBJECT
  5
36A
102
{ACAD_REACTORS
330
C
102
}
330
C
100
AcDbProxyObject
 90
      499
 91
      509
 95
   851991
 70
     0
 93
      168
310
4C5114560000000000000000000000000000000000
330
36B
330
36C
330
36D
330
36E
330
36F
330
370
330
371
330
372
330
373
330
374
330
375
330
376
330
377
330
378
330
379
330
37A
330
37B
 94
        0
  0
ACAD_PROXY_OBJECT
  5
3CC
102
{ACAD_REACTORS
330
C
102
}
330
C
100
AcDbProxyObject
 90
      499
 91
      509
 95
   851991
 70
     0
 93
       88
310
9084320000000000000000
330
3CD
330
3CE
330
3CF
330
3D0
330
3D1
330
3D2
330
3D3
330
3D4
 94
        0
  0
ACAD_PROXY_OBJECT
  5
3B3
102
{ACAD_REACTORS
330
C
102
}
330
C
100
AcDbProxyObject
 90
      499
 91
      578
 95
   851991
 70
     0
 93
        8
310
05
  0
ACAD_PROXY_OBJECT
  5
3B2
102
{ACAD_REACTORS
330
C
102
}
330
C
100
AcDbProxyObject
 90
      499
 91
      579
 95
   851991
 70
     0
 93
        8
310
04
  0
DICTIONARY
  5
440
102
{ACAD_REACTORS
330
B45
102
}
330
B45
100
AcDbDictionary
281
     1
  3
*A1
350
441
  0
LAYOUT
  5
74
102
{ACAD_REACTORS
330
1A
102
}
330
1A
100
AcDbPlotSettings
  1

  2
\\ADSCCNDC1\hq601xrx1
  4

  6

 40
0.0
 41
0.0
 42
0.0
 43
0.0
 44
0.0
 45
0.0
 46
0.0
 47
0.0
 48
0.0
 49
0.0
140
0.0
141
0.0
142
1.0
143
1.0
 70
   688
 72
     0
 73
     0
 74
     5
  7
KPT.ctb
 75
    16
 76
     0
 77
     2
 78
   300
147
1.0
148
0.0
149
0.0
100
AcDbLayout
  1
Layout1
 70
     1
 71
     1
 10
0.0
 20
0.0
 11
12.0
 21
9.0
 12
0.0
 22
0.0
 32
0.0
 14
0.0
 24
0.0
 34
0.0
 15
0.0
 25
0.0
 35
0.0
146
0.0
 13
0.0
 23
0.0
 33
0.0
 16
1.0
 26
0.0
 36
0.0
 17
0.0
 27
1.0
 37
0.0
 76
     0
330
73
  0
LAYOUT
  5
22
102
{ACAD_REACTORS
330
1A
102
}
330
1A
100
AcDbPlotSettings
  1

  2
none_device
  4
Sun_Hi-Res_(1280.00_x_1600.00_Pixels)
  6

 40
6.349999904632567
 41
4.233341693878172
 42
6.349990844726562
 43
4.23333740234375
 44
1280.0
 45
1600.0
 46
0.0
 47
0.0
 48
0.0
 49
0.0
140
0.0
141
0.0
142
1.0
143
0.1573285875301502
 70
 11952
 72
     2
 73
     1
 74
     0
  7
KPT.ctb
 75
     0
 76
     0
 77
     2
 78
   300
147
0.0135711882726845
148
3658.355290520464
149
2374.418055633259
100
AcDbLayout
  1
Model
 70
     1
 71
     0
 10
0.0
 20
0.0
 11
12.0
 21
9.0
 12
0.0
 22
0.0
 32
0.0
 14
19.98285292650833
 24
-75.10126803798181
 34
0.0
 15
182.2292561629767
 25
-16.04530778897036
 35
0.0
146
0.0
 13
0.0
 23
0.0
 33
0.0
 16
1.0
 26
0.0
 36
0.0
 17
0.0
 27
1.0
 37
0.0
 76
     0
330
1F
331
97
  0
MLINESTYLE
  5
18
102
{ACAD_REACTORS
330
17
102
}
330
17
100
AcDbMlineStyle
  2
Standard
 70
     0
  3

 62
     0
 51
90.0
 52
90.0
 71
     2
 49
0.5
 62
   256
  6
BYLAYER
 49
-0.5
 62
   256
  6
BYLAYER
  0
ACDBPLACEHOLDER
  5
F
102
{ACAD_REACTORS
330
E
102
}
330
E
  0
SCALE
  5
64C
102
{ACAD_REACTORS
330
99
102
}
330
99
100
AcDbScale
 70
     0
300
1:1
140
1.0
141
1.0
290
     1
  0
SCALE
  5
64D
102
{ACAD_REACTORS
330
99
102
}
330
99
100
AcDbScale
 70
     0
300
1:2
140
1.0
141
2.0
290
     0
  0
SCALE
  5
64E
102
{ACAD_REACTORS
330
99
102
}
330
99
100
AcDbScale
 70
     0
300
1:4
140
1.0
141
4.0
290
     0
  0
SCALE
  5
64F
102
{ACAD_REACTORS
330
99
102
}
330
99
100
AcDbScale
 70
     0
300
1:5
140
1.0
141
5.0
290
     0
  0
SCALE
  5
650
102
{ACAD_REACTORS
330
99
102
}
330
99
100
AcDbScale
 70
     0
300
1:8
140
1.0
141
8.0
290
     0
  0
SCALE
  5
651
102
{ACAD_REACTORS
330
99
102
}
330
99
100
AcDbScale
 70
     0
300
1:10
140
1.0
141
10.0
290
     0
  0
SCALE
  5
652
102
{ACAD_REACTORS
330
99
102
}
330
99
100
AcDbScale
 70
     0
300
1:16
140
1.0
141
16.0
290
     0
  0
SCALE
  5
653
102
{ACAD_REACTORS
330
99
102
}
330
99
100
AcDbScale
 70
     0
300
1:20
140
1.0
141
20.0
290
     0
  0
SCALE
  5
654
102
{ACAD_REACTORS
330
99
102
}
330
99
100
AcDbScale
 70
     0
300
1:30
140
1.0
141
30.0
290
     0
  0
SCALE
  5
655
102
{ACAD_REACTORS
330
99
102
}
330
99
100
AcDbScale
 70
     0
300
1:40
140
1.0
141
40.0
290
     0
  0
SCALE
  5
656
102
{ACAD_REACTORS
330
99
102
}
330
99
100
AcDbScale
 70
     0
300
1:50
140
1.0
141
50.0
290
     0
  0
SCALE
  5
657
102
{ACAD_REACTORS
330
99
102
}
330
99
100
AcDbScale
 70
     0
300
1:100
140
1.0
141
100.0
290
     0
  0
SCALE
  5
658
102
{ACAD_REACTORS
330
99
102
}
330
99
100
AcDbScale
 70
     0
300
2:1
140
2.0
141
1.0
290
     0
  0
SCALE
  5
659
102
{ACAD_REACTORS
330
99
102
}
330
99
100
AcDbScale
 70
     0
300
4:1
140
4.0
141
1.0
290
     0
  0
SCALE
  5
65A
102
{ACAD_REACTORS
330
99
102
}
330
99
100
AcDbScale
 70
     0
300
8:1
140
8.0
141
1.0
290
     0
  0
SCALE
  5
65B
102
{ACAD_REACTORS
330
99
102
}
330
99
100
AcDbScale
 70
     0
300
10:1
140
10.0
141
1.0
290
     0
  0
SCALE
  5
65C
102
{ACAD_REACTORS
330
99
102
}
330
99
100
AcDbScale
 70
     0
300
100:1
140
100.0
141
1.0
290
     0
  0
SCALE
  5
65D
102
{ACAD_REACTORS
330
99
102
}
330
99
100
AcDbScale
 70
     0
300
1/128" = 1'-0"
140
0.0078125
141
12.0
290
     0
  0
SCALE
  5
65E
102
{ACAD_REACTORS
330
99
102
}
330
99
100
AcDbScale
 70
     0
300
1/64" = 1'-0"
140
0.015625
141
12.0
290
     0
  0
SCALE
  5
65F
102
{ACAD_REACTORS
330
99
102
}
330
99
100
AcDbScale
 70
     0
300
1/32" = 1'-0"
140
0.03125
141
12.0
290
     0
  0
SCALE
  5
660
102
{ACAD_REACTORS
330
99
102
}
330
99
100
AcDbScale
 70
     0
300
1/16" = 1'-0"
140
0.0625
141
12.0
290
     0
  0
SCALE
  5
661
102
{ACAD_REACTORS
330
99
102
}
330
99
100
AcDbScale
 70
     0
300
3/32" = 1'-0"
140
0.09375
141
12.0
290
     0
  0
SCALE
  5
662
102
{ACAD_REACTORS
330
99
102
}
330
99
100
AcDbScale
 70
     0
300
1/8" = 1'-0"
140
0.125
141
12.0
290
     0
  0
SCALE
  5
663
102
{ACAD_REACTORS
330
99
102
}
330
99
100
AcDbScale
 70
     0
300
3/16" = 1'-0"
140
0.1875
141
12.0
290
     0
  0
SCALE
  5
664
102
{ACAD_REACTORS
330
99
102
}
330
99
100
AcDbScale
 70
     0
300
1/4" = 1'-0"
140
0.25
141
12.0
290
     0
  0
SCALE
  5
665
102
{ACAD_REACTORS
330
99
102
}
330
99
100
AcDbScale
 70
     0
300
3/8" = 1'-0"
140
0.375
141
12.0
290
     0
  0
SCALE
  5
666
102
{ACAD_REACTORS
330
99
102
}
330
99
100
AcDbScale
 70
     0
300
1/2" = 1'-0"
140
0.5
141
12.0
290
     0
  0
SCALE
  5
667
102
{ACAD_REACTORS
330
99
102
}
330
99
100
AcDbScale
 70
     0
300
3/4" = 1'-0"
140
0.75
141
12.0
290
     0
  0
SCALE
  5
668
102
{ACAD_REACTORS
330
99
102
}
330
99
100
AcDbScale
 70
     0
300
1" = 1'-0"
140
1.0
141
12.0
290
     0
  0
SCALE
  5
669
102
{ACAD_REACTORS
330
99
102
}
330
99
100
AcDbScale
 70
     0
300
1-1/2" = 1'-0"
140
1.5
141
12.0
290
     0
  0
SCALE
  5
66A
102
{ACAD_REACTORS
330
99
102
}
330
99
100
AcDbScale
 70
     0
300
3" = 1'-0"
140
3.0
141
12.0
290
     0
  0
SCALE
  5
66B
102
{ACAD_REACTORS
330
99
102
}
330
99
100
AcDbScale
 70
     0
300
6" = 1'-0"
140
6.0
141
12.0
290
     0
  0
SCALE
  5
66C
102
{ACAD_REACTORS
330
99
102
}
330
99
100
AcDbScale
 70
     0
300
1'-0" = 1'-0"
140
12.0
141
12.0
290
     0
  0
TABLESTYLE
  5
A0A
102
{ACAD_REACTORS
330
92
102
}
330
92
100
AcDbTableStyle
  3
Standard
 70
     0
 71
     0
 40
0.06
 41
0.06
280
     0
281
     0
  7
Standard
140
0.18
170
     2
 62
     0
 63
     7
283
     0
 90
      512
 91
        0
  1

274
    -2
284
     1
 64
     0
275
    -2
285
     1
 65
     0
276
    -2
286
     1
 66
     0
277
    -2
287
     1
 67
     0
278
    -2
288
     1
 68
     0
279
    -2
289
     1
 69
     0
  7
Standard
140
0.25
170
     5
 62
     0
 63
     7
283
     0
 90
      512
 91
        0
  1

274
    -2
284
     1
 64
     0
275
    -2
285
     1
 65
     0
276
    -2
286
     1
 66
     0
277
    -2
287
     1
 67
     0
278
    -2
288
     1
 68
     0
279
    -2
289
     1
 69
     0
  7
Standard
140
0.18
170
     5
 62
     0
 63
     7
283
     0
 90
      512
 91
        0
  1

274
    -2
284
     1
 64
     0
275
    -2
285
     1
 65
     0
276
    -2
286
     1
 66
     0
277
    -2
287
     1
 67
     0
278
    -2
288
     1
 68
     0
279
    -2
289
     1
 69
     0
  0
DICTIONARYVAR
  5
8B5
102
{ACAD_REACTORS
330
59
102
}
330
59
100
DictionaryVariables
280
     0
  1
1:1
  0
DICTIONARYVAR
  5
98
102
{ACAD_REACTORS
330
59
102
}
330
59
100
DictionaryVariables
280
     0
  1

  0
DICTIONARYVAR
  5
320
102
{ACAD_REACTORS
330
59
102
}
330
59
100
DictionaryVariables
280
     0
  1
1
  0
DICTIONARYVAR
  5
A0C
102
{ACAD_REACTORS
330
59
102
}
330
59
100
DictionaryVariables
280
     0
  1
1
  0
DICTIONARYVAR
  5
44A
102
{ACAD_REACTORS
330
59
102
}
330
59
100
DictionaryVariables
280
     0
  1
1
  0
ACAD_PROXY_OBJECT
  5
3E1
102
{ACAD_REACTORS
330
3E0
102
}
330
3E0
100
AcDbProxyObject
 90
      499
 91
      512
 95
   851991
 70
     0
 93
      118
310
405010040CA904C415CD5B07571028
350
3E2
 94
        0
  0
DICTIONARY
  5
3EF
102
{ACAD_REACTORS
330
3E0
102
}
330
3E0
100
AcDbDictionary
281
     1
  3
ANSI
350
41F
  3
ISO
350
3F0
  0
ACAD_PROXY_OBJECT
  5
333
330
330
100
AcDbProxyObject
 90
      499
 91
      547
 95
   851991
 70
     0
 93
      156
310
00010143D050D351505391D5531054925390D490
330
330
 94
        0
  0
ACAD_PROXY_OBJECT
  5
334
330
330
100
AcDbProxyObject
 90
      499
 91
      547
 95
   851991
 70
     0
 93
      148
310
000101439050D351531253915054925390D490
330
330
 94
        0
  0
ACAD_PROXY_OBJECT
  5
335
330
330
100
AcDbProxyObject
 90
      499
 91
      548
 95
   851991
 70
     0
 93
      156
310
000101439050D35154D6535093D314D256915080
330
330
 94
        0
  0
ACAD_PROXY_OBJECT
  5
337
330
330
100
AcDbProxyObject
 90
      499
 91
      549
 95
   851991
 70
     0
 93
       88
310
000101411093D34C402B00
330
330
330
0
330
0
 94
        0
  0
ACAD_PROXY_OBJECT
  5
33E
330
330
100
AcDbProxyObject
 90
      499
 91
      550
 95
   851991
 70
     0
 93
      374
310
0001014119185D1940508362E302E31382E30014119185D1940508362E302E31382E3040501000041505391D311658
330
330
330
33F
330
343
 94
        0
  0
ACAD_PROXY_OBJECT
  5
33F
330
330
100
AcDbProxyObject
 90
      499
 91
      551
 95
   851991
 70
     0
 93
       48
310
000190140A00
330
330
330
340
 94
        0
  0
ACAD_PROXY_OBJECT
  5
340
330
330
100
AcDbProxyObject
 90
      499
 91
      552
 95
   851991
 70
     0
 93
       48
310
0001AA000000
330
330
330
0
330
341
330
0
 94
        0
  0
ACAD_PROXY_OBJECT
  5
341
330
330
100
AcDbProxyObject
 90
      499
 91
      553
 95
   851991
 70
     0
 93
       28
310
0001AAAE
330
330
 94
        0
  0
ACAD_PROXY_OBJECT
  5
344
330
330
100
AcDbProxyObject
 90
      499
 91
      548
 95
   851991
 70
     0
 93
      108
310
000101421053521310D05310D010
330
330
 94
        0
  0
ACAD_PROXY_OBJECT
  5
345
330
330
100
AcDbProxyObject
 90
      499
 91
      548
 95
   851991
 70
     0
 93
      124
310
00010142905354915554D15112535010
330
330
 94
        0
  0
ACAD_PROXY_OBJECT
  5
346
330
330
100
AcDbProxyObject
 90
      499
 91
      548
 95
   851991
 70
     0
 93
      132
310
00010143105354D150D51253D391125360
330
330
 94
        0
  0
ACAD_PROXY_OBJECT
  5
347
330
330
100
AcDbProxyObject
 90
      499
 91
      548
 95
   851991
 70
     0
 93
      124
310
00010142905355941093D49111549010
330
330
 94
        0
  0
ACAD_PROXY_OBJECT
  5
348
330
330
100
AcDbProxyObject
 90
      499
 91
      548
 95
   851991
 70
     0
 93
      116
310
0001014290535115D1D0D3D313D4A0
330
330
 94
        0
  0
ACAD_PROXY_OBJECT
  5
349
330
330
100
AcDbProxyObject
 90
      499
 91
      548
 95
   851991
 70
     0
 93
      148
310
00010143505355925155D49151949154D21010
330
330
 94
        0
  0
ACAD_PROXY_OBJECT
  5
34A
330
330
100
AcDbProxyObject
 90
      499
 91
      548
 95
   851991
 70
     0
 93
      172
310
00010144105350539393D51154149154D15495915010
330
330
 94
        0
  0
ACAD_PROXY_OBJECT
  5
34C
330
330
100
AcDbProxyObject
 90
      499
 91
      548
 95
   851991
 70
     0
 93
      172
310
00010144105350555513D11253505494905391D15010
330
330
 94
        0
  0
ACAD_PROXY_OBJECT
  5
34D
330
330
100
AcDbProxyObject
 90
      499
 91
      548
 95
   851991
 70
     0
 93
      124
310
00010142D05351561514915191125360
330
330
 94
        0
  0
ACAD_PROXY_OBJECT
  5
34E
330
330
100
AcDbProxyObject
 90
      499
 91
      548
 95
   851991
 70
     0
 93
      132
310
00010142D05355105410539393D5115010
330
330
 94
        0
  0
ACAD_PROXY_OBJECT
  5
34F
330
330
100
AcDbProxyObject
 90
      499
 91
      548
 95
   851991
 70
     0
 93
      108
310
00010142105350555513D0D31010
330
330
 94
        0
  0
ACAD_PROXY_OBJECT
  5
350
330
330
100
AcDbProxyObject
 90
      499
 91
      548
 95
   851991
 70
     0
 93
      108
310
00010142105350D3119150551050
330
330
 94
        0
  0
ACAD_PROXY_OBJECT
  5
351
330
330
100
AcDbProxyObject
 90
      499
 91
      548
 95
   851991
 70
     0
 93
      108
310
00010142105350D315925155D3F0
330
330
 94
        0
  0
ACAD_PROXY_OBJECT
  5
352
330
330
100
AcDbProxyObject
 90
      499
 91
      548
 95
   851991
 70
     0
 93
      148
310
0001014350535212511156915493D112535010
330
330
 94
        0
  0
ACAD_PROXY_OBJECT
  5
353
330
330
100
AcDbProxyObject
 90
      499
 91
      548
 95
   851991
 70
     0
 93
      124
310
00010142905352105510D21254D3D010
330
330
 94
        0
  0
ACAD_PROXY_OBJECT
  5
354
330
330
100
AcDbProxyObject
 90
      499
 91
      548
 95
   851991
 70
     0
 93
      148
310
00010143905354D25391D31152105513105660
330
330
 94
        0
  0
ACAD_PROXY_OBJECT
  5
355
330
330
100
AcDbProxyObject
 90
      499
 91
      548
 95
   851991
 70
     0
 93
      124
310
00010142D0535115D1D193111254D420
330
330
 94
        0
  0
ACAD_PROXY_OBJECT
  5
356
330
330
100
AcDbProxyObject
 90
      499
 91
      548
 95
   851991
 70
     0
 93
      100
310
00010142105350555513D213A0
330
330
 94
        0
  0
ACAD_PROXY_OBJECT
  5
357
330
330
100
AcDbProxyObject
 90
      499
 91
      548
 95
   851991
 70
     0
 93
      116
310
000101425053521390D3D553951010
330
330
 94
        0
  0
ACAD_PROXY_OBJECT
  5
358
330
330
100
AcDbProxyObject
 90
      499
 91
      548
 95
   851991
 70
     0
 93
      108
310
0001014210535213941493D29010
330
330
 94
        0
  0
ACAD_PROXY_OBJECT
  5
359
330
330
100
AcDbProxyObject
 90
      499
 91
      548
 95
   851991
 70
     0
 93
      108
310
0001014210535213951654115070
330
330
 94
        0
  0
ACAD_PROXY_OBJECT
  5
35A
330
330
100
AcDbProxyObject
 90
      499
 91
      548
 95
   851991
 70
     0
 93
      108
310
000101421053521395925155D0F0
330
330
 94
        0
  0
ACAD_PROXY_OBJECT
  5
35B
330
330
100
AcDbProxyObject
 90
      499
 91
      548
 95
   851991
 70
     0
 93
      140
310
00010143505354D150D51253D390D3D41660
330
330
 94
        0
  0
ACAD_PROXY_OBJECT
  5
35C
330
330
100
AcDbProxyObject
 90
      499
 91
      548
 95
   851991
 70
     0
 93
      108
310
00010142105350D3141493D29030
330
330
 94
        0
  0
ACAD_PROXY_OBJECT
  5
35D
330
330
100
AcDbProxyObject
 90
      499
 91
      547
 95
   851991
 70
     0
 93
      212
310
00010143905350555513D2105510D21493D500000000000002E400
330
330
 94
        0
  0
ACAD_PROXY_OBJECT
  5
35E
330
330
100
AcDbProxyObject
 90
      499
 91
      548
 95
   851991
 70
     0
 93
      156
310
00010143905350555513D2105510D21111551010
330
330
 94
        0
  0
ACAD_PROXY_OBJECT
  5
36B
330
330
100
AcDbProxyObject
 90
      499
 91
      548
 95
   851991
 70
     0
 93
      116
310
000101425053541051D15311539190
330
330
 94
        0
  0
ACAD_PROXY_OBJECT
  5
36C
330
330
100
AcDbProxyObject
 90
      499
 91
      548
 95
   851991
 70
     0
 93
      108
310
000101421053555312539154D050
330
330
 94
        0
  0
ACAD_PROXY_OBJECT
  5
36D
330
330
100
AcDbProxyObject
 90
      499
 91
      548
 95
   851991
 70
     0
 93
      108
310
000101421053559312539154D030
330
330
 94
        0
  0
ACAD_PROXY_OBJECT
  5
36E
330
330
100
AcDbProxyObject
 90
      499
 91
      548
 95
   851991
 70
     0
 93
      140
310
00010143105354D1911254D41353D1115010
330
330
 94
        0
  0
ACAD_PROXY_OBJECT
  5
36F
330
330
100
AcDbProxyObject
 90
      499
 91
      547
 95
   851991
 70
     0
 93
      172
310
00010142505354119255105391C1C052DC9A6F104400
330
330
 94
        0
  0
ACAD_PROXY_OBJECT
  5
370
330
330
100
AcDbProxyObject
 90
      499
 91
      547
 95
   851991
 70
     0
 93
      164
310
000101421053559150D05551C000000000000E03F0
330
330
 94
        0
  0
ACAD_PROXY_OBJECT
  5
371
330
330
100
AcDbProxyObject
 90
      499
 91
      547
 95
   851991
 70
     0
 93
      180
310
00010142905350931153911513D307B14AE47E17A843F0
330
330
 94
        0
  0
ACAD_PROXY_OBJECT
  5
372
330
330
100
AcDbProxyObject
 90
      499
 91
      547
 95
   851991
 70
     0
 93
      172
310
0001014250535293D25391D05407B14AE47E17A843F0
330
330
 94
        0
  0
ACAD_PROXY_OBJECT
  5
373
330
330
100
AcDbProxyObject
 90
      499
 91
      547
 95
   851991
 70
     0
 93
      172
310
000101425053541192551311538000000FC83D797410
330
330
 94
        0
  0
ACAD_PROXY_OBJECT
  5
374
330
330
100
AcDbProxyObject
 90
      499
 91
      547
 95
   851991
 70
     0
 93
      156
310
00010141D053559150D4D18000000000000E03F0
330
330
 94
        0
  0
ACAD_PROXY_OBJECT
  5
375
330
330
100
AcDbProxyObject
 90
      499
 91
      547
 95
   851991
 70
     0
 93
      156
310
00010141D05354D19513D309A9999999999993F0
330
330
 94
        0
  0
ACAD_PROXY_OBJECT
  5
376
330
330
100
AcDbProxyObject
 90
      499
 91
      547
 95
   851991
 70
     0
 93
      172
310
000101425053541192551513D307B14AE47E17A843F0
330
330
 94
        0
  0
ACAD_PROXY_OBJECT
  5
377
330
330
100
AcDbProxyObject
 90
      499
 91
      547
 95
   851991
 70
     0
 93
      188
310
00010142D05354D151D192551513D307B14AE47E17A843F0
330
330
 94
        0
  0
ACAD_PROXY_OBJECT
  5
378
330
330
100
AcDbProxyObject
 90
      499
 91
      547
 95
   851991
 70
     0
 93
      148
310
000101419053541311538000000FC83D797410
330
330
 94
        0
  0
ACAD_PROXY_OBJECT
  5
379
330
330
100
AcDbProxyObject
 90
      499
 91
      547
 95
   851991
 70
     0
 93
      172
310
00010142505354105391D513D301C052DC9A6F104400
330
330
 94
        0
  0
ACAD_PROXY_OBJECT
  5
37A
330
330
100
AcDbProxyObject
 90
      499
 91
      547
 95
   851991
 70
     0
 93
      132
310
0001014114D25691400000000000024400
330
330
 94
        0
  0
ACAD_PROXY_OBJECT
  5
37B
330
330
100
AcDbProxyObject
 90
      499
 91
      554
 95
   851991
 70
     0
 93
      156
310
00010142905351D4941491519256005034153470
330
330
 94
        0
  0
ACAD_PROXY_OBJECT
  5
37C
330
330
100
AcDbProxyObject
 90
      499
 91
      555
 95
   851991
 70
     0
 93
      314
310
00014080509646973745363616C650000000000003C2FC000000000000F0BF0000003F20F5E5D040
330
330
 94
        0
  0
ACAD_PROXY_OBJECT
  5
37D
330
330
100
AcDbProxyObject
 90
      499
 91
      555
 95
   851991
 70
     0
 93
      322
310
0001408050A65646175526F74617465060B51153EC87E4FC182D4454FB2119C0060B51153EC8465000
330
330
 94
        0
  0
ACAD_PROXY_OBJECT
  5
37E
330
330
100
AcDbProxyObject
 90
      499
 91
      555
 95
   851991
 70
     0
 93
      314
310
00014080509656461755477697374060B51153EC846500000000FC83D797C10000003F20F5E5D040
330
330
 94
        0
  0
ACAD_PROXY_OBJECT
  5
37F
330
330
100
AcDbProxyObject
 90
      499
 91
      556
 95
   851991
 70
     0
 93
      286
310
000140C050A656467654F75747075740144941BDB1E5B1A5B994817D41BDB1E5B1A5B994
330
330
 94
        0
  0
ACAD_PROXY_OBJECT
  5
380
330
330
100
AcDbProxyObject
 90
      499
 91
      557
 95
   851991
 70
     0
 93
      154
310
0001404050B65646974507265766965774064040
330
330
 94
        0
  0
ACAD_PROXY_OBJECT
  5
381
330
330
100
AcDbProxyObject
 90
      499
 91
      557
 95
   851991
 70
     0
 93
      170
310
0001404050A666C6F77556C696E657342A3A00C00000
330
330
 94
        0
  0
ACAD_PROXY_OBJECT
  5
382
330
330
100
AcDbProxyObject
 90
      499
 91
      557
 95
   851991
 70
     0
 93
      170
310
0001404050A666C6F77566C696E657342A3A00C00000
330
330
 94
        0
  0
ACAD_PROXY_OBJECT
  5
383
330
330
100
AcDbProxyObject
 90
      499
 91
      555
 95
   851991
 70
     0
 93
      322
310
0001408050A666C7366456E645261640000000000003C2FC000000000000F0BF0000003F20F5E5D040
330
330
 94
        0
  0
ACAD_PROXY_OBJECT
  5
384
330
330
100
AcDbProxyObject
 90
      499
 91
      556
 95
   851991
 70
     0
 93
      238
310
000140C05086A6E33644D6F6465014393585B9D585B0817D3585B9D585B0
330
330
 94
        0
  0
ACAD_PROXY_OBJECT
  5
385
330
330
100
AcDbProxyObject
 90
      499
 91
      556
 95
   851991
 70
     0
 93
      286
310
000140C050A6A6E33644F75747075740144941BDB1E5B1A5B994817D41BDB1E5B1A5B994
330
330
 94
        0
  0
ACAD_PROXY_OBJECT
  5
386
330
330
100
AcDbProxyObject
 90
      499
 91
      555
 95
   851991
 70
     0
 93
      306
310
000140805086C656E675065726300000000002016D002D431CEBE2361A3F0000003F20F5E5D040
330
330
 94
        0
  0
ACAD_PROXY_OBJECT
  5
387
330
330
100
AcDbProxyObject
 90
      499
 91
      555
 95
   851991
 70
     0
 93
      266
310
0001408050B6D61737344656E7369747942D431CEBE2361A3F0000003F20F5E5D040
330
330
 94
        0
  0
ACAD_PROXY_OBJECT
  5
388
330
330
100
AcDbProxyObject
 90
      499
 91
      555
 95
   851991
 70
     0
 93
      186
310
000140805096D617373546869636BA0000003F20F5E5D040
330
330
 94
        0
  0
ACAD_PROXY_OBJECT
  5
389
330
330
100
AcDbProxyObject
 90
      499
 91
      556
 95
   851991
 70
     0
 93
      222
310
000140C05086D61737354797065014314DA195B1B0817D4DA195B1B0
330
330
 94
        0
  0
ACAD_PROXY_OBJECT
  5
38A
330
330
100
AcDbProxyObject
 90
      499
 91
      555
 95
   851991
 70
     0
 93
      242
310
000140805086F667366446973744000000FC83D797C10000003F20F5E5D040
330
330
 94
        0
  0
ACAD_PROXY_OBJECT
  5
38B
330
330
100
AcDbProxyObject
 90
      499
 91
      555
 95
   851991
 70
     0
 93
      258
310
0001408050A7072696D52616469757342D431CEBE2361A3F0000003F20F5E5D040
330
330
 94
        0
  0
ACAD_PROXY_OBJECT
  5
38C
330
330
100
AcDbProxyObject
 90
      499
 91
      555
 95
   851991
 70
     0
 93
      194
310
0001408050A7072696D546F70526164A0000003F20F5E5D040
330
330
 94
        0
  0
ACAD_PROXY_OBJECT
  5
38D
330
330
100
AcDbProxyObject
 90
      499
 91
      555
 95
   851991
 70
     0
 93
      266
310
0001408050B7072696D5475626552616442D431CEBE2361A3F0000003F20F5E5D040
330
330
 94
        0
  0
ACAD_PROXY_OBJECT
  5
38E
330
330
100
AcDbProxyObject
 90
      499
 91
      555
 95
   851991
 70
     0
 93
      258
310
0001408050A7072696D4865696768744000000FC83D797C10000003F20F5E5D040
330
330
 94
        0
  0
ACAD_PROXY_OBJECT
  5
38F
330
330
100
AcDbProxyObject
 90
      499
 91
      555
 95
   851991
 70
     0
 93
      250
310
000140805097072696D5374416E678182D4454FB2119C0060B51153EC8465000
330
330
 94
        0
  0
ACAD_PROXY_OBJECT
  5
390
330
330
100
AcDbProxyObject
 90
      499
 91
      555
 95
   851991
 70
     0
 93
      322
310
0001408050A7072696D456E64416E67060B51153EC846500182D4454FB2119C0060B51153EC8465000
330
330
 94
        0
  0
ACAD_PROXY_OBJECT
  5
391
330
330
100
AcDbProxyObject
 90
      499
 91
      555
 95
   851991
 70
     0
 93
      242
310
000140805087265765374416E678182D4454FB2119C0060B51153EC8465000
330
330
 94
        0
  0
ACAD_PROXY_OBJECT
  5
392
330
330
100
AcDbProxyObject
 90
      499
 91
      555
 95
   851991
 70
     0
 93
      314
310
00014080509726576456E64416E67060B51153EC846500182D4454FB2119C0060B51153EC8465000
330
330
 94
        0
  0
ACAD_PROXY_OBJECT
  5
393
330
330
100
AcDbProxyObject
 90
      499
 91
      557
 95
   851991
 70
     0
 93
      194
310
0001404050C7266736655706174636865734290139C0C00000
330
330
 94
        0
  0
ACAD_PROXY_OBJECT
  5
394
330
330
100
AcDbProxyObject
 90
      499
 91
      557
 95
   851991
 70
     0
 93
      194
310
0001404050C7266736656706174636865734290139C0C00000
330
330
 94
        0
  0
ACAD_PROXY_OBJECT
  5
395
330
330
100
AcDbProxyObject
 90
      499
 91
      556
 95
   851991
 70
     0
 93
      238
310
000140C0508747562654D6F6465014393585B9D585B0817D3585B9D585B0
330
330
 94
        0
  0
ACAD_PROXY_OBJECT
  5
396
330
330
100
AcDbProxyObject
 90
      499
 91
      555
 95
   851991
 70
     0
 93
      274
310
0001408050C747562654469616D6574657242D431CEBE2361A3F0000003F20F5E5D040
330
330
 94
        0
  0
ACAD_PROXY_OBJECT
  5
397
330
330
100
AcDbProxyObject
 90
      499
 91
      557
 95
   851991
 70
     0
 93
      130
310
00014040509696E746572506F6C79A4040
330
330
 94
        0
  0
ACAD_PROXY_OBJECT
  5
398
330
330
100
AcDbProxyObject
 90
      499
 91
      557
 95
   851991
 70
     0
 93
      162
310
0001404050D696E746572417567506F696E74A4040
330
330
 94
        0
  0
ACAD_PROXY_OBJECT
  5
399
330
330
100
AcDbProxyObject
 90
      499
 91
      556
 95
   851991
 70
     0
 93
      214
310
000140C0509696E7465727472696D0142909BDD1A0817D09BDD1A0
330
330
 94
        0
  0
ACAD_PROXY_OBJECT
  5
39A
330
330
100
AcDbProxyObject
 90
      499
 91
      556
 95
   851991
 70
     0
 93
      214
310
000140C0509696E746572747970650142951C9A5B4817D51C9A5B4
330
330
 94
        0
  0
ACAD_PROXY_OBJECT
  5
39B
330
330
100
AcDbProxyObject
 90
      499
 91
      557
 95
   851991
 70
     0
 93
      146
310
0001404050A636F726E65727472696D4064040
330
330
 94
        0
  0
ACAD_PROXY_OBJECT
  5
39C
330
330
100
AcDbProxyObject
 90
      499
 91
      557
 95
   851991
 70
     0
 93
      130
310
000140405086F6673666B6565704064040
330
330
 94
        0
  0
ACAD_PROXY_OBJECT
  5
39D
330
330
100
AcDbProxyObject
 90
      499
 91
      557
 95
   851991
 70
     0
 93
      146
310
0001404050A70726F6A4F757470757440A40C0
330
330
 94
        0
  0
ACAD_PROXY_OBJECT
  5
39E
330
330
100
AcDbProxyObject
 90
      499
 91
      556
 95
   851991
 70
     0
 93
      246
310
000140C050D70726F6A446972656374696F6E01429D92595DC817DD92595DC
330
330
 94
        0
  0
ACAD_PROXY_OBJECT
  5
39F
330
330
100
AcDbProxyObject
 90
      499
 91
      557
 95
   851991
 70
     0
 93
      130
310
0001404050870726F6A4B6565704064040
330
330
 94
        0
  0
ACAD_PROXY_OBJECT
  5
3A0
330
330
100
AcDbProxyObject
 90
      499
 91
      556
 95
   851991
 70
     0
 93
      278
310
000140C050B70726F6A53706163696E67014413DC1D1A5B585B0817D3DC1D1A5B585B0
330
330
 94
        0
  0
ACAD_PROXY_OBJECT
  5
3A1
330
330
100
AcDbProxyObject
 90
      499
 91
      555
 95
   851991
 70
     0
 93
      250
310
0001408050970726F6A54617065728182D4454FB21F9BF060B51153EC87E4FC0
330
330
 94
        0
  0
ACAD_PROXY_OBJECT
  5
3A2
330
330
100
AcDbProxyObject
 90
      499
 91
      557
 95
   851991
 70
     0
 93
      130
310
00014040508647261674B6565704064040
330
330
 94
        0
  0
ACAD_PROXY_OBJECT
  5
3A3
330
330
100
AcDbProxyObject
 90
      499
 91
      556
 95
   851991
 70
     0
 93
      294
310
000140C050F647261674F7269656E746174696F6E0143939BDC9B585B0817D39BDC9B585B0
330
330
 94
        0
  0
ACAD_PROXY_OBJECT
  5
3A4
330
330
100
AcDbProxyObject
 90
      499
 91
      556
 95
   851991
 70
     0
 93
      270
310
000140C050E647261675472616E736974696F6E01431CD0D85B194817DCD0D85B194
330
330
 94
        0
  0
ACAD_PROXY_OBJECT
  5
3A5
330
330
100
AcDbProxyObject
 90
      499
 91
      556
 95
   851991
 70
     0
 93
      302
310
000140C051061646A757374436F6E74696E75697479014394DB5BDBDD1A0817D4DB5BDBDD1A0
330
330
 94
        0
  0
ACAD_PROXY_OBJECT
  5
3A6
330
330
100
AcDbProxyObject
 90
      499
 91
      557
 95
   851991
 70
     0
 93
      138
310
0001404050A61646A7573744B656570A4040
330
330
 94
        0
  0
ACAD_PROXY_OBJECT
  5
3A7
330
330
100
AcDbProxyObject
 90
      499
 91
      555
 95
   851991
 70
     0
 93
      250
310
0001408050972756C65576964746842D431CEBE2361A3F0000003F20F5E5D040
330
330
 94
        0
  0
ACAD_PROXY_OBJECT
  5
3A8
330
330
100
AcDbProxyObject
 90
      499
 91
      555
 95
   851991
 70
     0
 93
      274
310
0001408050C616E616C797A65447261667421D139D28615ED8FE060B51153EC8425000
330
330
 94
        0
  0
ACAD_PROXY_OBJECT
  5
3A9
330
330
100
AcDbProxyObject
 90
      499
 91
      557
 95
   851991
 70
     0
 93
      210
310
0001404050F616E616C797A654E756D4C696E65734163FDFC00000
330
330
 94
        0
  0
ACAD_PROXY_OBJECT
  5
3AA
330
330
100
AcDbProxyObject
 90
      499
 91
      557
 95
   851991
 70
     0
 93
      202
310
00014040512616E616C797A65526F746174654C696E6573A4040
330
330
 94
        0
  0
ACAD_PROXY_OBJECT
  5
3AB
330
330
100
AcDbProxyObject
 90
      499
 91
      557
 95
   851991
 70
     0
 93
      210
310
00014040513616E616C797A65446973706C61794C696E6573A4040
330
330
 94
        0
  0
ACAD_PROXY_OBJECT
  5
3AC
330
330
100
AcDbProxyObject
 90
      499
 91
      557
 95
   851991
 70
     0
 93
      258
310
00014040519616E616C797A655472616E736C7563656E7453757266616365A4040
330
330
 94
        0
  0
ACAD_PROXY_OBJECT
  5
3B6
330
330
100
AcDbProxyObject
 90
      499
 91
      558
 95
   851991
 70
     0
 93
      714
310
0001000000009AA6A9AA4051E547565204F63742030312031323A33333A3334203230303220285554432901420D8B8C0B8C4E0B8D00518547565204F63742030312030373A33343A3030203230303201420D8B8C0B8C4E0B8D00
330
330
330
3B7
330
3B8
330
3BA
330
0
 94
        0
  0
ACAD_PROXY_OBJECT
  5
3B7
330
330
100
AcDbProxyObject
 90
      499
 91
      559
 95
   851991
 70
     0
 93
       70
310
0001AAA80820000000
330
330
330
3B7
330
3B7
 94
        0
  0
ACAD_PROXY_OBJECT
  5
3B8
330
330
100
AcDbProxyObject
 90
      499
 91
      560
 95
   851991
 70
     0
 93
       48
310
000100000000
330
330
330
0
330
3B9
330
0
330
0
 94
        0
  0
ACAD_PROXY_OBJECT
  5
3B9
330
330
100
AcDbProxyObject
 90
      499
 91
      561
 95
   851991
 70
     0
 93
       40
310
000100AAAA
330
330
330
0
 94
        0
  0
ACAD_PROXY_OBJECT
  5
3BB
330
330
100
AcDbProxyObject
 90
      499
 91
      548
 95
   851991
 70
     0
 93
      124
310
00010142905350D3D39114D414D69050
330
330
 94
        0
  0
ACAD_PROXY_OBJECT
  5
3BC
330
330
100
AcDbProxyObject
 90
      499
 91
      548
 95
   851991
 70
     0
 93
      124
310
000101429053549553115353D1115010
330
330
 94
        0
  0
ACAD_PROXY_OBJECT
  5
3BD
330
330
100
AcDbProxyObject
 90
      499
 91
      548
 95
   851991
 70
     0
 93
      108
310
00010142105354D2D353D1115010
330
330
 94
        0
  0
ACAD_PROXY_OBJECT
  5
3BE
330
330
100
AcDbProxyObject
 90
      499
 91
      548
 95
   851991
 70
     0
 93
      140
310
000101435053511253511254D41353D11160
330
330
 94
        0
  0
ACAD_PROXY_OBJECT
  5
3BF
330
330
100
AcDbProxyObject
 90
      499
 91
      547
 95
   851991
 70
     0
 93
      180
310
00010142905354D2D05391D513D3000000000000010400
330
330
 94
        0
  0
ACAD_PROXY_OBJECT
  5
3C0
330
330
100
AcDbProxyObject
 90
      499
 91
      554
 95
   851991
 70
     0
 93
      164
310
00010142505354D2D4D516531140505434F4E542A0
330
330
 94
        0
  0
ACAD_PROXY_OBJECT
  5
3C1
330
330
100
AcDbProxyObject
 90
      499
 91
      548
 95
   851991
 70
     0
 93
      108
310
00010142105350D3511112535010
330
330
 94
        0
  0
ACAD_PROXY_OBJECT
  5
3C2
330
330
100
AcDbProxyObject
 90
      499
 91
      548
 95
   851991
 70
     0
 93
      108
310
00010142105350D3D35414D59010
330
330
 94
        0
  0
ACAD_PROXY_OBJECT
  5
3C3
330
330
100
AcDbProxyObject
 90
      499
 91
      554
 95
   851991
 70
     0
 93
      164
310
0001014290535410549514D4119600504504152540
330
330
 94
        0
  0
ACAD_PROXY_OBJECT
  5
3C4
330
330
100
AcDbProxyObject
 90
      499
 91
      554
 95
   851991
 70
     0
 93
      220
310
0001014350535513D3D31093D11654119600508544F4F4C424F44590
330
330
 94
        0
  0
ACAD_PROXY_OBJECT
  5
3C5
330
330
100
AcDbProxyObject
 90
      499
 91
      548
 95
   851991
 70
     0
 93
      116
310
000101425053511254D410D3D39010
330
330
 94
        0
  0
ACAD_PROXY_OBJECT
  5
3C6
330
330
100
AcDbProxyObject
 90
      499
 91
      548
 95
   851991
 70
     0
 93
      108
310
00010142105350D3D39114D41010
330
330
 94
        0
  0
ACAD_PROXY_OBJECT
  5
3C7
330
330
100
AcDbProxyObject
 90
      499
 91
      548
 95
   851991
 70
     0
 93
      124
310
0001014290535490511114D414D69190
330
330
 94
        0
  0
ACAD_PROXY_OBJECT
  5
3CD
330
330
100
AcDbProxyObject
 90
      499
 91
      548
 95
   851991
 70
     0
 93
      132
310
00010142D05050555513D4D3D315915010
330
330
 94
        0
  0
ACAD_PROXY_OBJECT
  5
3CE
330
330
100
AcDbProxyObject
 90
      499
 91
      548
 95
   851991
 70
     0
 93
      156
310
00010143905050555513D054D4D1535093115010
330
330
 94
        0
  0
ACAD_PROXY_OBJECT
  5
3CF
330
330
100
AcDbProxyObject
 90
      499
 91
      548
 95
   851991
 70
     0
 93
      148
310
00010143505055925155D49154D513D4915010
330
330
 94
        0
  0
ACAD_PROXY_OBJECT
  5
3D0
330
330
100
AcDbProxyObject
 90
      499
 91
      548
 95
   851991
 70
     0
 93
      124
310
00010142D050525394D15495105094E0
330
330
 94
        0
  0
ACAD_PROXY_OBJECT
  5
3D1
330
330
100
AcDbProxyObject
 90
      499
 91
      548
 95
   851991
 70
     0
 93
      148
310
00010143505054D0D153915554111055115010
330
330
 94
        0
  0
ACAD_PROXY_OBJECT
  5
3D2
330
330
100
AcDbProxyObject
 90
      499
 91
      554
 95
   851991
 70
     0
 93
      172
310
00010143105054D5509054D4D3541196005035355420
330
330
 94
        0
  0
ACAD_PROXY_OBJECT
  5
3D3
330
330
100
AcDbProxyObject
 90
      499
 91
      554
 95
   851991
 70
     0
 93
      172
310
00010142905054D0D15391541196005055343454E450
330
330
 94
        0
  0
ACAD_PROXY_OBJECT
  5
3D4
330
330
100
AcDbProxyObject
 90
      499
 91
      548
 95
   851991
 70
     0
 93
      148
310
00010143505350555513D313D0D2D4D0D39010
330
330
 94
        0
  0
ACAD_PROXY_OBJECT
  5
3D9
330
330
100
AcDbProxyObject
 90
      499
 91
      562
 95
   851991
 70
     0
 93
       32
310
00010000
330
330
340
3D6
330
3DB
330
3D6
 94
        0
  0
ACAD_PROXY_OBJECT
  5
3DA
330
330
100
AcDbProxyObject
 90
      499
 91
      563
 95
   851991
 70
     0
 93
       18
310
000198
330
330
 94
        0
  0
ACAD_PROXY_OBJECT
  5
3DB
330
330
100
AcDbProxyObject
 90
      499
 91
      564
 95
   851991
 70
     0
 93
      143
310
0001014251149055D25391CC4C5050055400
330
330
330
3D9
330
3DA
 94
        0
  0
ACAD_PROXY_OBJECT
  5
3DC
330
330
100
AcDbProxyObject
 90
      499
 91
      565
 95
   851991
 70
     0
 93
       40
310
000100AAAA
330
330
330
3DB
 94
        0
  0
ACAD_PROXY_OBJECT
  5
3DD
330
330
100
AcDbProxyObject
 90
      499
 91
      566
 95
   851991
 70
     0
 93
      108
310
000190140A000000000000AAAAA8
330
330
330
3DE
330
3DE
330
3DE
330
3DE
330
3DE
330
0
 94
        0
  0
ACAD_PROXY_OBJECT
  5
3DE
330
330
100
AcDbProxyObject
 90
      499
 91
      567
 95
   851991
 70
     0
 93
       51
310
00010000AAAA88
330
330
330
3DD
330
3DB
 94
        0
  0
ACAD_PROXY_OBJECT
  5
3EE
330
330
100
AcDbProxyObject
 90
      499
 91
      554
 95
   851991
 70
     0
 93
      148
310
00010142105350D55494D51100504414E53490
330
330
 94
        0
  0
DICTIONARY
  5
327
102
{ACAD_REACTORS
330
326
102
}
330
326
100
AcDbDictionary
281
     1
  3
DWGSETTINGS
350
328
  3
FEM
350
43E
  3
SHAFT
350
41E
  3
TRANSSETTINGS
350
32C
  0
ACAD_PROXY_OBJECT
  5
3F1
102
{ACAD_REACTORS
330
326
102
}
330
326
100
AcDbProxyObject
 90
      499
 91
      574
 95
   851991
 70
     0
 93
    12922
310
41103491013041105357CC10747A404C504414D5F314391E9013241105357CC90547A404CD04414D5F334190F9013441105357CD10343E404D504414D5F3540D0F9013641105357CD90247A404DD04414D5F374110F9013841105357CE10143E404E504414D5F397F641102324141505357CC4C10747A408D10505414D5F31
310
3140D0F902495041505357CC4C90747902408C13905414D5F304E41D1E902314E41505357CC5390E47A408C93905414D5F324E4151E902334E41505357CCD390643E408D13905414D5F344E40D0F902354E41505357CD5390343E408D93905414D5F364E4091E902374E41505357CDD390443E408E13905414D5F384E4050F
310
902394E41505357CE539FD90440CC9053906414D5F31304E41D1E90334414E41905357CC4C5390343E40D25413906414D5F31324E41D1E409044B4C494E41505357D0D310143D094112539193D08414D5F50415245464110F42D055241484D3541905357D093D4907479094115925155D08414D5F56494557534050F42D064
310
24548494E4441905357D253959FD90D415514905253105414D5F545240D0F4250348494441905357D2125110743D0940D59254D06414D5F56495341D1E4250650415244494D42505357D4105491125350343D0941949151911253509414D5F52454644494D4110F42553411092139590139CFFFFFFFF415092139594D06424
310
548494E44CFFFFFFFF411093D48C9055241484D354050F411093D48CD055241484D354091E411093D48D5055241484D35CFFFFFFFF4110D0530C90134CFFFFFFFF4110D0530CD01344091E4110D0530D5013441D1E4110D0530DD01344793C4110D1539390137CFFFFFFFF4110D15395D0137CFFFFFFFF4110D312539044B4
310
C494ECFFFFFFFF4110D3D38C50130CFFFFFFFF4110D3D38C90131CFFFFFFFF4110D3D38CD0132CFFFFFFFF4110D3D38D10132CFFFFFFFF411111551050134CFFFFFFFF4111125051D0135CFFFFFFFF411112531250135CFFFFFFFF411112535410650415244494DCFFFFFFFF411112535490652454644494DCFFFFFFFF4111
310
91535390138CFFFFFFFF4151915354139013840CFFFFFFFF4151915354D41023441CFFFFFFFF4151915354D5102344140D0F41519153559390132CFFFFFFFF4151915355951013240D0F4112105510D0138CFFFFFFFF411212511390133CFFFFFFFF4112125115D0133CFFFFFFFF411213125390134CFFFFFFFF411213D0D3
310
90137CFFFFFFFF411213D0D5D0137CFFFFFFFF4112539193D04494E464FCFFFFFFFF411311505110135CFFFFFFFF419397D0921395902394ECFFFFFFFF419397D0D3D38C502304ECFFFFFFFF419397D0D3D38C902314ECFFFFFFFF419397D0D3D38CD02324ECFFFFFFFF419397D0D3D38D102324ECFFFFFFFF419397D0D153
310
93902374ECFFFFFFFF419397D0D15395D02374ECFFFFFFFF419397D1125312502354ECFFFFFFFF419397D2105510D02384ECFFFFFFFF419397D2125113902334ECFFFFFFFF419397D2125115D02334ECFFFFFFFF419397D3115051102354ECFFFFFFFF419397D391D25410349504ECFFFFFFFF419397D412105390334414EC
310
FFFFFFFF419397D510D3D3902304ECFFFFFFFF419397D5121312502344ECFFFFFFFF419397D5131153902304ECFFFFFFFF419397D594131250332414ECFFFFFFFF411391D2541024950CFFFFFFFF411410530C9055241484D354050F411410530CD055241484D354091E411410530D5055241484D35CFFFFFFFF4114121053
310
9023441CFFFFFFFF411413D4D390135CFFFFFFFF411490D1D390137CFFFFFFFF411490D1D5D0137CFFFFFFFF4114D09492D013441D1E4114D150D510134CFFFFFFFF4114D6508CD01354091E411354D653501354091E411510D3D390130CFFFFFFFF411512131250134CFFFFFFFF411512550C9055241484D354050F411512
310
550CD055241484D354091E411512550D5055241484D35CFFFFFFFF411513115390130CFFFFFFFF415514905253105545241494CCFFFFFFFF411514931250134CFFFFFFFF411516150C5013640D0F411516150C9013640D0F411516150CD0136CFFFFFFFF411516150D5013641D1E411516150DD01364793C4115925155D045
310
6494557CFFFFFFFF4115915112103484944CFFFFFFFF4115915115903564953CFFFFFFFF41159413125023241CFFFFFFFF411692569050134CFFFFFFFFAA9FD404FE4290E479074790643D054790443D0343D024790143D1E4F1FD80
340
16
340
16
340
16
340
ABF
340
16
340
16
340
16
340
AC0
340
16
340
16
340
AC0
340
AC1
340
16
340
16
340
16
340
16
340
ABF
340
16
340
16
340
16
340
AC0
340
16
340
16
340
AC0
340
AC1
340
16
340
AC2
340
16
340
16
340
16
340
16
340
16
340
ABF
340
16
340
16
340
16
340
15
340
15
340
15
340
15
340
15
340
15
340
15
340
15
340
15
340
AC6
340
15
340
15
340
15
340
15
340
15
340
15
340
15
340
15
340
15
340
15
340
15
340
15
340
15
340
16
340
15
340
15
340
15
340
15
340
AC7
340
15
340
15
340
AC6
340
15
340
15
340
15
340
15
340
15
340
15
340
15
340
15
340
AC6
340
15
340
15
340
15
340
AC7
340
15
340
15
340
15
340
15
340
15
340
AC7
340
15
340
AC1
340
15
340
15
340
15
340
15
340
15
340
15
340
AC6
340
15
340
15
340
15
340
15
340
15
340
15
340
AC7
340
15
340
15
340
15
340
15
340
15
340
15
340
15
340
15
340
15
340
15
340
15
340
15
340
15
340
15
340
AC1
340
AC8
 94
        0
  0
LAYER_INDEX
  5
441
102
{ACAD_REACTORS
330
440
102
}
330
440
100
AcDbIndex
 40
0.0
100
AcDbLayerIndex
  0
ACAD_PROXY_OBJECT
  5
3E2
102
{ACAD_REACTORS
330
3E1
102
}
330
3E1
100
AcDbProxyObject
 90
      499
 91
      513
 95
   851991
 70
     0
 93
      219
310
057356C1D5C406406AA8FFFFFFFF0AE50944524157494E4731314040
330
1F
330
0
330
3DB
 94
        0
  0
ACAD_PROXY_OBJECT
  5
41F
102
{ACAD_REACTORS
330
3EF
102
}
330
3EF
100
AcDbProxyObject
 90
      499
 91
      514
 95
   851991
 70
     0
 93
     2275
310
5700000000000000840D04414E5349405901409020000000000000210322087A1C82C6DAA6EAE4CCA8CAF0E8A6E8C88120284A0B1B6A321A329BA3220480A1A82C6DAAECAD8C8D2DCCEA6E8C8812028420B1B6A4B229BA3220480A1682C6DA88C2E8EADAA6E8C88120284A0B1B6A127A6A9BA3220480A2082DAC8E888CAE8C
310
2D2D8A6F2DAA6E8C88120288A0B6B23A29B2B1BA34B7B729BCB6A9BA3220480A2282DAC8E886CADCE8CAE498D2DCCAA6E8C88120288A0B6B23A2A343932B0B22634B732A9BA3220480A1682DAC8E89CDEE8CAA6E8C88120285A0B1A0B6B3A630BCA9BA3220480A1682C682DACE88D2DAA6E8C88120288A0B1A0B6B3A437B63
310
2A1B430B93A29BA3220480A1A82C682DACEA8D2E8D8CAA6E8C88120280A040
340
420
360
421
360
422
360
423
360
424
360
425
360
426
360
427
360
428
360
429
360
42A
360
42B
360
42F
360
430
360
437
360
438
 94
        0
  0
ACAD_PROXY_OBJECT
  5
3F0
102
{ACAD_REACTORS
330
3EF
102
}
330
3EF
100
AcDbProxyObject
 90
      499
 91
      530
 95
   851991
 70
     0
 93
     2377
310
5700000000000000C40D0349534F40590140902000000000000031032228821682DAC8E88AC8CECAA6E8C8812028720B1B6A9BAB9332A32BC3A29BA3220480A1282C6DA8C868CA6E8C88120286A0B1B6ABB2B63234B733A9BA3220480A1082C6DA92C8A6E8C88120285A0B1B6A230BA3AB6A9BA3220480A1282C6DA849E9AA
310
6E8C8812028820B6B23A2232BA30B4B629BCB6A9BA3220480A2282DAC8E8A6CAC6E8D2DEDCA6F2DAA6E8C88120288A0B6B23A21B2B73A32B92634B732A9BA3220480A2282DAC8E8A8D0E4CAC2C898D2DCCAA6E8C88120285A0B6B23A2737BA32A9BA3220480A1682C682DACE98C2F2A6E8C88120285A0B1A0B6B3A234B6A9B
310
A3220480A2282C682DACE90DED8CA86D0C2E4E8A6E8C88120286A0B1A0B6B3AA34BA3632A9BA3220480C8100
340
3FB
360
3FC
360
3FD
360
3FE
360
3FF
360
400
360
401
360
402
360
403
360
404
360
405
360
406
360
407
360
40D
360
40E
360
41A
360
41B
 94
        0
  0
ACAD_PROXY_OBJECT
  5
328
102
{ACAD_REACTORS
330
327
102
}
330
327
100
AcDbProxyObject
 90
      499
 91
      573
 95
   851991
 70
     0
 93
     2396
310
4050B44574753455454494E4753A1286829C8E82A4A482B282A106660F8686AF86C608321A2A720A723A0A849A1ABE1C983E18999AA0C868A9C889282940000000000000488083A1A2A72224A0A9A0A8418983E19183E199820E868A9C8892A6A894000000000000010808321A2A72622A7250000000000000122020C868A9
310
C9E8C8C940000000000000488084A1A624A720A92920ACA0A8418983E19183E19982108698929C8AA8B2A082A0AB098929C8A84A22BA3AAA9A1A0A622A50A0E9882A6A89E849482A02608426A0A5A2AB24A2ABA7E8120CA0A68682988A0C00800010652455649534941501304154D0D0531150540CC4E8C50954494D455354
310
414D504A040602C91F017734141D5915494D253D3905414C4D4B8C0C1107B44574753455454494E4753454E447D0
  0
ACAD_PROXY_OBJECT
  5
43E
102
{ACAD_REACTORS
330
327
102
}
330
327
100
AcDbProxyObject
 90
      499
 91
      573
 95
   851991
 70
     0
 93
      411
310
4050346454D21092DCC6E486DECACC942842630BCA3B937BAB820A8320A6AFA322A0A20F688AE8EA68AA8A8929C8EA68A9C88FA0
  0
ACAD_PROXY_OBJECT
  5
41E
102
{ACAD_REACTORS
330
327
102
}
330
327
100
AcDbProxyObject
 90
      499
 91
      573
 95
   851991
 70
     0
 93
      513
310
40505536861667421292DCE8CAE4E4EAE0E89FC84A634B3B43A2634B732A7F21A98D2CED0E898D2DCCAACD2CAEE9FC883DA22BA3A9A2AA2A24A723A9A2A7223E80
  0
ACAD_PROXY_OBJECT
  5
32C
102
{ACAD_REACTORS
330
327
102
}
330
327
100
AcDbProxyObject
 90
      499
 91
      573
 95
   851991
 70
     0
 93
      852
310
4050D5452414E5353455454494E4753A2488A482AE929C8EA8A4829CA69882A8929E9C0C00800050D4F524947494E414C4C595F4F4E0600400028529A7AAA921A2A620A723A0A81A2A72AA12AAA0A48AA68AA4AC8A0C0080001107B44574753455454494E4753454E447D0
  0
ACAD_PROXY_OBJECT
  5
421
330
41F
100
AcDbProxyObject
 90
      499
 91
      515
 95
   851991
 70
     0
 93
       96
310
57020E80A0280A0280A02808
  0
ACAD_PROXY_OBJECT
  5
422
330
41F
100
AcDbProxyObject
 90
      499
 91
      516
 95
   851991
 70
     0
 93
      332
310
5710E4050140501405014050140501405014050142501405014050140501405012000000000000000400
340
42C
 94
        0
  0
ACAD_PROXY_OBJECT
  5
423
330
41F
100
AcDbProxyObject
 90
      499
 91
      517
 95
   851991
 70
     0
 93
      402
310
570C199999999999E99F91F4050140501405014050140501405014050140501405014050140501405014050140501405014040
340
0
 94
        0
  0
ACAD_PROXY_OBJECT
  5
424
330
41F
100
AcDbProxyObject
 90
      499
 91
      518
 95
   851991
 70
     0
 93
       10
310
5700
  0
ACAD_PROXY_OBJECT
  5
425
330
41F
100
AcDbProxyObject
 90
      499
 91
      519
 95
   851991
 70
     0
 93
      223
310
572290EA22A7D90F49F8000000000000108140000000000000420204
340
AC9
340
ACA
 94
        0
  0
ACAD_PROXY_OBJECT
  5
426
330
41F
100
AcDbProxyObject
 90
      499
 91
      520
 95
   851991
 70
     0
 93
    12959
310
5710E4112551153501411255115350140501406901000000000000091013347454E545241434F2C454E552C302C4954454D2C47454E54524154582C25732C2847454E4D53472067656E647767203232322940690120281A8AA2CA0281A8AA2CA028120280A0320200000000000012202648E8A9CA8A482869E588A9CAA5860
310
58A2A8B2588E8A9CA8A482A8B0584AE658508E8A9C9AA68E40CECADCC8EECE406464665280D202405044E414D45405044E414D454051C40640A80000000000004E404CD1D15395149050D3CB1153954B0C0B139053514B11D15395149055160B095CCB0A11D1539354D1C819D95B991DD9C80C8C8D8A50190A3D504152543A
310
4E414D4540480A0A888AA686A480A16888AA686A492A0A8929E9C80A3A80C81D0000000000100A2809D23A2A72A2920A1A79622A72A9618162222A9A1A924A82A24A7A71623A2A72A2920AA2C1612B9961423A2A726A9A39033B2B7323BB39019189B94A024809014214D51053911054911014214D51053911054911014750
310
1904A000000000000125013747454E545241434F2C454E552C302C5354414E444152442C47454E54524154582C25732C2847454E4D53472067656E64776720323138294049012028426A0AA22A924A0A62028426A0AA22A924A0A62028EA0320B41A19999999B9A2A026E8E8A9CA8A482869E588A9CAA5860589A82A88AA49
310
28298588E8A9CA8A482A8B0584AE658508E8A9C9AA68E40CECADCC8EECE406464625280D202405044E4F5445405044E4F54454051D40641A80000000000003E404CD1D15395149050D3CB1153954B0C0B1393D5114B11D15395149055160B095CCB0A11D1539354D1C819D95B991DD9C80C8C8D4A501A40480A0CAC8A9C889
310
EA480A0CAC8A9C889EA480A3A80C83D00000000000007C809AA3A2A72A2920A1A79622A72A9618162B22A72227A91623A2A72A2920AA2C1612B9961423A2A726A9A39033B2B7323BB39019191A14A0348090141911154D0D48C90143511154D0D49254151253D3880C90147501908A000000000020145013B47454E5452414
310
34F2C454E552C302C4445534352495054494F4E20322C47454E54524154582C25732C2847454E4D53472067656E6477672033362940490120284A9AA20A72220A922192028529AA20A72220A92210192028EA03213400000000000024A02728E8A9CA8A482869E588A9CAA586058A6A8829C8882A4884064588E8A9CA8A482
310
A8B0584AE658508E8A9C9AA68E40CECADCC8EECE4064646052809202405094D4154455249414C324050A4D4154455249414C20324051D40642A834333333337345404E11D15395149050D3CB1153954B0C0B1350551154925053080C8B11D15395149055160B095CCB0A11D1539354D1C819D95B991DD9C80D0C0A50124048
310
0A089A82A6A680A089A82A6A680A3A80A0485A068100000000000007C809923A2A72A2920A1A79622A72A96181626A0A9A99623A2A72A2920AA2C1612B9961423A2A726A9A39033B2B7323BB3901A1914A0221C7AA2A8B254A082A4A8749A82A6A6809014154149250D15014154149250D1501475014090C40902000000000
310
0000F9013347454E545241434F2C454E552C302C50524943452C47454E54524154582C25732C2847454E4D53472067656E6477672034332940490120281A224A6A0285A6A2A0A9AAA922A6A2A72A2028EA028121A81A0466E6666666661FA02728E8A9CA8A482869E588A9CAA5860589A8A82A6AAA48A9A8A9CA8588E8A9CA
310
8A482A8B0584AE658508E8A9C9AA68E40CECADCC8EECE406868528092024050E44102000000000000061011E0040600000000000010900000000000000424041CF4F125511534F90140600000000000010900000000000000424041CF4F125511534F9014060000000000000E100000000000000384041CF4F125511534F90
310
14060000000000000E100000000000000384041CF4F125511534F90140A404000000000000424000000000000010901073D3C4954454D3E405063D3C5154593E405018000000000000424000000000000010901073D3C4954454D3E4064040000000000000042400000000000001090000000000000008202068220681A048
310
120280C882148448820348520348452028521485214814000000000000F0BF0000000000003C2FD01409073373333333333B0FCCDCCCCCCCCCCEC3F0000000000000210320341A405024150741A406800000000000010808120480A026280A02
340
0
340
0
 94
        0
  0
ACAD_PROXY_OBJECT
  5
427
330
41F
100
AcDbProxyObject
 90
      499
 91
      521
 95
   851991
 70
     0
 93
      960
310
570000000000000018404BCF511155105253080F11115510525317D3105091530F971414D0D05311480F11115510525317D05094D4D0D053114F92341C9A9999999999B93F26A666666666724FC000000000000E03F40000000000000040000000000000051000000000000002440478B81E85EB51B8CE3F
340
AC1
340
420
 94
        0
  0
ACAD_PROXY_OBJECT
  5
428
330
41F
100
AcDbProxyObject
 90
      499
 91
      522
 95
   851991
 70
     0
 93
      745
310
5700300000000000003080999EA9A2A1AA24A7A7101E29A2A1AA24A7A72FA620A122A62FA324A929AA1F169E29A2A1AA24A7A72FA620A122A62FA620A9AA1F1353333333333B27EFF41C8823C4D4CCCCCCCCCEC9FC5C0F42F5A8DC671F80
340
AC1
340
420
 94
        0
  0
ACAD_PROXY_OBJECT
  5
429
330
41F
100
AcDbProxyObject
 90
      499
 91
      523
 95
   851991
 70
     0
 93
      279
310
570FA5C6DC5FEB20F4009CC422B071681900273108AC1C5A0640A3D0A5723F0BD1F204
  0
ACAD_PROXY_OBJECT
  5
42A
330
41F
100
AcDbProxyObject
 90
      499
 91
      524
 95
   851991
 70
     0
 93
       14
310
5724
340
0
 94
        0
  0
ACAD_PROXY_OBJECT
  5
42B
330
41F
100
AcDbProxyObject
 90
      499
 91
      525
 95
   851991
 70
     0
 93
     5922
310
571084050B90142A405024050A54656D706C6174652031405EA3D3C696628657175616C28486F6C653A7461707065642C223022292C222525632220486F6C653A6469612C20486F6C653A6E6F6D696E616C2022202220696628657175616C28486F6C653A756E6974732C223122292C2278222C222D22292022202220486F6
310
C653A706974636864657363293E207B5C46414D4744543B787D203C696628657175616C28486F6C653A7465726D696E6174696F6E2C223022292C486F6C653A64657074682C225448525522293E5C507B5C46414D4744543B767D2525633C486F6C653A63746469613E207B5C46414D4744543B787D203C486F6C653A63746
310
4657074683E406405034050A54656D706C6174652031405E33D3C696628657175616C28486F6C653A7461707065642C223022292C222525632220486F6C653A6469612C20486F6C653A6E6F6D696E616C2022202220696628657175616C28486F6C653A756E6974732C223122292C2278222C222D22292022202220486F6C6
310
53A706974636864657363293E207B5C46414D4744543B787D203C696628657175616C28486F6C653A7465726D696E6174696F6E2C223022292C486F6C653A64657074682C225448525522293E5C507B5C46414D4744543B777D2525633C486F6C653A63746469613E2058203C486F6C653A6374616E676C653E25256440640
310
5014050A54656D706C6174652031405B43D3C696628657175616C28486F6C653A7461707065642C223022292C222525632220486F6C653A6469612C20486F6C653A6E6F6D696E616C2022202220696628657175616C28486F6C653A756E6974732C223122292C2278222C222D22292022202220486F6C653A7069746368646
310
57363293E5C507B5C46414D4744543B787D203C696628657175616C28486F6C653A7465726D696E6174696F6E2C223022292C486F6C653A64657074682C225448525522293E4064051E4050A54656D706C61746520314050C3D3C535444503A444553433E40640515A80
  0
ACAD_PROXY_OBJECT
  5
42F
330
41F
100
AcDbProxyObject
 90
      499
 91
      526
 95
   851991
 70
     0
 93
       20
310
571010
340
3F1
 94
        0
  0
ACAD_PROXY_OBJECT
  5
430
330
41F
100
AcDbProxyObject
 90
      499
 91
      527
 95
   851991
 70
     0
 93
      250
310
571020000000000000A1000000000000002440408F0F9023C3E409A0DCFFFFA0
340
431
340
0
340
0
340
432
340
433
340
0
340
434
340
435
340
436
340
0
 94
        0
  0
ACAD_PROXY_OBJECT
  5
437
330
41F
100
AcDbProxyObject
 90
      499
 91
      528
 95
   851991
 70
     0
 93
    13361
310
5711A023FFFFFFFD01030000000000000000021000901030000000000000000021000805134C697374206F6620436F6F7264696E61746573015091D15395149050D3CB1153954B0C0B131A5CDD081BD98810DBDBDC991A5B985D195CCB11D15395149055160B095CCB0A11D1539354D1C819D95B991A5B5E880CCC0A78000C
310
0000000000000000000000000000000100000000000002101024000000000000084040A0142921BDB19481518589B194053947454E545241434F2C454E552C302C486F6C65205461626C652C47454E54524154582C25732C2847454E4D53472067656E64696D7A20333129E000300000000000000000000000000000000400
310
00000000000840409000000000000021010290B4410F4450240D04415014391244D05449074510C4350F00014193DC9A59DA5B8053447454E545241434F2C454E552C302C4F726967696E2C47454E54524154582C25732C2847454E4D53472067656E64696D7A2031290001010500221400028327B934B3B4B700A688E8A9C
310
A8A482869E588A9CAA5860589EE4D2CED2DC588E8A9CA8A482A8B0584AE658508E8A9C9AA68E40CECADCC8D2DAF4406252000202080043E8000504486F6C65014C91D15395149050D3CB1153954B0C0B121BDB194B11D15395149055160B095CCB0A11D1539354D1C819D95B991A5B5E880C8A405163D3C486F6C654974656
310
D3E3C486F6C65496E6465783E010104002234000280AC00A5E8E8A9CA8A482869E588A9CAA586058B0588E8A9CA8A482A8B0584AE658508E8A9C9AA68E40CECADCC8D2DAF4406652000202000040A800050159014BD1D15395149050D3CB1153954B0C0B164B11D15395149055160B095CCB0A11D1539354D1C819D95B991A
310
5B5E880D0A4000404000081D0000A02E40297A3A2A72A2920A1A79622A72A961816391623A2A72A2920AA2C1612B9961423A2A726A9A39033B2B73234B6BD101B148000808000104A000141D7154ACC0D0D0D0053547454E545241434F2C454E552C302C5C552B303434342C47454E54524154582C25732C2847454E4D5347
310
2067656E64696D7A203729000101030020B400028224BA32B680A668E8A9CA8A482869E588A9CAA58605892E8CADA588E8A9CA8A482A8B0584AE658508E8A9C9AA68E40CECADCC8D2DAF4406268520002020A004068000505496E646578014D11D15395149050D3CB1153954B0C0B125B99195E0B11D15395149055160B095
310
CCB0A11D1539354D1C819D95B991A5B5E880C4D4A400040414008750000A0890DED8CA0299A3A2A72A2920A1A79622A72A9618162437B6329623A2A72A2920AA2C1612B9961423A2A726A9A39033B2B73234B6BD10189B148000808200112A000142921BDB1948125B99195E0053947454E545241434F2C454E552C302C486
310
F6C6520496E6465782C47454E54524154582C25732C2847454E4D53472067656E64696D7A20313729000101050022740002819292B180A628E8A9CA8A482869E588A9CAA5860584A4AC6588E8A9CA8A482A8B0584AE658508E8A9C9AA68E40CECADCC8D2DAF4407052000202020041E8000503517479014C91D15395149050
310
D3CB1153954B0C0B145D1E4B11D15395149055160B095CCB0A11D1539354D1C819D95B991A5B5E880C4E4A400040418008A50000A1688CAE6C6E4D2E0E8D2DEDC029D23A2A72A2920A1A79622A72A9618162232B9B1B934B83A34B7B71623A2A72A2920AA2C1612B9961423A2A726A9A39033B2B73234B6BD1019181480008
310
0020010CA00014214DD185B99185C990053747454E545241434F2C454E552C302C5374616E646172642C47454E54524154582C25732C2847454E4D53472067656E64696D7A20323129000100040021B4878000000000000007281000000000000000D102060000000000001A20404000000000000344080800000000000068
310
81020000000000000D102040000000000001A2040000000000000024408000000000000006881000000000000000D102000000000000001A2040C0000000000003940818000000000000508103000000000000125020600000000004028A050F000000000000000E502000000000000001A2040C0000000000003440818000
310
0000000006881030000000000000D102060000000000001A2040C00000000000034408000000000000004881000000000000000D102060000000000001A2040000000000000034408180000000000007281030000000000000A1020600000000000024A040C0000000000805140A088800000021E000000890000002260000
310
008220E000200890000002060002008100008000
340
0
340
0
340
0
340
0
 94
        0
  0
ACAD_PROXY_OBJECT
  5
438
330
41F
100
AcDbProxyObject
 90
      499
 91
      529
 95
   851991
 70
     0
 93
     5542
310
5719741105394D2506414E53495F4342905394D257D512551554D15414E53495F54525F5265766973696F6E6C697374614191143202831372E307832322E30696E63682941905394D257D0D1146202832382E307834302E30696E63682941905394D257D191142202831312E307831372E30696E63682941905394D257D091
310
144202832322E307833342E30696E63682941905394D257D111145202833342E307834342E30696E63682941905394D257D1510412028382E357831312E30696E63682941905394D257D0505439554C8151A5D1B1948109B1BD8DAD0A414E53495F544954555344D05B9CDA48151A5D1B1948109B1BD8DAC81110D0C414E53
310
495F5449544C45444344D05B9CDA48151A5D1B1948109B1BD8DAC81050D0C414E53495F5449544C45414344905B9CDA48151A5D1B1948109B1BD8DAC81050B414E53495F5449544C454144905B9CDA48151A5D1B1948109B1BD8DAC81110B414E53495F5449544C4544421125265766973696F6E6C69737420415F42525F45
310
505394D257D09497D4995D9A5CDA5BDB9B1A5CDD185125265766973696F6E6C69737420415F54525F45505394D257D51497D4995D9A5CDA5BDB9B1A5CDD185125265766973696F6E6C69737420445F42525F45505394D257D09497D4995D9A5CDA5BDB9B1A5CDD191125265766973696F6E6C69737420445F54525F4550539
310
4D257D51497D4995D9A5CDA5BDB9B1A5CDD191125265766973696F6E6C69737420415F424C5F45505394D257D09317D4995D9A5CDA5BDB9B1A5CDD185125265766973696F6E6C69737420415F544C5F45505394D257D51317D4995D9A5CDA5BDB9B1A5CDD185125265766973696F6E6C69737420445F424C5F45505394D257
310
D09317D4995D9A5CDA5BDB9B1A5CDD191125265766973696F6E6C69737420445F544C5F45505394D257D51317D4995D9A5CDA5BDB9B1A5CDD193
  0
ACAD_PROXY_OBJECT
  5
3FC
330
3F0
100
AcDbProxyObject
 90
      499
 91
      531
 95
   851991
 70
     0
 93
       12
310
5710
  0
ACAD_PROXY_OBJECT
  5
3FD
330
3F0
100
AcDbProxyObject
 90
      499
 91
      532
 95
   851991
 70
     0
 93
       96
310
572A0E80A0280A0280A0280F
  0
ACAD_PROXY_OBJECT
  5
3FE
330
3F0
100
AcDbProxyObject
 90
      499
 91
      533
 95
   851991
 70
     0
 93
      272
310
5710E4050140501405014050140501405014050140D01405012C0000000000000040
340
408
 94
        0
  0
ACAD_PROXY_OBJECT
  5
3FF
330
3F0
100
AcDbProxyObject
 90
      499
 91
      534
 95
   851991
 70
     0
 93
      496
310
5728666666666667A67E199999999999E99FD224050140501405014050140501405014050140501405014050140501405014050140501405014050140501
340
AC3
 94
        0
  0
ACAD_PROXY_OBJECT
  5
400
330
3F0
100
AcDbProxyObject
 90
      499
 91
      535
 95
   851991
 70
     0
 93
       10
310
5700
  0
ACAD_PROXY_OBJECT
  5
401
330
3F0
100
AcDbProxyObject
 90
      499
 91
      536
 95
   851991
 70
     0
 93
      223
310
572290EA22A7D90F49F8000000000000108140000000000000420204
340
AC4
340
AC5
 94
        0
  0
ACAD_PROXY_OBJECT
  5
402
330
3F0
100
AcDbProxyObject
 90
      499
 91
      537
 95
   851991
 70
     0
 93
    12949
310
5710E411255115350141125D195B50140501406901000000000000091013347454E545241434F2C454E552C302C4974656D2C47454E54524154582C25732C2847454E4D53472067656E647767203232322940690120281A8AA2CA0281A8BA3CA028120280A0320200000000000012202648E8A9CA8A482869E588A9CAA5860
310
58A2E8F2588E8A9CA8A482A8B0584AE658508E8A9C9AA68E40CECADCC8EECE406464665280D202405044E414D45405044E616D654051C40640A80000000000004E404CD1D15395149050D3CB1153954B0C0B13985B594B11D15395149055160B095CCB0A11D1539354D1C819D95B991DD9C80C8C8D8A50190A3D504152543A
310
4E414D4540480A0A888AA686A480A1688CAE6C6E4D2E0E8D2DEDC80A3A80C81D0000000000100A2809D23A2A72A2920A1A79622A72A9618162232B9B1B934B83A34B7B71623A2A72A2920AA2C1612B9961423A2A726A9A39033B2B7323BB39019189B94A034809014214D51053911054911014214DD185B99185C991014750
310
1904A000000000000125013747454E545241434F2C454E552C302C5374616E646172642C47454E54524154582C25732C2847454E4D53472067656E64776720323138294069012028426A0AA22A924A0A62028426B0BA32B934B0B62028EA0320B40000000000001CA026E8E8A9CA8A482869E588A9CAA5860589AC2E8CAE4D
310
2C2D8588E8A9CA8A482A8B0584AE658508E8A9C9AA68E40CECADCC8EECE406464625280D202405044E4F5445405044E6F74654051D40641A80000000000003E404CD1D15395149050D3CB1153954B0C0B139BDD194B11D15395149055160B095CCB0A11D1539354D1C819D95B991DD9C80C8C8D4A501240480A0CAC8A9C889
310
EA480A0CACCADCC8DEE480A3A80C83D00000000000007C809AA3A2A72A2920A1A79622A72A9618162B32B73237B91623A2A72A2920AA2C1612B9961423A2A726A9A39033B2B7323BB39019191A14A0248090141911154D0D48C9014351195CD8DC9A5C1D1A5BDB880C90147501908A000000000020145013B47454E5452414
310
34F2C454E552C302C4465736372697074696F6E20322C47454E54524154582C25732C2847454E4D53472067656E6477672033362940490120284A9AA20A72220A922192028529BA30B73230B93210192028EA03213400000000000024A02728E8A9CA8A482869E588A9CAA586058A6E8C2DCC8C2E4C84064588E8A9CA8A482
310
A8B0584AE658508E8A9C9AA68E40CECADCC8EECE4064646052809202405094D4154455249414C324050A4D6174657269616C20324051D40642A8713D0AD7A37045404E11D15395149050D3CB1153954B0C0B13585D195C9A585B080C8B11D15395149055160B095CCB0A11D1539354D1C819D95B991DD9C80D0C0A50124048
310
0A089A82A6A680A089AC2E6E680A3A80A0485A068100000000000007C809923A2A72A2920A1A79622A72A96181626B0B9B99623A2A72A2920AA2C1612B9961423A2A726A9A39033B2B7323BB3901A1914A0221C7AA2A8B254A082A4A8749A82A6A6809014154149250D150141541C9A58D9501475014090C40902000000000
310
0000F9013347454E545241434F2C454E552C302C50726963652C47454E54524154582C25732C2847454E4D53472067656E6477672034332940490120281A224A6A0285A6B2B0B9BAB932B6B2B73A2028EA028121A81A040000000000001F202728E8A9CA8A482869E588A9CAA5860589ACAC2E6EAE4CADACADCE8588E8A9CA
310
8A482A8B0584AE658508E8A9C9AA68E40CECADCC8EECE406868528092024050E445020000000000000510107004060000000000000F9000000000000003E4041CF4F125511534F9014060000000000000F9000000000000003E4041CF4F125511534F9014060000000000000D100000000000000344041CF4F125511534F90
310
14060000000000000D100000000000000344041CF4F125511534F90140A4040000000000003E400000000000000F901073D3C4954454D3E405063D3C5154593E4050180000000000003E400000000000000F901073D3C4954454D3E406404000000000000003E400000000000000F90000000000000008202068220681A048
310
120280C882148448820348520348452028521485214814000000000000F0BF0000000000003C2FD01409073373333333333B0FCCDCCCCCCCCCCEC3F000000000000031012034164050341105901A0000000000000620204812028098A02808
340
0
340
0
 94
        0
  0
ACAD_PROXY_OBJECT
  5
403
330
3F0
100
AcDbProxyObject
 90
      499
 91
      538
 95
   851991
 70
     0
 93
      864
310
5704000000000000144048CF4F11115510525317D3105091530F880A0F11115510525317D05094D4D0D053114F8A51141C9A9999999999B93F26A666666666724FC000000000000E03F4000000000000004000000000000005100000000000000244041C0000000000001440
340
16
340
3FB
 94
        0
  0
ACAD_PROXY_OBJECT
  5
404
330
3F0
100
AcDbProxyObject
 90
      499
 91
      539
 95
   851991
 70
     0
 93
      745
310
5700B00000000000002880959E9E29A2A1AA24A7A72FA620A122A62FA324A929AA1F169E29A2A1AA24A7A72FA620A122A62FA620A9AA1F00000000000004880FF41C88A0E0000000000001220000000000000028800000000000000A2000
340
AC0
340
3FB
 94
        0
  0
ACAD_PROXY_OBJECT
  5
405
330
3F0
100
AcDbProxyObject
 90
      499
 91
      540
 95
   851991
 70
     0
 93
      151
310
57280000000000000840A3D0A5723F0BD1F200
  0
ACAD_PROXY_OBJECT
  5
406
330
3F0
100
AcDbProxyObject
 90
      499
 91
      541
 95
   851991
 70
     0
 93
       14
310
5720
340
0
 94
        0
  0
ACAD_PROXY_OBJECT
  5
407
330
3F0
100
AcDbProxyObject
 90
      499
 91
      542
 95
   851991
 70
     0
 93
     5794
310
571084050B90142A405024050A54656D706C6174652031405DC3D2525633C486F6C653A63746469613E2078203C486F6C653A637464657074683E20555C503C696628657175616C28486F6C653A7461707065642C223022292C222525632220486F6C653A6469612C20486F6C653A6E6F6D696E616C20222078202220486F6
310
C653A70697463686465736320696628657175616C28486F6C653A7461707065642C223122292C222078202220486F6C653A74617064657074682C222229293E203C696628657175616C28486F6C653A7465726D696E6174696F6E2C223022292C22202F202220486F6C653A64657074682C222022293E406405034050A5465
310
6D706C6174652031405DD3D2525633C486F6C653A63746469613E2078203C486F6C653A6374616E676C653E2525645C503C696628657175616C28486F6C653A7461707065642C223022292C222525632220486F6C653A6469612C20486F6C653A6E6F6D696E616C20222078202220486F6C653A70697463686465736320696
310
628657175616C28486F6C653A7461707065642C223122292C222078202220486F6C653A74617064657074682C222229293E203C696628657175616C28486F6C653A7465726D696E6174696F6E2C223022292C22202F202220486F6C653A64657074682C222022293E406405014050A54656D706C6174652031405B83D3C696
310
628657175616C28486F6C653A7461707065642C223022292C222525632220486F6C653A6469612C20486F6C653A6E6F6D696E616C20222078202220486F6C653A70697463686465736320696628657175616C28486F6C653A7461707065642C223122292C222078202220486F6C653A74617064657074682C222229293E203
310
C696628657175616C28486F6C653A7465726D696E6174696F6E2C223022292C22202F202220486F6C653A64657074682C222022293E4064051E4050A54656D706C61746520314050C3D3C535444503A444553433E40640515A89
  0
ACAD_PROXY_OBJECT
  5
40D
330
3F0
100
AcDbProxyObject
 90
      499
 91
      526
 95
   851991
 70
     0
 93
       20
310
571010
340
3F1
 94
        0
  0
ACAD_PROXY_OBJECT
  5
40E
330
3F0
100
AcDbProxyObject
 90
      499
 91
      527
 95
   851991
 70
     0
 93
      250
310
571020000000000000A1000000000000002440408F0F9023C3E409A0DCFFFF98
340
40F
340
0
340
0
340
410
340
411
340
412
340
413
340
414
340
419
340
0
 94
        0
  0
ACAD_PROXY_OBJECT
  5
41A
330
3F0
100
AcDbProxyObject
 90
      499
 91
      543
 95
   851991
 70
     0
 93
    13707
310
5711A003FFFFFFFD03030003000000000000031000903030003000000000000031000805134C697374206F6620436F6F7264696E61746573015091D15395149050D3CB1153954B0C0B131A5CDD081BD98810DBDBDC991A5B985D195CCB11D15395149055160B095CCB0A11D1539354D1C819D95B991A5B5E880CCC0A78000C
310
00000000000000000000000000000001000000000000031010240000000000000C4040A0142921BDB19481518589B194053947454E545241434F2C454E552C302C486F6C65205461626C652C47454E54524154582C25732C2847454E4D53472067656E64696D7A20333129E000300000000000000000000000000000000400
310
00000000000C40409000000000000031010290D44111409034110541D0C4350F4050E44D03449074510F00014193DC9A59DA5B8053447454E545241434F2C454E552C302C4F726967696E2C47454E54524154582C25732C2847454E4D53472067656E64696D7A203129000101050022140002822437B63280A648E8A9CA8A4
310
82869E588A9CAA58605890DED8CA588E8A9CA8A482A8B0584AE658508E8A9C9AA68E40CECADCC8D2DAF4406452029F9E9E27B934B3B4B71F1E24A31427A91424A9A12620A7259427B934B3B4B7149624A9A12620A7259424B73232BC149496111116111711149F1E24B73232BC1F00808200111A000140560052F47454E545
310
241434F2C454E552C302C582C47454E54524154582C25732C2847454E4D53472067656E64696D7A20332900010100002054000280AC80A5E8E8A9CA8A482869E588A9CAA586058B2588E8A9CA8A482A8B0584AE658508E8A9C9AA68E40CECADCC8D2DAF4406852000202000040E800050172014BD1D15395149050D3CB1153
310
954B0C0B1C8B11D15395149055160B095CCB0A11D1539354D1C819D95B991A5B5E880D8A400040400008250000A0EB8AA5660686868029AA3A2A72A2920A1A79622A72A9618162E2A95981A1A1A1623A2A72A2920AA2C1612B9961423A2A726A9A39033B2B73234B6BD101B948000808180105A000140C94958C053147454E
310
545241434F2C454E552C302C2525632C47454E54524154582C25732C2847454E4D53472067656E64696D7A203829000101010020F4000285A232B9B1B934B83A34B7B700A748E8A9CA8A482869E588A9CAA58605888CAE6C6E4D2E0E8D2DEDC588E8A9CA8A482A8B0584AE658508E8A9C9AA68E40CECADCC8D2DAF44064605
310
2000200080043280005085374616E64617264014DD1D15395149050D3CB1153954B0C0B14DD185B99185C990B11D15395149055160B095CCB0A11D1539354D1C819D95B991A5B5E880C8C4A4000400100086D0000A0C9EE4D2CED2DC029A23A2A72A2920A1A79622A72A96181627B934B3B4B71623A2A72A2920AA2C1612B9
310
961423A2A726A9A39033B2B73234B6BD10189480A026202020A0043E80005044974656D014CD1D15395149050D3CB1153954B0C0B125D195B4B11D15395149055160B095CCB0A11D1539354D1C819D95B991A5B5E880C4D0A4000404140080D0000A0A92DCC8CAF0029A23A2A72A2920A1A79622A72A96181624B73232BC16
310
23A2A72A2920AA2C1612B9961423A2A726A9A39033B2B73234B6BD10189A94800080828010EA000142921BDB1948125B99195E0053947454E545241434F2C454E552C302C486F6C6520496E6465782C47454E54524154582C25732C2847454E4D53472067656E64696D7A20313729000101050022740002822437B63280A66
310
8E8A9CA8A482869E588A9CAA58605890DED8CA588E8A9CA8A482A8B0584AE658508E8A9C9AA68E40CECADCC8D2DAF440626C52000202080044A8000503517479014C91D15395149050D3CB1153954B0C0B145D1E4B11D15395149055160B095CCB0A11D1539354D1C819D95B991A5B5E880C4E4A400040418008A521E00000
310
0000000001CA040C00000000000034408080000000000006881010000000000000D102040000000000001A204080000000000003440818000000000000728103000000000000125020600000000004028A040000000000000034408000000000000004881000000000000000D102000000000000001A204000000000000003
310
440818000000000000508143C0000000000000039408180000000000006881030000000000000D102060000000000001A2040C00000000000034408180000000000006881030000000000000E5020600000000000024A040C000000000080514080000000000000068810000000000000009102000000000000001A2040000
310
000000000034408180000000000006881030000000000000A10283A2000000087800000204000000818000002080000008280000020E00000080A240000000
340
0
340
0
340
0
340
0
 94
        0
  0
ACAD_PROXY_OBJECT
  5
41B
330
3F0
100
AcDbProxyObject
 90
      499
 91
      529
 95
   851991
 70
     0
 93
     7162
310
5719740D254D3D0649534F5F4133429254D3D7D5125513115051349534F5F42525F5265766973696F6E6C69737446111413478342028323937783834316D6D2920421254D3D7D04D1E0D11141327835202835393478323130326D6D29421254D3D7D04C9E0D51141347839202832393778313839326D6D29421254D3D7D04D
310
1E0E51141337837202834323078323038306D6D29421254D3D7D04CDE0DD1141347838202832393778313638326D6D29421254D3D7D04D1E0E11141327834202835393478313638326D6D29421254D3D7D04C9E0D10E41312028353934783834316D6D29419254D3D7D04C51141347837202832393778313437316D6D29421
310
254D3D7D04D1E0DD1141347836202832393778313236316D6D29421254D3D7D04D1E0D91141347835202832393778313035316D6D29421254D3D7D04D1E0D5104130202838343078313138396D6D2920419254D3D7D04C10E41332028323937783432306D6D29419254D3D7D04CD1141327833202835393478313236316D6D
310
29421254D3D7D04C9E0CD10413478332028323937783633306D6D29421254D3D7D04D1E0CD1141337834202834323078313138396D6D29421254D3D7D04CDE0D11141337836202834323078313738336D6D29421254D3D7D04CDE0D91141337835202834323078313438366D6D29421254D3D7D04CDE0D50E4132202834323
310
0783539346D6D29419254D3D7D04C910413378332028343230783839316D6D29421254D3D7D04CDE0CD0E41342028323937783231306D6D29419254D3D7D04D1124130783220283131383978313638326D6D29421254D3D7D04C1E0C9124130783320283131383978323532336D6D29421254D3D7D04C1E0CD114131783420
310
2838343178323337386D6D29421254D3D7D04C5E0D11141317833202838343178313738336D6D29421254D3D7D04C5E0CD02445254D3C8151A5D1B1948109B1BD8DAC81050A49534F5F5449544C4541445254D3C8151A5D1B1948109B1BD8DAC81090A49534F5F5449544C4542411105265766973696F6E6C6973745F424C5
310
F44D254D3D7D09317D4995D9A5CDA5BDB9B1A5CDD1105265766973696F6E6C6973745F544C5F44D254D3D7D51317D4995D9A5CDA5BDB9B1A5CDD1105265766973696F6E6C6973745F42525F44D254D3D7D09497D4995D9A5CDA5BDB9B1A5CDD1105265766973696F6E6C6973745F54525F44D254D3D7D51497D4995D9A5CDA
310
5BDB9B1A5CDD32
  0
ENDSEC
  0
EOF
