  0
SECTION
  2
HEADER
  9
$ACADVER
  1
AC1014
  9
$ACADMAINTVER
 70
     9
  9
$DWGCODEPAGE
  3
ANSI_1252
  9
$INSBASE
 10
0.0
 20
0.0
 30
0.0
  9
$EXTMIN
 10
0.0
 20
0.0
 30
0.0
  9
$EXTMAX
 10
210.0
 20
297.0
 30
0.0
  9
$LIMMIN
 10
0.0
 20
0.0
  9
$LIMMAX
 10
210.0
 20
297.0
  9
$ORTHOMODE
 70
     0
  9
$REGENMODE
 70
     1
  9
$FILLMODE
 70
     1
  9
$QTEXTMODE
 70
     0
  9
$MIRRTEXT
 70
     1
  9
$DRAGMODE
 70
     2
  9
$LTSCALE
 40
1.0
  9
$OSMODE
 70
    37
  9
$ATTMODE
 70
     1
  9
$TEXTSIZE
 40
3.5
  9
$TRACEWID
 40
1.0
  9
$TEXTSTYLE
  7
STANDARD
  9
$CLAYER
  8
0
  9
$CELTYPE
  6
BYLAYER
  9
$CECOLOR
 62
   256
  9
$CELTSCALE
 40
1.0
  9
$DELOBJ
 70
     1
  9
$DISPSILH
 70
     0
  9
$DIMSCALE
 40
1.0
  9
$DIMASZ
 40
3.5
  9
$DIMEXO
 40
0.0
  9
$DIMDLI
 40
3.75
  9
$DIMRND
 40
0.0
  9
$DIMDLE
 40
0.0
  9
$DIMEXE
 40
1.0
  9
$DIMTP
 40
0.0
  9
$DIMTM
 40
0.0
  9
$DIMTXT
 40
3.5
  9
$DIMCEN
 40
2.5
  9
$DIMTSZ
 40
0.0
  9
$DIMTOL
 70
     0
  9
$DIMLIM
 70
     0
  9
$DIMTIH
 70
     1
  9
$DIMTOH
 70
     1
  9
$DIMSE1
 70
     0
  9
$DIMSE2
 70
     0
  9
$DIMTAD
 70
     1
  9
$DIMZIN
 70
     0
  9
$DIMBLK
  1

  9
$DIMASO
 70
     1
  9
$DIMSHO
 70
     1
  9
$DIMPOST
  1

  9
$DIMAPOST
  1

  9
$DIMALT
 70
     0
  9
$DIMALTD
 70
     3
  9
$DIMALTF
 40
0.0393700787
  9
$DIMLFAC
 40
1.0
  9
$DIMTOFL
 70
     1
  9
$DIMTVP
 40
0.0
  9
$DIMTIX
 70
     0
  9
$DIMSOXD
 70
     0
  9
$DIMSAH
 70
     0
  9
$DIMBLK1
  1

  9
$DIMBLK2
  1

  9
$DIMSTYLE
  2
ISO-25
  9
$DIMCLRD
 70
     0
  9
$DIMCLRE
 70
     0
  9
$DIMCLRT
 70
     0
  9
$DIMTFAC
 40
1.0
  9
$DIMGAP
 40
1.5
  9
$DIMJUST
 70
     0
  9
$DIMSD1
 70
     0
  9
$DIMSD2
 70
     0
  9
$DIMTOLJ
 70
     0
  9
$DIMTZIN
 70
     0
  9
$DIMALTZ
 70
     0
  9
$DIMALTTZ
 70
     0
  9
$DIMFIT
 70
     3
  9
$DIMUPT
 70
     0
  9
$DIMUNIT
 70
     2
  9
$DIMDEC
 70
     2
  9
$DIMTDEC
 70
     3
  9
$DIMALTU
 70
     2
  9
$DIMALTTD
 70
     3
  9
$DIMTXSTY
  7
STANDARD
  9
$DIMAUNIT
 70
     0
  9
$LUNITS
 70
     2
  9
$LUPREC
 70
     2
  9
$SKETCHINC
 40
1.0
  9
$FILLETRAD
 40
10.0
  9
$AUNITS
 70
     0
  9
$AUPREC
 70
     2
  9
$MENU
  1
.
  9
$ELEVATION
 40
0.0
  9
$PELEVATION
 40
0.0
  9
$THICKNESS
 40
0.0
  9
$LIMCHECK
 70
     0
  9
$CHAMFERA
 40
10.0
  9
$CHAMFERB
 40
10.0
  9
$CHAMFERC
 40
20.0
  9
$CHAMFERD
 40
0.0
  9
$SKPOLY
 70
     0
  9
$TDCREATE
 40
2456435.554057593
  9
$TDUPDATE
 40
2456435.554058125
  9
$TDINDWG
 40
0.0000000116
  9
$TDUSRTIMER
 40
0.0000000116
  9
$USRTIMER
 70
     1
  9
$ANGBASE
 50
0.0
  9
$ANGDIR
 70
     0
  9
$PDMODE
 70
     0
  9
$PDSIZE
 40
-1.0
  9
$PLINEWID
 40
0.0
  9
$COORDS
 70
     1
  9
$SPLFRAME
 70
     0
  9
$SPLINETYPE
 70
     6
  9
$SPLINESEGS
 70
     8
  9
$ATTDIA
 70
     0
  9
$ATTREQ
 70
     1
  9
$HANDLING
 70
     1
  9
$HANDSEED
  5
D9
  9
$SURFTAB1
 70
     6
  9
$SURFTAB2
 70
     6
  9
$SURFTYPE
 70
     6
  9
$SURFU
 70
     6
  9
$SURFV
 70
     6
  9
$UCSNAME
  2

  9
$UCSORG
 10
0.0
 20
0.0
 30
0.0
  9
$UCSXDIR
 10
1.0
 20
0.0
 30
0.0
  9
$UCSYDIR
 10
0.0
 20
1.0
 30
0.0
  9
$PUCSNAME
  2

  9
$PUCSORG
 10
0.0
 20
0.0
 30
0.0
  9
$PUCSXDIR
 10
1.0
 20
0.0
 30
0.0
  9
$PUCSYDIR
 10
0.0
 20
1.0
 30
0.0
  9
$USERI1
 70
     0
  9
$USERI2
 70
     0
  9
$USERI3
 70
     0
  9
$USERI4
 70
     0
  9
$USERI5
 70
     0
  9
$USERR1
 40
0.0
  9
$USERR2
 40
0.0
  9
$USERR3
 40
0.0
  9
$USERR4
 40
0.0
  9
$USERR5
 40
0.0
  9
$WORLDVIEW
 70
     1
  9
$SHADEDGE
 70
     3
  9
$SHADEDIF
 70
    70
  9
$TILEMODE
 70
     1
  9
$MAXACTVP
 70
    64
  9
$PINSBASE
 10
0.0
 20
0.0
 30
0.0
  9
$PLIMCHECK
 70
     0
  9
$PEXTMIN
 10
1.0000000000E+20
 20
1.0000000000E+20
 30
1.0000000000E+20
  9
$PEXTMAX
 10
-1.0000000000E+20
 20
-1.0000000000E+20
 30
-1.0000000000E+20
  9
$PLIMMIN
 10
0.0
 20
0.0
  9
$PLIMMAX
 10
420.0
 20
297.0
  9
$UNITMODE
 70
     0
  9
$VISRETAIN
 70
     1
  9
$PLINEGEN
 70
     0
  9
$PSLTSCALE
 70
     1
  9
$TREEDEPTH
 70
  3020
  9
$PICKSTYLE
 70
     1
  9
$CMLSTYLE
  2
STANDARD
  9
$CMLJUST
 70
     0
  9
$CMLSCALE
 40
20.0
  9
$PROXYGRAPHICS
 70
     1
  9
$MEASUREMENT
 70
     1
  0
ENDSEC
  0
SECTION
  2
CLASSES
  0
CLASS
  1
ACDBDICTIONARYWDFLT
  2
AcDbDictionaryWithDefault
  3
ObjectDBX Classes
 90
        0
280
     0
281
     0
  0
CLASS
  1
VISUALSTYLE
  2
AcDbVisualStyle
  3
ObjectDBX Classes
 90
     4095
280
     0
281
     0
  0
CLASS
  1
MATERIAL
  2
AcDbMaterial
  3
ObjectDBX Classes
 90
     1153
280
     0
281
     0
  0
CLASS
  1
XRECORD
  2
AcDbXrecord
  3
AutoCAD 2000
 90
        0
280
     0
281
     0
  0
CLASS
  1
LWPOLYLINE
  2
AcDbPolyline
  3
AutoCAD 2000
 90
        0
280
     0
281
     1
  0
CLASS
  1
HATCH
  2
AcDbHatch
  3
AutoCAD 2000
 90
        0
280
     0
281
     1
  0
ENDSEC
  0
SECTION
  2
TABLES
  0
TABLE
  2
VPORT
  5
8
330
0
100
AcDbSymbolTable
 70
     1
  0
VPORT
  5
29
330
8
100
AcDbSymbolTableRecord
100
AcDbViewportTableRecord
  2
*ACTIVE
 70
     0
 10
0.0
 20
0.0
 11
1.0
 21
1.0
 12
105.0
 22
148.5
 13
0.0
 23
0.0
 14
10.0
 24
10.0
 15
10.0
 25
10.0
 16
0.0
 26
0.0
 36
1.0
 17
0.0
 27
0.0
 37
0.0
 40
297.0
 41
0.7070707071
 42
50.0
 43
0.0
 44
0.0
 50
0.0
 51
0.0
 71
     0
 72
  2000
 73
     1
 74
     3
 75
     0
 76
     0
 77
     0
 78
     0
  0
ENDTAB
  0
TABLE
  2
LTYPE
  5
5
330
0
100
AcDbSymbolTable
 70
     6
  0
LTYPE
  5
14
330
5
100
AcDbSymbolTableRecord
100
AcDbLinetypeTableRecord
  2
BYBLOCK
 70
     0
  3

 72
    65
 73
     0
 40
0.0
  0
LTYPE
  5
15
330
5
100
AcDbSymbolTableRecord
100
AcDbLinetypeTableRecord
  2
BYLAYER
 70
     0
  3

 72
    65
 73
     0
 40
0.0
  0
LTYPE
  5
16
330
5
100
AcDbSymbolTableRecord
100
AcDbLinetypeTableRecord
  2
CONTINUOUS
 70
     0
  3
Solid line
 72
    65
 73
     0
 40
0.0
  0
LTYPE
  5
3F
330
5
100
AcDbSymbolTableRecord
100
AcDbLinetypeTableRecord
  2
HIDDEN
 70
     0
  3
Hidden __ __ __ __ __ __ __ __ __ __ __ __ __ __
 72
    65
 73
     2
 40
1.905
 49
1.27
 74
     0
 49
-0.635
 74
     0
  0
LTYPE
  5
40
330
5
100
AcDbSymbolTableRecord
100
AcDbLinetypeTableRecord
  2
PHANTOM
 70
     0
  3
Phantom ______  __  __  ______  __  __  ______
 72
    65
 73
     6
 40
12.7
 49
6.35
 74
     0
 49
-1.27
 74
     0
 49
1.27
 74
     0
 49
-1.27
 74
     0
 49
1.27
 74
     0
 49
-1.27
 74
     0
  0
LTYPE
  5
41
330
5
100
AcDbSymbolTableRecord
100
AcDbLinetypeTableRecord
  2
CENTER
 70
     0
  3
Center ____ _ ____ _ ____ _ ____ _ ____ _ ____
 72
    65
 73
     4
 40
10.16
 49
6.35
 74
     0
 49
-1.27
 74
     0
 49
1.27
 74
     0
 49
-1.27
 74
     0
  0
LTYPE
  5
42
330
5
100
AcDbSymbolTableRecord
100
AcDbLinetypeTableRecord
  2
CENTERX2
 70
     0
  3
Center (2x) ________  __  ________  __  _____
 72
    65
 73
     4
 40
20.32
 49
12.7
 74
     0
 49
-2.54
 74
     0
 49
2.54
 74
     0
 49
-2.54
 74
     0
  0
LTYPE
  5
43
330
5
100
AcDbSymbolTableRecord
100
AcDbLinetypeTableRecord
  2
DOT2
 70
     0
  3
Dot (.5x) ........................................
 72
    65
 73
     2
 40
0.635
 49
0.0
 74
     0
 49
-0.635
 74
     0
  0
ENDTAB
  0
TABLE
  2
LAYER
  5
2
330
0
100
AcDbSymbolTable
 70
     7
  0
LAYER
  5
10
330
2
100
AcDbSymbolTableRecord
100
AcDbLayerTableRecord
  2
0
 70
     0
 62
     7
  6
CONTINUOUS
  0
LAYER
  5
44
330
2
100
AcDbSymbolTableRecord
100
AcDbLayerTableRecord
  2
AUFNAHME
 70
     0
 62
     7
  6
CONTINUOUS
  0
LAYER
  5
45
330
2
100
AcDbSymbolTableRecord
100
AcDbLayerTableRecord
  2
MASS
 70
     0
 62
     4
  6
CONTINUOUS
  0
LAYER
  5
46
330
2
100
AcDbSymbolTableRecord
100
AcDbLayerTableRecord
  2
EW
 70
     0
 62
     1
  6
HIDDEN
  0
LAYER
  5
47
330
2
100
AcDbSymbolTableRecord
100
AcDbLayerTableRecord
  2
UNSICHT
 70
     0
 62
     4
  6
CENTER
  0
LAYER
  5
48
330
2
100
AcDbSymbolTableRecord
100
AcDbLayerTableRecord
  2
TEXT
 70
     0
 62
     7
  6
CONTINUOUS
  0
LAYER
  5
49
330
2
100
AcDbSymbolTableRecord
100
AcDbLayerTableRecord
  2
ZAPFEN
 70
     0
 62
     4
  6
CONTINUOUS
  0
ENDTAB
  0
TABLE
  2
STYLE
  5
3
330
0
100
AcDbSymbolTable
 70
     2
  0
STYLE
  5
11
330
3
100
AcDbSymbolTableRecord
100
AcDbTextStyleTableRecord
  2
STANDARD
 70
     0
 40
0.0
 41
1.0
 50
0.0
 71
     0
 42
3.5
  3
txt
  4

  0
STYLE
  5
96
330
3
100
AcDbSymbolTableRecord
100
AcDbTextStyleTableRecord
  2
SLDTEXTSTYLE0
 70
     0
 40
0.0
 41
0.605
 50
0.0
 71
     0
 42
0.2
  3
TXT
  4

  0
ENDTAB
  0
TABLE
  2
VIEW
  5
6
330
0
100
AcDbSymbolTable
 70
     0
  0
ENDTAB
  0
TABLE
  2
UCS
  5
7
330
0
100
AcDbSymbolTable
 70
     0
  0
ENDTAB
  0
TABLE
  2
APPID
  5
9
330
0
100
AcDbSymbolTable
 70
     1
  0
APPID
  5
12
330
9
100
AcDbSymbolTableRecord
100
AcDbRegAppTableRecord
  2
ACAD
 70
     0
  0
ENDTAB
  0
TABLE
  2
DIMSTYLE
  5
A
330
0
100
AcDbSymbolTable
 70
     4
  0
DIMSTYLE
105
27
330
A
100
AcDbSymbolTableRecord
100
AcDbDimStyleTableRecord
  2
ISO-25
 70
     0
  3

  4

  5

  6

  7

 40
1.0
 41
2.5
 42
0.625
 43
3.75
 44
1.25
 45
0.0
 46
0.0
 47
0.0
 48
0.0
140
2.5
141
2.5
142
0.0
143
0.0393700787
144
1.0
145
0.0
146
1.0
147
0.625
 71
     0
 72
     0
 73
     0
 74
     0
 75
     0
 76
     0
 77
     1
 78
     8
170
     0
171
     3
172
     1
173
     0
174
     0
175
     0
176
     0
177
     0
178
     0
270
     2
271
     2
272
     2
273
     2
274
     3
340
11
275
     0
280
     0
281
     0
282
     0
283
     0
284
     8
285
     0
286
     0
287
     3
288
     0
  0
DIMSTYLE
105
97
102
{ACAD_REACTORS
330
95
330
A2
330
AC
330
B7
102
}
330
A
100
AcDbSymbolTableRecord
100
AcDbDimStyleTableRecord
  2
SLDDIMSTYLE0
 70
     0
  3

  4

  5

  6

  7

 40
1.0
 41
3.5
 42
0.0625
 43
0.38
 44
0.0
 45
0.000000001
 46
0.0
 47
0.0
 48
0.0
140
3.5
141
0.09
142
0.0
143
25.4
144
1.0
145
0.0
146
1.0
147
0.875
 71
     0
 72
     0
 73
     0
 74
     0
 75
     0
 76
     0
 77
     1
 78
    12
170
     0
171
     2
172
     0
173
     1
174
     0
175
     0
176
     0
177
     0
178
     0
270
     2
271
     2
272
     3
273
     2
274
     2
340
96
275
     0
280
     0
281
     0
282
     0
283
     1
284
    12
285
     0
286
     0
287
     3
288
     0
  0
DIMSTYLE
105
C3
102
{ACAD_REACTORS
330
C2
102
}
330
A
100
AcDbSymbolTableRecord
100
AcDbDimStyleTableRecord
  2
SLDDIMSTYLE1
 70
     0
  3

  4

  5

  6

  7

 40
1.0
 41
3.5
 42
0.0625
 43
0.38
 44
0.0
 45
0.000000001
 46
0.0
 47
0.0
 48
0.0
140
3.5
141
0.09
142
0.0
143
25.4
144
1.0
145
0.0
146
1.0
147
0.875
 71
     0
 72
     0
 73
     0
 74
     0
 75
     0
 76
     0
 77
     1
 78
    12
170
     0
171
     2
172
     0
173
     1
174
     0
175
     0
176
     0
177
     0
178
     0
270
     2
271
     0
272
     3
273
     2
274
     2
340
96
275
     0
280
     0
281
     0
282
     0
283
     1
284
    12
285
     0
286
     0
287
     3
288
     0
  0
DIMSTYLE
105
CE
102
{ACAD_REACTORS
330
CD
102
}
330
A
100
AcDbSymbolTableRecord
100
AcDbDimStyleTableRecord
  2
SLDDIMSTYLE2
 70
     0
  3

  4

  5

  6

  7

 40
1.0
 41
3.5
 42
0.0625
 43
0.38
 44
0.0
 45
0.000000001
 46
0.0
 47
0.0
 48
0.0
140
3.5
141
0.09
142
0.0
143
25.4
144
1.0
145
0.0
146
1.0
147
0.875
 71
     0
 72
     0
 73
     0
 74
     0
 75
     0
 76
     0
 77
     1
 78
    12
170
     0
171
     2
172
     1
173
     1
174
     0
175
     0
176
     0
177
     0
178
     0
270
     2
271
     2
272
     3
273
     2
274
     2
340
96
275
     0
280
     0
281
     0
282
     0
283
     1
284
    12
285
     0
286
     0
288
     0
  0
ENDTAB
  0
TABLE
  2
BLOCK_RECORD
  5
1
330
0
100
AcDbSymbolTable
 70
     7
  0
BLOCK_RECORD
  5
1F
330
1
100
AcDbSymbolTableRecord
100
AcDbBlockTableRecord
  2
*MODEL_SPACE
  0
BLOCK_RECORD
  5
1B
330
1
100
AcDbSymbolTableRecord
100
AcDbBlockTableRecord
  2
*PAPER_SPACE
  0
BLOCK_RECORD
  5
23
330
1
100
AcDbSymbolTableRecord
100
AcDbBlockTableRecord
  2
*PAPER_SPACE0
  0
BLOCK_RECORD
  5
98
330
1
100
AcDbSymbolTableRecord
100
AcDbBlockTableRecord
  2
_D
  0
BLOCK_RECORD
  5
A3
330
1
100
AcDbSymbolTableRecord
100
AcDbBlockTableRecord
  2
_D_1
  0
BLOCK_RECORD
  5
AD
330
1
100
AcDbSymbolTableRecord
100
AcDbBlockTableRecord
  2
_D_2
  0
BLOCK_RECORD
  5
B8
330
1
100
AcDbSymbolTableRecord
100
AcDbBlockTableRecord
  2
_D_3
  0
BLOCK_RECORD
  5
C4
330
1
100
AcDbSymbolTableRecord
100
AcDbBlockTableRecord
  2
_D_4
  0
BLOCK_RECORD
  5
CF
330
1
100
AcDbSymbolTableRecord
100
AcDbBlockTableRecord
  2
_D_5
  0
ENDTAB
  0
ENDSEC
  0
SECTION
  2
BLOCKS
  0
BLOCK
  5
20
330
1F
100
AcDbEntity
  8
0
100
AcDbBlockBegin
  2
*MODEL_SPACE
 70
     0
 10
0.0
 20
0.0
 30
0.0
  3
*MODEL_SPACE
  1

  0
ENDBLK
  5
21
330
1F
100
AcDbEntity
  8
0
100
AcDbBlockEnd
  0
BLOCK
  5
1C
330
1B
100
AcDbEntity
 67
     1
  8
0
100
AcDbBlockBegin
  2
*PAPER_SPACE
 70
     0
 10
0.0
 20
0.0
 30
0.0
  3
*PAPER_SPACE
  1

  0
ENDBLK
  5
1D
330
1B
100
AcDbEntity
 67
     1
  8
0
100
AcDbBlockEnd
  0
BLOCK
  5
24
330
23
100
AcDbEntity
  8
0
100
AcDbBlockBegin
  2
*PAPER_SPACE0
 70
     0
 10
0.0
 20
0.0
 30
0.0
  3
*PAPER_SPACE0
  1

  0
ENDBLK
  5
25
330
23
100
AcDbEntity
  8
0
100
AcDbBlockEnd
  0
BLOCK
  5
99
330
98
100
AcDbEntity
  8
0
100
AcDbBlockBegin
  2
_D
 70
     0
 10
0.0
 20
0.0
 30
0.0
  3
_D
  1

  0
SOLID
  5
9B
330
98
100
AcDbEntity
  8
MASS
100
AcDbTrace
 10
-30.0
 20
-16.8961402432
 30
0.0
 11
-26.5
 21
-17.3461402432
 31
0.0
 12
-26.5
 22
-16.4461402432
 32
0.0
 13
-26.5
 23
-16.4461402432
 33
0.0
  0
SOLID
  5
9C
330
98
100
AcDbEntity
  8
MASS
100
AcDbTrace
 10
0.0
 20
-16.8961402432
 30
0.0
 11
-3.5
 21
-16.4461402432
 31
0.0
 12
-3.5
 22
-17.3461402432
 32
0.0
 13
-3.5
 23
-17.3461402432
 33
0.0
  0
LINE
  5
9D
330
98
100
AcDbEntity
  8
MASS
100
AcDbLine
 10
-30.0
 20
-5.0
 30
0.0
 11
-30.0
 21
-17.8961402432
 31
0.0
  0
LINE
  5
9E
330
98
100
AcDbEntity
  8
MASS
100
AcDbLine
 10
0.0
 20
-6.0
 30
0.0
 11
0.0
 21
-17.8961402432
 31
0.0
  0
LINE
  5
9F
330
98
100
AcDbEntity
  8
MASS
100
AcDbLine
 10
-30.0
 20
-16.8961402432
 30
0.0
 11
0.0
 21
-16.8961402432
 31
0.0
  0
MTEXT
  5
A0
330
98
100
AcDbEntity
  8
MASS
100
AcDbMText
 10
-22.2333337739
 20
-12.3844030376
 30
0.1
 40
3.5
 41
0.0
 71
     1
 72
     1
  1
30
  7
SLDTEXTSTYLE0
  0
MTEXT
  5
A1
330
98
100
AcDbEntity
  8
MASS
100
AcDbMText
 10
-14.1249999776
 20
-12.3844030376
 30
0.1
 40
3.5
 41
0.0
 71
     1
 72
     1
  1
min
  7
SLDTEXTSTYLE0
  0
ENDBLK
  5
9A
330
98
100
AcDbEntity
  8
0
100
AcDbBlockEnd
  0
BLOCK
  5
A4
330
A3
100
AcDbEntity
  8
0
100
AcDbBlockBegin
  2
_D_1
 70
     0
 10
0.0
 20
0.0
 30
0.0
  3
_D_1
  1

  0
SOLID
  5
A6
330
A3
100
AcDbEntity
  8
MASS
100
AcDbTrace
 10
107.4988542492
 20
-16.8961402432
 30
0.0
 11
103.9988542492
 21
-16.4461402432
 31
0.0
 12
103.9988542492
 22
-17.3461402432
 32
0.0
 13
103.9988542492
 23
-17.3461402432
 33
0.0
  0
SOLID
  5
A7
330
A3
100
AcDbEntity
  8
MASS
100
AcDbTrace
 10
0.0
 20
-16.8961402432
 30
0.0
 11
3.5
 21
-17.3461402432
 31
0.0
 12
3.5
 22
-16.4461402432
 32
0.0
 13
3.5
 23
-16.4461402432
 33
0.0
  0
LINE
  5
A8
330
A3
100
AcDbEntity
  8
MASS
100
AcDbLine
 10
107.4988542492
 20
8.4771312937
 30
0.0
 11
107.4988542492
 21
-17.8961402432
 31
0.0
  0
LINE
  5
A9
330
A3
100
AcDbEntity
  8
MASS
100
AcDbLine
 10
0.0
 20
-6.0
 30
0.0
 11
0.0
 21
-17.8961402432
 31
0.0
  0
LINE
  5
AA
330
A3
100
AcDbEntity
  8
MASS
100
AcDbLine
 10
107.4988542492
 20
-16.8961402432
 30
0.0
 11
0.0
 21
-16.8961402432
 31
0.0
  0
MTEXT
  5
AB
330
A3
100
AcDbEntity
  8
MASS
100
AcDbMText
 10
46.5136625988
 20
-12.3844030376
 30
0.1
 40
3.5
 41
0.0
 71
     1
 72
     1
  1
75 - 110
  7
SLDTEXTSTYLE0
  0
ENDBLK
  5
A5
330
A3
100
AcDbEntity
  8
0
100
AcDbBlockEnd
  0
BLOCK
  5
AE
330
AD
100
AcDbEntity
  8
0
100
AcDbBlockBegin
  2
_D_2
 70
     0
 10
0.0
 20
0.0
 30
0.0
  3
_D_2
  1

  0
SOLID
  5
B0
330
AD
100
AcDbEntity
  8
MASS
100
AcDbTrace
 10
-46.3270315013
 20
-8.0
 30
0.0
 11
-45.8770315013
 21
-4.5
 31
0.0
 12
-46.7770315013
 22
-4.5
 32
0.0
 13
-46.7770315013
 23
-4.5
 33
0.0
  0
SOLID
  5
B1
330
AD
100
AcDbEntity
  8
MASS
100
AcDbTrace
 10
-46.3270315013
 20
8.0
 30
0.0
 11
-46.7770315013
 21
4.5
 31
0.0
 12
-45.8770315013
 22
4.5
 32
0.0
 13
-45.8770315013
 23
4.5
 33
0.0
  0
LINE
  5
B2
330
AD
100
AcDbEntity
  8
MASS
100
AcDbLine
 10
71.99945668
 20
-8.0
 30
0.0
 11
-47.3270315013
 21
-8.0
 31
0.0
  0
LINE
  5
B3
330
AD
100
AcDbEntity
  8
MASS
100
AcDbLine
 10
71.99945668
 20
8.0
 30
0.0
 11
-47.3270315013
 21
8.0
 31
0.0
  0
LINE
  5
B4
330
AD
100
AcDbEntity
  8
MASS
100
AcDbLine
 10
-46.3270315013
 20
-8.0
 30
0.0
 11
-46.3270315013
 21
8.0
 31
0.0
  0
MTEXT
  5
B5
330
AD
100
AcDbEntity
  8
MASS
100
AcDbMText
 10
-50.8387687069
 20
-6.0934033245
 30
0.1
 40
3.5
 41
0.0
 71
     1
 72
     1
  1
%%c
  7
SLDTEXTSTYLE0
 11
6.123233995736766E-17
 21
1.0
 31
0.0
  0
MTEXT
  5
B6
330
AD
100
AcDbEntity
  8
MASS
100
AcDbMText
 10
-50.8387687069
 20
-0.9211809374
 30
0.1
 40
3.5
 41
0.0
 71
     1
 72
     1
  1
16
  7
SLDTEXTSTYLE0
 11
6.123233995736766E-17
 21
1.0
 31
0.0
  0
ENDBLK
  5
AF
330
AD
100
AcDbEntity
  8
0
100
AcDbBlockEnd
  0
BLOCK
  5
B9
330
B8
100
AcDbEntity
  8
0
100
AcDbBlockBegin
  2
_D_3
 70
     0
 10
0.0
 20
0.0
 30
0.0
  3
_D_3
  1

  0
SOLID
  5
BB
330
B8
100
AcDbEntity
  8
MASS
100
AcDbTrace
 10
-36.5883387759
 20
-6.0
 30
0.0
 11
-36.1383387759
 21
-2.5
 31
0.0
 12
-37.0383387759
 22
-2.5
 32
0.0
 13
-37.0383387759
 23
-2.5
 33
0.0
  0
SOLID
  5
BC
330
B8
100
AcDbEntity
  8
MASS
100
AcDbTrace
 10
-36.5883387759
 20
6.0
 30
0.0
 11
-37.0383387759
 21
2.5
 31
0.0
 12
-36.1383387759
 22
2.5
 32
0.0
 13
-36.1383387759
 23
2.5
 33
0.0
  0
LINE
  5
BD
330
B8
100
AcDbEntity
  8
MASS
100
AcDbLine
 10
-29.0
 20
-6.0
 30
0.0
 11
-37.5883387759
 21
-6.0
 31
0.0
  0
LINE
  5
BE
330
B8
100
AcDbEntity
  8
MASS
100
AcDbLine
 10
-29.0
 20
6.0
 30
0.0
 11
-37.5883387759
 21
6.0
 31
0.0
  0
LINE
  5
BF
330
B8
100
AcDbEntity
  8
MASS
100
AcDbLine
 10
-36.5883387759
 20
-6.0
 30
0.0
 11
-36.5883387759
 21
6.0
 31
0.0
  0
MTEXT
  5
C0
330
B8
100
AcDbEntity
  8
MASS
100
AcDbMText
 10
-41.1000759815
 20
-6.0934033245
 30
0.1
 40
3.5
 41
0.0
 71
     1
 72
     1
  1
%%c
  7
SLDTEXTSTYLE0
 11
6.123233995736766E-17
 21
1.0
 31
0.0
  0
MTEXT
  5
C1
330
B8
100
AcDbEntity
  8
MASS
100
AcDbMText
 10
-41.1000759815
 20
-0.9211809374
 30
0.1
 40
3.5
 41
0.0
 71
     1
 72
     1
  1
12
  7
SLDTEXTSTYLE0
 11
6.123233995736766E-17
 21
1.0
 31
0.0
  0
ENDBLK
  5
BA
330
B8
100
AcDbEntity
  8
0
100
AcDbBlockEnd
  0
BLOCK
  5
C5
330
C4
100
AcDbEntity
  8
0
100
AcDbBlockBegin
  2
_D_4
 70
     0
 10
0.0
 20
0.0
 30
0.0
  3
_D_4
  1

  0
SOLID
  5
C7
330
C4
100
AcDbEntity
  8
MASS
100
AcDbTrace
 10
90.9419956
 20
17.9777369016
 30
0.0
 11
87.4419956
 21
18.4277369016
 31
0.0
 12
87.4419956
 22
17.5277369016
 32
0.0
 13
87.4419956
 23
17.5277369016
 33
0.0
  0
SOLID
  5
C8
330
C4
100
AcDbEntity
  8
MASS
100
AcDbTrace
 10
-30.0
 20
17.9777369016
 30
0.0
 11
-26.5
 21
17.5277369016
 31
0.0
 12
-26.5
 22
18.4277369016
 32
0.0
 13
-26.5
 23
18.4277369016
 33
0.0
  0
LINE
  5
C9
330
C4
100
AcDbEntity
  8
MASS
100
AcDbLine
 10
90.9419956
 20
7.767357057
 30
0.0
 11
90.9419956
 21
18.9777369016
 31
0.0
  0
LINE
  5
CA
330
C4
100
AcDbEntity
  8
MASS
100
AcDbLine
 10
-30.0
 20
5.0
 30
0.0
 11
-30.0
 21
18.9777369016
 31
0.0
  0
LINE
  5
CB
330
C4
100
AcDbEntity
  8
MASS
100
AcDbLine
 10
90.9419956
 20
17.9777369016
 30
0.0
 11
-30.0
 21
17.9777369016
 31
0.0
  0
MTEXT
  5
CC
330
C4
100
AcDbEntity
  8
MASS
100
AcDbMText
 10
25.8675252617
 20
22.4894741072
 30
0.1
 40
3.5
 41
0.0
 71
     1
 72
     1
  1
121
  7
SLDTEXTSTYLE0
  0
ENDBLK
  5
C6
330
C4
100
AcDbEntity
  8
0
100
AcDbBlockEnd
  0
BLOCK
  5
D0
330
CF
100
AcDbEntity
  8
0
100
AcDbBlockBegin
  2
_D_5
 70
     0
 10
0.0
 20
0.0
 30
0.0
  3
_D_5
  1

  0
SOLID
  5
D2
330
CF
100
AcDbEntity
  8
MASS
100
AcDbTrace
 10
116.8181519472
 20
8.8544706288
 30
0.0
 11
117.2681519472
 21
12.3544706288
 31
0.0
 12
116.3681519472
 22
12.3544706288
 32
0.0
 13
116.3681519472
 23
12.3544706288
 33
0.0
  0
LINE
  5
D3
330
CF
100
AcDbEntity
  8
MASS
100
AcDbLine
 10
106.9178055668
 20
8.8544706288
 30
0.0
 11
117.8181519472
 21
8.8544706288
 31
0.0
  0
LINE
  5
D4
330
CF
100
AcDbEntity
  8
MASS
100
AcDbLine
 10
116.8181519472
 20
0.0
 30
0.0
 11
116.8181519472
 21
8.8544706288
 31
0.0
  0
LINE
  5
D5
330
CF
100
AcDbEntity
  8
MASS
100
AcDbLine
 10
116.8181519472
 20
8.8544706288
 30
0.0
 11
116.8181519472
 21
34.0049608196
 31
0.0
  0
MTEXT
  5
D6
330
CF
100
AcDbEntity
  8
MASS
100
AcDbMText
 10
112.3064147416
 20
9.9716267134
 30
0.1
 40
3.5
 41
0.0
 71
     1
 72
     1
  1
%%c
  7
SLDTEXTSTYLE0
 11
-7.044195017643634E-15
 21
1.0
 31
0.0
  0
MTEXT
  5
D7
330
CF
100
AcDbEntity
  8
MASS
100
AcDbMText
 10
112.3064147416
 20
15.1438491004
 30
0.1
 40
3.5
 41
0.0
 71
     1
 72
     1
  1
16.8 - 33.0
  7
SLDTEXTSTYLE0
 11
-7.044195017643634E-15
 21
1.0
 31
0.0
  0
ENDBLK
  5
D1
330
CF
100
AcDbEntity
  8
0
100
AcDbBlockEnd
  0
ENDSEC
  0
SECTION
  2
ENTITIES
  0
LINE
  5
4A
330
1F
100
AcDbEntity
  8
EW
  6
HIDDEN
100
AcDbLine
 10
74.99945668
 20
6.0
 30
0.0
 11
74.99945668
 21
-6.0
 31
0.0
  0
LINE
  5
4B
330
1F
100
AcDbEntity
  8
AUFNAHME
  6
CONTINUOUS
100
AcDbLine
 10
70.99945668
 20
-6.0
 30
0.0
 11
0.0
 21
-6.0
 31
0.0
  0
LINE
  5
4C
330
1F
100
AcDbEntity
  8
ZAPFEN
100
AcDbLine
 10
0.0
 20
-6.0
 30
0.0
 11
-29.0
 21
-6.0
 31
0.0
  0
LINE
  5
4D
330
1F
100
AcDbEntity
  8
ZAPFEN
100
AcDbLine
 10
-29.0
 20
6.0
 30
0.0
 11
0.0
 21
6.0
 31
0.0
  0
LINE
  5
4E
330
1F
100
AcDbEntity
  8
AUFNAHME
  6
CONTINUOUS
100
AcDbLine
 10
0.0
 20
6.0
 30
0.0
 11
70.99945668
 21
6.0
 31
0.0
  0
LINE
  5
4F
330
1F
100
AcDbEntity
  8
ZAPFEN
100
AcDbLine
 10
-29.0
 20
-6.0
 30
0.0
 11
-29.0
 21
6.0
 31
0.0
  0
LINE
  5
50
330
1F
100
AcDbEntity
  8
ZAPFEN
100
AcDbLine
 10
-29.0
 20
6.0
 30
0.0
 11
-30.0
 21
5.0
 31
0.0
  0
LINE
  5
51
330
1F
100
AcDbEntity
  8
ZAPFEN
100
AcDbLine
 10
-30.0
 20
5.0
 30
0.0
 11
-30.0
 21
-5.0
 31
0.0
  0
LINE
  5
52
330
1F
100
AcDbEntity
  8
ZAPFEN
100
AcDbLine
 10
-30.0
 20
-5.0
 30
0.0
 11
-29.0
 21
-6.0
 31
0.0
  0
LINE
  5
53
330
1F
100
AcDbEntity
  8
EW
  6
HIDDEN
100
AcDbLine
 10
-30.0
 20
-2.0
 30
0.0
 11
74.99945668
 21
-2.0
 31
0.0
  0
LINE
  5
54
330
1F
100
AcDbEntity
  8
EW
  6
HIDDEN
100
AcDbLine
 10
-30.0
 20
2.0
 30
0.0
 11
74.99945668
 21
2.0
 31
0.0
  0
LINE
  5
55
330
1F
100
AcDbEntity
  8
ZAPFEN
100
AcDbLine
 10
0.0
 20
6.0
 30
0.0
 11
0.0
 21
-6.0
 31
0.0
  0
LINE
  5
56
330
1F
100
AcDbEntity
  8
UNSICHT
  6
CENTER
100
AcDbLine
 10
-31.3942978773
 20
0.0
 30
0.0
 11
109.0929223773
 21
0.0
 31
0.0
  0
LINE
  5
57
330
1F
100
AcDbEntity
  8
AUFNAHME
  6
CONTINUOUS
100
AcDbLine
 10
85.83202
 20
-7.767357057
 30
0.0
 11
85.774015599
 21
-8.0
 31
0.0
  0
LINE
  5
58
330
1F
100
AcDbEntity
  8
AUFNAHME
  6
CONTINUOUS
100
AcDbLine
 10
85.774015599
 20
-8.0
 30
0.0
 11
71.99945668
 21
-8.0
 31
0.0
  0
LINE
  5
59
330
1F
100
AcDbEntity
  8
AUFNAHME
  6
CONTINUOUS
100
AcDbLine
 10
71.99945668
 20
8.0
 30
0.0
 11
89.763263645
 21
8.0
 31
0.0
  0
LINE
  5
5A
330
1F
100
AcDbEntity
  8
AUFNAHME
  6
CONTINUOUS
100
AcDbLine
 10
90.9419956
 20
7.767357057
 30
0.0
 11
87.068756355
 21
-7.767357057
 31
0.0
  0
LINE
  5
5B
330
1F
100
AcDbEntity
  8
AUFNAHME
  6
CONTINUOUS
100
AcDbLine
 10
89.763263645
 20
8.0
 30
0.0
 11
89.016728297
 21
5.005810259
 31
0.0
  0
LINE
  5
5C
330
1F
100
AcDbEntity
  8
AUFNAHME
  6
CONTINUOUS
100
AcDbLine
 10
85.331192676
 20
5.0
 30
0.0
 11
90.253464652
 21
5.0
 31
0.0
  0
LINE
  5
5D
330
1F
100
AcDbEntity
  8
EW
  6
HIDDEN
100
AcDbLine
 10
74.99945668
 20
-1.545740384
 30
0.0
 11
89.012442881
 21
4.988622395
 31
0.0
  0
LINE
  5
5E
330
1F
100
AcDbEntity
  8
EW
  6
HIDDEN
100
AcDbLine
 10
82.876794604
 20
5.370782978
 30
0.0
 11
74.99945668
 21
1.764393372
 31
0.0
  0
LINE
  5
5F
330
1F
100
AcDbEntity
  8
AUFNAHME
  6
CONTINUOUS
100
AcDbLine
 10
89.705259244
 20
7.767357057
 30
0.0
 11
90.9419956
 21
7.767357057
 31
0.0
  0
LINE
  5
60
330
1F
100
AcDbEntity
  8
AUFNAHME
  6
CONTINUOUS
100
AcDbLine
 10
85.83202
 20
-7.767357057
 30
0.0
 11
87.068756355
 21
-7.767357057
 31
0.0
  0
LINE
  5
61
330
1F
100
AcDbEntity
  8
EW
  6
HIDDEN
100
AcDbLine
 10
74.99945668
 20
-6.0
 30
0.0
 11
70.99945668
 21
-6.0
 31
0.0
  0
LINE
  5
62
330
1F
100
AcDbEntity
  8
AUFNAHME
  6
CONTINUOUS
100
AcDbLine
 10
71.99945668
 20
-8.0
 30
0.0
 11
70.99945668
 21
-7.0
 31
0.0
  0
LINE
  5
63
330
1F
100
AcDbEntity
  8
AUFNAHME
  6
CONTINUOUS
100
AcDbLine
 10
70.99945668
 20
-7.0
 30
0.0
 11
70.99945668
 21
7.0
 31
0.0
  0
LINE
  5
64
330
1F
100
AcDbEntity
  8
EW
  6
HIDDEN
100
AcDbLine
 10
70.99945668
 20
6.0
 30
0.0
 11
74.99945668
 21
6.0
 31
0.0
  0
LINE
  5
65
330
1F
100
AcDbEntity
  8
AUFNAHME
  6
CONTINUOUS
100
AcDbLine
 10
70.99945668
 20
7.0
 30
0.0
 11
71.99945668
 21
8.0
 31
0.0
  0
LINE
  5
66
330
1F
100
AcDbEntity
  8
AUFNAHME
  6
CONTINUOUS
100
AcDbLine
 10
71.99945668
 20
8.0
 30
0.0
 11
71.99945668
 21
-8.0
 31
0.0
  0
LINE
  5
67
330
1F
100
AcDbEntity
  8
ZAPFEN
100
AcDbLine
 10
106.9957567202
 20
-1.1225792073
 30
0.0
 11
107.4988542492
 21
8.4771312937
 31
0.0
  0
LINE
  5
68
330
1F
100
AcDbEntity
  8
ZAPFEN
100
AcDbLine
 10
106.9178055668
 20
8.8544706288
 30
0.0
 11
98.352667318
 21
4.490313668
 31
0.0
  0
LINE
  5
69
330
1F
100
AcDbEntity
  8
ZAPFEN
100
AcDbLine
 10
98.3164021441
 20
3.7984441512
 30
0.0
 11
99.971727743
 21
2.723466946
 31
0.0
  0
LINE
  5
6A
330
1F
100
AcDbEntity
  8
ZAPFEN
100
AcDbLine
 10
99.971727743
 20
2.723466946
 30
0.0
 11
106.378453139
 21
-1.437110121
 31
0.0
  0
LINE
  5
6B
330
1F
100
AcDbEntity
  8
ZAPFEN
100
AcDbLine
 10
89.969330733
 20
7.998067935
 30
0.0
 11
88.374330482
 21
1.600871339
 31
0.0
  0
LINE
  5
6C
330
1F
100
AcDbEntity
  8
ZAPFEN
100
AcDbLine
 10
86.989530796
 20
-3.953256838
 30
0.0
 11
85.980082687
 21
-8.001932065
 31
0.0
  0
LINE
  5
6D
330
1F
100
AcDbEntity
  8
ZAPFEN
100
AcDbLine
 10
85.980082687
 20
-8.001932065
 30
0.0
 11
91.133150834
 21
-8.001932065
 31
0.0
  0
LINE
  5
6E
330
1F
100
AcDbEntity
  8
ZAPFEN
100
AcDbLine
 10
98.294721864
 20
-6.6832493
 30
0.0
 11
106.5640073149
 21
-1.9089751189
 31
0.0
  0
LINE
  5
6F
330
1F
100
AcDbEntity
  8
ZAPFEN
100
AcDbLine
 10
106.5640073149
 20
-1.9089751189
 30
0.0
 11
106.5853625669
 21
-1.5014926179
 31
0.0
  0
LINE
  5
70
330
1F
100
AcDbEntity
  8
ZAPFEN
100
AcDbLine
 10
105.237030817
 20
7.998067935
 30
0.0
 11
89.969330733
 21
7.998067935
 31
0.0
  0
LINE
  5
71
330
1F
100
AcDbEntity
  8
ZAPFEN
100
AcDbLine
 10
101.168512807
 20
5.925056914
 30
0.0
 11
100.82551105
 21
6.147804755
 31
0.0
  0
LINE
  5
72
330
1F
100
AcDbEntity
  8
ZAPFEN
100
AcDbLine
 10
100.82551105
 20
6.147804755
 30
0.0
 11
99.475572037
 21
7.024464992
 31
0.0
  0
LINE
  5
73
330
1F
100
AcDbEntity
  8
ZAPFEN
100
AcDbLine
 10
97.7327271184
 20
4.3407188664
 30
0.0
 11
98.138282017
 21
4.077347211
 31
0.0
  0
LINE
  5
74
330
1F
100
AcDbEntity
  8
ZAPFEN
100
AcDbLine
 10
98.198907816
 20
3.915879399
 30
0.0
 11
97.523350364
 21
4.354591741
 31
0.0
  0
LINE
  5
75
330
1F
100
AcDbEntity
  8
ZAPFEN
100
AcDbLine
 10
97.523350364
 20
4.354591741
 30
0.0
 11
97.2185096712
 21
4.8825913091
 31
0.0
  0
LINE
  5
76
330
1F
100
AcDbEntity
  8
ZAPFEN
100
AcDbLine
 10
98.259597829
 20
3.698067935
 30
0.0
 11
99.942271729
 21
2.605325328
 31
0.0
  0
LINE
  5
77
330
1F
100
AcDbEntity
  8
ZAPFEN
100
AcDbLine
 10
99.942271729
 20
2.605325328
 30
0.0
 11
106.574857984
 21
-1.701932067
 31
0.0
  0
LINE
  5
78
330
1F
100
AcDbEntity
  8
ZAPFEN
100
AcDbLine
 10
101.789355566
 20
-4.665621592
 30
0.0
 11
98.129421055
 21
-4.665621592
 31
0.0
  0
LINE
  5
79
330
1F
100
AcDbEntity
  8
ZAPFEN
100
AcDbLine
 10
98.129421055
 20
-4.665621592
 30
0.0
 11
87.842531944
 21
-4.665621592
 31
0.0
  0
LINE
  5
7A
330
1F
100
AcDbEntity
  8
AUFNAHME
  6
CONTINUOUS
100
AcDbLine
 10
89.92783395
 20
3.698067935
 30
0.0
 11
87.074033934
 21
-7.747898757
 31
0.0
  0
LINE
  5
7B
330
1F
100
AcDbEntity
  8
ZAPFEN
100
AcDbLine
 10
91.133150834
 20
-8.001932065
 30
0.0
 11
91.461935374
 21
-6.6832493
 31
0.0
  0
LINE
  5
7C
330
1F
100
AcDbEntity
  8
ZAPFEN
100
AcDbLine
 10
91.461935374
 20
-6.6832493
 30
0.0
 11
98.294721864
 21
-6.6832493
 31
0.0
  0
LINE
  5
7D
330
1F
100
AcDbEntity
  8
ZAPFEN
100
AcDbLine
 10
89.344626208
 20
1.358949443
 30
0.0
 11
88.374330482
 21
1.600871339
 31
0.0
  0
LINE
  5
7E
330
1F
100
AcDbEntity
  8
ZAPFEN
100
AcDbLine
 10
86.989530796
 20
-3.953256838
 30
0.0
 11
87.959826522
 21
-4.195178733
 31
0.0
  0
LINE
  5
7F
330
1F
100
AcDbEntity
  8
AUFNAHME
  6
CONTINUOUS
100
AcDbLine
 10
87.074033934
 20
-7.747898757
 30
0.0
 11
86.043420304
 21
-7.747898757
 31
0.0
  0
LINE
  5
80
330
1F
100
AcDbEntity
  8
ZAPFEN
100
AcDbLine
 10
88.89722032
 20
3.698067935
 30
0.0
 11
98.259597829
 21
3.698067935
 31
0.0
  0
LINE
  5
81
330
1F
100
AcDbEntity
  8
ZAPFEN
100
AcDbLine
 10
106.320826683
 20
-2.049375523
 30
0.0
 11
97.47053987
 21
3.698067935
 31
0.0
  0
LINE
  5
82
330
1F
100
AcDbEntity
  8
ZAPFEN
100
AcDbLine
 10
105.237030817
 20
7.998067935
 30
0.0
 11
105.538555238
 21
7.998067935
 31
0.0
  0
LINE
  5
83
330
1F
100
AcDbEntity
  8
ZAPFEN
100
AcDbLine
 10
104.076660878
 20
6.594079165
 30
0.0
 11
104.076660878
 21
1.092811129
 31
0.0
  0
LINE
  5
84
330
1F
100
AcDbEntity
  8
ZAPFEN
100
AcDbLine
 10
101.381160432
 20
3.851819092
 30
0.0
 11
106.437641535
 21
3.851819092
 31
0.0
  0
LINE
  5
85
330
1F
100
AcDbEntity
  8
ZAPFEN
100
AcDbLine
 10
107.0409354287
 20
7.1913558978
 30
0.0
 11
106.5818154727
 21
-1.5691751952
 31
0.0
  0
LINE
  5
86
330
1F
100
AcDbEntity
  8
ZAPFEN
100
AcDbLine
 10
105.538555238
 20
7.717523874
 30
0.0
 11
106.541620661
 21
7.717523874
 31
0.0
  0
LINE
  5
87
330
1F
100
AcDbEntity
  8
ZAPFEN
100
AcDbLine
 10
105.538555238
 20
7.998067935
 30
0.0
 11
105.538555238
 21
7.717523874
 31
0.0
  0
LINE
  5
88
330
1F
100
AcDbEntity
  8
ZAPFEN
100
AcDbLine
 10
99.28758608
 20
1.969111122
 30
0.0
 11
98.196185377
 21
-2.408258008
 31
0.0
  0
LINE
  5
89
330
1F
100
AcDbEntity
  8
ZAPFEN
100
AcDbLine
 10
98.828576946
 20
0.128126042
 30
0.0
 11
106.569617203
 21
-1.801932065
 31
0.0
  0
LINE
  5
8A
330
1F
100
AcDbEntity
  8
ZAPFEN
100
AcDbLine
 10
93.950959585
 20
3.299681548
 30
0.0
 11
99.28758608
 21
1.969111122
 31
0.0
  0
LINE
  5
8B
330
1F
100
AcDbEntity
  8
ZAPFEN
100
AcDbLine
 10
88.639829352
 20
2.665729146
 30
0.0
 11
93.491307983
 21
1.456119668
 31
0.0
  0
LINE
  5
8C
330
1F
100
AcDbEntity
  8
ZAPFEN
100
AcDbLine
 10
91.638432258
 20
-5.975358963
 30
0.0
 11
86.786953627
 21
-4.765749485
 31
0.0
  0
LINE
  5
8D
330
1F
100
AcDbEntity
  8
ZAPFEN
100
AcDbLine
 10
93.950959585
 20
3.299681548
 30
0.0
 11
91.461935374
 21
-6.6832493
 31
0.0
  0
ARC
  5
8E
330
1F
100
AcDbEntity
  8
AUFNAHME
  6
CONTINUOUS
100
AcDbCircle
 10
85.3
 20
13.0
 30
0.0
 40
8.000000000000005
100
AcDbArc
 50
218.682187453
 51
271.976493079
  0
ARC
  5
8F
330
1F
100
AcDbEntity
  8
ZAPFEN
100
AcDbCircle
 10
107.0994030719
 20
8.4980691912
 30
0.0
 40
0.3999995482431701
100
AcDbArc
 50
356.9994924292
 51
117.000242803
  0
ARC
  5
90
330
1F
100
AcDbEntity
  8
ZAPFEN
100
AcDbCircle
 10
98.534263912
 20
4.133909864
 30
0.0
 40
0.4000012430353349
100
AcDbArc
 50
116.9999726324
 51
236.999064576
  0
ARC
  5
91
330
1F
100
AcDbEntity
  8
ZAPFEN
100
AcDbCircle
 10
106.5963079376
 20
-1.1016449837
 30
0.0
 40
0.3999969645183678
100
AcDbArc
 50
236.9998568998
 51
357.0000000035
  0
ARC
  5
92
330
1F
100
AcDbEntity
  8
ZAPFEN
100
AcDbCircle
 10
98.604150431
 20
5.682591375
 30
0.0
 40
1.600000131031939
100
AcDbArc
 50
57.0000393425
 51
236.99996647
  0
CIRCLE
  5
93
330
1F
100
AcDbEntity
  8
ZAPFEN
100
AcDbCircle
 10
104.076660878
 20
3.843445147
 30
0.0
 40
1.899999999999991
  0
ARC
  5
94
330
1F
100
AcDbEntity
  8
ZAPFEN
100
AcDbCircle
 10
106.541620661
 20
7.2175238737
 30
0.0
 40
0.5000000002554139
100
AcDbArc
 50
357.0000002465
 51
90.0
  0
DIMENSION
  5
95
330
1F
100
AcDbEntity
  8
MASS
100
AcDbDimension
  2
_D
 10
0.0
 20
-16.8961402432
 30
0.0
 11
-15.0
 21
-16.8961402432
 31
0.0
 70
   160
  1
<> min
  3
SLDDIMSTYLE0
100
AcDbAlignedDimension
 13
-30.0
 23
-5.0
 33
0.0
 14
0.0
 24
-6.0
 34
0.0
 50
0.0
100
AcDbRotatedDimension
  0
DIMENSION
  5
A2
330
1F
100
AcDbEntity
  8
MASS
100
AcDbDimension
  2
_D_1
 10
0.0
 20
-16.8961402432
 30
0.0
 11
53.7494271246
 21
-16.8961402432
 31
0.0
 70
   160
  1
75 - 110
  3
SLDDIMSTYLE0
100
AcDbAlignedDimension
 13
107.4988542492
 23
8.4771312937
 33
0.0
 14
0.0
 24
-6.0
 34
0.0
 50
0.0
100
AcDbRotatedDimension
  0
DIMENSION
  5
AC
330
1F
100
AcDbEntity
  8
MASS
100
AcDbDimension
  2
_D_2
 10
-46.3270315013
 20
8.0
 30
0.0
 11
-46.3270315013
 21
0.0
 31
0.0
 70
   160
  1
%%c<>
  3
SLDDIMSTYLE0
100
AcDbAlignedDimension
 13
71.99945668
 23
-8.0
 33
0.0
 14
71.99945668
 24
8.0
 34
0.0
 50
90.0
100
AcDbRotatedDimension
  0
DIMENSION
  5
B7
330
1F
100
AcDbEntity
  8
MASS
100
AcDbDimension
  2
_D_3
 10
-36.5883387759
 20
6.0
 30
0.0
 11
-36.5883387759
 21
0.0
 31
0.0
 70
   160
  1
%%c<>
  3
SLDDIMSTYLE0
100
AcDbAlignedDimension
 13
-29.0
 23
-6.0
 33
0.0
 14
-29.0
 24
6.0
 34
0.0
 50
90.0
100
AcDbRotatedDimension
  0
DIMENSION
  5
C2
330
1F
100
AcDbEntity
  8
MASS
100
AcDbDimension
  2
_D_4
 10
-30.0
 20
17.9777369016
 30
0.0
 11
30.4709978
 21
17.9777369016
 31
0.0
 70
   160
  1
<>
  3
SLDDIMSTYLE1
100
AcDbAlignedDimension
 13
90.9419956
 23
7.767357057
 33
0.0
 14
-30.0
 24
5.0
 34
0.0
 50
0.0
100
AcDbRotatedDimension
  0
DIMENSION
  5
CD
330
1F
100
AcDbEntity
  8
MASS
100
AcDbDimension
  2
_D_5
 10
116.8181519472
 20
0.0
 30
0.0
 11
116.8181519472
 21
21.9882937665
 31
0.0
 70
   160
  1
%%c16.8 - 33.0
  3
SLDDIMSTYLE2
100
AcDbAlignedDimension
 13
106.9178055668
 23
8.8544706288
 33
0.0
 14
109.0929223773
 24
0.0
 34
0.0
 50
90.0
100
AcDbRotatedDimension
  0
MTEXT
  5
D8
330
1F
100
AcDbEntity
  8
MASS
100
AcDbMText
 10
46.4408202494
 20
14.7420642415
 30
0.0
 40
3.5
 41
0.0
 71
     1
 72
     1
  1
615.256
  7
SLDTEXTSTYLE0
  0
ENDSEC
  0
SECTION
  2
OBJECTS
  0
DICTIONARY
  5
C
330
0
100
AcDbDictionary
  3
ACAD_GROUP
350
D
  3
ACAD_MLINESTYLE
350
17
  0
DICTIONARY
  5
D
102
{ACAD_REACTORS
330
C
102
}
330
C
100
AcDbDictionary
  0
DICTIONARY
  5
17
102
{ACAD_REACTORS
330
C
102
}
330
C
100
AcDbDictionary
  3
STANDARD
350
18
  0
MLINESTYLE
  5
18
102
{ACAD_REACTORS
330
17
102
}
330
17
100
AcDbMlineStyle
  2
Standard
 70
     0
  3

 62
   256
 51
90.0
 52
90.0
 71
     2
 49
0.5
 62
   256
  6
BYLAYER
 49
-0.5
 62
   256
  6
BYLAYER
  0
ENDSEC
  0
EOF
