  0
SECTION
  2
HEADER
  9
$ACADVER
  1
AC1014
  9
$ACADMAINTVER
 70
     9
  9
$DWGCODEPAGE
  3
ANSI_1252
  9
$INSBASE
 10
0.0
 20
0.0
 30
0.0
  9
$EXTMIN
 10
0.0
 20
0.0
 30
0.0
  9
$EXTMAX
 10
210.0
 20
297.0
 30
0.0
  9
$LIMMIN
 10
0.0
 20
0.0
  9
$LIMMAX
 10
210.0
 20
297.0
  9
$ORTHOMODE
 70
     0
  9
$REGENMODE
 70
     1
  9
$FILLMODE
 70
     1
  9
$QTEXTMODE
 70
     0
  9
$MIRRTEXT
 70
     1
  9
$DRAGMODE
 70
     2
  9
$LTSCALE
 40
1.0
  9
$OSMODE
 70
    37
  9
$ATTMODE
 70
     1
  9
$TEXTSIZE
 40
3.5
  9
$TRACEWID
 40
1.0
  9
$TEXTSTYLE
  7
STANDARD
  9
$CLAYER
  8
0
  9
$CELTYPE
  6
BYLAYER
  9
$CECOLOR
 62
   256
  9
$CELTSCALE
 40
1.0
  9
$DELOBJ
 70
     1
  9
$DISPSILH
 70
     0
  9
$DIMSCALE
 40
1.0
  9
$DIMASZ
 40
3.5
  9
$DIMEXO
 40
0.0
  9
$DIMDLI
 40
3.75
  9
$DIMRND
 40
0.0
  9
$DIMDLE
 40
0.0
  9
$DIMEXE
 40
1.0
  9
$DIMTP
 40
0.0
  9
$DIMTM
 40
0.0
  9
$DIMTXT
 40
3.5
  9
$DIMCEN
 40
2.5
  9
$DIMTSZ
 40
0.0
  9
$DIMTOL
 70
     0
  9
$DIMLIM
 70
     0
  9
$DIMTIH
 70
     1
  9
$DIMTOH
 70
     1
  9
$DIMSE1
 70
     0
  9
$DIMSE2
 70
     0
  9
$DIMTAD
 70
     1
  9
$DIMZIN
 70
     0
  9
$DIMBLK
  1

  9
$DIMASO
 70
     1
  9
$DIMSHO
 70
     1
  9
$DIMPOST
  1

  9
$DIMAPOST
  1

  9
$DIMALT
 70
     0
  9
$DIMALTD
 70
     3
  9
$DIMALTF
 40
0.0393700787
  9
$DIMLFAC
 40
1.0
  9
$DIMTOFL
 70
     1
  9
$DIMTVP
 40
0.0
  9
$DIMTIX
 70
     0
  9
$DIMSOXD
 70
     0
  9
$DIMSAH
 70
     0
  9
$DIMBLK1
  1

  9
$DIMBLK2
  1

  9
$DIMSTYLE
  2
ISO-25
  9
$DIMCLRD
 70
     0
  9
$DIMCLRE
 70
     0
  9
$DIMCLRT
 70
     0
  9
$DIMTFAC
 40
1.0
  9
$DIMGAP
 40
1.5
  9
$DIMJUST
 70
     0
  9
$DIMSD1
 70
     0
  9
$DIMSD2
 70
     0
  9
$DIMTOLJ
 70
     0
  9
$DIMTZIN
 70
     0
  9
$DIMALTZ
 70
     0
  9
$DIMALTTZ
 70
     0
  9
$DIMFIT
 70
     3
  9
$DIMUPT
 70
     0
  9
$DIMUNIT
 70
     2
  9
$DIMDEC
 70
     2
  9
$DIMTDEC
 70
     3
  9
$DIMALTU
 70
     2
  9
$DIMALTTD
 70
     3
  9
$DIMTXSTY
  7
STANDARD
  9
$DIMAUNIT
 70
     0
  9
$LUNITS
 70
     2
  9
$LUPREC
 70
     2
  9
$SKETCHINC
 40
1.0
  9
$FILLETRAD
 40
10.0
  9
$AUNITS
 70
     0
  9
$AUPREC
 70
     2
  9
$MENU
  1
.
  9
$ELEVATION
 40
0.0
  9
$PELEVATION
 40
0.0
  9
$THICKNESS
 40
0.0
  9
$LIMCHECK
 70
     0
  9
$CHAMFERA
 40
10.0
  9
$CHAMFERB
 40
10.0
  9
$CHAMFERC
 40
20.0
  9
$CHAMFERD
 40
0.0
  9
$SKPOLY
 70
     0
  9
$TDCREATE
 40
2456428.521401667
  9
$TDUPDATE
 40
2456428.521402188
  9
$TDINDWG
 40
0.0000000116
  9
$TDUSRTIMER
 40
0.0000000116
  9
$USRTIMER
 70
     1
  9
$ANGBASE
 50
0.0
  9
$ANGDIR
 70
     0
  9
$PDMODE
 70
     0
  9
$PDSIZE
 40
-1.0
  9
$PLINEWID
 40
0.0
  9
$COORDS
 70
     1
  9
$SPLFRAME
 70
     0
  9
$SPLINETYPE
 70
     6
  9
$SPLINESEGS
 70
     8
  9
$ATTDIA
 70
     0
  9
$ATTREQ
 70
     1
  9
$HANDLING
 70
     1
  9
$HANDSEED
  5
D0
  9
$SURFTAB1
 70
     6
  9
$SURFTAB2
 70
     6
  9
$SURFTYPE
 70
     6
  9
$SURFU
 70
     6
  9
$SURFV
 70
     6
  9
$UCSNAME
  2

  9
$UCSORG
 10
0.0
 20
0.0
 30
0.0
  9
$UCSXDIR
 10
1.0
 20
0.0
 30
0.0
  9
$UCSYDIR
 10
0.0
 20
1.0
 30
0.0
  9
$PUCSNAME
  2

  9
$PUCSORG
 10
0.0
 20
0.0
 30
0.0
  9
$PUCSXDIR
 10
1.0
 20
0.0
 30
0.0
  9
$PUCSYDIR
 10
0.0
 20
1.0
 30
0.0
  9
$USERI1
 70
     0
  9
$USERI2
 70
     0
  9
$USERI3
 70
     0
  9
$USERI4
 70
     0
  9
$USERI5
 70
     0
  9
$USERR1
 40
0.0
  9
$USERR2
 40
0.0
  9
$USERR3
 40
0.0
  9
$USERR4
 40
0.0
  9
$USERR5
 40
0.0
  9
$WORLDVIEW
 70
     1
  9
$SHADEDGE
 70
     3
  9
$SHADEDIF
 70
    70
  9
$TILEMODE
 70
     1
  9
$MAXACTVP
 70
    64
  9
$PINSBASE
 10
0.0
 20
0.0
 30
0.0
  9
$PLIMCHECK
 70
     0
  9
$PEXTMIN
 10
1.0000000000E+20
 20
1.0000000000E+20
 30
1.0000000000E+20
  9
$PEXTMAX
 10
-1.0000000000E+20
 20
-1.0000000000E+20
 30
-1.0000000000E+20
  9
$PLIMMIN
 10
0.0
 20
0.0
  9
$PLIMMAX
 10
420.0
 20
297.0
  9
$UNITMODE
 70
     0
  9
$VISRETAIN
 70
     1
  9
$PLINEGEN
 70
     0
  9
$PSLTSCALE
 70
     1
  9
$TREEDEPTH
 70
  3020
  9
$PICKSTYLE
 70
     1
  9
$CMLSTYLE
  2
STANDARD
  9
$CMLJUST
 70
     0
  9
$CMLSCALE
 40
20.0
  9
$PROXYGRAPHICS
 70
     1
  9
$MEASUREMENT
 70
     1
  0
ENDSEC
  0
SECTION
  2
CLASSES
  0
CLASS
  1
ACDBDICTIONARYWDFLT
  2
AcDbDictionaryWithDefault
  3
ObjectDBX Classes
 90
        0
280
     0
281
     0
  0
CLASS
  1
VISUALSTYLE
  2
AcDbVisualStyle
  3
ObjectDBX Classes
 90
     4095
280
     0
281
     0
  0
CLASS
  1
MATERIAL
  2
AcDbMaterial
  3
ObjectDBX Classes
 90
     1153
280
     0
281
     0
  0
CLASS
  1
XRECORD
  2
AcDbXrecord
  3
AutoCAD 2000
 90
        0
280
     0
281
     0
  0
CLASS
  1
LWPOLYLINE
  2
AcDbPolyline
  3
AutoCAD 2000
 90
        0
280
     0
281
     1
  0
CLASS
  1
HATCH
  2
AcDbHatch
  3
AutoCAD 2000
 90
        0
280
     0
281
     1
  0
ENDSEC
  0
SECTION
  2
TABLES
  0
TABLE
  2
VPORT
  5
8
330
0
100
AcDbSymbolTable
 70
     1
  0
VPORT
  5
29
330
8
100
AcDbSymbolTableRecord
100
AcDbViewportTableRecord
  2
*ACTIVE
 70
     0
 10
0.0
 20
0.0
 11
1.0
 21
1.0
 12
105.0
 22
148.5
 13
0.0
 23
0.0
 14
10.0
 24
10.0
 15
10.0
 25
10.0
 16
0.0
 26
0.0
 36
1.0
 17
0.0
 27
0.0
 37
0.0
 40
297.0
 41
0.7070707071
 42
50.0
 43
0.0
 44
0.0
 50
0.0
 51
0.0
 71
     0
 72
  2000
 73
     1
 74
     3
 75
     0
 76
     0
 77
     0
 78
     0
  0
ENDTAB
  0
TABLE
  2
LTYPE
  5
5
330
0
100
AcDbSymbolTable
 70
     6
  0
LTYPE
  5
14
330
5
100
AcDbSymbolTableRecord
100
AcDbLinetypeTableRecord
  2
BYBLOCK
 70
     0
  3

 72
    65
 73
     0
 40
0.0
  0
LTYPE
  5
15
330
5
100
AcDbSymbolTableRecord
100
AcDbLinetypeTableRecord
  2
BYLAYER
 70
     0
  3

 72
    65
 73
     0
 40
0.0
  0
LTYPE
  5
16
330
5
100
AcDbSymbolTableRecord
100
AcDbLinetypeTableRecord
  2
CONTINUOUS
 70
     0
  3
Solid line
 72
    65
 73
     0
 40
0.0
  0
LTYPE
  5
3F
330
5
100
AcDbSymbolTableRecord
100
AcDbLinetypeTableRecord
  2
HIDDEN
 70
     0
  3
Hidden __ __ __ __ __ __ __ __ __ __ __ __ __ __
 72
    65
 73
     2
 40
1.905
 49
1.27
 74
     0
 49
-0.635
 74
     0
  0
LTYPE
  5
40
330
5
100
AcDbSymbolTableRecord
100
AcDbLinetypeTableRecord
  2
PHANTOM
 70
     0
  3
Phantom ______  __  __  ______  __  __  ______
 72
    65
 73
     6
 40
12.7
 49
6.35
 74
     0
 49
-1.27
 74
     0
 49
1.27
 74
     0
 49
-1.27
 74
     0
 49
1.27
 74
     0
 49
-1.27
 74
     0
  0
LTYPE
  5
41
330
5
100
AcDbSymbolTableRecord
100
AcDbLinetypeTableRecord
  2
CENTER
 70
     0
  3
Center ____ _ ____ _ ____ _ ____ _ ____ _ ____
 72
    65
 73
     4
 40
10.16
 49
6.35
 74
     0
 49
-1.27
 74
     0
 49
1.27
 74
     0
 49
-1.27
 74
     0
  0
LTYPE
  5
42
330
5
100
AcDbSymbolTableRecord
100
AcDbLinetypeTableRecord
  2
CENTERX2
 70
     0
  3
Center (2x) ________  __  ________  __  _____
 72
    65
 73
     4
 40
20.32
 49
12.7
 74
     0
 49
-2.54
 74
     0
 49
2.54
 74
     0
 49
-2.54
 74
     0
  0
LTYPE
  5
43
330
5
100
AcDbSymbolTableRecord
100
AcDbLinetypeTableRecord
  2
DOT2
 70
     0
  3
Dot (.5x) ........................................
 72
    65
 73
     2
 40
0.635
 49
0.0
 74
     0
 49
-0.635
 74
     0
  0
ENDTAB
  0
TABLE
  2
LAYER
  5
2
330
0
100
AcDbSymbolTable
 70
     7
  0
LAYER
  5
10
330
2
100
AcDbSymbolTableRecord
100
AcDbLayerTableRecord
  2
0
 70
     0
 62
     7
  6
CONTINUOUS
  0
LAYER
  5
44
330
2
100
AcDbSymbolTableRecord
100
AcDbLayerTableRecord
  2
AUFNAHME
 70
     0
 62
     7
  6
CONTINUOUS
  0
LAYER
  5
45
330
2
100
AcDbSymbolTableRecord
100
AcDbLayerTableRecord
  2
MASS
 70
     0
 62
     4
  6
CONTINUOUS
  0
LAYER
  5
46
330
2
100
AcDbSymbolTableRecord
100
AcDbLayerTableRecord
  2
EW
 70
     0
 62
     1
  6
HIDDEN
  0
LAYER
  5
47
330
2
100
AcDbSymbolTableRecord
100
AcDbLayerTableRecord
  2
UNSICHT
 70
     0
 62
     4
  6
CENTER
  0
LAYER
  5
48
330
2
100
AcDbSymbolTableRecord
100
AcDbLayerTableRecord
  2
TEXT
 70
     0
 62
     7
  6
CONTINUOUS
  0
LAYER
  5
49
330
2
100
AcDbSymbolTableRecord
100
AcDbLayerTableRecord
  2
ZAPFEN
 70
     0
 62
     4
  6
CONTINUOUS
  0
ENDTAB
  0
TABLE
  2
STYLE
  5
3
330
0
100
AcDbSymbolTable
 70
     3
  0
STYLE
  5
11
330
3
100
AcDbSymbolTableRecord
100
AcDbTextStyleTableRecord
  2
STANDARD
 70
     0
 40
0.0
 41
1.0
 50
0.0
 71
     0
 42
3.5
  3
txt
  4

  0
STYLE
  5
95
330
3
100
AcDbSymbolTableRecord
100
AcDbTextStyleTableRecord
  2
SLDTEXTSTYLE0
 70
     0
 40
0.0
 41
0.605
 50
0.0
 71
     0
 42
0.2
  3
TXT
  4

  0
STYLE
  5
A9
330
3
100
AcDbSymbolTableRecord
100
AcDbTextStyleTableRecord
  2
SLDTEXTSTYLE1
 70
     0
 40
0.0
 41
0.575
 50
0.0
 71
     0
 42
0.2
  3
TXT
  4

  0
ENDTAB
  0
TABLE
  2
VIEW
  5
6
330
0
100
AcDbSymbolTable
 70
     0
  0
ENDTAB
  0
TABLE
  2
UCS
  5
7
330
0
100
AcDbSymbolTable
 70
     0
  0
ENDTAB
  0
TABLE
  2
APPID
  5
9
330
0
100
AcDbSymbolTable
 70
     1
  0
APPID
  5
12
330
9
100
AcDbSymbolTableRecord
100
AcDbRegAppTableRecord
  2
ACAD
 70
     0
  0
ENDTAB
  0
TABLE
  2
DIMSTYLE
  5
A
330
0
100
AcDbSymbolTable
 70
     5
  0
DIMSTYLE
105
27
330
A
100
AcDbSymbolTableRecord
100
AcDbDimStyleTableRecord
  2
ISO-25
 70
     0
  3

  4

  5

  6

  7

 40
1.0
 41
2.5
 42
0.625
 43
3.75
 44
1.25
 45
0.0
 46
0.0
 47
0.0
 48
0.0
140
2.5
141
2.5
142
0.0
143
0.0393700787
144
1.0
145
0.0
146
1.0
147
0.625
 71
     0
 72
     0
 73
     0
 74
     0
 75
     0
 76
     0
 77
     1
 78
     8
170
     0
171
     3
172
     1
173
     0
174
     0
175
     0
176
     0
177
     0
178
     0
270
     2
271
     2
272
     2
273
     2
274
     3
340
11
275
     0
280
     0
281
     0
282
     0
283
     0
284
     8
285
     0
286
     0
287
     3
288
     0
  0
DIMSTYLE
105
96
102
{ACAD_REACTORS
330
94
330
A0
102
}
330
A
100
AcDbSymbolTableRecord
100
AcDbDimStyleTableRecord
  2
SLDDIMSTYLE0
 70
     0
  3

  4

  5

  6

  7

 40
1.0
 41
3.5
 42
0.0625
 43
0.38
 44
0.0
 45
0.000000001
 46
0.0
 47
0.0
 48
0.0
140
3.5
141
0.09
142
0.0
143
25.4
144
1.0
145
0.0
146
1.0
147
0.875
 71
     0
 72
     0
 73
     0
 74
     0
 75
     0
 76
     0
 77
     1
 78
    12
170
     0
171
     2
172
     0
173
     1
174
     0
175
     0
176
     0
177
     0
178
     0
270
     2
271
     0
272
     3
273
     2
274
     2
340
95
275
     0
280
     0
281
     0
282
     0
283
     1
284
    12
285
     0
286
     0
287
     3
288
     0
  0
DIMSTYLE
105
AC
102
{ACAD_REACTORS
330
AB
102
}
330
A
100
AcDbSymbolTableRecord
100
AcDbDimStyleTableRecord
  2
SLDDIMSTYLE1
 70
     0
  3

  4

  5

  6

  7

 40
1.0
 41
3.5
 42
0.0625
 43
0.38
 44
0.0
 45
0.000000001
 46
0.0
 47
0.0
 48
0.0
140
3.5
141
0.09
142
0.0
143
25.4
144
1.0
145
0.0
146
1.0
147
0.875
 71
     0
 72
     0
 73
     0
 74
     0
 75
     0
 76
     0
 77
     1
 78
    12
170
     0
171
     2
172
     0
173
     1
174
     0
175
     0
176
     0
177
     0
178
     0
270
     2
271
     2
272
     3
273
     2
274
     2
340
95
275
     0
280
     0
281
     0
282
     0
283
     1
284
    12
285
     0
286
     0
287
     3
288
     0
  0
DIMSTYLE
105
B7
102
{ACAD_REACTORS
330
B6
102
}
330
A
100
AcDbSymbolTableRecord
100
AcDbDimStyleTableRecord
  2
SLDDIMSTYLE2
 70
     0
  3

  4

  5

  6

  7

 40
1.0
 41
3.5
 42
0.0625
 43
0.38
 44
0.0
 45
0.000000001
 46
0.0
 47
0.0
 48
0.0
140
3.5
141
0.09
142
0.0
143
25.4
144
1.0
145
0.0
146
1.0
147
0.875
 71
     0
 72
     0
 73
     0
 74
     0
 75
     0
 76
     0
 77
     1
 78
    12
170
     0
171
     2
172
     1
173
     1
174
     0
175
     0
176
     0
177
     0
178
     0
270
     2
271
     2
272
     3
273
     2
274
     2
340
95
275
     0
280
     0
281
     0
282
     0
283
     1
284
    12
285
     0
286
     0
288
     0
  0
DIMSTYLE
105
C5
102
{ACAD_REACTORS
330
C4
102
}
330
A
100
AcDbSymbolTableRecord
100
AcDbDimStyleTableRecord
  2
SLDDIMSTYLE3
 70
     0
  3

  4

  5

  6

  7

 40
1.0
 41
3.5
 42
0.0625
 43
0.38
 44
0.0
 45
0.000000001
 46
0.0
 47
0.0
 48
0.0
140
3.5
141
0.09
142
0.0
143
25.4
144
1.0
145
0.0
146
1.0
147
0.875
 71
     0
 72
     0
 73
     0
 74
     0
 75
     0
 76
     0
 77
     1
 78
    12
170
     0
171
     2
172
     1
173
     1
174
     0
175
     0
176
     0
177
     0
178
     0
270
     2
271
     2
272
     3
273
     2
274
     2
340
95
275
     0
280
     0
281
     0
282
     0
283
     1
284
    12
285
     0
286
     0
288
     0
  0
ENDTAB
  0
TABLE
  2
BLOCK_RECORD
  5
1
330
0
100
AcDbSymbolTable
 70
     6
  0
BLOCK_RECORD
  5
1F
330
1
100
AcDbSymbolTableRecord
100
AcDbBlockTableRecord
  2
*MODEL_SPACE
  0
BLOCK_RECORD
  5
1B
330
1
100
AcDbSymbolTableRecord
100
AcDbBlockTableRecord
  2
*PAPER_SPACE
  0
BLOCK_RECORD
  5
23
330
1
100
AcDbSymbolTableRecord
100
AcDbBlockTableRecord
  2
*PAPER_SPACE0
  0
BLOCK_RECORD
  5
97
330
1
100
AcDbSymbolTableRecord
100
AcDbBlockTableRecord
  2
_D
  0
BLOCK_RECORD
  5
A1
330
1
100
AcDbSymbolTableRecord
100
AcDbBlockTableRecord
  2
_D_1
  0
BLOCK_RECORD
  5
AD
330
1
100
AcDbSymbolTableRecord
100
AcDbBlockTableRecord
  2
_D_2
  0
BLOCK_RECORD
  5
B8
330
1
100
AcDbSymbolTableRecord
100
AcDbBlockTableRecord
  2
_D_3
  0
BLOCK_RECORD
  5
C6
330
1
100
AcDbSymbolTableRecord
100
AcDbBlockTableRecord
  2
_D_4
  0
ENDTAB
  0
ENDSEC
  0
SECTION
  2
BLOCKS
  0
BLOCK
  5
20
330
1F
100
AcDbEntity
  8
0
100
AcDbBlockBegin
  2
*MODEL_SPACE
 70
     0
 10
0.0
 20
0.0
 30
0.0
  3
*MODEL_SPACE
  1

  0
ENDBLK
  5
21
330
1F
100
AcDbEntity
  8
0
100
AcDbBlockEnd
  0
BLOCK
  5
1C
330
1B
100
AcDbEntity
 67
     1
  8
0
100
AcDbBlockBegin
  2
*PAPER_SPACE
 70
     0
 10
0.0
 20
0.0
 30
0.0
  3
*PAPER_SPACE
  1

  0
ENDBLK
  5
1D
330
1B
100
AcDbEntity
 67
     1
  8
0
100
AcDbBlockEnd
  0
BLOCK
  5
24
330
23
100
AcDbEntity
  8
0
100
AcDbBlockBegin
  2
*PAPER_SPACE0
 70
     0
 10
0.0
 20
0.0
 30
0.0
  3
*PAPER_SPACE0
  1

  0
ENDBLK
  5
25
330
23
100
AcDbEntity
  8
0
100
AcDbBlockEnd
  0
BLOCK
  5
98
330
97
100
AcDbEntity
  8
0
100
AcDbBlockBegin
  2
_D
 70
     0
 10
0.0
 20
0.0
 30
0.0
  3
_D
  1

  0
SOLID
  5
9A
330
97
100
AcDbEntity
  8
MASS
100
AcDbTrace
 10
0.0
 20
-12.8164467729
 30
0.0
 11
-3.5
 21
-12.3664467729
 31
0.0
 12
-3.5
 22
-13.2664467729
 32
0.0
 13
-3.5
 23
-13.2664467729
 33
0.0
  0
SOLID
  5
9B
330
97
100
AcDbEntity
  8
MASS
100
AcDbTrace
 10
-30.0724465404
 20
-12.8164467729
 30
0.0
 11
-26.5724465404
 21
-13.2664467729
 31
0.0
 12
-26.5724465404
 22
-12.3664467729
 32
0.0
 13
-26.5724465404
 23
-12.3664467729
 33
0.0
  0
LINE
  5
9C
330
97
100
AcDbEntity
  8
MASS
100
AcDbLine
 10
0.0
 20
-4.0
 30
0.0
 11
0.0
 21
-13.8164467729
 31
0.0
  0
LINE
  5
9D
330
97
100
AcDbEntity
  8
MASS
100
AcDbLine
 10
-30.0724465404
 20
-3.5
 30
0.0
 11
-30.0724465404
 21
-13.8164467729
 31
0.0
  0
LINE
  5
9E
330
97
100
AcDbEntity
  8
MASS
100
AcDbLine
 10
0.0
 20
-12.8164467729
 30
0.0
 11
-30.0724465404
 21
-12.8164467729
 31
0.0
  0
MTEXT
  5
9F
330
97
100
AcDbEntity
  8
MASS
100
AcDbMText
 10
-18.5435151684
 20
-8.3047095673
 30
0.1
 40
3.5
 41
0.0
 71
     1
 72
     1
  1
30
  7
SLDTEXTSTYLE0
  0
ENDBLK
  5
99
330
97
100
AcDbEntity
  8
0
100
AcDbBlockEnd
  0
BLOCK
  5
A2
330
A1
100
AcDbEntity
  8
0
100
AcDbBlockBegin
  2
_D_1
 70
     0
 10
0.0
 20
0.0
 30
0.0
  3
_D_1
  1

  0
SOLID
  5
A4
330
A1
100
AcDbEntity
  8
MASS
100
AcDbTrace
 10
74.9271407536
 20
-12.8164467729
 30
0.0
 11
71.4271407536
 21
-12.3664467729
 31
0.0
 12
71.4271407536
 22
-13.2664467729
 32
0.0
 13
71.4271407536
 23
-13.2664467729
 33
0.0
  0
SOLID
  5
A5
330
A1
100
AcDbEntity
  8
MASS
100
AcDbTrace
 10
0.0
 20
-12.8164467729
 30
0.0
 11
3.5
 21
-13.2664467729
 31
0.0
 12
3.5
 22
-12.3664467729
 32
0.0
 13
3.5
 23
-12.3664467729
 33
0.0
  0
LINE
  5
A6
330
A1
100
AcDbEntity
  8
MASS
100
AcDbLine
 10
74.9271407536
 20
4.1343620813
 30
0.0
 11
74.9271407536
 21
-13.8164467729
 31
0.0
  0
LINE
  5
A7
330
A1
100
AcDbEntity
  8
MASS
100
AcDbLine
 10
0.0
 20
-4.0
 30
0.0
 11
0.0
 21
-13.8164467729
 31
0.0
  0
LINE
  5
A8
330
A1
100
AcDbEntity
  8
MASS
100
AcDbLine
 10
74.9271407536
 20
-12.8164467729
 30
0.0
 11
0.0
 21
-12.8164467729
 31
0.0
  0
MTEXT
  5
AA
330
A1
100
AcDbEntity
  8
MASS
100
AcDbMText
 10
31.3239864911
 20
-8.3047095673
 30
0.1
 40
3.5
 41
0.0
 71
     1
 72
     1
  1
20 - 70
  7
SLDTEXTSTYLE1
  0
ENDBLK
  5
A3
330
A1
100
AcDbEntity
  8
0
100
AcDbBlockEnd
  0
BLOCK
  5
AE
330
AD
100
AcDbEntity
  8
0
100
AcDbBlockBegin
  2
_D_2
 70
     0
 10
0.0
 20
0.0
 30
0.0
  3
_D_2
  1

  0
SOLID
  5
B0
330
AD
100
AcDbEntity
  8
MASS
100
AcDbTrace
 10
74.9271407536
 20
-20.8570100241
 30
0.0
 11
71.4271407536
 21
-20.4070100241
 31
0.0
 12
71.4271407536
 22
-21.3070100241
 32
0.0
 13
71.4271407536
 23
-21.3070100241
 33
0.0
  0
SOLID
  5
B1
330
AD
100
AcDbEntity
  8
MASS
100
AcDbTrace
 10
-30.0724465404
 20
-20.8570100241
 30
0.0
 11
-26.5724465404
 21
-21.3070100241
 31
0.0
 12
-26.5724465404
 22
-20.4070100241
 32
0.0
 13
-26.5724465404
 23
-20.4070100241
 33
0.0
  0
LINE
  5
B2
330
AD
100
AcDbEntity
  8
MASS
100
AcDbLine
 10
74.9271407536
 20
4.1343620813
 30
0.0
 11
74.9271407536
 21
-21.8570100241
 31
0.0
  0
LINE
  5
B3
330
AD
100
AcDbEntity
  8
MASS
100
AcDbLine
 10
-30.0724465404
 20
-3.5
 30
0.0
 11
-30.0724465404
 21
-21.8570100241
 31
0.0
  0
LINE
  5
B4
330
AD
100
AcDbEntity
  8
MASS
100
AcDbLine
 10
74.9271407536
 20
-20.8570100241
 30
0.0
 11
-30.0724465404
 21
-20.8570100241
 31
0.0
  0
MTEXT
  5
B5
330
AD
100
AcDbEntity
  8
MASS
100
AcDbMText
 10
17.8238745683
 20
-16.3452728184
 30
0.1
 40
3.5
 41
0.0
 71
     1
 72
     1
  1
105
  7
SLDTEXTSTYLE0
  0
ENDBLK
  5
AF
330
AD
100
AcDbEntity
  8
0
100
AcDbBlockEnd
  0
BLOCK
  5
B9
330
B8
100
AcDbEntity
  8
0
100
AcDbBlockBegin
  2
_D_3
 70
     0
 10
0.0
 20
0.0
 30
0.0
  3
_D_3
  1

  0
SOLID
  5
BB
330
B8
100
AcDbEntity
  8
MASS
100
AcDbTrace
 10
-37.2367586877
 20
-4.0
 30
0.0
 11
-37.6867586877
 21
-7.5
 31
0.0
 12
-36.7867586877
 22
-7.5
 32
0.0
 13
-36.7867586877
 23
-7.5
 33
0.0
  0
SOLID
  5
BC
330
B8
100
AcDbEntity
  8
MASS
100
AcDbTrace
 10
-37.2367586877
 20
4.0
 30
0.0
 11
-36.7867586877
 21
7.5
 31
0.0
 12
-37.6867586877
 22
7.5
 32
0.0
 13
-37.6867586877
 23
7.5
 33
0.0
  0
LINE
  5
BD
330
B8
100
AcDbEntity
  8
MASS
100
AcDbLine
 10
-29.5724465404
 20
-4.0
 30
0.0
 11
-38.2367586877
 21
-4.0
 31
0.0
  0
LINE
  5
BE
330
B8
100
AcDbEntity
  8
MASS
100
AcDbLine
 10
-29.5724465404
 20
4.0
 30
0.0
 11
-38.2367586877
 21
4.0
 31
0.0
  0
LINE
  5
BF
330
B8
100
AcDbEntity
  8
MASS
100
AcDbLine
 10
-37.2367586877
 20
-4.0
 30
0.0
 11
-37.2367586877
 21
-9.0
 31
0.0
  0
LINE
  5
C0
330
B8
100
AcDbEntity
  8
MASS
100
AcDbLine
 10
-37.2367586877
 20
-4.0
 30
0.0
 11
-37.2367586877
 21
4.0
 31
0.0
  0
LINE
  5
C1
330
B8
100
AcDbEntity
  8
MASS
100
AcDbLine
 10
-37.2367586877
 20
4.0
 30
0.0
 11
-37.2367586877
 21
9.0
 31
0.0
  0
MTEXT
  5
C2
330
B8
100
AcDbEntity
  8
MASS
100
AcDbMText
 10
-41.7484958933
 20
-4.9972226843
 30
0.1
 40
3.5
 41
0.0
 71
     1
 72
     1
  1
%%c
  7
SLDTEXTSTYLE0
 11
6.123233995736766E-17
 21
1.0
 31
0.0
  0
MTEXT
  5
C3
330
B8
100
AcDbEntity
  8
MASS
100
AcDbMText
 10
-41.7484958933
 20
0.1749997027
 30
0.1
 40
3.5
 41
0.0
 71
     1
 72
     1
  1
8
  7
SLDTEXTSTYLE0
 11
6.123233995736766E-17
 21
1.0
 31
0.0
  0
ENDBLK
  5
BA
330
B8
100
AcDbEntity
  8
0
100
AcDbBlockEnd
  0
BLOCK
  5
C7
330
C6
100
AcDbEntity
  8
0
100
AcDbBlockBegin
  2
_D_4
 70
     0
 10
0.0
 20
0.0
 30
0.0
  3
_D_4
  1

  0
SOLID
  5
C9
330
C6
100
AcDbEntity
  8
MASS
100
AcDbTrace
 10
81.7390743186
 20
4.4498313004
 30
0.0
 11
82.1890743186
 21
7.9498313004
 31
0.0
 12
81.2890743186
 22
7.9498313004
 32
0.0
 13
81.2890743186
 23
7.9498313004
 33
0.0
  0
LINE
  5
CA
330
C6
100
AcDbEntity
  8
MASS
100
AcDbLine
 10
74.6287157518
 20
4.4498313004
 30
0.0
 11
82.7390743186
 21
4.4498313004
 31
0.0
  0
LINE
  5
CB
330
C6
100
AcDbEntity
  8
MASS
100
AcDbLine
 10
81.7390743186
 20
0.0
 30
0.0
 11
81.7390743186
 21
4.4498313004
 31
0.0
  0
LINE
  5
CC
330
C6
100
AcDbEntity
  8
MASS
100
AcDbLine
 10
81.7390743186
 20
4.4498313004
 30
0.0
 11
81.7390743186
 21
29.9691832598
 31
0.0
  0
MTEXT
  5
CD
330
C6
100
AcDbEntity
  8
MASS
100
AcDbMText
 10
77.227337113
 20
8.1282104339
 30
0.1
 40
3.5
 41
0.0
 71
     1
 72
     1
  1
%%c
  7
SLDTEXTSTYLE0
 11
-7.044195017643634E-15
 21
1.0
 31
0.0
  0
MTEXT
  5
CE
330
C6
100
AcDbEntity
  8
MASS
100
AcDbMText
 10
77.227337113
 20
13.3004328209
 30
0.1
 40
3.5
 41
0.0
 71
     1
 72
     1
  1
8.8 - 11.8
  7
SLDTEXTSTYLE0
 11
-7.044195017643634E-15
 21
1.0
 31
0.0
  0
ENDBLK
  5
C8
330
C6
100
AcDbEntity
  8
0
100
AcDbBlockEnd
  0
ENDSEC
  0
SECTION
  2
ENTITIES
  0
LINE
  5
4A
330
1F
100
AcDbEntity
  8
AUFNAHME
  6
CONTINUOUS
100
AcDbLine
 10
0.0
 20
-4.0
 30
0.0
 11
60.9275534596
 21
-3.9999890558
 31
0.0
  0
LINE
  5
4B
330
1F
100
AcDbEntity
  8
AUFNAHME
  6
CONTINUOUS
100
AcDbLine
 10
60.9275534596
 20
4.0
 30
0.0
 11
0.0
 21
4.0
 31
0.0
  0
LINE
  5
4C
330
1F
100
AcDbEntity
  8
ZAPFEN
100
AcDbLine
 10
-29.5724465404
 20
4.0
 30
0.0
 11
-30.0724465404
 21
3.5
 31
0.0
  0
LINE
  5
4D
330
1F
100
AcDbEntity
  8
ZAPFEN
100
AcDbLine
 10
-30.0724465404
 20
-3.5
 30
0.0
 11
-29.5724465404
 21
-4.0
 31
0.0
  0
LINE
  5
4E
330
1F
100
AcDbEntity
  8
AUFNAHME
  6
CONTINUOUS
100
AcDbLine
 10
60.9275534596
 20
-3.9999890558
 30
0.0
 11
73.8639559194
 21
-3.9999890558
 31
0.0
  0
LINE
  5
4F
330
1F
100
AcDbEntity
  8
AUFNAHME
  6
CONTINUOUS
100
AcDbLine
 10
73.5650857686
 20
4.0
 30
0.0
 11
60.9275534596
 21
4.0
 31
0.0
  0
LINE
  5
50
330
1F
100
AcDbEntity
  8
AUFNAHME
  6
CONTINUOUS
100
AcDbLine
 10
58.9275534596
 20
3.3071891388
 30
0.0
 11
60.9275534596
 21
3.3071891388
 31
0.0
  0
LINE
  5
51
330
1F
100
AcDbEntity
  8
AUFNAHME
  6
CONTINUOUS
100
AcDbLine
 10
58.9275534596
 20
-3.3071891388
 30
0.0
 11
58.9275534596
 21
3.3071891388
 31
0.0
  0
LINE
  5
52
330
1F
100
AcDbEntity
  8
AUFNAHME
  6
CONTINUOUS
100
AcDbLine
 10
60.9275534596
 20
-3.3071891388
 30
0.0
 11
58.9275534596
 21
-3.3071891388
 31
0.0
  0
LINE
  5
53
330
1F
100
AcDbEntity
  8
AUFNAHME
  6
CONTINUOUS
100
AcDbLine
 10
60.9275534596
 20
-3.3071891388
 30
0.0
 11
60.9275534596
 21
-3.9999890558
 31
0.0
  0
LINE
  5
54
330
1F
100
AcDbEntity
  8
AUFNAHME
  6
CONTINUOUS
100
AcDbLine
 10
60.9275534596
 20
4.0
 30
0.0
 11
60.9275534596
 21
3.3071891388
 31
0.0
  0
LINE
  5
55
330
1F
100
AcDbEntity
  8
ZAPFEN
100
AcDbLine
 10
-29.5724465404
 20
4.0
 30
0.0
 11
-29.5724465404
 21
-4.0
 31
0.0
  0
LINE
  5
56
330
1F
100
AcDbEntity
  8
ZAPFEN
100
AcDbLine
 10
-30.0724465404
 20
-3.5
 30
0.0
 11
-30.0724465404
 21
3.5
 31
0.0
  0
LINE
  5
57
330
1F
100
AcDbEntity
  8
AUFNAHME
  6
CONTINUOUS
100
AcDbLine
 10
68.9306238397
 20
1.0664920442
 30
0.0
 11
74.1395354948
 21
-2.3284654532
 31
0.0
  0
LINE
  5
58
330
1F
100
AcDbEntity
  8
AUFNAHME
  6
CONTINUOUS
100
AcDbLine
 10
74.4930647824
 20
4.4172752062
 30
0.0
 11
68.9578184002
 21
1.5853951718
 31
0.0
  0
LINE
  5
59
330
1F
100
AcDbEntity
  8
AUFNAHME
  6
CONTINUOUS
100
AcDbLine
 10
74.6008060266
 20
-2.0924754503
 30
0.0
 11
74.9271407536
 21
4.1343620813
 31
0.0
  0
LINE
  5
5A
330
1F
100
AcDbEntity
  8
AUFNAHME
  6
CONTINUOUS
100
AcDbLine
 10
73.8641979266
 20
-3.9949968711
 30
0.0
 11
73.8639559194
 21
-3.9999890558
 31
0.0
  0
LINE
  5
5B
330
1F
100
AcDbEntity
  8
ZAPFEN
100
AcDbLine
 10
0.0
 20
4.0
 30
0.0
 11
0.0
 21
-4.0
 31
0.0
  0
LINE
  5
5C
330
1F
100
AcDbEntity
  8
UNSICHT
  6
CENTER
100
AcDbLine
 10
-32.2920207298
 20
0.0
 30
0.0
 11
75.9566142146
 21
0.0
 31
0.0
  0
LINE
  5
5D
330
1F
100
AcDbEntity
  8
ZAPFEN
100
AcDbLine
 10
-29.5724465404
 20
4.0
 30
0.0
 11
0.0
 21
4.0
 31
0.0
  0
LINE
  5
5E
330
1F
100
AcDbEntity
  8
ZAPFEN
100
AcDbLine
 10
0.0
 20
-4.0
 30
0.0
 11
-29.5724465404
 21
-4.0
 31
0.0
  0
LINE
  5
5F
330
1F
100
AcDbEntity
  8
AUFNAHME
  6
CONTINUOUS
100
AcDbLine
 10
73.550640171
 20
3.9949968711
 30
0.0
 11
66.3304941245
 21
4.0
 31
0.0
  0
LINE
  5
60
330
1F
100
AcDbEntity
  8
AUFNAHME
  6
CONTINUOUS
100
AcDbLine
 10
70.9335505008
 20
-3.9949968711
 30
0.0
 11
73.8641979266
 21
-3.9949968711
 31
0.0
  0
LINE
  5
61
330
1F
100
AcDbEntity
  8
AUFNAHME
  6
CONTINUOUS
100
AcDbLine
 10
65.5900882233
 20
0.0639988592
 30
0.0
 11
65.6660055024
 21
0.1108001782
 31
0.0
  0
LINE
  5
62
330
1F
100
AcDbEntity
  8
AUFNAHME
  6
CONTINUOUS
100
AcDbLine
 10
65.6660055024
 20
0.1108001782
 30
0.0
 11
65.7362323996
 21
0.1863346645
 31
0.0
  0
LINE
  5
63
330
1F
100
AcDbEntity
  8
AUFNAHME
  6
CONTINUOUS
100
AcDbLine
 10
65.7362323996
 20
0.1863346645
 30
0.0
 11
65.7941910833
 21
0.2840917085
 31
0.0
  0
LINE
  5
64
330
1F
100
AcDbEntity
  8
AUFNAHME
  6
CONTINUOUS
100
AcDbLine
 10
65.7941910833
 20
0.2840917085
 30
0.0
 11
65.8401084144
 21
0.4067956019
 31
0.0
  0
LINE
  5
65
330
1F
100
AcDbEntity
  8
AUFNAHME
  6
CONTINUOUS
100
AcDbLine
 10
65.8401084144
 20
0.4067956019
 30
0.0
 11
65.8678592219
 21
0.5431797494
 31
0.0
  0
LINE
  5
66
330
1F
100
AcDbEntity
  8
AUFNAHME
  6
CONTINUOUS
100
AcDbLine
 10
65.8678592219
 20
0.5431797494
 30
0.0
 11
65.8756864723
 21
0.697817449
 31
0.0
  0
LINE
  5
67
330
1F
100
AcDbEntity
  8
AUFNAHME
  6
CONTINUOUS
100
AcDbLine
 10
65.8756864723
 20
0.697817449
 30
0.0
 11
65.8614670872
 21
0.8470517544
 31
0.0
  0
LINE
  5
68
330
1F
100
AcDbEntity
  8
AUFNAHME
  6
CONTINUOUS
100
AcDbLine
 10
65.8614670872
 20
0.8470517544
 30
0.0
 11
65.8235905085
 21
1.0032780858
 31
0.0
  0
LINE
  5
69
330
1F
100
AcDbEntity
  8
AUFNAHME
  6
CONTINUOUS
100
AcDbLine
 10
65.8235905085
 20
1.0032780858
 30
0.0
 11
65.7694248409
 21
1.1409003566
 31
0.0
  0
LINE
  5
6A
330
1F
100
AcDbEntity
  8
AUFNAHME
  6
CONTINUOUS
100
AcDbLine
 10
65.7694248409
 20
1.1409003566
 30
0.0
 11
65.6956511064
 21
1.2751293978
 31
0.0
  0
LINE
  5
6B
330
1F
100
AcDbEntity
  8
AUFNAHME
  6
CONTINUOUS
100
AcDbLine
 10
65.6956511064
 20
1.2751293978
 30
0.0
 11
65.6067761173
 21
1.3985026069
 31
0.0
  0
LINE
  5
6C
330
1F
100
AcDbEntity
  8
AUFNAHME
  6
CONTINUOUS
100
AcDbLine
 10
65.6067761173
 20
1.3985026069
 30
0.0
 11
65.5034566601
 21
1.5121202062
 31
0.0
  0
LINE
  5
6D
330
1F
100
AcDbEntity
  8
AUFNAHME
  6
CONTINUOUS
100
AcDbLine
 10
65.5034566601
 20
1.5121202062
 30
0.0
 11
65.3775781486
 21
1.6227614106
 31
0.0
  0
LINE
  5
6E
330
1F
100
AcDbEntity
  8
AUFNAHME
  6
CONTINUOUS
100
AcDbLine
 10
65.3775781486
 20
1.6227614106
 30
0.0
 11
65.2418568329
 21
1.7176298231
 31
0.0
  0
LINE
  5
6F
330
1F
100
AcDbEntity
  8
AUFNAHME
  6
CONTINUOUS
100
AcDbLine
 10
65.2418568329
 20
1.7176298231
 30
0.0
 11
65.0854133796
 21
1.8019723975
 31
0.0
  0
LINE
  5
70
330
1F
100
AcDbEntity
  8
AUFNAHME
  6
CONTINUOUS
100
AcDbLine
 10
65.0854133796
 20
1.8019723975
 30
0.0
 11
64.9270925987
 21
1.8622916425
 31
0.0
  0
LINE
  5
71
330
1F
100
AcDbEntity
  8
AUFNAHME
  6
CONTINUOUS
100
AcDbLine
 10
64.9270925987
 20
1.8622916425
 30
0.0
 11
64.8040938026
 21
1.8902417337
 31
0.0
  0
LINE
  5
72
330
1F
100
AcDbEntity
  8
AUFNAHME
  6
CONTINUOUS
100
AcDbLine
 10
64.8040938026
 20
1.8902417337
 30
0.0
 11
64.6892562226
 21
1.8969321411
 31
0.0
  0
LINE
  5
73
330
1F
100
AcDbEntity
  8
AUFNAHME
  6
CONTINUOUS
100
AcDbLine
 10
64.6892562226
 20
1.8969321411
 30
0.0
 11
64.615500105
 21
1.8866509553
 31
0.0
  0
LINE
  5
74
330
1F
100
AcDbEntity
  8
AUFNAHME
  6
CONTINUOUS
100
AcDbLine
 10
64.615500105
 20
1.8866509553
 30
0.0
 11
64.5518014077
 21
1.8623643767
 31
0.0
  0
LINE
  5
75
330
1F
100
AcDbEntity
  8
AUFNAHME
  6
CONTINUOUS
100
AcDbLine
 10
73.550640171
 20
3.9949968711
 30
0.0
 11
73.5749178433
 21
3.9475432727
 31
0.0
  0
LINE
  5
76
330
1F
100
AcDbEntity
  8
AUFNAHME
  6
CONTINUOUS
100
AcDbLine
 10
68.6452244528
 20
1.1885875609
 30
0.0
 11
68.7988993582
 21
1.2672089746
 31
0.0
  0
LINE
  5
77
330
1F
100
AcDbEntity
  8
AUFNAHME
  6
CONTINUOUS
100
AcDbLine
 10
74.1640540315
 20
-3.7102913419
 30
0.0
 11
74.1637705419
 21
-3.7157006447
 31
0.0
  0
LINE
  5
78
330
1F
100
AcDbEntity
  8
AUFNAHME
  6
CONTINUOUS
100
AcDbLine
 10
69.5613395201
 20
-0.767294554
 30
0.0
 11
70.7886518357
 21
-0.1444952969
 31
0.0
  0
LINE
  5
79
330
1F
100
AcDbEntity
  8
AUFNAHME
  6
CONTINUOUS
100
AcDbLine
 10
74.1640540315
 20
-3.7102913419
 30
0.0
 11
74.2343487711
 21
-2.3689878062
 31
0.0
  0
LINE
  5
7A
330
1F
100
AcDbEntity
  8
AUFNAHME
  6
CONTINUOUS
100
AcDbLine
 10
65.5900882233
 20
0.0639988592
 30
0.0
 11
67.7174924779
 21
-3.6207733979
 31
0.0
  0
LINE
  5
7B
330
1F
100
AcDbEntity
  8
AUFNAHME
  6
CONTINUOUS
100
AcDbLine
 10
63.5365834859
 20
3.620773398
 30
0.0
 11
64.5518014077
 21
1.8623643767
 31
0.0
  0
LINE
  5
7C
330
1F
100
AcDbEntity
  8
AUFNAHME
  6
CONTINUOUS
100
AcDbLine
 10
73.8639559194
 20
-3.9999890558
 30
0.0
 11
73.8641979266
 21
-3.9949968711
 31
0.0
  0
LINE
  5
7D
330
1F
100
AcDbEntity
  8
AUFNAHME
  6
CONTINUOUS
100
AcDbLine
 10
66.3304941245
 20
4.0
 30
0.0
 11
68.1614996644
 21
0.8072327065
 31
0.0
  0
LINE
  5
7E
330
1F
100
AcDbEntity
  8
AUFNAHME
  6
CONTINUOUS
100
AcDbLine
 10
69.1376389338
 20
-0.8843867911
 30
0.0
 11
70.9335505008
 21
-3.9949968711
 31
0.0
  0
LINE
  5
7F
330
1F
100
AcDbEntity
  8
EW
  6
HIDDEN
100
AcDbLine
 10
60.9275534596
 20
-3.3071891388
 30
0.0
 11
60.9275534596
 21
3.3071891388
 31
0.0
  0
LINE
  5
80
330
1F
100
AcDbEntity
  8
EW
  6
HIDDEN
100
AcDbLine
 10
74.1637705419
 20
-3.7157006447
 30
0.0
 11
74.1640540315
 21
-3.7102913419
 31
0.0
  0
LINE
  5
81
330
1F
100
AcDbEntity
  8
EW
  6
HIDDEN
100
AcDbLine
 10
-30.0724465404
 20
-1.5
 30
0.0
 11
60.9275534596
 21
-1.5
 31
0.0
  0
LINE
  5
82
330
1F
100
AcDbEntity
  8
EW
  6
HIDDEN
100
AcDbLine
 10
60.9275534596
 20
1.5
 30
0.0
 11
-30.0724465404
 21
1.5
 31
0.0
  0
LINE
  5
83
330
1F
100
AcDbEntity
  8
EW
  6
HIDDEN
100
AcDbLine
 10
73.5247332529
 20
-0.1441705622
 30
0.0
 11
73.5624341471
 21
-0.118831991
 31
0.0
  0
LINE
  5
84
330
1F
100
AcDbEntity
  8
EW
  6
HIDDEN
100
AcDbLine
 10
73.6881552661
 20
2.2800698643
 30
0.0
 11
73.6533095032
 21
2.3092104447
 31
0.0
  0
LINE
  5
85
330
1F
100
AcDbEntity
  8
EW
  6
HIDDEN
100
AcDbLine
 10
60.9275534596
 20
-1.0268206796
 30
0.0
 11
65.5483152713
 21
0.0505276301
 31
0.0
  0
LINE
  5
86
330
1F
100
AcDbEntity
  8
EW
  6
HIDDEN
100
AcDbLine
 10
64.6198515087
 20
1.8876941078
 30
0.0
 11
60.9275534596
 21
1.0268206796
 31
0.0
  0
ARC
  5
87
330
1F
100
AcDbEntity
  8
AUFNAHME
  6
CONTINUOUS
100
AcDbCircle
 10
69.0950568248
 20
1.3180386437
 30
0.0
 40
0.3005227084745788
100
AcDbArc
 50
117.1721620772
 51
236.827837925
  0
ARC
  5
88
330
1F
100
AcDbEntity
  8
AUFNAHME
  6
CONTINUOUS
100
AcDbCircle
 10
74.6287157518
 20
4.1509458649
 30
0.0
 40
0.2988854354894846
100
AcDbArc
 50
356.8192862095
 51
116.9913559615
  0
ARC
  5
89
330
1F
100
AcDbEntity
  8
AUFNAHME
  6
CONTINUOUS
100
AcDbCircle
 10
74.3022823508
 20
-2.0777744793
 30
0.0
 40
0.298885435465771
100
AcDbArc
 50
237.0086440341
 51
357.1807137888
  0
CIRCLE
  5
8A
330
1F
100
AcDbEntity
  8
AUFNAHME
  6
CONTINUOUS
100
AcDbCircle
 10
72.6737643545
 20
1.1266456436
 30
0.0
 40
1.530229680593649
  0
ARC
  5
8B
330
1F
100
AcDbEntity
  8
AUFNAHME
  6
CONTINUOUS
100
AcDbCircle
 10
65.5704614027
 20
-0.8820710871
 30
0.0
 40
4.940877233601489
100
AcDbArc
 50
98.8486832454
 51
114.308092316
  0
ARC
  5
8C
330
1F
100
AcDbEntity
  8
AUFNAHME
  6
CONTINUOUS
100
AcDbCircle
 10
70.2755122824
 20
4.3562887637
 30
0.0
 40
8.3771705276843
100
AcDbArc
 50
252.2204132635
 51
274.5053032713
  0
ARC
  5
8D
330
1F
100
AcDbEntity
  8
AUFNAHME
  6
CONTINUOUS
100
AcDbCircle
 10
69.0521129626
 20
0.2103129583
 30
0.0
 40
1.098035624652592
100
AcDbArc
 50
155.229509716
 51
274.467291887
  0
ARC
  5
8E
330
1F
100
AcDbEntity
  8
AUFNAHME
  6
CONTINUOUS
100
AcDbCircle
 10
69.3981865175
 20
-0.2639624903
 30
0.0
 40
1.636109263499219
100
AcDbArc
 50
117.4009835043
 51
145.1750228776
  0
ARC
  5
8F
330
1F
100
AcDbEntity
  8
AUFNAHME
  6
CONTINUOUS
100
AcDbCircle
 10
73.8641979266
 20
-3.694737648
 30
0.0
 40
0.3002592230715996
100
AcDbArc
 50
270.0
 51
357.0306988852
  0
ELLIPSE
  5
90
330
1F
100
AcDbEntity
  8
AUFNAHME
  6
CONTINUOUS
100
AcDbEllipse
 10
66.7603713152
 20
0.0
 30
0.0
 11
-3.095465462050676
 21
3.747990337253815
 31
0.0
210
0.0
220
0.0
230
1.0
 40
0.4514162296
 41
0.0820996961356023
 42
2.345768578457903
  0
ELLIPSE
  5
91
330
1F
100
AcDbEntity
  8
AUFNAHME
  6
CONTINUOUS
100
AcDbEllipse
 10
65.0824725603
 20
0.9687352979
 30
0.0
 11
-0.540356989971727
 21
0.888034847656316
 31
0.0
210
0.0
220
0.0
230
1.0
 40
0.4849038283
 41
6.260999096927359
 42
9.35200095205684
  0
ELLIPSE
  5
92
330
1F
100
AcDbEntity
  8
AUFNAHME
  6
CONTINUOUS
100
AcDbEllipse
 10
75.6115204447
 20
0.0
 30
0.0
 11
-2.056980362128328
 21
3.99760322394732
 31
0.0
210
0.0
220
0.0
230
1.0
 40
0.0673075078
 41
6.128100235125648
 42
6.298586693693482
  0
ELLIPSE
  5
93
330
1F
100
AcDbEntity
  8
AUFNAHME
  6
CONTINUOUS
100
AcDbEllipse
 10
69.059851939
 20
0.2129225758
 30
0.0
 11
1.102688551077648
 21
-0.05778945820281157
 31
0.0
210
0.0
220
0.0
230
1.0
 40
0.9961946981
 41
4.83505546335209
 42
5.235987755983029
  0
DIMENSION
  5
94
330
1F
100
AcDbEntity
  8
MASS
100
AcDbDimension
  2
_D
 10
-30.0724465404
 20
-12.8164467729
 30
0.0
 11
-15.0362232702
 21
-12.8164467729
 31
0.0
 70
   160
  1
<>
  3
SLDDIMSTYLE0
100
AcDbAlignedDimension
 13
0.0
 23
-4.0
 33
0.0
 14
-30.0724465404
 24
-3.5
 34
0.0
 50
0.0
100
AcDbRotatedDimension
  0
DIMENSION
  5
A0
330
1F
100
AcDbEntity
  8
MASS
100
AcDbDimension
  2
_D_1
 10
0.0
 20
-12.8164467729
 30
0.0
 11
37.4635703768
 21
-12.8164467729
 31
0.0
 70
   160
  1
20 - 70
  3
SLDDIMSTYLE0
100
AcDbAlignedDimension
 13
74.9271407536
 23
4.1343620813
 33
0.0
 14
0.0
 24
-4.0
 34
0.0
 50
0.0
100
AcDbRotatedDimension
  0
DIMENSION
  5
AB
330
1F
100
AcDbEntity
  8
MASS
100
AcDbDimension
  2
_D_2
 10
-30.0724465404
 20
-20.8570100241
 30
0.0
 11
22.4273471066
 21
-20.8570100241
 31
0.0
 70
   160
  1
<>
  3
SLDDIMSTYLE1
100
AcDbAlignedDimension
 13
74.9271407536
 23
4.1343620813
 33
0.0
 14
-30.0724465404
 24
-3.5
 34
0.0
 50
0.0
100
AcDbRotatedDimension
  0
DIMENSION
  5
B6
330
1F
100
AcDbEntity
  8
MASS
100
AcDbDimension
  2
_D_3
 10
-37.2367586877
 20
4.0
 30
0.0
 11
-37.2367586877
 21
0.0
 31
0.0
 70
   160
  1
%%c<>
  3
SLDDIMSTYLE2
100
AcDbAlignedDimension
 13
-29.5724465404
 23
-4.0
 33
0.0
 14
-29.5724465404
 24
4.0
 34
0.0
 50
90.0
100
AcDbRotatedDimension
  0
DIMENSION
  5
C4
330
1F
100
AcDbEntity
  8
MASS
100
AcDbDimension
  2
_D_4
 10
81.7390743186
 20
0.0
 30
0.0
 11
81.7390743186
 21
19.0486968468
 31
0.0
 70
   160
  1
%%c8.8 - 11.8
  3
SLDDIMSTYLE3
100
AcDbAlignedDimension
 13
74.6287157518
 23
4.4498313004
 33
0.0
 14
75.9566142146
 24
0.0
 34
0.0
 50
90.0
100
AcDbRotatedDimension
  0
MTEXT
  5
CF
330
1F
100
AcDbEntity
  8
MASS
100
AcDbMText
 10
44.3973529734
 20
12.4971514029
 30
0.0
 40
3.5
 41
0.0
 71
     1
 72
     1
  1
615.213
  7
SLDTEXTSTYLE0
  0
ENDSEC
  0
SECTION
  2
OBJECTS
  0
DICTIONARY
  5
C
330
0
100
AcDbDictionary
  3
ACAD_GROUP
350
D
  3
ACAD_MLINESTYLE
350
17
  0
DICTIONARY
  5
D
102
{ACAD_REACTORS
330
C
102
}
330
C
100
AcDbDictionary
  0
DICTIONARY
  5
17
102
{ACAD_REACTORS
330
C
102
}
330
C
100
AcDbDictionary
  3
STANDARD
350
18
  0
MLINESTYLE
  5
18
102
{ACAD_REACTORS
330
17
102
}
330
17
100
AcDbMlineStyle
  2
Standard
 70
     0
  3

 62
   256
 51
90.0
 52
90.0
 71
     2
 49
0.5
 62
   256
  6
BYLAYER
 49
-0.5
 62
   256
  6
BYLAYER
  0
ENDSEC
  0
EOF
