  0
SECTION
  2
HEADER
  9
$ACADVER
  1
AC1014
  9
$ACADMAINTVER
 70
     9
  9
$DWGCODEPAGE
  3
ANSI_1252
  9
$INSBASE
 10
0.0
 20
0.0
 30
0.0
  9
$EXTMIN
 10
0.0
 20
0.0
 30
0.0
  9
$EXTMAX
 10
210.0
 20
297.0
 30
0.0
  9
$LIMMIN
 10
0.0
 20
0.0
  9
$LIMMAX
 10
210.0
 20
297.0
  9
$ORTHOMODE
 70
     0
  9
$REGENMODE
 70
     1
  9
$FILLMODE
 70
     1
  9
$QTEXTMODE
 70
     0
  9
$MIRRTEXT
 70
     1
  9
$DRAGMODE
 70
     2
  9
$LTSCALE
 40
1.0
  9
$OSMODE
 70
    37
  9
$ATTMODE
 70
     1
  9
$TEXTSIZE
 40
3.5
  9
$TRACEWID
 40
1.0
  9
$TEXTSTYLE
  7
STANDARD
  9
$CLAYER
  8
0
  9
$CELTYPE
  6
BYLAYER
  9
$CECOLOR
 62
   256
  9
$CELTSCALE
 40
1.0
  9
$DELOBJ
 70
     1
  9
$DISPSILH
 70
     0
  9
$DIMSCALE
 40
1.0
  9
$DIMASZ
 40
3.5
  9
$DIMEXO
 40
0.0
  9
$DIMDLI
 40
3.75
  9
$DIMRND
 40
0.0
  9
$DIMDLE
 40
0.0
  9
$DIMEXE
 40
1.0
  9
$DIMTP
 40
0.0
  9
$DIMTM
 40
0.0
  9
$DIMTXT
 40
3.5
  9
$DIMCEN
 40
2.5
  9
$DIMTSZ
 40
0.0
  9
$DIMTOL
 70
     0
  9
$DIMLIM
 70
     0
  9
$DIMTIH
 70
     1
  9
$DIMTOH
 70
     1
  9
$DIMSE1
 70
     0
  9
$DIMSE2
 70
     0
  9
$DIMTAD
 70
     1
  9
$DIMZIN
 70
     0
  9
$DIMBLK
  1

  9
$DIMASO
 70
     1
  9
$DIMSHO
 70
     1
  9
$DIMPOST
  1

  9
$DIMAPOST
  1

  9
$DIMALT
 70
     0
  9
$DIMALTD
 70
     3
  9
$DIMALTF
 40
0.0393700787
  9
$DIMLFAC
 40
1.0
  9
$DIMTOFL
 70
     1
  9
$DIMTVP
 40
0.0
  9
$DIMTIX
 70
     0
  9
$DIMSOXD
 70
     0
  9
$DIMSAH
 70
     0
  9
$DIMBLK1
  1

  9
$DIMBLK2
  1

  9
$DIMSTYLE
  2
ISO-25
  9
$DIMCLRD
 70
     0
  9
$DIMCLRE
 70
     0
  9
$DIMCLRT
 70
     0
  9
$DIMTFAC
 40
1.0
  9
$DIMGAP
 40
1.5
  9
$DIMJUST
 70
     0
  9
$DIMSD1
 70
     0
  9
$DIMSD2
 70
     0
  9
$DIMTOLJ
 70
     0
  9
$DIMTZIN
 70
     0
  9
$DIMALTZ
 70
     0
  9
$DIMALTTZ
 70
     0
  9
$DIMFIT
 70
     3
  9
$DIMUPT
 70
     0
  9
$DIMUNIT
 70
     2
  9
$DIMDEC
 70
     2
  9
$DIMTDEC
 70
     3
  9
$DIMALTU
 70
     2
  9
$DIMALTTD
 70
     3
  9
$DIMTXSTY
  7
STANDARD
  9
$DIMAUNIT
 70
     0
  9
$LUNITS
 70
     2
  9
$LUPREC
 70
     2
  9
$SKETCHINC
 40
1.0
  9
$FILLETRAD
 40
10.0
  9
$AUNITS
 70
     0
  9
$AUPREC
 70
     2
  9
$MENU
  1
.
  9
$ELEVATION
 40
0.0
  9
$PELEVATION
 40
0.0
  9
$THICKNESS
 40
0.0
  9
$LIMCHECK
 70
     0
  9
$CHAMFERA
 40
10.0
  9
$CHAMFERB
 40
10.0
  9
$CHAMFERC
 40
20.0
  9
$CHAMFERD
 40
0.0
  9
$SKPOLY
 70
     0
  9
$TDCREATE
 40
2456398.492386227
  9
$TDUPDATE
 40
2456398.492386597
  9
$TDINDWG
 40
0.0000000116
  9
$TDUSRTIMER
 40
0.0000000116
  9
$USRTIMER
 70
     1
  9
$ANGBASE
 50
0.0
  9
$ANGDIR
 70
     0
  9
$PDMODE
 70
     0
  9
$PDSIZE
 40
-1.0
  9
$PLINEWID
 40
0.0
  9
$COORDS
 70
     1
  9
$SPLFRAME
 70
     0
  9
$SPLINETYPE
 70
     6
  9
$SPLINESEGS
 70
     8
  9
$ATTDIA
 70
     0
  9
$ATTREQ
 70
     1
  9
$HANDLING
 70
     1
  9
$HANDSEED
  5
B9
  9
$SURFTAB1
 70
     6
  9
$SURFTAB2
 70
     6
  9
$SURFTYPE
 70
     6
  9
$SURFU
 70
     6
  9
$SURFV
 70
     6
  9
$UCSNAME
  2

  9
$UCSORG
 10
0.0
 20
0.0
 30
0.0
  9
$UCSXDIR
 10
1.0
 20
0.0
 30
0.0
  9
$UCSYDIR
 10
0.0
 20
1.0
 30
0.0
  9
$PUCSNAME
  2

  9
$PUCSORG
 10
0.0
 20
0.0
 30
0.0
  9
$PUCSXDIR
 10
1.0
 20
0.0
 30
0.0
  9
$PUCSYDIR
 10
0.0
 20
1.0
 30
0.0
  9
$USERI1
 70
     0
  9
$USERI2
 70
     0
  9
$USERI3
 70
     0
  9
$USERI4
 70
     0
  9
$USERI5
 70
     0
  9
$USERR1
 40
0.0
  9
$USERR2
 40
0.0
  9
$USERR3
 40
0.0
  9
$USERR4
 40
0.0
  9
$USERR5
 40
0.0
  9
$WORLDVIEW
 70
     1
  9
$SHADEDGE
 70
     3
  9
$SHADEDIF
 70
    70
  9
$TILEMODE
 70
     1
  9
$MAXACTVP
 70
    64
  9
$PINSBASE
 10
0.0
 20
0.0
 30
0.0
  9
$PLIMCHECK
 70
     0
  9
$PEXTMIN
 10
1.0000000000E+20
 20
1.0000000000E+20
 30
1.0000000000E+20
  9
$PEXTMAX
 10
-1.0000000000E+20
 20
-1.0000000000E+20
 30
-1.0000000000E+20
  9
$PLIMMIN
 10
0.0
 20
0.0
  9
$PLIMMAX
 10
420.0
 20
297.0
  9
$UNITMODE
 70
     0
  9
$VISRETAIN
 70
     1
  9
$PLINEGEN
 70
     0
  9
$PSLTSCALE
 70
     1
  9
$TREEDEPTH
 70
  3020
  9
$PICKSTYLE
 70
     1
  9
$CMLSTYLE
  2
STANDARD
  9
$CMLJUST
 70
     0
  9
$CMLSCALE
 40
20.0
  9
$PROXYGRAPHICS
 70
     1
  9
$MEASUREMENT
 70
     1
  0
ENDSEC
  0
SECTION
  2
CLASSES
  0
CLASS
  1
ACDBDICTIONARYWDFLT
  2
AcDbDictionaryWithDefault
  3
ObjectDBX Classes
 90
        0
280
     0
281
     0
  0
CLASS
  1
VISUALSTYLE
  2
AcDbVisualStyle
  3
ObjectDBX Classes
 90
     4095
280
     0
281
     0
  0
CLASS
  1
MATERIAL
  2
AcDbMaterial
  3
ObjectDBX Classes
 90
     1153
280
     0
281
     0
  0
CLASS
  1
XRECORD
  2
AcDbXrecord
  3
AutoCAD 2000
 90
        0
280
     0
281
     0
  0
CLASS
  1
LWPOLYLINE
  2
AcDbPolyline
  3
AutoCAD 2000
 90
        0
280
     0
281
     1
  0
CLASS
  1
HATCH
  2
AcDbHatch
  3
AutoCAD 2000
 90
        0
280
     0
281
     1
  0
ENDSEC
  0
SECTION
  2
TABLES
  0
TABLE
  2
VPORT
  5
8
330
0
100
AcDbSymbolTable
 70
     1
  0
VPORT
  5
29
330
8
100
AcDbSymbolTableRecord
100
AcDbViewportTableRecord
  2
*ACTIVE
 70
     0
 10
0.0
 20
0.0
 11
1.0
 21
1.0
 12
105.0
 22
148.5
 13
0.0
 23
0.0
 14
10.0
 24
10.0
 15
10.0
 25
10.0
 16
0.0
 26
0.0
 36
1.0
 17
0.0
 27
0.0
 37
0.0
 40
297.0
 41
0.7070707071
 42
50.0
 43
0.0
 44
0.0
 50
0.0
 51
0.0
 71
     0
 72
  2000
 73
     1
 74
     3
 75
     0
 76
     0
 77
     0
 78
     0
  0
ENDTAB
  0
TABLE
  2
LTYPE
  5
5
330
0
100
AcDbSymbolTable
 70
     6
  0
LTYPE
  5
14
330
5
100
AcDbSymbolTableRecord
100
AcDbLinetypeTableRecord
  2
BYBLOCK
 70
     0
  3

 72
    65
 73
     0
 40
0.0
  0
LTYPE
  5
15
330
5
100
AcDbSymbolTableRecord
100
AcDbLinetypeTableRecord
  2
BYLAYER
 70
     0
  3

 72
    65
 73
     0
 40
0.0
  0
LTYPE
  5
16
330
5
100
AcDbSymbolTableRecord
100
AcDbLinetypeTableRecord
  2
CONTINUOUS
 70
     0
  3
Solid line
 72
    65
 73
     0
 40
0.0
  0
LTYPE
  5
3F
330
5
100
AcDbSymbolTableRecord
100
AcDbLinetypeTableRecord
  2
HIDDEN
 70
     0
  3
Hidden __ __ __ __ __ __ __ __ __ __ __ __ __ __
 72
    65
 73
     2
 40
1.905
 49
1.27
 74
     0
 49
-0.635
 74
     0
  0
LTYPE
  5
40
330
5
100
AcDbSymbolTableRecord
100
AcDbLinetypeTableRecord
  2
PHANTOM
 70
     0
  3
Phantom ______  __  __  ______  __  __  ______
 72
    65
 73
     6
 40
12.7
 49
6.35
 74
     0
 49
-1.27
 74
     0
 49
1.27
 74
     0
 49
-1.27
 74
     0
 49
1.27
 74
     0
 49
-1.27
 74
     0
  0
LTYPE
  5
41
330
5
100
AcDbSymbolTableRecord
100
AcDbLinetypeTableRecord
  2
CENTER
 70
     0
  3
Center ____ _ ____ _ ____ _ ____ _ ____ _ ____
 72
    65
 73
     4
 40
10.16
 49
6.35
 74
     0
 49
-1.27
 74
     0
 49
1.27
 74
     0
 49
-1.27
 74
     0
  0
LTYPE
  5
42
330
5
100
AcDbSymbolTableRecord
100
AcDbLinetypeTableRecord
  2
CENTERX2
 70
     0
  3
Center (2x) ________  __  ________  __  _____
 72
    65
 73
     4
 40
20.32
 49
12.7
 74
     0
 49
-2.54
 74
     0
 49
2.54
 74
     0
 49
-2.54
 74
     0
  0
LTYPE
  5
43
330
5
100
AcDbSymbolTableRecord
100
AcDbLinetypeTableRecord
  2
DOT2
 70
     0
  3
Dot (.5x) ........................................
 72
    65
 73
     2
 40
0.635
 49
0.0
 74
     0
 49
-0.635
 74
     0
  0
ENDTAB
  0
TABLE
  2
LAYER
  5
2
330
0
100
AcDbSymbolTable
 70
     7
  0
LAYER
  5
10
330
2
100
AcDbSymbolTableRecord
100
AcDbLayerTableRecord
  2
0
 70
     0
 62
     7
  6
CONTINUOUS
  0
LAYER
  5
44
330
2
100
AcDbSymbolTableRecord
100
AcDbLayerTableRecord
  2
AUFNAHME
 70
     0
 62
     7
  6
CONTINUOUS
  0
LAYER
  5
45
330
2
100
AcDbSymbolTableRecord
100
AcDbLayerTableRecord
  2
MASS
 70
     0
 62
     4
  6
CONTINUOUS
  0
LAYER
  5
46
330
2
100
AcDbSymbolTableRecord
100
AcDbLayerTableRecord
  2
EW
 70
     0
 62
     1
  6
HIDDEN
  0
LAYER
  5
47
330
2
100
AcDbSymbolTableRecord
100
AcDbLayerTableRecord
  2
UNSICHT
 70
     0
 62
     4
  6
CENTER
  0
LAYER
  5
48
330
2
100
AcDbSymbolTableRecord
100
AcDbLayerTableRecord
  2
TEXT
 70
     0
 62
     7
  6
CONTINUOUS
  0
LAYER
  5
49
330
2
100
AcDbSymbolTableRecord
100
AcDbLayerTableRecord
  2
ZAPFEN
 70
     0
 62
     4
  6
CONTINUOUS
  0
ENDTAB
  0
TABLE
  2
STYLE
  5
3
330
0
100
AcDbSymbolTable
 70
     2
  0
STYLE
  5
11
330
3
100
AcDbSymbolTableRecord
100
AcDbTextStyleTableRecord
  2
STANDARD
 70
     0
 40
0.0
 41
1.0
 50
0.0
 71
     0
 42
3.5
  3
txt
  4

  0
STYLE
  5
7F
330
3
100
AcDbSymbolTableRecord
100
AcDbTextStyleTableRecord
  2
SLDTEXTSTYLE0
 70
     0
 40
0.0
 41
0.605
 50
0.0
 71
     0
 42
0.2
  3
TXT
  4

  0
ENDTAB
  0
TABLE
  2
VIEW
  5
6
330
0
100
AcDbSymbolTable
 70
     0
  0
ENDTAB
  0
TABLE
  2
UCS
  5
7
330
0
100
AcDbSymbolTable
 70
     0
  0
ENDTAB
  0
TABLE
  2
APPID
  5
9
330
0
100
AcDbSymbolTable
 70
     1
  0
APPID
  5
12
330
9
100
AcDbSymbolTableRecord
100
AcDbRegAppTableRecord
  2
ACAD
 70
     0
  0
ENDTAB
  0
TABLE
  2
DIMSTYLE
  5
A
330
0
100
AcDbSymbolTable
 70
     4
  0
DIMSTYLE
105
27
330
A
100
AcDbSymbolTableRecord
100
AcDbDimStyleTableRecord
  2
ISO-25
 70
     0
  3

  4

  5

  6

  7

 40
1.0
 41
2.5
 42
0.625
 43
3.75
 44
1.25
 45
0.0
 46
0.0
 47
0.0
 48
0.0
140
2.5
141
2.5
142
0.0
143
0.0393700787
144
1.0
145
0.0
146
1.0
147
0.625
 71
     0
 72
     0
 73
     0
 74
     0
 75
     0
 76
     0
 77
     1
 78
     8
170
     0
171
     3
172
     1
173
     0
174
     0
175
     0
176
     0
177
     0
178
     0
270
     2
271
     2
272
     2
273
     2
274
     3
340
11
275
     0
280
     0
281
     0
282
     0
283
     0
284
     8
285
     0
286
     0
287
     3
288
     0
  0
DIMSTYLE
105
80
102
{ACAD_REACTORS
330
7E
330
A4
330
AE
102
}
330
A
100
AcDbSymbolTableRecord
100
AcDbDimStyleTableRecord
  2
SLDDIMSTYLE0
 70
     0
  3

  4

  5

  6

  7

 40
1.0
 41
3.5
 42
0.0625
 43
0.38
 44
0.0
 45
0.000000001
 46
0.0
 47
0.0
 48
0.0
140
3.5
141
0.09
142
0.0
143
25.4
144
1.0
145
0.0
146
1.0
147
0.875
 71
     0
 72
     0
 73
     0
 74
     0
 75
     0
 76
     0
 77
     1
 78
    12
170
     0
171
     2
172
     0
173
     1
174
     0
175
     0
176
     0
177
     0
178
     0
270
     2
271
     2
272
     3
273
     2
274
     2
340
7F
275
     0
280
     0
281
     0
282
     0
283
     1
284
    12
285
     0
286
     0
287
     3
288
     0
  0
DIMSTYLE
105
8C
102
{ACAD_REACTORS
330
8B
102
}
330
A
100
AcDbSymbolTableRecord
100
AcDbDimStyleTableRecord
  2
SLDDIMSTYLE1
 70
     0
  3

  4

  5

  6

  7

 40
1.0
 41
3.5
 42
0.0625
 43
0.38
 44
0.0
 45
0.000000001
 46
0.0
 47
0.0
 48
0.0
140
3.5
141
0.09
142
0.0
143
25.4
144
1.0
145
0.0
146
1.0
147
0.875
 71
     0
 72
     0
 73
     0
 74
     0
 75
     0
 76
     0
 77
     1
 78
    12
170
     0
171
     2
172
     1
173
     1
174
     0
175
     0
176
     0
177
     0
178
     0
270
     2
271
     2
272
     3
273
     2
274
     2
340
7F
275
     0
280
     0
281
     0
282
     0
283
     1
284
    12
285
     0
286
     0
288
     0
  0
DIMSTYLE
105
9A
102
{ACAD_REACTORS
330
99
102
}
330
A
100
AcDbSymbolTableRecord
100
AcDbDimStyleTableRecord
  2
SLDDIMSTYLE2
 70
     0
  3

  4

  5

  6

  7

 40
1.0
 41
3.5
 42
0.0625
 43
0.38
 44
0.0
 45
0.000000001
 46
0.0
 47
0.0
 48
0.0
140
3.5
141
0.09
142
0.0
143
25.4
144
1.0
145
0.0
146
1.0
147
0.875
 71
     0
 72
     0
 73
     0
 74
     0
 75
     0
 76
     0
 77
     1
 78
    12
170
     0
171
     2
172
     1
173
     1
174
     0
175
     0
176
     0
177
     0
178
     0
270
     2
271
     2
272
     3
273
     2
274
     2
340
7F
275
     0
280
     0
281
     0
282
     0
283
     1
284
    12
285
     0
286
     0
288
     0
  0
ENDTAB
  0
TABLE
  2
BLOCK_RECORD
  5
1
330
0
100
AcDbSymbolTable
 70
     6
  0
BLOCK_RECORD
  5
1F
330
1
100
AcDbSymbolTableRecord
100
AcDbBlockTableRecord
  2
*MODEL_SPACE
  0
BLOCK_RECORD
  5
1B
330
1
100
AcDbSymbolTableRecord
100
AcDbBlockTableRecord
  2
*PAPER_SPACE
  0
BLOCK_RECORD
  5
23
330
1
100
AcDbSymbolTableRecord
100
AcDbBlockTableRecord
  2
*PAPER_SPACE0
  0
BLOCK_RECORD
  5
81
330
1
100
AcDbSymbolTableRecord
100
AcDbBlockTableRecord
  2
_D
  0
BLOCK_RECORD
  5
8D
330
1
100
AcDbSymbolTableRecord
100
AcDbBlockTableRecord
  2
_D_1
  0
BLOCK_RECORD
  5
9B
330
1
100
AcDbSymbolTableRecord
100
AcDbBlockTableRecord
  2
_D_2
  0
BLOCK_RECORD
  5
A5
330
1
100
AcDbSymbolTableRecord
100
AcDbBlockTableRecord
  2
_D_3
  0
BLOCK_RECORD
  5
AF
330
1
100
AcDbSymbolTableRecord
100
AcDbBlockTableRecord
  2
_D_4
  0
ENDTAB
  0
ENDSEC
  0
SECTION
  2
BLOCKS
  0
BLOCK
  5
20
330
1F
100
AcDbEntity
  8
0
100
AcDbBlockBegin
  2
*MODEL_SPACE
 70
     0
 10
0.0
 20
0.0
 30
0.0
  3
*MODEL_SPACE
  1

  0
ENDBLK
  5
21
330
1F
100
AcDbEntity
  8
0
100
AcDbBlockEnd
  0
BLOCK
  5
1C
330
1B
100
AcDbEntity
 67
     1
  8
0
100
AcDbBlockBegin
  2
*PAPER_SPACE
 70
     0
 10
0.0
 20
0.0
 30
0.0
  3
*PAPER_SPACE
  1

  0
ENDBLK
  5
1D
330
1B
100
AcDbEntity
 67
     1
  8
0
100
AcDbBlockEnd
  0
BLOCK
  5
24
330
23
100
AcDbEntity
  8
0
100
AcDbBlockBegin
  2
*PAPER_SPACE0
 70
     0
 10
0.0
 20
0.0
 30
0.0
  3
*PAPER_SPACE0
  1

  0
ENDBLK
  5
25
330
23
100
AcDbEntity
  8
0
100
AcDbBlockEnd
  0
BLOCK
  5
82
330
81
100
AcDbEntity
  8
0
100
AcDbBlockBegin
  2
_D
 70
     0
 10
0.0
 20
0.0
 30
0.0
  3
_D
  1

  0
SOLID
  5
84
330
81
100
AcDbEntity
  8
MASS
100
AcDbTrace
 10
44.999725918
 20
-11.6420194385
 30
0.0
 11
41.499725918
 21
-11.1920194385
 31
0.0
 12
41.499725918
 22
-12.0920194385
 32
0.0
 13
41.499725918
 23
-12.0920194385
 33
0.0
  0
SOLID
  5
85
330
81
100
AcDbEntity
  8
MASS
100
AcDbTrace
 10
0.0
 20
-11.6420194385
 30
0.0
 11
3.5
 21
-12.0920194385
 31
0.0
 12
3.5
 22
-11.1920194385
 32
0.0
 13
3.5
 23
-11.1920194385
 33
0.0
  0
LINE
  5
86
330
81
100
AcDbEntity
  8
MASS
100
AcDbLine
 10
44.999725918
 20
3.439533022
 30
0.0
 11
44.999725918
 21
-12.6420194385
 31
0.0
  0
LINE
  5
87
330
81
100
AcDbEntity
  8
MASS
100
AcDbLine
 10
0.0
 20
-3.0
 30
0.0
 11
0.0
 21
-12.6420194385
 31
0.0
  0
LINE
  5
88
330
81
100
AcDbEntity
  8
MASS
100
AcDbLine
 10
44.999725918
 20
-11.6420194385
 30
0.0
 11
0.0
 21
-11.6420194385
 31
0.0
  0
MTEXT
  5
89
330
81
100
AcDbEntity
  8
MASS
100
AcDbMText
 10
15.0453484555
 20
-7.1302822329
 30
0.1
 40
3.5
 41
0.0
 71
     1
 72
     1
  1
10 -
  7
SLDTEXTSTYLE0
  0
MTEXT
  5
8A
330
81
100
AcDbEntity
  8
MASS
100
AcDbMText
 10
22.9397936662
 20
-7.1302822329
 30
0.1
 40
3.5
 41
0.0
 71
     1
 72
     1
  1
45
  7
SLDTEXTSTYLE0
  0
ENDBLK
  5
83
330
81
100
AcDbEntity
  8
0
100
AcDbBlockEnd
  0
BLOCK
  5
8E
330
8D
100
AcDbEntity
  8
0
100
AcDbBlockBegin
  2
_D_1
 70
     0
 10
0.0
 20
0.0
 30
0.0
  3
_D_1
  1

  0
SOLID
  5
90
330
8D
100
AcDbEntity
  8
MASS
100
AcDbTrace
 10
-35.4240015947
 20
-3.0
 30
0.0
 11
-35.8740015947
 21
-6.5
 31
0.0
 12
-34.9740015947
 22
-6.5
 32
0.0
 13
-34.9740015947
 23
-6.5
 33
0.0
  0
SOLID
  5
91
330
8D
100
AcDbEntity
  8
MASS
100
AcDbTrace
 10
-35.4240015947
 20
3.0
 30
0.0
 11
-34.9740015947
 21
6.5
 31
0.0
 12
-35.8740015947
 22
6.5
 32
0.0
 13
-35.8740015947
 23
6.5
 33
0.0
  0
LINE
  5
92
330
8D
100
AcDbEntity
  8
MASS
100
AcDbLine
 10
-29.0
 20
-3.0
 30
0.0
 11
-36.4240015947
 21
-3.0
 31
0.0
  0
LINE
  5
93
330
8D
100
AcDbEntity
  8
MASS
100
AcDbLine
 10
-29.0
 20
3.0
 30
0.0
 11
-36.4240015947
 21
3.0
 31
0.0
  0
LINE
  5
94
330
8D
100
AcDbEntity
  8
MASS
100
AcDbLine
 10
-35.4240015947
 20
-3.0
 30
0.0
 11
-35.4240015947
 21
-8.0
 31
0.0
  0
LINE
  5
95
330
8D
100
AcDbEntity
  8
MASS
100
AcDbLine
 10
-35.4240015947
 20
-3.0
 30
0.0
 11
-35.4240015947
 21
3.0
 31
0.0
  0
LINE
  5
96
330
8D
100
AcDbEntity
  8
MASS
100
AcDbLine
 10
-35.4240015947
 20
3.0
 30
0.0
 11
-35.4240015947
 21
8.0
 31
0.0
  0
MTEXT
  5
97
330
8D
100
AcDbEntity
  8
MASS
100
AcDbMText
 10
-39.9357388003
 20
-4.9972226843
 30
0.1
 40
3.5
 41
0.0
 71
     1
 72
     1
  1
%%c
  7
SLDTEXTSTYLE0
 11
6.123233995736766E-17
 21
1.0
 31
0.0
  0
MTEXT
  5
98
330
8D
100
AcDbEntity
  8
MASS
100
AcDbMText
 10
-39.9357388003
 20
0.1749997027
 30
0.1
 40
3.5
 41
0.0
 71
     1
 72
     1
  1
6
  7
SLDTEXTSTYLE0
 11
6.123233995736766E-17
 21
1.0
 31
0.0
  0
ENDBLK
  5
8F
330
8D
100
AcDbEntity
  8
0
100
AcDbBlockEnd
  0
BLOCK
  5
9C
330
9B
100
AcDbEntity
  8
0
100
AcDbBlockBegin
  2
_D_2
 70
     0
 10
0.0
 20
0.0
 30
0.0
  3
_D_2
  1

  0
SOLID
  5
9E
330
9B
100
AcDbEntity
  8
MASS
100
AcDbTrace
 10
49.0606238653
 20
3.6485611683
 30
0.0
 11
49.5106238653
 21
7.1485611683
 31
0.0
 12
48.6106238653
 22
7.1485611683
 32
0.0
 13
48.6106238653
 23
7.1485611683
 33
0.0
  0
LINE
  5
9F
330
9B
100
AcDbEntity
  8
MASS
100
AcDbLine
 10
44.7760529244
 20
3.6485611683
 30
0.0
 11
50.0606238653
 21
3.6485611683
 31
0.0
  0
LINE
  5
A0
330
9B
100
AcDbEntity
  8
MASS
100
AcDbLine
 10
49.0606238653
 20
0.0
 30
0.0
 11
49.0606238653
 21
3.6485611683
 31
0.0
  0
LINE
  5
A1
330
9B
100
AcDbEntity
  8
MASS
100
AcDbLine
 10
49.0606238653
 20
3.6485611683
 30
0.0
 11
49.0606238653
 21
38.4397039152
 31
0.0
  0
MTEXT
  5
A2
330
9B
100
AcDbEntity
  8
MASS
100
AcDbMText
 10
44.5488866596
 20
7.3917878754
 30
0.1
 40
3.5
 41
0.0
 71
     1
 72
     1
  1
%%c
  7
SLDTEXTSTYLE0
 11
-7.044195017643634E-15
 21
1.0
 31
0.0
  0
MTEXT
  5
A3
330
9B
100
AcDbEntity
  8
MASS
100
AcDbMText
 10
44.5488866596
 20
12.5640102624
 30
0.1
 40
3.5
 41
0.0
 71
     1
 72
     1
  1
7.3 - 8.8 (12.3)
  7
SLDTEXTSTYLE0
 11
-7.044195017643634E-15
 21
1.0
 31
0.0
  0
ENDBLK
  5
9D
330
9B
100
AcDbEntity
  8
0
100
AcDbBlockEnd
  0
BLOCK
  5
A6
330
A5
100
AcDbEntity
  8
0
100
AcDbBlockBegin
  2
_D_3
 70
     0
 10
0.0
 20
0.0
 30
0.0
  3
_D_3
  1

  0
SOLID
  5
A8
330
A5
100
AcDbEntity
  8
MASS
100
AcDbTrace
 10
-30.0
 20
-11.6420194385
 30
0.0
 11
-26.5
 21
-12.0920194385
 31
0.0
 12
-26.5
 22
-11.1920194385
 32
0.0
 13
-26.5
 23
-11.1920194385
 33
0.0
  0
SOLID
  5
A9
330
A5
100
AcDbEntity
  8
MASS
100
AcDbTrace
 10
0.0
 20
-11.6420194385
 30
0.0
 11
-3.5
 21
-11.1920194385
 31
0.0
 12
-3.5
 22
-12.0920194385
 32
0.0
 13
-3.5
 23
-12.0920194385
 33
0.0
  0
LINE
  5
AA
330
A5
100
AcDbEntity
  8
MASS
100
AcDbLine
 10
-30.0
 20
-2.0
 30
0.0
 11
-30.0
 21
-12.6420194385
 31
0.0
  0
LINE
  5
AB
330
A5
100
AcDbEntity
  8
MASS
100
AcDbLine
 10
0.0
 20
-3.0
 30
0.0
 11
0.0
 21
-12.6420194385
 31
0.0
  0
LINE
  5
AC
330
A5
100
AcDbEntity
  8
MASS
100
AcDbLine
 10
-30.0
 20
-11.6420194385
 30
0.0
 11
0.0
 21
-11.6420194385
 31
0.0
  0
MTEXT
  5
AD
330
A5
100
AcDbEntity
  8
MASS
100
AcDbMText
 10
-18.5072918981
 20
-7.1302822329
 30
0.1
 40
3.5
 41
0.0
 71
     1
 72
     1
  1
30
  7
SLDTEXTSTYLE0
  0
ENDBLK
  5
A7
330
A5
100
AcDbEntity
  8
0
100
AcDbBlockEnd
  0
BLOCK
  5
B0
330
AF
100
AcDbEntity
  8
0
100
AcDbBlockBegin
  2
_D_4
 70
     0
 10
0.0
 20
0.0
 30
0.0
  3
_D_4
  1

  0
SOLID
  5
B2
330
AF
100
AcDbEntity
  8
MASS
100
AcDbTrace
 10
44.999725918
 20
-20.0588349062
 30
0.0
 11
41.499725918
 21
-19.6088349062
 31
0.0
 12
41.499725918
 22
-20.5088349062
 32
0.0
 13
41.499725918
 23
-20.5088349062
 33
0.0
  0
SOLID
  5
B3
330
AF
100
AcDbEntity
  8
MASS
100
AcDbTrace
 10
-30.0
 20
-20.0588349062
 30
0.0
 11
-26.5
 21
-20.5088349062
 31
0.0
 12
-26.5
 22
-19.6088349062
 32
0.0
 13
-26.5
 23
-19.6088349062
 33
0.0
  0
LINE
  5
B4
330
AF
100
AcDbEntity
  8
MASS
100
AcDbLine
 10
44.999725918
 20
3.439533022
 30
0.0
 11
44.999725918
 21
-21.0588349062
 31
0.0
  0
LINE
  5
B5
330
AF
100
AcDbEntity
  8
MASS
100
AcDbLine
 10
-30.0
 20
-2.0
 30
0.0
 11
-30.0
 21
-21.0588349062
 31
0.0
  0
LINE
  5
B6
330
AF
100
AcDbEntity
  8
MASS
100
AcDbLine
 10
44.999725918
 20
-20.0588349062
 30
0.0
 11
-30.0
 21
-20.0588349062
 31
0.0
  0
MTEXT
  5
B7
330
AF
100
AcDbEntity
  8
MASS
100
AcDbMText
 10
3.9925710609
 20
-15.5470977005
 30
0.1
 40
3.5
 41
0.0
 71
     1
 72
     1
  1
75
  7
SLDTEXTSTYLE0
  0
ENDBLK
  5
B1
330
AF
100
AcDbEntity
  8
0
100
AcDbBlockEnd
  0
ENDSEC
  0
SECTION
  2
ENTITIES
  0
LINE
  5
4A
330
1F
100
AcDbEntity
  8
AUFNAHME
  6
CONTINUOUS
100
AcDbLine
 10
43.902
 20
-1.315
 30
0.0
 11
44.870185581
 21
0.966426821
 31
0.0
  0
LINE
  5
4B
330
1F
100
AcDbEntity
  8
AUFNAHME
  6
CONTINUOUS
100
AcDbLine
 10
44.870185581
 20
0.966426821
 30
0.0
 11
44.999725918
 21
3.439533022
 31
0.0
  0
LINE
  5
4C
330
1F
100
AcDbEntity
  8
AUFNAHME
  6
CONTINUOUS
100
AcDbLine
 10
44.776
 20
3.649
 30
0.0
 11
42.351621479
 21
3.350508659
 31
0.0
  0
LINE
  5
4D
330
1F
100
AcDbEntity
  8
AUFNAHME
  6
CONTINUOUS
100
AcDbLine
 10
42.285
 20
3.331
 30
0.0
 11
40.109201615
 21
2.22220116
 31
0.0
  0
LINE
  5
4E
330
1F
100
AcDbEntity
  8
AUFNAHME
  6
CONTINUOUS
100
AcDbLine
 10
40.041
 20
1.923
 30
0.0
 11
41.510271616
 21
-0.027361303
 31
0.0
  0
LINE
  5
4F
330
1F
100
AcDbEntity
  8
AUFNAHME
  6
CONTINUOUS
100
AcDbLine
 10
41.561
 20
-0.074
 30
0.0
 11
43.609
 21
-1.404
 31
0.0
  0
LINE
  5
50
330
1F
100
AcDbEntity
  8
EW
  6
HIDDEN
100
AcDbLine
 10
25.0
 20
0.6
 30
0.0
 11
-30.0
 21
0.6
 31
0.0
  0
LINE
  5
51
330
1F
100
AcDbEntity
  8
EW
  6
HIDDEN
100
AcDbLine
 10
25.0
 20
0.6
 30
0.0
 11
38.012
 21
1.694
 31
0.0
  0
LINE
  5
52
330
1F
100
AcDbEntity
  8
EW
  6
HIDDEN
100
AcDbLine
 10
25.0
 20
-0.6
 30
0.0
 11
38.289
 21
0.506
 31
0.0
  0
LINE
  5
53
330
1F
100
AcDbEntity
  8
UNSICHT
  6
CENTER
100
AcDbLine
 10
44.46
 20
0.0
 30
0.0
 11
-32.0
 21
0.0
 31
0.0
  0
LINE
  5
54
330
1F
100
AcDbEntity
  8
EW
  6
HIDDEN
100
AcDbLine
 10
25.0
 20
-0.6
 30
0.0
 11
-30.0
 21
-0.6
 31
0.0
  0
LINE
  5
55
330
1F
100
AcDbEntity
  8
ZAPFEN
100
AcDbLine
 10
-29.0
 20
3.0
 30
0.0
 11
-29.0
 21
-3.0
 31
0.0
  0
LINE
  5
56
330
1F
100
AcDbEntity
  8
ZAPFEN
100
AcDbLine
 10
-30.0
 20
-2.0
 30
0.0
 11
-30.0
 21
2.1214704189
 31
0.0
  0
LINE
  5
57
330
1F
100
AcDbEntity
  8
ZAPFEN
100
AcDbLine
 10
-30.0
 20
2.1214704189
 30
0.0
 11
-29.0
 21
3.0
 31
0.0
  0
LINE
  5
58
330
1F
100
AcDbEntity
  8
ZAPFEN
100
AcDbLine
 10
0.0
 20
3.0
 30
0.0
 11
-29.0
 21
3.0
 31
0.0
  0
LINE
  5
59
330
1F
100
AcDbEntity
  8
ZAPFEN
100
AcDbLine
 10
-29.0
 20
-3.0
 30
0.0
 11
-30.0
 21
-2.0
 31
0.0
  0
LINE
  5
5A
330
1F
100
AcDbEntity
  8
ZAPFEN
100
AcDbLine
 10
0.0
 20
-3.0
 30
0.0
 11
-29.0
 21
-3.0
 31
0.0
  0
LINE
  5
5B
330
1F
100
AcDbEntity
  8
AUFNAHME
  6
CONTINUOUS
100
AcDbLine
 10
41.637
 20
3.0
 30
0.0
 11
0.0
 21
3.0
 31
0.0
  0
LINE
  5
5C
330
1F
100
AcDbEntity
  8
AUFNAHME
  6
CONTINUOUS
100
AcDbLine
 10
42.1
 20
-3.0
 30
0.0
 11
42.957
 21
-0.981
 31
0.0
  0
LINE
  5
5D
330
1F
100
AcDbEntity
  8
AUFNAHME
  6
CONTINUOUS
100
AcDbLine
 10
42.1
 20
-3.0
 30
0.0
 11
0.0
 21
-3.0
 31
0.0
  0
LINE
  5
5E
330
1F
100
AcDbEntity
  8
ZAPFEN
100
AcDbLine
 10
0.0
 20
3.0
 30
0.0
 11
0.0
 21
-3.0
 31
0.0
  0
ARC
  5
5F
330
1F
100
AcDbEntity
  8
AUFNAHME
  6
CONTINUOUS
100
AcDbCircle
 10
43.718
 20
-1.237
 30
0.0
 40
0.199999999999989
100
AcDbArc
 50
236.99987793
 51
337.027278669
  0
ARC
  5
60
330
1F
100
AcDbEntity
  8
AUFNAHME
  6
CONTINUOUS
100
AcDbCircle
 10
44.7999999999
 20
3.45
 30
0.0
 40
0.199999999936766
100
AcDbArc
 50
357.0000611732
 51
96.876830737
  0
ARC
  5
61
330
1F
100
AcDbEntity
  8
AUFNAHME
  6
CONTINUOUS
100
AcDbCircle
 10
42.376
 20
3.152
 30
0.0
 40
0.1999999999801742
100
AcDbArc
 50
97.0013428036
 51
116.947868061
  0
ARC
  5
62
330
1F
100
AcDbEntity
  8
AUFNAHME
  6
CONTINUOUS
100
AcDbCircle
 10
40.1999999999
 20
2.0440000002
 30
0.0
 40
0.2000000001799258
100
AcDbArc
 50
117.0000915982
 51
217.271363004
  0
ARC
  5
63
330
1F
100
AcDbEntity
  8
AUFNAHME
  6
CONTINUOUS
100
AcDbCircle
 10
41.6700000001
 20
0.0930000001
 30
0.0
 40
0.1999999998938891
100
AcDbArc
 50
216.9993896557
 51
236.867731898
  0
ARC
  5
64
330
1F
100
AcDbEntity
  8
AUFNAHME
  6
CONTINUOUS
100
AcDbCircle
 10
38.745
 20
1.093
 30
0.0
 40
0.4069999999999953
100
AcDbArc
 50
1.032049501
 51
35.651269851
  0
ARC
  5
65
330
1F
100
AcDbEntity
  8
AUFNAHME
  6
CONTINUOUS
100
AcDbCircle
 10
38.517
 20
0.926
 30
0.0
 40
0.6890000000000157
100
AcDbArc
 50
35.86830255
 51
60.285070336
  0
ARC
  5
66
330
1F
100
AcDbEntity
  8
AUFNAHME
  6
CONTINUOUS
100
AcDbCircle
 10
38.261
 20
0.504
 30
0.0
 40
1.182000000000031
100
AcDbArc
 50
59.650150332
 51
76.657177968
  0
ARC
  5
67
330
1F
100
AcDbEntity
  8
AUFNAHME
  6
CONTINUOUS
100
AcDbCircle
 10
38.156
 20
0.114
 30
0.0
 40
1.586000000000032
100
AcDbArc
 50
76.215528116
 51
90.172514977
  0
ARC
  5
68
330
1F
100
AcDbEntity
  8
AUFNAHME
  6
CONTINUOUS
100
AcDbCircle
 10
38.147
 20
0.114
 30
0.0
 40
1.586000000000012
100
AcDbArc
 50
89.827502737
 51
103.784489598
  0
ARC
  5
69
330
1F
100
AcDbEntity
  8
AUFNAHME
  6
CONTINUOUS
100
AcDbCircle
 10
38.041
 20
0.504
 30
0.0
 40
1.182000000000011
100
AcDbArc
 50
103.342804383
 51
120.34983202
  0
ARC
  5
6A
330
1F
100
AcDbEntity
  8
AUFNAHME
  6
CONTINUOUS
100
AcDbCircle
 10
37.786
 20
0.926
 30
0.0
 40
0.6890000000000072
100
AcDbArc
 50
119.714919467
 51
144.131707647
  0
ARC
  5
6B
330
1F
100
AcDbEntity
  8
AUFNAHME
  6
CONTINUOUS
100
AcDbCircle
 10
37.558
 20
1.093
 30
0.0
 40
0.4070000000000016
100
AcDbArc
 50
144.348737981
 51
178.967938171
  0
ARC
  5
6C
330
1F
100
AcDbEntity
  8
AUFNAHME
  6
CONTINUOUS
100
AcDbCircle
 10
37.558
 20
1.107
 30
0.0
 40
0.4070000000000107
100
AcDbArc
 50
181.032043926
 51
215.651262035
  0
ARC
  5
6D
330
1F
100
AcDbEntity
  8
AUFNAHME
  6
CONTINUOUS
100
AcDbCircle
 10
37.786
 20
1.274
 30
0.0
 40
0.6890000000000039
100
AcDbArc
 50
215.868307127
 51
240.285086244
  0
ARC
  5
6E
330
1F
100
AcDbEntity
  8
AUFNAHME
  6
CONTINUOUS
100
AcDbCircle
 10
38.041
 20
1.696
 30
0.0
 40
1.182000000000019
100
AcDbArc
 50
239.650163039
 51
256.657197514
  0
ARC
  5
6F
330
1F
100
AcDbEntity
  8
AUFNAHME
  6
CONTINUOUS
100
AcDbCircle
 10
38.147
 20
2.086
 30
0.0
 40
1.586000000000015
100
AcDbArc
 50
256.215528727
 51
270.172499604
  0
ARC
  5
70
330
1F
100
AcDbEntity
  8
AUFNAHME
  6
CONTINUOUS
100
AcDbCircle
 10
38.156
 20
2.086
 30
0.0
 40
1.586000000000033
100
AcDbArc
 50
269.827494411
 51
283.784494972
  0
ARC
  5
71
330
1F
100
AcDbEntity
  8
AUFNAHME
  6
CONTINUOUS
100
AcDbCircle
 10
38.261
 20
1.696
 30
0.0
 40
1.182000000000017
100
AcDbArc
 50
283.342793899
 51
300.349844328
  0
ARC
  5
72
330
1F
100
AcDbEntity
  8
AUFNAHME
  6
CONTINUOUS
100
AcDbCircle
 10
38.517
 20
1.274
 30
0.0
 40
0.6890000000000195
100
AcDbArc
 50
299.714445428
 51
324.131195087
  0
ARC
  5
73
330
1F
100
AcDbEntity
  8
AUFNAHME
  6
CONTINUOUS
100
AcDbCircle
 10
38.745
 20
1.107
 30
0.0
 40
0.4069999999999873
100
AcDbArc
 50
324.349592336
 51
358.968792525
  0
ARC
  5
74
330
1F
100
AcDbEntity
  8
AUFNAHME
  6
CONTINUOUS
100
AcDbCircle
 10
44.672
 20
1.011
 30
0.0
 40
0.2000000000000072
100
AcDbArc
 50
336.99917603
 51
356.99865723
  0
CIRCLE
  5
75
330
1F
100
AcDbEntity
  8
AUFNAHME
  6
CONTINUOUS
100
AcDbCircle
 10
42.906
 20
1.419
 30
0.0
 40
1.0
  0
ARC
  5
76
330
1F
100
AcDbEntity
  8
AUFNAHME
  6
CONTINUOUS
100
AcDbCircle
 10
40.968
 20
-8.318
 30
0.0
 40
11.31800000000003
100
AcDbArc
 50
89.829280885
 51
101.53020063
  0
ARC
  5
77
330
1F
100
AcDbEntity
  8
AUFNAHME
  6
CONTINUOUS
100
AcDbCircle
 10
40.225
 20
-5.015
 30
0.0
 40
7.933
100
AcDbArc
 50
101.041860072
 51
115.905979954
  0
ARC
  5
78
330
1F
100
AcDbEntity
  8
AUFNAHME
  6
CONTINUOUS
100
AcDbCircle
 10
38.418
 20
-1.452
 30
0.0
 40
3.940000000000021
100
AcDbArc
 50
114.909772597
 51
138.705473721
  0
ARC
  5
79
330
1F
100
AcDbEntity
  8
AUFNAHME
  6
CONTINUOUS
100
AcDbCircle
 10
36.823
 20
-0.06
 30
0.0
 40
1.82200000000001
100
AcDbArc
 50
138.486511779
 51
178.125763737
  0
ARC
  5
7A
330
1F
100
AcDbEntity
  8
AUFNAHME
  6
CONTINUOUS
100
AcDbCircle
 10
36.823
 20
0.06
 30
0.0
 40
1.821999999999998
100
AcDbArc
 50
181.874228026
 51
221.513497776
  0
ARC
  5
7B
330
1F
100
AcDbEntity
  8
AUFNAHME
  6
CONTINUOUS
100
AcDbCircle
 10
38.418
 20
1.452
 30
0.0
 40
3.939999999999996
100
AcDbArc
 50
221.294540992
 51
245.090226246
  0
ARC
  5
7C
330
1F
100
AcDbEntity
  8
AUFNAHME
  6
CONTINUOUS
100
AcDbCircle
 10
40.225
 20
5.015
 30
0.0
 40
7.932999999999979
100
AcDbArc
 50
244.094026401
 51
258.958146283
  0
ARC
  5
7D
330
1F
100
AcDbEntity
  8
AUFNAHME
  6
CONTINUOUS
100
AcDbCircle
 10
40.968
 20
8.318
 30
0.0
 40
11.31800000000005
100
AcDbArc
 50
258.469794798
 51
270.170723687
  0
DIMENSION
  5
7E
330
1F
100
AcDbEntity
  8
MASS
100
AcDbDimension
  2
_D
 10
0.0
 20
-11.6420194385
 30
0.0
 11
22.499862959
 21
-11.6420194385
 31
0.0
 70
   160
  1
10 - <>
  3
SLDDIMSTYLE0
100
AcDbAlignedDimension
 13
44.999725918
 23
3.439533022
 33
0.0
 14
0.0
 24
-3.0
 34
0.0
 50
0.0
100
AcDbRotatedDimension
  0
DIMENSION
  5
8B
330
1F
100
AcDbEntity
  8
MASS
100
AcDbDimension
  2
_D_1
 10
-35.4240015947
 20
3.0
 30
0.0
 11
-35.4240015947
 21
0.0
 31
0.0
 70
   160
  1
%%c<>
  3
SLDDIMSTYLE1
100
AcDbAlignedDimension
 13
-29.0
 23
-3.0
 33
0.0
 14
-29.0
 24
3.0
 34
0.0
 50
90.0
100
AcDbRotatedDimension
  0
DIMENSION
  5
99
330
1F
100
AcDbEntity
  8
MASS
100
AcDbDimension
  2
_D_2
 10
49.0606238653
 20
0.0
 30
0.0
 11
49.0606238653
 21
22.9157458953
 31
0.0
 70
   160
  1
%%c7.3 - 8.8 (12.3)
  3
SLDDIMSTYLE2
100
AcDbAlignedDimension
 13
44.7760529244
 23
3.6485611683
 33
0.0
 14
44.46
 24
0.0
 34
0.0
 50
90.0
100
AcDbRotatedDimension
  0
DIMENSION
  5
A4
330
1F
100
AcDbEntity
  8
MASS
100
AcDbDimension
  2
_D_3
 10
0.0
 20
-11.6420194385
 30
0.0
 11
-15.0
 21
-11.6420194385
 31
0.0
 70
   160
  1
<>
  3
SLDDIMSTYLE0
100
AcDbAlignedDimension
 13
-30.0
 23
-2.0
 33
0.0
 14
0.0
 24
-3.0
 34
0.0
 50
0.0
100
AcDbRotatedDimension
  0
DIMENSION
  5
AE
330
1F
100
AcDbEntity
  8
MASS
100
AcDbDimension
  2
_D_4
 10
-30.0
 20
-20.0588349062
 30
0.0
 11
7.499862959
 21
-20.0588349062
 31
0.0
 70
   160
  1
<>
  3
SLDDIMSTYLE0
100
AcDbAlignedDimension
 13
44.999725918
 23
3.439533022
 33
0.0
 14
-30.0
 24
-2.0
 34
0.0
 50
0.0
100
AcDbRotatedDimension
  0
MTEXT
  5
B8
330
1F
100
AcDbEntity
  8
MASS
100
AcDbMText
 10
19.8089576639
 20
10.7192950166
 30
0.0
 40
3.5
 41
0.0
 71
     1
 72
     1
  1
615.085
  7
SLDTEXTSTYLE0
  0
ENDSEC
  0
SECTION
  2
OBJECTS
  0
DICTIONARY
  5
C
330
0
100
AcDbDictionary
  3
ACAD_GROUP
350
D
  3
ACAD_MLINESTYLE
350
17
  0
DICTIONARY
  5
D
102
{ACAD_REACTORS
330
C
102
}
330
C
100
AcDbDictionary
  0
DICTIONARY
  5
17
102
{ACAD_REACTORS
330
C
102
}
330
C
100
AcDbDictionary
  3
STANDARD
350
18
  0
MLINESTYLE
  5
18
102
{ACAD_REACTORS
330
17
102
}
330
17
100
AcDbMlineStyle
  2
Standard
 70
     0
  3

 62
   256
 51
90.0
 52
90.0
 71
     2
 49
0.5
 62
   256
  6
BYLAYER
 49
-0.5
 62
   256
  6
BYLAYER
  0
ENDSEC
  0
EOF
