  0
SECTION
  2
HEADER
  9
$ACADVER
  1
AC1014
  9
$ACADMAINTVER
 70
     9
  9
$DWGCODEPAGE
  3
ANSI_1252
  9
$INSBASE
 10
0.0
 20
0.0
 30
0.0
  9
$EXTMIN
 10
0.0
 20
0.0
 30
0.0
  9
$EXTMAX
 10
210.0
 20
297.0
 30
0.0
  9
$LIMMIN
 10
0.0
 20
0.0
  9
$LIMMAX
 10
210.0
 20
297.0
  9
$ORTHOMODE
 70
     0
  9
$REGENMODE
 70
     1
  9
$FILLMODE
 70
     1
  9
$QTEXTMODE
 70
     0
  9
$MIRRTEXT
 70
     1
  9
$DRAGMODE
 70
     2
  9
$LTSCALE
 40
1.0
  9
$OSMODE
 70
    37
  9
$ATTMODE
 70
     1
  9
$TEXTSIZE
 40
3.5
  9
$TRACEWID
 40
1.0
  9
$TEXTSTYLE
  7
STANDARD
  9
$CLAYER
  8
0
  9
$CELTYPE
  6
BYLAYER
  9
$CECOLOR
 62
   256
  9
$CELTSCALE
 40
1.0
  9
$DELOBJ
 70
     1
  9
$DISPSILH
 70
     0
  9
$DIMSCALE
 40
1.0
  9
$DIMASZ
 40
3.5
  9
$DIMEXO
 40
0.0
  9
$DIMDLI
 40
3.75
  9
$DIMRND
 40
0.0
  9
$DIMDLE
 40
0.0
  9
$DIMEXE
 40
1.0
  9
$DIMTP
 40
0.0
  9
$DIMTM
 40
0.0
  9
$DIMTXT
 40
3.5
  9
$DIMCEN
 40
2.5
  9
$DIMTSZ
 40
0.0
  9
$DIMTOL
 70
     0
  9
$DIMLIM
 70
     0
  9
$DIMTIH
 70
     1
  9
$DIMTOH
 70
     1
  9
$DIMSE1
 70
     0
  9
$DIMSE2
 70
     0
  9
$DIMTAD
 70
     1
  9
$DIMZIN
 70
     0
  9
$DIMBLK
  1

  9
$DIMASO
 70
     1
  9
$DIMSHO
 70
     1
  9
$DIMPOST
  1

  9
$DIMAPOST
  1

  9
$DIMALT
 70
     0
  9
$DIMALTD
 70
     3
  9
$DIMALTF
 40
0.0393700787
  9
$DIMLFAC
 40
1.0
  9
$DIMTOFL
 70
     1
  9
$DIMTVP
 40
0.0
  9
$DIMTIX
 70
     0
  9
$DIMSOXD
 70
     0
  9
$DIMSAH
 70
     0
  9
$DIMBLK1
  1

  9
$DIMBLK2
  1

  9
$DIMSTYLE
  2
ISO-25
  9
$DIMCLRD
 70
     0
  9
$DIMCLRE
 70
     0
  9
$DIMCLRT
 70
     0
  9
$DIMTFAC
 40
1.0
  9
$DIMGAP
 40
1.5
  9
$DIMJUST
 70
     0
  9
$DIMSD1
 70
     0
  9
$DIMSD2
 70
     0
  9
$DIMTOLJ
 70
     0
  9
$DIMTZIN
 70
     0
  9
$DIMALTZ
 70
     0
  9
$DIMALTTZ
 70
     0
  9
$DIMFIT
 70
     3
  9
$DIMUPT
 70
     0
  9
$DIMUNIT
 70
     2
  9
$DIMDEC
 70
     2
  9
$DIMTDEC
 70
     3
  9
$DIMALTU
 70
     2
  9
$DIMALTTD
 70
     3
  9
$DIMTXSTY
  7
STANDARD
  9
$DIMAUNIT
 70
     0
  9
$LUNITS
 70
     2
  9
$LUPREC
 70
     2
  9
$SKETCHINC
 40
1.0
  9
$FILLETRAD
 40
10.0
  9
$AUNITS
 70
     0
  9
$AUPREC
 70
     2
  9
$MENU
  1
.
  9
$ELEVATION
 40
0.0
  9
$PELEVATION
 40
0.0
  9
$THICKNESS
 40
0.0
  9
$LIMCHECK
 70
     0
  9
$CHAMFERA
 40
10.0
  9
$CHAMFERB
 40
10.0
  9
$CHAMFERC
 40
20.0
  9
$CHAMFERD
 40
0.0
  9
$SKPOLY
 70
     0
  9
$TDCREATE
 40
2456398.466951053
  9
$TDUPDATE
 40
2456398.466951412
  9
$TDINDWG
 40
0.0000000116
  9
$TDUSRTIMER
 40
0.0000000116
  9
$USRTIMER
 70
     1
  9
$ANGBASE
 50
0.0
  9
$ANGDIR
 70
     0
  9
$PDMODE
 70
     0
  9
$PDSIZE
 40
-1.0
  9
$PLINEWID
 40
0.0
  9
$COORDS
 70
     1
  9
$SPLFRAME
 70
     0
  9
$SPLINETYPE
 70
     6
  9
$SPLINESEGS
 70
     8
  9
$ATTDIA
 70
     0
  9
$ATTREQ
 70
     1
  9
$HANDLING
 70
     1
  9
$HANDSEED
  5
AB
  9
$SURFTAB1
 70
     6
  9
$SURFTAB2
 70
     6
  9
$SURFTYPE
 70
     6
  9
$SURFU
 70
     6
  9
$SURFV
 70
     6
  9
$UCSNAME
  2

  9
$UCSORG
 10
0.0
 20
0.0
 30
0.0
  9
$UCSXDIR
 10
1.0
 20
0.0
 30
0.0
  9
$UCSYDIR
 10
0.0
 20
1.0
 30
0.0
  9
$PUCSNAME
  2

  9
$PUCSORG
 10
0.0
 20
0.0
 30
0.0
  9
$PUCSXDIR
 10
1.0
 20
0.0
 30
0.0
  9
$PUCSYDIR
 10
0.0
 20
1.0
 30
0.0
  9
$USERI1
 70
     0
  9
$USERI2
 70
     0
  9
$USERI3
 70
     0
  9
$USERI4
 70
     0
  9
$USERI5
 70
     0
  9
$USERR1
 40
0.0
  9
$USERR2
 40
0.0
  9
$USERR3
 40
0.0
  9
$USERR4
 40
0.0
  9
$USERR5
 40
0.0
  9
$WORLDVIEW
 70
     1
  9
$SHADEDGE
 70
     3
  9
$SHADEDIF
 70
    70
  9
$TILEMODE
 70
     1
  9
$MAXACTVP
 70
    64
  9
$PINSBASE
 10
0.0
 20
0.0
 30
0.0
  9
$PLIMCHECK
 70
     0
  9
$PEXTMIN
 10
1.0000000000E+20
 20
1.0000000000E+20
 30
1.0000000000E+20
  9
$PEXTMAX
 10
-1.0000000000E+20
 20
-1.0000000000E+20
 30
-1.0000000000E+20
  9
$PLIMMIN
 10
0.0
 20
0.0
  9
$PLIMMAX
 10
420.0
 20
297.0
  9
$UNITMODE
 70
     0
  9
$VISRETAIN
 70
     1
  9
$PLINEGEN
 70
     0
  9
$PSLTSCALE
 70
     1
  9
$TREEDEPTH
 70
  3020
  9
$PICKSTYLE
 70
     1
  9
$CMLSTYLE
  2
STANDARD
  9
$CMLJUST
 70
     0
  9
$CMLSCALE
 40
20.0
  9
$PROXYGRAPHICS
 70
     1
  9
$MEASUREMENT
 70
     1
  0
ENDSEC
  0
SECTION
  2
CLASSES
  0
CLASS
  1
ACDBDICTIONARYWDFLT
  2
AcDbDictionaryWithDefault
  3
ObjectDBX Classes
 90
        0
280
     0
281
     0
  0
CLASS
  1
VISUALSTYLE
  2
AcDbVisualStyle
  3
ObjectDBX Classes
 90
     4095
280
     0
281
     0
  0
CLASS
  1
MATERIAL
  2
AcDbMaterial
  3
ObjectDBX Classes
 90
     1153
280
     0
281
     0
  0
CLASS
  1
XRECORD
  2
AcDbXrecord
  3
AutoCAD 2000
 90
        0
280
     0
281
     0
  0
CLASS
  1
LWPOLYLINE
  2
AcDbPolyline
  3
AutoCAD 2000
 90
        0
280
     0
281
     1
  0
CLASS
  1
HATCH
  2
AcDbHatch
  3
AutoCAD 2000
 90
        0
280
     0
281
     1
  0
ENDSEC
  0
SECTION
  2
TABLES
  0
TABLE
  2
VPORT
  5
8
330
0
100
AcDbSymbolTable
 70
     1
  0
VPORT
  5
29
330
8
100
AcDbSymbolTableRecord
100
AcDbViewportTableRecord
  2
*ACTIVE
 70
     0
 10
0.0
 20
0.0
 11
1.0
 21
1.0
 12
105.0
 22
148.5
 13
0.0
 23
0.0
 14
10.0
 24
10.0
 15
10.0
 25
10.0
 16
0.0
 26
0.0
 36
1.0
 17
0.0
 27
0.0
 37
0.0
 40
297.0
 41
0.7070707071
 42
50.0
 43
0.0
 44
0.0
 50
0.0
 51
0.0
 71
     0
 72
  2000
 73
     1
 74
     3
 75
     0
 76
     0
 77
     0
 78
     0
  0
ENDTAB
  0
TABLE
  2
LTYPE
  5
5
330
0
100
AcDbSymbolTable
 70
     6
  0
LTYPE
  5
14
330
5
100
AcDbSymbolTableRecord
100
AcDbLinetypeTableRecord
  2
BYBLOCK
 70
     0
  3

 72
    65
 73
     0
 40
0.0
  0
LTYPE
  5
15
330
5
100
AcDbSymbolTableRecord
100
AcDbLinetypeTableRecord
  2
BYLAYER
 70
     0
  3

 72
    65
 73
     0
 40
0.0
  0
LTYPE
  5
16
330
5
100
AcDbSymbolTableRecord
100
AcDbLinetypeTableRecord
  2
CONTINUOUS
 70
     0
  3
Solid line
 72
    65
 73
     0
 40
0.0
  0
LTYPE
  5
3F
330
5
100
AcDbSymbolTableRecord
100
AcDbLinetypeTableRecord
  2
HIDDEN
 70
     0
  3
Hidden __ __ __ __ __ __ __ __ __ __ __ __ __ __
 72
    65
 73
     2
 40
1.905
 49
1.27
 74
     0
 49
-0.635
 74
     0
  0
LTYPE
  5
40
330
5
100
AcDbSymbolTableRecord
100
AcDbLinetypeTableRecord
  2
PHANTOM
 70
     0
  3
Phantom ______  __  __  ______  __  __  ______
 72
    65
 73
     6
 40
12.7
 49
6.35
 74
     0
 49
-1.27
 74
     0
 49
1.27
 74
     0
 49
-1.27
 74
     0
 49
1.27
 74
     0
 49
-1.27
 74
     0
  0
LTYPE
  5
41
330
5
100
AcDbSymbolTableRecord
100
AcDbLinetypeTableRecord
  2
CENTER
 70
     0
  3
Center ____ _ ____ _ ____ _ ____ _ ____ _ ____
 72
    65
 73
     4
 40
10.16
 49
6.35
 74
     0
 49
-1.27
 74
     0
 49
1.27
 74
     0
 49
-1.27
 74
     0
  0
LTYPE
  5
42
330
5
100
AcDbSymbolTableRecord
100
AcDbLinetypeTableRecord
  2
CENTERX2
 70
     0
  3
Center (2x) ________  __  ________  __  _____
 72
    65
 73
     4
 40
20.32
 49
12.7
 74
     0
 49
-2.54
 74
     0
 49
2.54
 74
     0
 49
-2.54
 74
     0
  0
LTYPE
  5
43
330
5
100
AcDbSymbolTableRecord
100
AcDbLinetypeTableRecord
  2
DOT2
 70
     0
  3
Dot (.5x) ........................................
 72
    65
 73
     2
 40
0.635
 49
0.0
 74
     0
 49
-0.635
 74
     0
  0
ENDTAB
  0
TABLE
  2
LAYER
  5
2
330
0
100
AcDbSymbolTable
 70
     7
  0
LAYER
  5
10
330
2
100
AcDbSymbolTableRecord
100
AcDbLayerTableRecord
  2
0
 70
     0
 62
     7
  6
CONTINUOUS
  0
LAYER
  5
44
330
2
100
AcDbSymbolTableRecord
100
AcDbLayerTableRecord
  2
AUFNAHME
 70
     0
 62
     7
  6
CONTINUOUS
  0
LAYER
  5
45
330
2
100
AcDbSymbolTableRecord
100
AcDbLayerTableRecord
  2
MASS
 70
     0
 62
     4
  6
CONTINUOUS
  0
LAYER
  5
46
330
2
100
AcDbSymbolTableRecord
100
AcDbLayerTableRecord
  2
EW
 70
     0
 62
     1
  6
HIDDEN
  0
LAYER
  5
47
330
2
100
AcDbSymbolTableRecord
100
AcDbLayerTableRecord
  2
UNSICHT
 70
     0
 62
     4
  6
CENTER
  0
LAYER
  5
48
330
2
100
AcDbSymbolTableRecord
100
AcDbLayerTableRecord
  2
TEXT
 70
     0
 62
     7
  6
CONTINUOUS
  0
LAYER
  5
49
330
2
100
AcDbSymbolTableRecord
100
AcDbLayerTableRecord
  2
ZAPFEN
 70
     0
 62
     4
  6
CONTINUOUS
  0
ENDTAB
  0
TABLE
  2
STYLE
  5
3
330
0
100
AcDbSymbolTable
 70
     2
  0
STYLE
  5
11
330
3
100
AcDbSymbolTableRecord
100
AcDbTextStyleTableRecord
  2
STANDARD
 70
     0
 40
0.0
 41
1.0
 50
0.0
 71
     0
 42
3.5
  3
txt
  4

  0
STYLE
  5
71
330
3
100
AcDbSymbolTableRecord
100
AcDbTextStyleTableRecord
  2
SLDTEXTSTYLE0
 70
     0
 40
0.0
 41
0.605
 50
0.0
 71
     0
 42
0.2
  3
TXT
  4

  0
ENDTAB
  0
TABLE
  2
VIEW
  5
6
330
0
100
AcDbSymbolTable
 70
     0
  0
ENDTAB
  0
TABLE
  2
UCS
  5
7
330
0
100
AcDbSymbolTable
 70
     0
  0
ENDTAB
  0
TABLE
  2
APPID
  5
9
330
0
100
AcDbSymbolTable
 70
     1
  0
APPID
  5
12
330
9
100
AcDbSymbolTableRecord
100
AcDbRegAppTableRecord
  2
ACAD
 70
     0
  0
ENDTAB
  0
TABLE
  2
DIMSTYLE
  5
A
330
0
100
AcDbSymbolTable
 70
     4
  0
DIMSTYLE
105
27
330
A
100
AcDbSymbolTableRecord
100
AcDbDimStyleTableRecord
  2
ISO-25
 70
     0
  3

  4

  5

  6

  7

 40
1.0
 41
2.5
 42
0.625
 43
3.75
 44
1.25
 45
0.0
 46
0.0
 47
0.0
 48
0.0
140
2.5
141
2.5
142
0.0
143
0.0393700787
144
1.0
145
0.0
146
1.0
147
0.625
 71
     0
 72
     0
 73
     0
 74
     0
 75
     0
 76
     0
 77
     1
 78
     8
170
     0
171
     3
172
     1
173
     0
174
     0
175
     0
176
     0
177
     0
178
     0
270
     2
271
     2
272
     2
273
     2
274
     3
340
11
275
     0
280
     0
281
     0
282
     0
283
     0
284
     8
285
     0
286
     0
287
     3
288
     0
  0
DIMSTYLE
105
72
102
{ACAD_REACTORS
330
70
330
7D
330
87
102
}
330
A
100
AcDbSymbolTableRecord
100
AcDbDimStyleTableRecord
  2
SLDDIMSTYLE0
 70
     0
  3

  4

  5

  6

  7

 40
1.0
 41
3.5
 42
0.0625
 43
0.38
 44
0.0
 45
0.000000001
 46
0.0
 47
0.0
 48
0.0
140
3.5
141
0.09
142
0.0
143
25.4
144
1.0
145
0.0
146
1.0
147
0.875
 71
     0
 72
     0
 73
     0
 74
     0
 75
     0
 76
     0
 77
     1
 78
    12
170
     0
171
     2
172
     0
173
     1
174
     0
175
     0
176
     0
177
     0
178
     0
270
     2
271
     2
272
     3
273
     2
274
     2
340
71
275
     0
280
     0
281
     0
282
     0
283
     1
284
    12
285
     0
286
     0
287
     3
288
     0
  0
DIMSTYLE
105
92
102
{ACAD_REACTORS
330
91
102
}
330
A
100
AcDbSymbolTableRecord
100
AcDbDimStyleTableRecord
  2
SLDDIMSTYLE1
 70
     0
  3

  4

  5

  6

  7

 40
1.0
 41
3.5
 42
0.0625
 43
0.38
 44
0.0
 45
0.000000001
 46
0.0
 47
0.0
 48
0.0
140
3.5
141
0.09
142
0.0
143
25.4
144
1.0
145
0.0
146
1.0
147
0.875
 71
     0
 72
     0
 73
     0
 74
     0
 75
     0
 76
     0
 77
     1
 78
    12
170
     0
171
     2
172
     1
173
     1
174
     0
175
     0
176
     0
177
     0
178
     0
270
     2
271
     2
272
     3
273
     2
274
     2
340
71
275
     0
280
     0
281
     0
282
     0
283
     1
284
    12
285
     0
286
     0
288
     0
  0
DIMSTYLE
105
A0
102
{ACAD_REACTORS
330
9F
102
}
330
A
100
AcDbSymbolTableRecord
100
AcDbDimStyleTableRecord
  2
SLDDIMSTYLE2
 70
     0
  3

  4

  5

  6

  7

 40
1.0
 41
3.5
 42
0.0625
 43
0.38
 44
0.0
 45
0.000000001
 46
0.0
 47
0.0
 48
0.0
140
3.5
141
0.09
142
0.0
143
25.4
144
1.0
145
0.0
146
1.0
147
0.875
 71
     0
 72
     0
 73
     0
 74
     0
 75
     0
 76
     0
 77
     1
 78
    12
170
     0
171
     2
172
     1
173
     1
174
     0
175
     0
176
     0
177
     0
178
     0
270
     2
271
     2
272
     3
273
     2
274
     2
340
71
275
     0
280
     0
281
     0
282
     0
283
     1
284
    12
285
     0
286
     0
288
     0
  0
ENDTAB
  0
TABLE
  2
BLOCK_RECORD
  5
1
330
0
100
AcDbSymbolTable
 70
     6
  0
BLOCK_RECORD
  5
1F
330
1
100
AcDbSymbolTableRecord
100
AcDbBlockTableRecord
  2
*MODEL_SPACE
  0
BLOCK_RECORD
  5
1B
330
1
100
AcDbSymbolTableRecord
100
AcDbBlockTableRecord
  2
*PAPER_SPACE
  0
BLOCK_RECORD
  5
23
330
1
100
AcDbSymbolTableRecord
100
AcDbBlockTableRecord
  2
*PAPER_SPACE0
  0
BLOCK_RECORD
  5
73
330
1
100
AcDbSymbolTableRecord
100
AcDbBlockTableRecord
  2
_D
  0
BLOCK_RECORD
  5
7E
330
1
100
AcDbSymbolTableRecord
100
AcDbBlockTableRecord
  2
_D_1
  0
BLOCK_RECORD
  5
88
330
1
100
AcDbSymbolTableRecord
100
AcDbBlockTableRecord
  2
_D_2
  0
BLOCK_RECORD
  5
93
330
1
100
AcDbSymbolTableRecord
100
AcDbBlockTableRecord
  2
_D_3
  0
BLOCK_RECORD
  5
A1
330
1
100
AcDbSymbolTableRecord
100
AcDbBlockTableRecord
  2
_D_4
  0
ENDTAB
  0
ENDSEC
  0
SECTION
  2
BLOCKS
  0
BLOCK
  5
20
330
1F
100
AcDbEntity
  8
0
100
AcDbBlockBegin
  2
*MODEL_SPACE
 70
     0
 10
0.0
 20
0.0
 30
0.0
  3
*MODEL_SPACE
  1

  0
ENDBLK
  5
21
330
1F
100
AcDbEntity
  8
0
100
AcDbBlockEnd
  0
BLOCK
  5
1C
330
1B
100
AcDbEntity
 67
     1
  8
0
100
AcDbBlockBegin
  2
*PAPER_SPACE
 70
     0
 10
0.0
 20
0.0
 30
0.0
  3
*PAPER_SPACE
  1

  0
ENDBLK
  5
1D
330
1B
100
AcDbEntity
 67
     1
  8
0
100
AcDbBlockEnd
  0
BLOCK
  5
24
330
23
100
AcDbEntity
  8
0
100
AcDbBlockBegin
  2
*PAPER_SPACE0
 70
     0
 10
0.0
 20
0.0
 30
0.0
  3
*PAPER_SPACE0
  1

  0
ENDBLK
  5
25
330
23
100
AcDbEntity
  8
0
100
AcDbBlockEnd
  0
BLOCK
  5
74
330
73
100
AcDbEntity
  8
0
100
AcDbBlockBegin
  2
_D
 70
     0
 10
0.0
 20
0.0
 30
0.0
  3
_D
  1

  0
SOLID
  5
76
330
73
100
AcDbEntity
  8
MASS
100
AcDbTrace
 10
39.99971008
 20
-11.7854016364
 30
0.0
 11
36.49971008
 21
-11.3354016364
 31
0.0
 12
36.49971008
 22
-12.2354016364
 32
0.0
 13
36.49971008
 23
-12.2354016364
 33
0.0
  0
SOLID
  5
77
330
73
100
AcDbEntity
  8
MASS
100
AcDbTrace
 10
0.0
 20
-11.7854016364
 30
0.0
 11
3.5
 21
-12.2354016364
 31
0.0
 12
3.5
 22
-11.3354016364
 32
0.0
 13
3.5
 23
-11.3354016364
 33
0.0
  0
LINE
  5
78
330
73
100
AcDbEntity
  8
MASS
100
AcDbLine
 10
39.99971008
 20
2.68952942
 30
0.0
 11
39.99971008
 21
-12.7854016364
 31
0.0
  0
LINE
  5
79
330
73
100
AcDbEntity
  8
MASS
100
AcDbLine
 10
0.0
 20
-2.5
 30
0.0
 11
0.0
 21
-12.7854016364
 31
0.0
  0
LINE
  5
7A
330
73
100
AcDbEntity
  8
MASS
100
AcDbLine
 10
39.99971008
 20
-11.7854016364
 30
0.0
 11
0.0
 21
-11.7854016364
 31
0.0
  0
MTEXT
  5
7B
330
73
100
AcDbEntity
  8
MASS
100
AcDbMText
 10
12.5453405365
 20
-7.2736644308
 30
0.1
 40
3.5
 41
0.0
 71
     1
 72
     1
  1
10 -
  7
SLDTEXTSTYLE0
  0
MTEXT
  5
7C
330
73
100
AcDbEntity
  8
MASS
100
AcDbMText
 10
20.4397857472
 20
-7.2736644308
 30
0.1
 40
3.5
 41
0.0
 71
     1
 72
     1
  1
40
  7
SLDTEXTSTYLE0
  0
ENDBLK
  5
75
330
73
100
AcDbEntity
  8
0
100
AcDbBlockEnd
  0
BLOCK
  5
7F
330
7E
100
AcDbEntity
  8
0
100
AcDbBlockBegin
  2
_D_1
 70
     0
 10
0.0
 20
0.0
 30
0.0
  3
_D_1
  1

  0
SOLID
  5
81
330
7E
100
AcDbEntity
  8
MASS
100
AcDbTrace
 10
-25.0
 20
-11.7854016364
 30
0.0
 11
-21.5
 21
-12.2354016364
 31
0.0
 12
-21.5
 22
-11.3354016364
 32
0.0
 13
-21.5
 23
-11.3354016364
 33
0.0
  0
SOLID
  5
82
330
7E
100
AcDbEntity
  8
MASS
100
AcDbTrace
 10
0.0
 20
-11.7854016364
 30
0.0
 11
-3.5
 21
-11.3354016364
 31
0.0
 12
-3.5
 22
-12.2354016364
 32
0.0
 13
-3.5
 23
-12.2354016364
 33
0.0
  0
LINE
  5
83
330
7E
100
AcDbEntity
  8
MASS
100
AcDbLine
 10
-25.0
 20
-2.0
 30
0.0
 11
-25.0
 21
-12.7854016364
 31
0.0
  0
LINE
  5
84
330
7E
100
AcDbEntity
  8
MASS
100
AcDbLine
 10
0.0
 20
-2.5
 30
0.0
 11
0.0
 21
-12.7854016364
 31
0.0
  0
LINE
  5
85
330
7E
100
AcDbEntity
  8
MASS
100
AcDbLine
 10
-25.0
 20
-11.7854016364
 30
0.0
 11
0.0
 21
-11.7854016364
 31
0.0
  0
MTEXT
  5
86
330
7E
100
AcDbEntity
  8
MASS
100
AcDbMText
 10
-16.0072918981
 20
-7.2736644308
 30
0.1
 40
3.5
 41
0.0
 71
     1
 72
     1
  1
25
  7
SLDTEXTSTYLE0
  0
ENDBLK
  5
80
330
7E
100
AcDbEntity
  8
0
100
AcDbBlockEnd
  0
BLOCK
  5
89
330
88
100
AcDbEntity
  8
0
100
AcDbBlockBegin
  2
_D_2
 70
     0
 10
0.0
 20
0.0
 30
0.0
  3
_D_2
  1

  0
SOLID
  5
8B
330
88
100
AcDbEntity
  8
MASS
100
AcDbTrace
 10
39.99971008
 20
-21.032289997
 30
0.0
 11
36.49971008
 21
-20.582289997
 31
0.0
 12
36.49971008
 22
-21.482289997
 32
0.0
 13
36.49971008
 23
-21.482289997
 33
0.0
  0
SOLID
  5
8C
330
88
100
AcDbEntity
  8
MASS
100
AcDbTrace
 10
-25.0
 20
-21.032289997
 30
0.0
 11
-21.5
 21
-21.482289997
 31
0.0
 12
-21.5
 22
-20.582289997
 32
0.0
 13
-21.5
 23
-20.582289997
 33
0.0
  0
LINE
  5
8D
330
88
100
AcDbEntity
  8
MASS
100
AcDbLine
 10
39.99971008
 20
2.68952942
 30
0.0
 11
39.99971008
 21
-22.032289997
 31
0.0
  0
LINE
  5
8E
330
88
100
AcDbEntity
  8
MASS
100
AcDbLine
 10
-25.0
 20
-2.0
 30
0.0
 11
-25.0
 21
-22.032289997
 31
0.0
  0
LINE
  5
8F
330
88
100
AcDbEntity
  8
MASS
100
AcDbLine
 10
39.99971008
 20
-21.032289997
 30
0.0
 11
-25.0
 21
-21.032289997
 31
0.0
  0
MTEXT
  5
90
330
88
100
AcDbEntity
  8
MASS
100
AcDbMText
 10
3.9925631419
 20
-16.5205527914
 30
0.1
 40
3.5
 41
0.0
 71
     1
 72
     1
  1
65
  7
SLDTEXTSTYLE0
  0
ENDBLK
  5
8A
330
88
100
AcDbEntity
  8
0
100
AcDbBlockEnd
  0
BLOCK
  5
94
330
93
100
AcDbEntity
  8
0
100
AcDbBlockBegin
  2
_D_3
 70
     0
 10
0.0
 20
0.0
 30
0.0
  3
_D_3
  1

  0
SOLID
  5
96
330
93
100
AcDbEntity
  8
MASS
100
AcDbTrace
 10
-30.197273142
 20
2.5
 30
0.0
 11
-29.747273142
 21
6.0
 31
0.0
 12
-30.647273142
 22
6.0
 32
0.0
 13
-30.647273142
 23
6.0
 33
0.0
  0
SOLID
  5
97
330
93
100
AcDbEntity
  8
MASS
100
AcDbTrace
 10
-30.197273142
 20
-2.5
 30
0.0
 11
-30.647273142
 21
-6.0
 31
0.0
 12
-29.747273142
 22
-6.0
 32
0.0
 13
-29.747273142
 23
-6.0
 33
0.0
  0
LINE
  5
98
330
93
100
AcDbEntity
  8
MASS
100
AcDbLine
 10
-24.5
 20
2.5
 30
0.0
 11
-31.197273142
 21
2.5
 31
0.0
  0
LINE
  5
99
330
93
100
AcDbEntity
  8
MASS
100
AcDbLine
 10
-24.5
 20
-2.5
 30
0.0
 11
-31.197273142
 21
-2.5
 31
0.0
  0
LINE
  5
9A
330
93
100
AcDbEntity
  8
MASS
100
AcDbLine
 10
-30.197273142
 20
2.5
 30
0.0
 11
-30.197273142
 21
15.3368080123
 31
0.0
  0
LINE
  5
9B
330
93
100
AcDbEntity
  8
MASS
100
AcDbLine
 10
-30.197273142
 20
2.5
 30
0.0
 11
-30.197273142
 21
-2.5
 31
0.0
  0
LINE
  5
9C
330
93
100
AcDbEntity
  8
MASS
100
AcDbLine
 10
-30.197273142
 20
-2.5
 30
0.0
 11
-30.197273142
 21
-7.5
 31
0.0
  0
MTEXT
  5
9D
330
93
100
AcDbEntity
  8
MASS
100
AcDbMText
 10
-34.7090103476
 20
5.3423626436
 30
0.1
 40
3.5
 41
0.0
 71
     1
 72
     1
  1
%%c
  7
SLDTEXTSTYLE0
 11
-7.044195017643634E-15
 21
1.0
 31
0.0
  0
MTEXT
  5
9E
330
93
100
AcDbEntity
  8
MASS
100
AcDbMText
 10
-34.7090103476
 20
10.5145850307
 30
0.1
 40
3.5
 41
0.0
 71
     1
 72
     1
  1
5
  7
SLDTEXTSTYLE0
 11
-7.044195017643634E-15
 21
1.0
 31
0.0
  0
ENDBLK
  5
95
330
93
100
AcDbEntity
  8
0
100
AcDbBlockEnd
  0
BLOCK
  5
A2
330
A1
100
AcDbEntity
  8
0
100
AcDbBlockBegin
  2
_D_4
 70
     0
 10
0.0
 20
0.0
 30
0.0
  3
_D_4
  1

  0
SOLID
  5
A4
330
A1
100
AcDbEntity
  8
MASS
100
AcDbTrace
 10
45.4391651655
 20
2.8985076934
 30
0.0
 11
45.8891651655
 21
6.3985076934
 31
0.0
 12
44.9891651655
 22
6.3985076934
 32
0.0
 13
44.9891651655
 23
6.3985076934
 33
0.0
  0
LINE
  5
A5
330
A1
100
AcDbEntity
  8
MASS
100
AcDbLine
 10
39.7756166431
 20
2.8985076934
 30
0.0
 11
46.4391651655
 21
2.8985076934
 31
0.0
  0
LINE
  5
A6
330
A1
100
AcDbEntity
  8
MASS
100
AcDbLine
 10
45.4391651655
 20
0.0
 30
0.0
 11
45.4391651655
 21
2.8985076934
 31
0.0
  0
LINE
  5
A7
330
A1
100
AcDbEntity
  8
MASS
100
AcDbLine
 10
45.4391651655
 20
2.8985076934
 30
0.0
 11
45.4391651655
 21
37.1538930867
 31
0.0
  0
MTEXT
  5
A8
330
A1
100
AcDbEntity
  8
MASS
100
AcDbMText
 10
40.9274279599
 20
6.1059770469
 30
0.1
 40
3.5
 41
0.0
 71
     1
 72
     1
  1
%%c
  7
SLDTEXTSTYLE0
 11
-7.044195017643634E-15
 21
1.0
 31
0.0
  0
MTEXT
  5
A9
330
A1
100
AcDbEntity
  8
MASS
100
AcDbMText
 10
40.9274279599
 20
11.2781994339
 30
0.1
 40
3.5
 41
0.0
 71
     1
 72
     1
  1
5.8 - 7.3 (10.8)
  7
SLDTEXTSTYLE0
 11
-7.044195017643634E-15
 21
1.0
 31
0.0
  0
ENDBLK
  5
A3
330
A1
100
AcDbEntity
  8
0
100
AcDbBlockEnd
  0
ENDSEC
  0
SECTION
  2
ENTITIES
  0
LINE
  5
4A
330
1F
100
AcDbEntity
  8
AUFNAHME
  6
CONTINUOUS
100
AcDbLine
 10
37.95738983
 20
-1.7310791
 30
0.0
 11
37.6309967
 21
-2.5
 31
0.0
  0
LINE
  5
4B
330
1F
100
AcDbEntity
  8
AUFNAHME
  6
CONTINUOUS
100
AcDbLine
 10
37.6309967
 20
-2.5
 30
0.0
 11
0.0
 21
-2.5
 31
0.0
  0
LINE
  5
4C
330
1F
100
AcDbEntity
  8
ZAPFEN
100
AcDbLine
 10
0.0
 20
-2.5
 30
0.0
 11
-24.5
 21
-2.5
 31
0.0
  0
LINE
  5
4D
330
1F
100
AcDbEntity
  8
ZAPFEN
100
AcDbLine
 10
-24.5
 20
-2.5
 30
0.0
 11
-25.0
 21
-2.0
 31
0.0
  0
LINE
  5
4E
330
1F
100
AcDbEntity
  8
ZAPFEN
100
AcDbLine
 10
-25.0
 20
-2.0
 30
0.0
 11
-25.0
 21
2.0
 31
0.0
  0
LINE
  5
4F
330
1F
100
AcDbEntity
  8
ZAPFEN
100
AcDbLine
 10
-25.0
 20
2.0
 30
0.0
 11
-24.5
 21
2.5
 31
0.0
  0
LINE
  5
50
330
1F
100
AcDbEntity
  8
ZAPFEN
100
AcDbLine
 10
-24.5
 20
2.5
 30
0.0
 11
0.0
 21
2.5
 31
0.0
  0
LINE
  5
51
330
1F
100
AcDbEntity
  8
AUFNAHME
  6
CONTINUOUS
100
AcDbLine
 10
0.0
 20
2.5
 30
0.0
 11
37.12719727
 21
2.5
 31
0.0
  0
LINE
  5
52
330
1F
100
AcDbEntity
  8
ZAPFEN
100
AcDbLine
 10
0.0
 20
2.5
 30
0.0
 11
0.0
 21
-2.5
 31
0.0
  0
LINE
  5
53
330
1F
100
AcDbEntity
  8
EW
  6
HIDDEN
100
AcDbLine
 10
0.0
 20
0.4317669523
 30
0.0
 11
29.8652279698
 21
0.4317669523
 31
0.0
  0
LINE
  5
54
330
1F
100
AcDbEntity
  8
AUFNAHME
  6
CONTINUOUS
100
AcDbLine
 10
35.1095018603
 20
1.4719212696
 30
0.0
 11
37.2853497829
 21
2.5805739212
 31
0.0
  0
LINE
  5
55
330
1F
100
AcDbEntity
  8
AUFNAHME
  6
CONTINUOUS
100
AcDbLine
 10
39.87193298
 20
0.25086975
 30
0.0
 11
39.99971008
 21
2.68952942
 31
0.0
  0
LINE
  5
56
330
1F
100
AcDbEntity
  8
AUFNAHME
  6
CONTINUOUS
100
AcDbLine
 10
38.9021153723
 20
-2.064714163
 30
0.0
 11
39.8563084823
 21
0.183195377
 31
0.0
  0
LINE
  5
57
330
1F
100
AcDbEntity
  8
AUFNAHME
  6
CONTINUOUS
100
AcDbLine
 10
36.51023102
 20
-0.77690125
 30
0.0
 11
35.0405735789
 21
1.1733484726
 31
0.0
  0
LINE
  5
58
330
1F
100
AcDbEntity
  8
AUFNAHME
  6
CONTINUOUS
100
AcDbLine
 10
37.35176849
 20
2.60089111
 30
0.0
 11
39.7756166431
 21
2.8985076934
 31
0.0
  0
LINE
  5
59
330
1F
100
AcDbEntity
  8
AUFNAHME
  6
CONTINUOUS
100
AcDbLine
 10
36.56102753
 20
-0.82426453
 30
0.0
 11
38.6090910768
 21
-2.1543035936
 31
0.0
  0
LINE
  5
5A
330
1F
100
AcDbEntity
  8
UNSICHT
  6
CENTER
100
AcDbLine
 10
39.79999542
 20
0.0
 30
0.0
 11
-27.0
 21
0.0
 31
0.0
  0
LINE
  5
5B
330
1F
100
AcDbEntity
  8
EW
  6
HIDDEN
100
AcDbLine
 10
29.8652279698
 20
0.4317669523
 30
0.0
 11
31.5004849275
 21
1.3312486309
 31
0.0
  0
LINE
  5
5C
330
1F
100
AcDbEntity
  8
EW
  6
HIDDEN
100
AcDbLine
 10
0.0
 20
-0.3816861732
 30
0.0
 11
29.8652279698
 21
-0.3816861732
 31
0.0
  0
LINE
  5
5D
330
1F
100
AcDbEntity
  8
EW
  6
HIDDEN
100
AcDbLine
 10
29.8652279698
 20
-0.3816861732
 30
0.0
 11
31.5717398696
 21
0.4306885006
 31
0.0
  0
LINE
  5
5E
330
1F
100
AcDbEntity
  8
EW
  6
HIDDEN
100
AcDbLine
 10
0.0
 20
0.4317669523
 30
0.0
 11
-25.0
 21
0.4317669523
 31
0.0
  0
LINE
  5
5F
330
1F
100
AcDbEntity
  8
EW
  6
HIDDEN
100
AcDbLine
 10
0.0
 20
-0.3816861732
 30
0.0
 11
-25.0
 21
-0.3816861732
 31
0.0
  0
ARC
  5
60
330
1F
100
AcDbEntity
  8
AUFNAHME
  6
CONTINUOUS
100
AcDbCircle
 10
34.9718977768
 20
-6.9319720751
 30
0.0
 40
9.432013940000013
100
AcDbArc
 50
89.82928978
 51
101.530218669
  0
ARC
  5
61
330
1F
100
AcDbEntity
  8
AUFNAHME
  6
CONTINUOUS
100
AcDbCircle
 10
34.3527435017
 20
-4.1788209267
 30
0.0
 40
6.61090362735265
100
AcDbArc
 50
101.0418655258
 51
115.906001388
  0
ARC
  5
62
330
1F
100
AcDbEntity
  8
AUFNAHME
  6
CONTINUOUS
100
AcDbCircle
 10
32.8472692457
 20
-1.2099030948
 30
0.0
 40
3.283086954606435
100
AcDbArc
 50
114.9097353985
 51
138.705388908
  0
ARC
  5
63
330
1F
100
AcDbEntity
  8
AUFNAHME
  6
CONTINUOUS
100
AcDbCircle
 10
31.517552452
 20
-0.049657095
 30
0.0
 40
1.518364642056989
100
AcDbArc
 50
138.4865953786
 51
178.125878466
  0
ARC
  5
64
330
1F
100
AcDbEntity
  8
AUFNAHME
  6
CONTINUOUS
100
AcDbCircle
 10
31.5175542619
 20
0.049660687
 30
0.0
 40
1.518366625006633
100
AcDbArc
 50
181.8743199304
 51
221.513603027
  0
ARC
  5
65
330
1F
100
AcDbEntity
  8
AUFNAHME
  6
CONTINUOUS
100
AcDbCircle
 10
32.8472686219
 20
1.209890299
 30
0.0
 40
3.283076274055885
100
AcDbArc
 50
221.294516135
 51
245.090190054
  0
ARC
  5
66
330
1F
100
AcDbEntity
  8
AUFNAHME
  6
CONTINUOUS
100
AcDbCircle
 10
34.3527428058
 20
4.1788217227
 30
0.0
 40
6.610905217190743
100
AcDbArc
 50
244.0940120144
 51
258.958143308
  0
ARC
  5
67
330
1F
100
AcDbEntity
  8
AUFNAHME
  6
CONTINUOUS
100
AcDbCircle
 10
34.9718938229
 20
6.9319789421
 30
0.0
 40
9.4320208184051
100
AcDbArc
 50
258.4698143679
 51
270.170734113
  0
ARC
  5
68
330
1F
100
AcDbEntity
  8
AUFNAHME
  6
CONTINUOUS
100
AcDbCircle
 10
37.37614441
 20
2.40237427
 30
0.0
 40
0.1999969500000099
100
AcDbArc
 50
97.00134277
 51
116.99932861
  0
ARC
  5
69
330
1F
100
AcDbEntity
  8
AUFNAHME
  6
CONTINUOUS
100
AcDbCircle
 10
35.20030212
 20
1.29371643
 30
0.0
 40
0.2000041300000144
100
AcDbArc
 50
117.00009155
 51
217.00088501
  0
ARC
  5
6A
330
1F
100
AcDbEntity
  8
AUFNAHME
  6
CONTINUOUS
100
AcDbCircle
 10
39.67219543
 20
0.26135254
 30
0.0
 40
0.20000210000001
100
AcDbArc
 50
336.99917603
 51
356.99865723
  0
ARC
  5
6B
330
1F
100
AcDbEntity
  8
AUFNAHME
  6
CONTINUOUS
100
AcDbCircle
 10
39.79999542
 20
2.69999695
 30
0.0
 40
0.2000021000000183
100
AcDbArc
 50
357.00006104
 51
97.00134277
  0
CIRCLE
  5
6C
330
1F
100
AcDbEntity
  8
AUFNAHME
  6
CONTINUOUS
100
AcDbCircle
 10
37.90610504
 20
0.66903687
 30
0.0
 40
1.0
  0
ARC
  5
6D
330
1F
100
AcDbEntity
  8
AUFNAHME
  6
CONTINUOUS
100
AcDbCircle
 10
38.7180168521
 20
-1.9865733909
 30
0.0
 40
0.1999956135283124
100
AcDbArc
 50
236.99987793
 51
337.0011638534
  0
ARC
  5
6E
330
1F
100
AcDbEntity
  8
AUFNAHME
  6
CONTINUOUS
100
AcDbCircle
 10
36.6699414173
 20
-0.6565519493
 30
0.0
 40
0.1999784117614077
100
AcDbArc
 50
216.9997446297
 51
237.00067139
  0
ELLIPSE
  5
6F
330
1F
100
AcDbEntity
  8
AUFNAHME
  6
CONTINUOUS
100
AcDbEllipse
 10
31.5886863791
 20
0.8988783007
 30
0.0
 11
0.01694650941057319
 21
0.468189800086033
 31
0.0
210
0.0
220
0.0
230
1.0
 40
0.5505442417
 41
0.0
 42
6.283185307179586
  0
DIMENSION
  5
70
330
1F
100
AcDbEntity
  8
MASS
100
AcDbDimension
  2
_D
 10
0.0
 20
-11.7854016364
 30
0.0
 11
19.99985504
 21
-11.7854016364
 31
0.0
 70
   160
  1
10 - <>
  3
SLDDIMSTYLE0
100
AcDbAlignedDimension
 13
39.99971008
 23
2.68952942
 33
0.0
 14
0.0
 24
-2.5
 34
0.0
 50
0.0
100
AcDbRotatedDimension
  0
DIMENSION
  5
7D
330
1F
100
AcDbEntity
  8
MASS
100
AcDbDimension
  2
_D_1
 10
0.0
 20
-11.7854016364
 30
0.0
 11
-12.5
 21
-11.7854016364
 31
0.0
 70
   160
  1
<>
  3
SLDDIMSTYLE0
100
AcDbAlignedDimension
 13
-25.0
 23
-2.0
 33
0.0
 14
0.0
 24
-2.5
 34
0.0
100
AcDbRotatedDimension
  0
DIMENSION
  5
87
330
1F
100
AcDbEntity
  8
MASS
100
AcDbDimension
  2
_D_2
 10
-25.0
 20
-21.032289997
 30
0.0
 11
7.49985504
 21
-21.032289997
 31
0.0
 70
   160
  1
<>
  3
SLDDIMSTYLE0
100
AcDbAlignedDimension
 13
39.99971008
 23
2.68952942
 33
0.0
 14
-25.0
 24
-2.0
 34
0.0
 50
0.0
100
AcDbRotatedDimension
  0
DIMENSION
  5
91
330
1F
100
AcDbEntity
  8
MASS
100
AcDbDimension
  2
_D_3
 10
-30.197273142
 20
-2.5
 30
0.0
 11
-30.197273142
 21
10.3395853279
 31
0.0
 70
   160
  1
%%c<>
  3
SLDDIMSTYLE1
100
AcDbAlignedDimension
 13
-24.5
 23
2.5
 33
0.0
 14
-24.5
 24
-2.5
 34
0.0
 50
90.0
100
AcDbRotatedDimension
  0
DIMENSION
  5
9F
330
1F
100
AcDbEntity
  8
MASS
100
AcDbDimension
  2
_D_4
 10
45.4391651655
 20
0.0
 30
0.0
 11
45.4391651655
 21
21.6299350668
 31
0.0
 70
   160
  1
%%c5.8 - 7.3 (10.8)
  3
SLDDIMSTYLE2
100
AcDbAlignedDimension
 13
39.7756166431
 23
2.8985076934
 33
0.0
 14
39.79999542
 24
0.0
 34
0.0
 50
90.0
100
AcDbRotatedDimension
  0
MTEXT
  5
AA
330
1F
100
AcDbEntity
  8
MASS
100
AcDbMText
 10
19.1328400342
 20
9.4551996018
 30
0.0
 40
3.5
 41
0.0
 71
     1
 72
     1
  1
615.083
  7
SLDTEXTSTYLE0
  0
ENDSEC
  0
SECTION
  2
OBJECTS
  0
DICTIONARY
  5
C
330
0
100
AcDbDictionary
  3
ACAD_GROUP
350
D
  3
ACAD_MLINESTYLE
350
17
  0
DICTIONARY
  5
D
102
{ACAD_REACTORS
330
C
102
}
330
C
100
AcDbDictionary
  0
DICTIONARY
  5
17
102
{ACAD_REACTORS
330
C
102
}
330
C
100
AcDbDictionary
  3
STANDARD
350
18
  0
MLINESTYLE
  5
18
102
{ACAD_REACTORS
330
17
102
}
330
17
100
AcDbMlineStyle
  2
Standard
 70
     0
  3

 62
   256
 51
90.0
 52
90.0
 71
     2
 49
0.5
 62
   256
  6
BYLAYER
 49
-0.5
 62
   256
  6
BYLAYER
  0
ENDSEC
  0
EOF
