  0
SECTION
  2
HEADER
  9
$ACADVER
  1
AC1014
  9
$ACADMAINTVER
 70
     9
  9
$DWGCODEPAGE
  3
ANSI_1252
  9
$INSBASE
 10
0.0
 20
0.0
 30
0.0
  9
$EXTMIN
 10
0.0
 20
0.0
 30
0.0
  9
$EXTMAX
 10
210.0
 20
297.0
 30
0.0
  9
$LIMMIN
 10
0.0
 20
0.0
  9
$LIMMAX
 10
210.0
 20
297.0
  9
$ORTHOMODE
 70
     0
  9
$REGENMODE
 70
     1
  9
$FILLMODE
 70
     1
  9
$QTEXTMODE
 70
     0
  9
$MIRRTEXT
 70
     1
  9
$DRAGMODE
 70
     2
  9
$LTSCALE
 40
1.0
  9
$OSMODE
 70
    37
  9
$ATTMODE
 70
     1
  9
$TEXTSIZE
 40
3.5
  9
$TRACEWID
 40
1.0
  9
$TEXTSTYLE
  7
STANDARD
  9
$CLAYER
  8
0
  9
$CELTYPE
  6
BYLAYER
  9
$CECOLOR
 62
   256
  9
$CELTSCALE
 40
1.0
  9
$DELOBJ
 70
     1
  9
$DISPSILH
 70
     0
  9
$DIMSCALE
 40
1.0
  9
$DIMASZ
 40
3.5
  9
$DIMEXO
 40
0.0
  9
$DIMDLI
 40
3.75
  9
$DIMRND
 40
0.0
  9
$DIMDLE
 40
0.0
  9
$DIMEXE
 40
1.0
  9
$DIMTP
 40
0.0
  9
$DIMTM
 40
0.0
  9
$DIMTXT
 40
3.5
  9
$DIMCEN
 40
2.5
  9
$DIMTSZ
 40
0.0
  9
$DIMTOL
 70
     0
  9
$DIMLIM
 70
     0
  9
$DIMTIH
 70
     1
  9
$DIMTOH
 70
     1
  9
$DIMSE1
 70
     0
  9
$DIMSE2
 70
     0
  9
$DIMTAD
 70
     1
  9
$DIMZIN
 70
     0
  9
$DIMBLK
  1

  9
$DIMASO
 70
     1
  9
$DIMSHO
 70
     1
  9
$DIMPOST
  1

  9
$DIMAPOST
  1

  9
$DIMALT
 70
     0
  9
$DIMALTD
 70
     3
  9
$DIMALTF
 40
0.0393700787
  9
$DIMLFAC
 40
1.0
  9
$DIMTOFL
 70
     1
  9
$DIMTVP
 40
0.0
  9
$DIMTIX
 70
     0
  9
$DIMSOXD
 70
     0
  9
$DIMSAH
 70
     0
  9
$DIMBLK1
  1

  9
$DIMBLK2
  1

  9
$DIMSTYLE
  2
ISO-25
  9
$DIMCLRD
 70
     0
  9
$DIMCLRE
 70
     0
  9
$DIMCLRT
 70
     0
  9
$DIMTFAC
 40
1.0
  9
$DIMGAP
 40
1.5
  9
$DIMJUST
 70
     0
  9
$DIMSD1
 70
     0
  9
$DIMSD2
 70
     0
  9
$DIMTOLJ
 70
     0
  9
$DIMTZIN
 70
     0
  9
$DIMALTZ
 70
     0
  9
$DIMALTTZ
 70
     0
  9
$DIMFIT
 70
     3
  9
$DIMUPT
 70
     0
  9
$DIMUNIT
 70
     2
  9
$DIMDEC
 70
     2
  9
$DIMTDEC
 70
     3
  9
$DIMALTU
 70
     2
  9
$DIMALTTD
 70
     3
  9
$DIMTXSTY
  7
STANDARD
  9
$DIMAUNIT
 70
     0
  9
$LUNITS
 70
     2
  9
$LUPREC
 70
     2
  9
$SKETCHINC
 40
1.0
  9
$FILLETRAD
 40
10.0
  9
$AUNITS
 70
     0
  9
$AUPREC
 70
     2
  9
$MENU
  1
.
  9
$ELEVATION
 40
0.0
  9
$PELEVATION
 40
0.0
  9
$THICKNESS
 40
0.0
  9
$LIMCHECK
 70
     0
  9
$CHAMFERA
 40
10.0
  9
$CHAMFERB
 40
10.0
  9
$CHAMFERC
 40
20.0
  9
$CHAMFERD
 40
0.0
  9
$SKPOLY
 70
     0
  9
$TDCREATE
 40
2456398.430345232
  9
$TDUPDATE
 40
2456398.430345706
  9
$TDINDWG
 40
0.0000000116
  9
$TDUSRTIMER
 40
0.0000000116
  9
$USRTIMER
 70
     1
  9
$ANGBASE
 50
0.0
  9
$ANGDIR
 70
     0
  9
$PDMODE
 70
     0
  9
$PDSIZE
 40
-1.0
  9
$PLINEWID
 40
0.0
  9
$COORDS
 70
     1
  9
$SPLFRAME
 70
     0
  9
$SPLINETYPE
 70
     6
  9
$SPLINESEGS
 70
     8
  9
$ATTDIA
 70
     0
  9
$ATTREQ
 70
     1
  9
$HANDLING
 70
     1
  9
$HANDSEED
  5
A8
  9
$SURFTAB1
 70
     6
  9
$SURFTAB2
 70
     6
  9
$SURFTYPE
 70
     6
  9
$SURFU
 70
     6
  9
$SURFV
 70
     6
  9
$UCSNAME
  2

  9
$UCSORG
 10
0.0
 20
0.0
 30
0.0
  9
$UCSXDIR
 10
1.0
 20
0.0
 30
0.0
  9
$UCSYDIR
 10
0.0
 20
1.0
 30
0.0
  9
$PUCSNAME
  2

  9
$PUCSORG
 10
0.0
 20
0.0
 30
0.0
  9
$PUCSXDIR
 10
1.0
 20
0.0
 30
0.0
  9
$PUCSYDIR
 10
0.0
 20
1.0
 30
0.0
  9
$USERI1
 70
     0
  9
$USERI2
 70
     0
  9
$USERI3
 70
     0
  9
$USERI4
 70
     0
  9
$USERI5
 70
     0
  9
$USERR1
 40
0.0
  9
$USERR2
 40
0.0
  9
$USERR3
 40
0.0
  9
$USERR4
 40
0.0
  9
$USERR5
 40
0.0
  9
$WORLDVIEW
 70
     1
  9
$SHADEDGE
 70
     3
  9
$SHADEDIF
 70
    70
  9
$TILEMODE
 70
     1
  9
$MAXACTVP
 70
    64
  9
$PINSBASE
 10
0.0
 20
0.0
 30
0.0
  9
$PLIMCHECK
 70
     0
  9
$PEXTMIN
 10
1.0000000000E+20
 20
1.0000000000E+20
 30
1.0000000000E+20
  9
$PEXTMAX
 10
-1.0000000000E+20
 20
-1.0000000000E+20
 30
-1.0000000000E+20
  9
$PLIMMIN
 10
0.0
 20
0.0
  9
$PLIMMAX
 10
420.0
 20
297.0
  9
$UNITMODE
 70
     0
  9
$VISRETAIN
 70
     1
  9
$PLINEGEN
 70
     0
  9
$PSLTSCALE
 70
     1
  9
$TREEDEPTH
 70
  3020
  9
$PICKSTYLE
 70
     1
  9
$CMLSTYLE
  2
STANDARD
  9
$CMLJUST
 70
     0
  9
$CMLSCALE
 40
20.0
  9
$PROXYGRAPHICS
 70
     1
  9
$MEASUREMENT
 70
     1
  0
ENDSEC
  0
SECTION
  2
CLASSES
  0
CLASS
  1
ACDBDICTIONARYWDFLT
  2
AcDbDictionaryWithDefault
  3
ObjectDBX Classes
 90
        0
280
     0
281
     0
  0
CLASS
  1
VISUALSTYLE
  2
AcDbVisualStyle
  3
ObjectDBX Classes
 90
     4095
280
     0
281
     0
  0
CLASS
  1
MATERIAL
  2
AcDbMaterial
  3
ObjectDBX Classes
 90
     1153
280
     0
281
     0
  0
CLASS
  1
XRECORD
  2
AcDbXrecord
  3
AutoCAD 2000
 90
        0
280
     0
281
     0
  0
CLASS
  1
LWPOLYLINE
  2
AcDbPolyline
  3
AutoCAD 2000
 90
        0
280
     0
281
     1
  0
CLASS
  1
HATCH
  2
AcDbHatch
  3
AutoCAD 2000
 90
        0
280
     0
281
     1
  0
ENDSEC
  0
SECTION
  2
TABLES
  0
TABLE
  2
VPORT
  5
8
330
0
100
AcDbSymbolTable
 70
     1
  0
VPORT
  5
29
330
8
100
AcDbSymbolTableRecord
100
AcDbViewportTableRecord
  2
*ACTIVE
 70
     0
 10
0.0
 20
0.0
 11
1.0
 21
1.0
 12
105.0
 22
148.5
 13
0.0
 23
0.0
 14
10.0
 24
10.0
 15
10.0
 25
10.0
 16
0.0
 26
0.0
 36
1.0
 17
0.0
 27
0.0
 37
0.0
 40
297.0
 41
0.7070707071
 42
50.0
 43
0.0
 44
0.0
 50
0.0
 51
0.0
 71
     0
 72
  2000
 73
     1
 74
     3
 75
     0
 76
     0
 77
     0
 78
     0
  0
ENDTAB
  0
TABLE
  2
LTYPE
  5
5
330
0
100
AcDbSymbolTable
 70
     6
  0
LTYPE
  5
14
330
5
100
AcDbSymbolTableRecord
100
AcDbLinetypeTableRecord
  2
BYBLOCK
 70
     0
  3

 72
    65
 73
     0
 40
0.0
  0
LTYPE
  5
15
330
5
100
AcDbSymbolTableRecord
100
AcDbLinetypeTableRecord
  2
BYLAYER
 70
     0
  3

 72
    65
 73
     0
 40
0.0
  0
LTYPE
  5
16
330
5
100
AcDbSymbolTableRecord
100
AcDbLinetypeTableRecord
  2
CONTINUOUS
 70
     0
  3
Solid line
 72
    65
 73
     0
 40
0.0
  0
LTYPE
  5
3F
330
5
100
AcDbSymbolTableRecord
100
AcDbLinetypeTableRecord
  2
HIDDEN
 70
     0
  3
Hidden __ __ __ __ __ __ __ __ __ __ __ __ __ __
 72
    65
 73
     2
 40
1.905
 49
1.27
 74
     0
 49
-0.635
 74
     0
  0
LTYPE
  5
40
330
5
100
AcDbSymbolTableRecord
100
AcDbLinetypeTableRecord
  2
PHANTOM
 70
     0
  3
Phantom ______  __  __  ______  __  __  ______
 72
    65
 73
     6
 40
12.7
 49
6.35
 74
     0
 49
-1.27
 74
     0
 49
1.27
 74
     0
 49
-1.27
 74
     0
 49
1.27
 74
     0
 49
-1.27
 74
     0
  0
LTYPE
  5
41
330
5
100
AcDbSymbolTableRecord
100
AcDbLinetypeTableRecord
  2
CENTER
 70
     0
  3
Center ____ _ ____ _ ____ _ ____ _ ____ _ ____
 72
    65
 73
     4
 40
10.16
 49
6.35
 74
     0
 49
-1.27
 74
     0
 49
1.27
 74
     0
 49
-1.27
 74
     0
  0
LTYPE
  5
42
330
5
100
AcDbSymbolTableRecord
100
AcDbLinetypeTableRecord
  2
CENTERX2
 70
     0
  3
Center (2x) ________  __  ________  __  _____
 72
    65
 73
     4
 40
20.32
 49
12.7
 74
     0
 49
-2.54
 74
     0
 49
2.54
 74
     0
 49
-2.54
 74
     0
  0
LTYPE
  5
43
330
5
100
AcDbSymbolTableRecord
100
AcDbLinetypeTableRecord
  2
DOT2
 70
     0
  3
Dot (.5x) ........................................
 72
    65
 73
     2
 40
0.635
 49
0.0
 74
     0
 49
-0.635
 74
     0
  0
ENDTAB
  0
TABLE
  2
LAYER
  5
2
330
0
100
AcDbSymbolTable
 70
     7
  0
LAYER
  5
10
330
2
100
AcDbSymbolTableRecord
100
AcDbLayerTableRecord
  2
0
 70
     0
 62
     7
  6
CONTINUOUS
  0
LAYER
  5
44
330
2
100
AcDbSymbolTableRecord
100
AcDbLayerTableRecord
  2
AUFNAHME
 70
     0
 62
     7
  6
CONTINUOUS
  0
LAYER
  5
45
330
2
100
AcDbSymbolTableRecord
100
AcDbLayerTableRecord
  2
MASS
 70
     0
 62
     4
  6
CONTINUOUS
  0
LAYER
  5
46
330
2
100
AcDbSymbolTableRecord
100
AcDbLayerTableRecord
  2
EW
 70
     0
 62
     1
  6
HIDDEN
  0
LAYER
  5
47
330
2
100
AcDbSymbolTableRecord
100
AcDbLayerTableRecord
  2
UNSICHT
 70
     0
 62
     4
  6
CENTER
  0
LAYER
  5
48
330
2
100
AcDbSymbolTableRecord
100
AcDbLayerTableRecord
  2
TEXT
 70
     0
 62
     7
  6
CONTINUOUS
  0
LAYER
  5
49
330
2
100
AcDbSymbolTableRecord
100
AcDbLayerTableRecord
  2
ZAPFEN
 70
     0
 62
     4
  6
CONTINUOUS
  0
ENDTAB
  0
TABLE
  2
STYLE
  5
3
330
0
100
AcDbSymbolTable
 70
     2
  0
STYLE
  5
11
330
3
100
AcDbSymbolTableRecord
100
AcDbTextStyleTableRecord
  2
STANDARD
 70
     0
 40
0.0
 41
1.0
 50
0.0
 71
     0
 42
3.5
  3
txt
  4

  0
STYLE
  5
6E
330
3
100
AcDbSymbolTableRecord
100
AcDbTextStyleTableRecord
  2
SLDTEXTSTYLE0
 70
     0
 40
0.0
 41
0.605
 50
0.0
 71
     0
 42
0.2
  3
TXT
  4

  0
ENDTAB
  0
TABLE
  2
VIEW
  5
6
330
0
100
AcDbSymbolTable
 70
     0
  0
ENDTAB
  0
TABLE
  2
UCS
  5
7
330
0
100
AcDbSymbolTable
 70
     0
  0
ENDTAB
  0
TABLE
  2
APPID
  5
9
330
0
100
AcDbSymbolTable
 70
     1
  0
APPID
  5
12
330
9
100
AcDbSymbolTableRecord
100
AcDbRegAppTableRecord
  2
ACAD
 70
     0
  0
ENDTAB
  0
TABLE
  2
DIMSTYLE
  5
A
330
0
100
AcDbSymbolTable
 70
     4
  0
DIMSTYLE
105
27
330
A
100
AcDbSymbolTableRecord
100
AcDbDimStyleTableRecord
  2
ISO-25
 70
     0
  3

  4

  5

  6

  7

 40
1.0
 41
2.5
 42
0.625
 43
3.75
 44
1.25
 45
0.0
 46
0.0
 47
0.0
 48
0.0
140
2.5
141
2.5
142
0.0
143
0.0393700787
144
1.0
145
0.0
146
1.0
147
0.625
 71
     0
 72
     0
 73
     0
 74
     0
 75
     0
 76
     0
 77
     1
 78
     8
170
     0
171
     3
172
     1
173
     0
174
     0
175
     0
176
     0
177
     0
178
     0
270
     2
271
     2
272
     2
273
     2
274
     3
340
11
275
     0
280
     0
281
     0
282
     0
283
     0
284
     8
285
     0
286
     0
287
     3
288
     0
  0
DIMSTYLE
105
6F
102
{ACAD_REACTORS
330
6D
102
}
330
A
100
AcDbSymbolTableRecord
100
AcDbDimStyleTableRecord
  2
SLDDIMSTYLE0
 70
     0
  3

  4

  5

  6

  7

 40
1.0
 41
3.5
 42
0.0625
 43
0.38
 44
0.0
 45
0.000000001
 46
0.0
 47
0.0
 48
0.0
140
3.5
141
0.09
142
0.0
143
25.4
144
1.0
145
0.0
146
1.0
147
0.875
 71
     0
 72
     0
 73
     0
 74
     0
 75
     0
 76
     0
 77
     1
 78
    12
170
     0
171
     2
172
     1
173
     1
174
     0
175
     0
176
     0
177
     0
178
     0
270
     2
271
     2
272
     3
273
     2
274
     2
340
6E
275
     0
280
     0
281
     0
282
     0
283
     1
284
    12
285
     0
286
     0
288
     0
  0
DIMSTYLE
105
7A
102
{ACAD_REACTORS
330
79
330
84
330
8F
102
}
330
A
100
AcDbSymbolTableRecord
100
AcDbDimStyleTableRecord
  2
SLDDIMSTYLE1
 70
     0
  3

  4

  5

  6

  7

 40
1.0
 41
3.5
 42
0.0625
 43
0.38
 44
0.0
 45
0.000000001
 46
0.0
 47
0.0
 48
0.0
140
3.5
141
0.09
142
0.0
143
25.4
144
1.0
145
0.0
146
1.0
147
0.875
 71
     0
 72
     0
 73
     0
 74
     0
 75
     0
 76
     0
 77
     1
 78
    12
170
     0
171
     2
172
     0
173
     1
174
     0
175
     0
176
     0
177
     0
178
     0
270
     2
271
     2
272
     3
273
     2
274
     2
340
6E
275
     0
280
     0
281
     0
282
     0
283
     1
284
    12
285
     0
286
     0
287
     3
288
     0
  0
DIMSTYLE
105
9A
102
{ACAD_REACTORS
330
99
102
}
330
A
100
AcDbSymbolTableRecord
100
AcDbDimStyleTableRecord
  2
SLDDIMSTYLE2
 70
     0
  3

  4

  5

  6

  7

 40
1.0
 41
3.5
 42
0.0625
 43
0.38
 44
0.0
 45
0.000000001
 46
0.0
 47
0.0
 48
0.0
140
3.5
141
0.09
142
0.0
143
25.4
144
1.0
145
0.0
146
1.0
147
0.875
 71
     0
 72
     0
 73
     0
 74
     0
 75
     0
 76
     0
 77
     1
 78
    12
170
     0
171
     2
172
     1
173
     1
174
     0
175
     0
176
     0
177
     0
178
     0
270
     2
271
     2
272
     3
273
     2
274
     2
340
6E
275
     0
280
     0
281
     0
282
     0
283
     1
284
    12
285
     0
286
     0
288
     0
  0
ENDTAB
  0
TABLE
  2
BLOCK_RECORD
  5
1
330
0
100
AcDbSymbolTable
 70
     6
  0
BLOCK_RECORD
  5
1F
330
1
100
AcDbSymbolTableRecord
100
AcDbBlockTableRecord
  2
*MODEL_SPACE
  0
BLOCK_RECORD
  5
1B
330
1
100
AcDbSymbolTableRecord
100
AcDbBlockTableRecord
  2
*PAPER_SPACE
  0
BLOCK_RECORD
  5
23
330
1
100
AcDbSymbolTableRecord
100
AcDbBlockTableRecord
  2
*PAPER_SPACE0
  0
BLOCK_RECORD
  5
70
330
1
100
AcDbSymbolTableRecord
100
AcDbBlockTableRecord
  2
_D
  0
BLOCK_RECORD
  5
7B
330
1
100
AcDbSymbolTableRecord
100
AcDbBlockTableRecord
  2
_D_1
  0
BLOCK_RECORD
  5
85
330
1
100
AcDbSymbolTableRecord
100
AcDbBlockTableRecord
  2
_D_2
  0
BLOCK_RECORD
  5
90
330
1
100
AcDbSymbolTableRecord
100
AcDbBlockTableRecord
  2
_D_3
  0
BLOCK_RECORD
  5
9B
330
1
100
AcDbSymbolTableRecord
100
AcDbBlockTableRecord
  2
_D_4
  0
ENDTAB
  0
ENDSEC
  0
SECTION
  2
BLOCKS
  0
BLOCK
  5
20
330
1F
100
AcDbEntity
  8
0
100
AcDbBlockBegin
  2
*MODEL_SPACE
 70
     0
 10
0.0
 20
0.0
 30
0.0
  3
*MODEL_SPACE
  1

  0
ENDBLK
  5
21
330
1F
100
AcDbEntity
  8
0
100
AcDbBlockEnd
  0
BLOCK
  5
1C
330
1B
100
AcDbEntity
 67
     1
  8
0
100
AcDbBlockBegin
  2
*PAPER_SPACE
 70
     0
 10
0.0
 20
0.0
 30
0.0
  3
*PAPER_SPACE
  1

  0
ENDBLK
  5
1D
330
1B
100
AcDbEntity
 67
     1
  8
0
100
AcDbBlockEnd
  0
BLOCK
  5
24
330
23
100
AcDbEntity
  8
0
100
AcDbBlockBegin
  2
*PAPER_SPACE0
 70
     0
 10
0.0
 20
0.0
 30
0.0
  3
*PAPER_SPACE0
  1

  0
ENDBLK
  5
25
330
23
100
AcDbEntity
  8
0
100
AcDbBlockEnd
  0
BLOCK
  5
71
330
70
100
AcDbEntity
  8
0
100
AcDbBlockBegin
  2
_D
 70
     0
 10
0.0
 20
0.0
 30
0.0
  3
_D
  1

  0
SOLID
  5
73
330
70
100
AcDbEntity
  8
MASS
100
AcDbTrace
 10
28.4145125223
 20
2.43486267
 30
0.0
 11
28.8645125223
 21
5.93486267
 31
0.0
 12
27.9645125223
 22
5.93486267
 32
0.0
 13
27.9645125223
 23
5.93486267
 33
0.0
  0
LINE
  5
74
330
70
100
AcDbEntity
  8
MASS
100
AcDbLine
 10
21.894760132
 20
2.43486267
 30
0.0
 11
29.4145125223
 21
2.43486267
 31
0.0
  0
LINE
  5
75
330
70
100
AcDbEntity
  8
MASS
100
AcDbLine
 10
28.4145125223
 20
-0.015464783
 30
0.0
 11
28.4145125223
 21
2.43486267
 31
0.0
  0
LINE
  5
76
330
70
100
AcDbEntity
  8
MASS
100
AcDbLine
 10
28.4145125223
 20
2.43486267
 30
0.0
 11
28.4145125223
 21
35.0020887859
 31
0.0
  0
MTEXT
  5
77
330
70
100
AcDbEntity
  8
MASS
100
AcDbMText
 10
23.9027753167
 20
6.1465340264
 30
0.1
 40
3.5
 41
0.0
 71
     1
 72
     1
  1
%%c
  7
SLDTEXTSTYLE0
 11
-8.820551857043885E-15
 21
1.0
 31
0.0
  0
MTEXT
  5
78
330
70
100
AcDbEntity
  8
MASS
100
AcDbMText
 10
23.9027753167
 20
11.3187564134
 30
0.1
 40
3.5
 41
0.0
 71
     1
 72
     1
  1
4.9 - 5.9 (9.9)
  7
SLDTEXTSTYLE0
 11
-8.820551857043885E-15
 21
1.0
 31
0.0
  0
ENDBLK
  5
72
330
70
100
AcDbEntity
  8
0
100
AcDbBlockEnd
  0
BLOCK
  5
7C
330
7B
100
AcDbEntity
  8
0
100
AcDbBlockBegin
  2
_D_1
 70
     0
 10
0.0
 20
0.0
 30
0.0
  3
_D_1
  1

  0
SOLID
  5
7E
330
7B
100
AcDbEntity
  8
MASS
100
AcDbTrace
 10
21.999984479
 20
-17.9259470552
 30
0.0
 11
18.499984479
 21
-17.4759470552
 31
0.0
 12
18.499984479
 22
-18.3759470552
 32
0.0
 13
18.499984479
 23
-18.3759470552
 33
0.0
  0
SOLID
  5
7F
330
7B
100
AcDbEntity
  8
MASS
100
AcDbTrace
 10
-24.0
 20
-17.9259470552
 30
0.0
 11
-20.5
 21
-18.3759470552
 31
0.0
 12
-20.5
 22
-17.4759470552
 32
0.0
 13
-20.5
 23
-17.4759470552
 33
0.0
  0
LINE
  5
80
330
7B
100
AcDbEntity
  8
MASS
100
AcDbLine
 10
21.999984479
 20
2.335009155
 30
0.0
 11
21.999984479
 21
-18.9259470552
 31
0.0
  0
LINE
  5
81
330
7B
100
AcDbEntity
  8
MASS
100
AcDbLine
 10
-24.0
 20
-1.75
 30
0.0
 11
-24.0
 21
-18.9259470552
 31
0.0
  0
LINE
  5
82
330
7B
100
AcDbEntity
  8
MASS
100
AcDbLine
 10
21.999984479
 20
-17.9259470552
 30
0.0
 11
-24.0
 21
-17.9259470552
 31
0.0
  0
MTEXT
  5
83
330
7B
100
AcDbEntity
  8
MASS
100
AcDbMText
 10
-4.5072996586
 20
-13.4142098496
 30
0.1
 40
3.5
 41
0.0
 71
     1
 72
     1
  1
46
  7
SLDTEXTSTYLE0
  0
ENDBLK
  5
7D
330
7B
100
AcDbEntity
  8
0
100
AcDbBlockEnd
  0
BLOCK
  5
86
330
85
100
AcDbEntity
  8
0
100
AcDbBlockBegin
  2
_D_2
 70
     0
 10
0.0
 20
0.0
 30
0.0
  3
_D_2
  1

  0
SOLID
  5
88
330
85
100
AcDbEntity
  8
MASS
100
AcDbTrace
 10
21.999984479
 20
-9.4986858744
 30
0.0
 11
18.499984479
 21
-9.0486858744
 31
0.0
 12
18.499984479
 22
-9.9486858744
 32
0.0
 13
18.499984479
 23
-9.9486858744
 33
0.0
  0
SOLID
  5
89
330
85
100
AcDbEntity
  8
MASS
100
AcDbTrace
 10
0.0
 20
-9.4986858744
 30
0.0
 11
3.5
 21
-9.9486858744
 31
0.0
 12
3.5
 22
-9.0486858744
 32
0.0
 13
3.5
 23
-9.0486858744
 33
0.0
  0
LINE
  5
8A
330
85
100
AcDbEntity
  8
MASS
100
AcDbLine
 10
21.999984479
 20
2.335009155
 30
0.0
 11
21.999984479
 21
-10.4986858744
 31
0.0
  0
LINE
  5
8B
330
85
100
AcDbEntity
  8
MASS
100
AcDbLine
 10
0.0
 20
-2.25
 30
0.0
 11
0.0
 21
-10.4986858744
 31
0.0
  0
LINE
  5
8C
330
85
100
AcDbEntity
  8
MASS
100
AcDbLine
 10
21.999984479
 20
-9.4986858744
 30
0.0
 11
0.0
 21
-9.4986858744
 31
0.0
  0
MTEXT
  5
8D
330
85
100
AcDbEntity
  8
MASS
100
AcDbMText
 10
3.545477736
 20
-4.9869486688
 30
0.1
 40
3.5
 41
0.0
 71
     1
 72
     1
  1
10 -
  7
SLDTEXTSTYLE0
  0
MTEXT
  5
8E
330
85
100
AcDbEntity
  8
MASS
100
AcDbMText
 10
11.4399229467
 20
-4.9869486688
 30
0.1
 40
3.5
 41
0.0
 71
     1
 72
     1
  1
22
  7
SLDTEXTSTYLE0
  0
ENDBLK
  5
87
330
85
100
AcDbEntity
  8
0
100
AcDbBlockEnd
  0
BLOCK
  5
91
330
90
100
AcDbEntity
  8
0
100
AcDbBlockBegin
  2
_D_3
 70
     0
 10
0.0
 20
0.0
 30
0.0
  3
_D_3
  1

  0
SOLID
  5
93
330
90
100
AcDbEntity
  8
MASS
100
AcDbTrace
 10
0.0
 20
-9.4986858744
 30
0.0
 11
-3.5
 21
-9.0486858744
 31
0.0
 12
-3.5
 22
-9.9486858744
 32
0.0
 13
-3.5
 23
-9.9486858744
 33
0.0
  0
SOLID
  5
94
330
90
100
AcDbEntity
  8
MASS
100
AcDbTrace
 10
-24.0
 20
-9.4986858744
 30
0.0
 11
-20.5
 21
-9.9486858744
 31
0.0
 12
-20.5
 22
-9.0486858744
 32
0.0
 13
-20.5
 23
-9.0486858744
 33
0.0
  0
LINE
  5
95
330
90
100
AcDbEntity
  8
MASS
100
AcDbLine
 10
0.0
 20
-2.25
 30
0.0
 11
0.0
 21
-10.4986858744
 31
0.0
  0
LINE
  5
96
330
90
100
AcDbEntity
  8
MASS
100
AcDbLine
 10
-24.0
 20
-1.75
 30
0.0
 11
-24.0
 21
-10.4986858744
 31
0.0
  0
LINE
  5
97
330
90
100
AcDbEntity
  8
MASS
100
AcDbLine
 10
0.0
 20
-9.4986858744
 30
0.0
 11
-24.0
 21
-9.4986858744
 31
0.0
  0
MTEXT
  5
98
330
90
100
AcDbEntity
  8
MASS
100
AcDbMText
 10
-15.5072918981
 20
-4.9869486688
 30
0.1
 40
3.5
 41
0.0
 71
     1
 72
     1
  1
24
  7
SLDTEXTSTYLE0
  0
ENDBLK
  5
92
330
90
100
AcDbEntity
  8
0
100
AcDbBlockEnd
  0
BLOCK
  5
9C
330
9B
100
AcDbEntity
  8
0
100
AcDbBlockBegin
  2
_D_4
 70
     0
 10
0.0
 20
0.0
 30
0.0
  3
_D_4
  1

  0
SOLID
  5
9E
330
9B
100
AcDbEntity
  8
MASS
100
AcDbTrace
 10
-29.3847198038
 20
-2.25
 30
0.0
 11
-29.8347198038
 21
-5.75
 31
0.0
 12
-28.9347198038
 22
-5.75
 32
0.0
 13
-28.9347198038
 23
-5.75
 33
0.0
  0
SOLID
  5
9F
330
9B
100
AcDbEntity
  8
MASS
100
AcDbTrace
 10
-29.3847198038
 20
2.25
 30
0.0
 11
-28.9347198038
 21
5.75
 31
0.0
 12
-29.8347198038
 22
5.75
 32
0.0
 13
-29.8347198038
 23
5.75
 33
0.0
  0
LINE
  5
A0
330
9B
100
AcDbEntity
  8
MASS
100
AcDbLine
 10
-23.5
 20
-2.25
 30
0.0
 11
-30.3847198038
 21
-2.25
 31
0.0
  0
LINE
  5
A1
330
9B
100
AcDbEntity
  8
MASS
100
AcDbLine
 10
-23.5
 20
2.25
 30
0.0
 11
-30.3847198038
 21
2.25
 31
0.0
  0
LINE
  5
A2
330
9B
100
AcDbEntity
  8
MASS
100
AcDbLine
 10
-29.3847198038
 20
-2.25
 30
0.0
 11
-29.3847198038
 21
-7.25
 31
0.0
  0
LINE
  5
A3
330
9B
100
AcDbEntity
  8
MASS
100
AcDbLine
 10
-29.3847198038
 20
-2.25
 30
0.0
 11
-29.3847198038
 21
2.25
 31
0.0
  0
LINE
  5
A4
330
9B
100
AcDbEntity
  8
MASS
100
AcDbLine
 10
-29.3847198038
 20
2.25
 30
0.0
 11
-29.3847198038
 21
17.9698060669
 31
0.0
  0
MTEXT
  5
A5
330
9B
100
AcDbEntity
  8
MASS
100
AcDbMText
 10
-33.8964570094
 20
4.6843889571
 30
0.1
 40
3.5
 41
0.0
 71
     1
 72
     1
  1
%%c
  7
SLDTEXTSTYLE0
 11
6.123233995736766E-17
 21
1.0
 31
0.0
  0
MTEXT
  5
A6
330
9B
100
AcDbEntity
  8
MASS
100
AcDbMText
 10
-33.8964570094
 20
9.8566113442
 30
0.1
 40
3.5
 41
0.0
 71
     1
 72
     1
  1
4.5
  7
SLDTEXTSTYLE0
 11
6.123233995736766E-17
 21
1.0
 31
0.0
  0
ENDBLK
  5
9D
330
9B
100
AcDbEntity
  8
0
100
AcDbBlockEnd
  0
ENDSEC
  0
SECTION
  2
ENTITIES
  0
LINE
  5
4A
330
1F
100
AcDbEntity
  8
ZAPFEN
100
AcDbLine
 10
-23.5
 20
-2.25
 30
0.0
 11
-24.0
 21
-1.75
 31
0.0
  0
LINE
  5
4B
330
1F
100
AcDbEntity
  8
ZAPFEN
100
AcDbLine
 10
-24.0
 20
-1.75
 30
0.0
 11
-24.0
 21
1.75
 31
0.0
  0
LINE
  5
4C
330
1F
100
AcDbEntity
  8
ZAPFEN
100
AcDbLine
 10
-24.0
 20
1.75
 30
0.0
 11
-23.5
 21
2.25
 31
0.0
  0
LINE
  5
4D
330
1F
100
AcDbEntity
  8
ZAPFEN
100
AcDbLine
 10
-23.5
 20
2.25
 30
0.0
 11
0.0
 21
2.25
 31
0.0
  0
LINE
  5
4E
330
1F
100
AcDbEntity
  8
AUFNAHME
  6
CONTINUOUS
100
AcDbLine
 10
0.0
 20
2.25
 30
0.0
 11
18.367365878
 21
2.25
 31
0.0
  0
LINE
  5
4F
330
1F
100
AcDbEntity
  8
AUFNAHME
  6
CONTINUOUS
100
AcDbLine
 10
18.367365878
 20
2.25
 30
0.0
 11
21.894760132
 21
2.43486267
 31
0.0
  0
LINE
  5
50
330
1F
100
AcDbEntity
  8
AUFNAHME
  6
CONTINUOUS
100
AcDbLine
 10
21.999984479
 20
2.335009155
 30
0.0
 11
21.837019775
 21
-0.774693264
 31
0.0
  0
LINE
  5
51
330
1F
100
AcDbEntity
  8
AUFNAHME
  6
CONTINUOUS
100
AcDbLine
 10
21.837019775
 20
-0.774693264
 30
0.0
 11
20.30883789
 21
-2.25
 31
0.0
  0
LINE
  5
52
330
1F
100
AcDbEntity
  8
AUFNAHME
  6
CONTINUOUS
100
AcDbLine
 10
20.30883789
 20
-2.25
 30
0.0
 11
0.0
 21
-2.25
 31
0.0
  0
LINE
  5
53
330
1F
100
AcDbEntity
  8
ZAPFEN
100
AcDbLine
 10
0.0
 20
-2.25
 30
0.0
 11
-23.5
 21
-2.25
 31
0.0
  0
LINE
  5
54
330
1F
100
AcDbEntity
  8
ZAPFEN
100
AcDbLine
 10
-23.5
 20
-2.25
 30
0.0
 11
-23.5
 21
2.25
 31
0.0
  0
LINE
  5
55
330
1F
100
AcDbEntity
  8
EW
  6
HIDDEN
100
AcDbLine
 10
-24.0
 20
0.5
 30
0.0
 11
12.247344193
 21
0.5
 31
0.0
  0
LINE
  5
56
330
1F
100
AcDbEntity
  8
EW
  6
HIDDEN
100
AcDbLine
 10
-24.0
 20
-0.5
 30
0.0
 11
12.290953812
 21
-0.5
 31
0.0
  0
LINE
  5
57
330
1F
100
AcDbEntity
  8
EW
  6
HIDDEN
100
AcDbLine
 10
12.203337845
 20
0.5
 30
0.0
 11
13.941222367
 21
0.808288574
 31
0.0
  0
LINE
  5
58
330
1F
100
AcDbEntity
  8
EW
  6
HIDDEN
100
AcDbLine
 10
12.290953812
 20
-0.5
 30
0.0
 11
14.92631453
 21
-0.037261963
 31
0.0
  0
LINE
  5
59
330
1F
100
AcDbEntity
  8
UNSICHT
  6
CENTER
100
AcDbLine
 10
-25.356221897
 20
-0.015464783
 30
0.0
 11
23.624165837
 21
-0.015464783
 31
0.0
  0
LINE
  5
5A
330
1F
100
AcDbEntity
  8
ZAPFEN
100
AcDbLine
 10
0.0
 20
-2.25
 30
0.0
 11
0.0
 21
2.25
 31
0.0
  0
ARC
  5
5B
330
1F
100
AcDbEntity
  8
AUFNAHME
  6
CONTINUOUS
100
AcDbCircle
 10
21.8999938959
 20
2.3350091551
 30
0.0
 40
0.0999905831370803
100
AcDbArc
 50
359.9999999255
 51
93.0003793261
  0
ARC
  5
5C
330
1F
100
AcDbEntity
  8
AUFNAHME
  6
CONTINUOUS
100
AcDbCircle
 10
14.9251903883
 20
0.0415372916
 30
0.0
 40
0.0773496761415369
100
AcDbArc
 50
279.443343867
 51
325.0
  0
ARC
  5
5D
330
1F
100
AcDbEntity
  8
AUFNAHME
  6
CONTINUOUS
100
AcDbCircle
 10
14.8841224724
 20
0.2884326653
 30
0.0
 40
0.327637309192506
100
AcDbArc
 50
260.570531322
 51
279.4438155517
  0
ARC
  5
5E
330
1F
100
AcDbEntity
  8
AUFNAHME
  6
CONTINUOUS
100
AcDbCircle
 10
14.9390125923
 20
0.6189419432
 30
0.0
 40
0.6626735879041193
100
AcDbArc
 50
247.669247656
 51
260.5705312528
  0
ARC
  5
5F
330
1F
100
AcDbEntity
  8
AUFNAHME
  6
CONTINUOUS
100
AcDbCircle
 10
15.4238909522
 20
1.7994000673
 30
0.0
 40
1.938835178999986
100
AcDbArc
 50
235.0
 51
247.6693330373
  0
ARC
  5
60
330
1F
100
AcDbEntity
  8
AUFNAHME
  6
CONTINUOUS
100
AcDbCircle
 10
15.4238909522
 20
1.7994000673
 30
0.0
 40
1.938835178999986
100
AcDbArc
 50
222.3306667874
 51
235.0
  0
ARC
  5
61
330
1F
100
AcDbEntity
  8
AUFNAHME
  6
CONTINUOUS
100
AcDbCircle
 10
14.4804613261
 20
0.9400229979
 30
0.0
 40
0.6626735878092723
100
AcDbArc
 50
209.429468678
 51
222.3307523174
  0
ARC
  5
62
330
1F
100
AcDbEntity
  8
AUFNAHME
  6
CONTINUOUS
100
AcDbCircle
 10
14.1886577225
 20
0.7754023271
 30
0.0
 40
0.3276373087151855
100
AcDbArc
 50
190.556184539
 51
209.4294686834
  0
ARC
  5
63
330
1F
100
AcDbEntity
  8
AUFNAHME
  6
CONTINUOUS
100
AcDbCircle
 10
13.9426059077
 20
0.7295503529
 30
0.0
 40
0.0773496760000079
100
AcDbArc
 50
145.0
 51
190.5566560023
  0
ARC
  5
64
330
1F
100
AcDbEntity
  8
AUFNAHME
  6
CONTINUOUS
100
AcDbCircle
 10
13.9426059077
 20
0.7295503529
 30
0.0
 40
0.0773496759999932
100
AcDbArc
 50
99.443343867
 51
145.0
  0
ARC
  5
65
330
1F
100
AcDbEntity
  8
AUFNAHME
  6
CONTINUOUS
100
AcDbCircle
 10
13.9836738228
 20
0.4826549796
 30
0.0
 40
0.3276373086172302
100
AcDbArc
 50
80.570531322
 51
99.4438154079
  0
ARC
  5
66
330
1F
100
AcDbEntity
  8
AUFNAHME
  6
CONTINUOUS
100
AcDbCircle
 10
13.9287837038
 20
0.1521457005
 30
0.0
 40
0.6626735883154639
100
AcDbArc
 50
67.669247656
 51
80.5705313523
  0
ARC
  5
67
330
1F
100
AcDbEntity
  8
AUFNAHME
  6
CONTINUOUS
100
AcDbCircle
 10
13.443905346
 20
-1.028312424
 30
0.0
 40
1.938835179000008
100
AcDbArc
 50
55.0
 51
67.6693330981
  0
ARC
  5
68
330
1F
100
AcDbEntity
  8
AUFNAHME
  6
CONTINUOUS
100
AcDbCircle
 10
13.443905346
 20
-1.028312424
 30
0.0
 40
1.938835179000008
100
AcDbArc
 50
42.330666885
 51
55.0
  0
ARC
  5
69
330
1F
100
AcDbEntity
  8
AUFNAHME
  6
CONTINUOUS
100
AcDbCircle
 10
14.3873349699
 20
-0.1689353521
 30
0.0
 40
0.6626735878092876
100
AcDbArc
 50
29.429468678
 51
42.3307523174
  0
ARC
  5
6A
330
1F
100
AcDbEntity
  8
AUFNAHME
  6
CONTINUOUS
100
AcDbCircle
 10
14.6791385734
 20
-0.0043146814
 30
0.0
 40
0.3276373087151686
100
AcDbArc
 50
10.556184539
 51
29.4294686834
  0
ARC
  5
6B
330
1F
100
AcDbEntity
  8
AUFNAHME
  6
CONTINUOUS
100
AcDbCircle
 10
14.9251903883
 20
0.0415372916
 30
0.0
 40
0.0773496761415369
100
AcDbArc
 50
325.0
 51
10.5566568662
  0
ARC
  5
6C
330
1F
100
AcDbEntity
  8
AUFNAHME
  6
CONTINUOUS
100
AcDbCircle
 10
15.993770314
 20
0.250777506
 30
0.0
 40
2.629852216000027
100
AcDbArc
 50
130.517870988
 51
251.974595281
  0
DIMENSION
  5
6D
330
1F
100
AcDbEntity
  8
MASS
100
AcDbDimension
  2
_D
 10
28.4145125223
 20
-0.015464783
 30
0.0
 11
28.4145125223
 21
20.5743114061
 31
0.0
 70
   160
  1
%%c4.9 - 5.9 (9.9)
  3
SLDDIMSTYLE0
100
AcDbAlignedDimension
 13
21.894760132
 23
2.43486267
 33
0.0
 14
23.624165837
 24
-0.015464783
 34
0.0
 50
90.0
100
AcDbRotatedDimension
  0
DIMENSION
  5
79
330
1F
100
AcDbEntity
  8
MASS
100
AcDbDimension
  2
_D_1
 10
-24.0
 20
-17.9259470552
 30
0.0
 11
-1.0000077605
 21
-17.9259470552
 31
0.0
 70
   160
  1
<>
  3
SLDDIMSTYLE1
100
AcDbAlignedDimension
 13
21.999984479
 23
2.335009155
 33
0.0
 14
-24.0
 24
-1.75
 34
0.0
100
AcDbRotatedDimension
  0
DIMENSION
  5
84
330
1F
100
AcDbEntity
  8
MASS
100
AcDbDimension
  2
_D_2
 10
0.0
 20
-9.4986858744
 30
0.0
 11
10.9999922395
 21
-9.4986858744
 31
0.0
 70
   160
  1
10 - <>
  3
SLDDIMSTYLE1
100
AcDbAlignedDimension
 13
21.999984479
 23
2.335009155
 33
0.0
 14
0.0
 24
-2.25
 34
0.0
 50
0.0
100
AcDbRotatedDimension
  0
DIMENSION
  5
8F
330
1F
100
AcDbEntity
  8
MASS
100
AcDbDimension
  2
_D_3
 10
-24.0
 20
-9.4986858744
 30
0.0
 11
-12.0
 21
-9.4986858744
 31
0.0
 70
   160
  1
<>
  3
SLDDIMSTYLE1
100
AcDbAlignedDimension
 13
0.0
 23
-2.25
 33
0.0
 14
-24.0
 24
-1.75
 34
0.0
100
AcDbRotatedDimension
  0
DIMENSION
  5
99
330
1F
100
AcDbEntity
  8
MASS
100
AcDbDimension
  2
_D_4
 10
-29.3847198038
 20
2.25
 30
0.0
 11
-29.3847198038
 21
11.327097512
 31
0.0
 70
   160
  1
%%c<>
  3
SLDDIMSTYLE2
100
AcDbAlignedDimension
 13
-23.5
 23
-2.25
 33
0.0
 14
-23.5
 24
2.25
 34
0.0
 50
90.0
100
AcDbRotatedDimension
  0
MTEXT
  5
A7
330
1F
100
AcDbEntity
  8
MASS
100
AcDbMText
 10
4.473878546
 20
9.0414090657
 30
0.0
 40
3.5
 41
0.0
 71
     1
 72
     1
  1
615.081
  7
SLDTEXTSTYLE0
  0
ENDSEC
  0
SECTION
  2
OBJECTS
  0
DICTIONARY
  5
C
330
0
100
AcDbDictionary
  3
ACAD_GROUP
350
D
  3
ACAD_MLINESTYLE
350
17
  0
DICTIONARY
  5
D
102
{ACAD_REACTORS
330
C
102
}
330
C
100
AcDbDictionary
  0
DICTIONARY
  5
17
102
{ACAD_REACTORS
330
C
102
}
330
C
100
AcDbDictionary
  3
STANDARD
350
18
  0
MLINESTYLE
  5
18
102
{ACAD_REACTORS
330
17
102
}
330
17
100
AcDbMlineStyle
  2
Standard
 70
     0
  3

 62
   256
 51
90.0
 52
90.0
 71
     2
 49
0.5
 62
   256
  6
BYLAYER
 49
-0.5
 62
   256
  6
BYLAYER
  0
ENDSEC
  0
EOF
