  0
SECTION
  2
HEADER
  9
$ACADVER
  1
AC1014
  9
$ACADMAINTVER
 70
     9
  9
$DWGCODEPAGE
  3
ANSI_1252
  9
$INSBASE
 10
0.0
 20
0.0
 30
0.0
  9
$EXTMIN
 10
0.0
 20
0.0
 30
0.0
  9
$EXTMAX
 10
210.0
 20
297.0
 30
0.0
  9
$LIMMIN
 10
0.0
 20
0.0
  9
$LIMMAX
 10
210.0
 20
297.0
  9
$ORTHOMODE
 70
     0
  9
$REGENMODE
 70
     1
  9
$FILLMODE
 70
     1
  9
$QTEXTMODE
 70
     0
  9
$MIRRTEXT
 70
     1
  9
$DRAGMODE
 70
     2
  9
$LTSCALE
 40
1.0
  9
$OSMODE
 70
    37
  9
$ATTMODE
 70
     1
  9
$TEXTSIZE
 40
3.5
  9
$TRACEWID
 40
1.0
  9
$TEXTSTYLE
  7
STANDARD
  9
$CLAYER
  8
0
  9
$CELTYPE
  6
BYLAYER
  9
$CECOLOR
 62
   256
  9
$CELTSCALE
 40
1.0
  9
$DELOBJ
 70
     1
  9
$DISPSILH
 70
     0
  9
$DIMSCALE
 40
1.0
  9
$DIMASZ
 40
3.5
  9
$DIMEXO
 40
0.0
  9
$DIMDLI
 40
3.75
  9
$DIMRND
 40
0.0
  9
$DIMDLE
 40
0.0
  9
$DIMEXE
 40
1.0
  9
$DIMTP
 40
0.0
  9
$DIMTM
 40
0.0
  9
$DIMTXT
 40
3.5
  9
$DIMCEN
 40
2.5
  9
$DIMTSZ
 40
0.0
  9
$DIMTOL
 70
     0
  9
$DIMLIM
 70
     0
  9
$DIMTIH
 70
     1
  9
$DIMTOH
 70
     1
  9
$DIMSE1
 70
     0
  9
$DIMSE2
 70
     0
  9
$DIMTAD
 70
     1
  9
$DIMZIN
 70
     0
  9
$DIMBLK
  1

  9
$DIMASO
 70
     1
  9
$DIMSHO
 70
     1
  9
$DIMPOST
  1

  9
$DIMAPOST
  1

  9
$DIMALT
 70
     0
  9
$DIMALTD
 70
     3
  9
$DIMALTF
 40
0.0393700787
  9
$DIMLFAC
 40
1.0
  9
$DIMTOFL
 70
     1
  9
$DIMTVP
 40
0.0
  9
$DIMTIX
 70
     0
  9
$DIMSOXD
 70
     0
  9
$DIMSAH
 70
     0
  9
$DIMBLK1
  1

  9
$DIMBLK2
  1

  9
$DIMSTYLE
  2
ISO-25
  9
$DIMCLRD
 70
     0
  9
$DIMCLRE
 70
     0
  9
$DIMCLRT
 70
     0
  9
$DIMTFAC
 40
1.0
  9
$DIMGAP
 40
1.5
  9
$DIMJUST
 70
     0
  9
$DIMSD1
 70
     0
  9
$DIMSD2
 70
     0
  9
$DIMTOLJ
 70
     0
  9
$DIMTZIN
 70
     0
  9
$DIMALTZ
 70
     0
  9
$DIMALTTZ
 70
     0
  9
$DIMFIT
 70
     3
  9
$DIMUPT
 70
     0
  9
$DIMUNIT
 70
     2
  9
$DIMDEC
 70
     2
  9
$DIMTDEC
 70
     3
  9
$DIMALTU
 70
     2
  9
$DIMALTTD
 70
     3
  9
$DIMTXSTY
  7
STANDARD
  9
$DIMAUNIT
 70
     0
  9
$LUNITS
 70
     2
  9
$LUPREC
 70
     2
  9
$SKETCHINC
 40
1.0
  9
$FILLETRAD
 40
10.0
  9
$AUNITS
 70
     0
  9
$AUPREC
 70
     2
  9
$MENU
  1
.
  9
$ELEVATION
 40
0.0
  9
$PELEVATION
 40
0.0
  9
$THICKNESS
 40
0.0
  9
$LIMCHECK
 70
     0
  9
$CHAMFERA
 40
10.0
  9
$CHAMFERB
 40
10.0
  9
$CHAMFERC
 40
20.0
  9
$CHAMFERD
 40
0.0
  9
$SKPOLY
 70
     0
  9
$TDCREATE
 40
2456380.65455184
  9
$TDUPDATE
 40
2456380.654552384
  9
$TDINDWG
 40
0.0000000116
  9
$TDUSRTIMER
 40
0.0000000116
  9
$USRTIMER
 70
     1
  9
$ANGBASE
 50
0.0
  9
$ANGDIR
 70
     0
  9
$PDMODE
 70
     0
  9
$PDSIZE
 40
-1.0
  9
$PLINEWID
 40
0.0
  9
$COORDS
 70
     1
  9
$SPLFRAME
 70
     0
  9
$SPLINETYPE
 70
     6
  9
$SPLINESEGS
 70
     8
  9
$ATTDIA
 70
     0
  9
$ATTREQ
 70
     1
  9
$HANDLING
 70
     1
  9
$HANDSEED
  5
AA
  9
$SURFTAB1
 70
     6
  9
$SURFTAB2
 70
     6
  9
$SURFTYPE
 70
     6
  9
$SURFU
 70
     6
  9
$SURFV
 70
     6
  9
$UCSNAME
  2

  9
$UCSORG
 10
0.0
 20
0.0
 30
0.0
  9
$UCSXDIR
 10
1.0
 20
0.0
 30
0.0
  9
$UCSYDIR
 10
0.0
 20
1.0
 30
0.0
  9
$PUCSNAME
  2

  9
$PUCSORG
 10
0.0
 20
0.0
 30
0.0
  9
$PUCSXDIR
 10
1.0
 20
0.0
 30
0.0
  9
$PUCSYDIR
 10
0.0
 20
1.0
 30
0.0
  9
$USERI1
 70
     0
  9
$USERI2
 70
     0
  9
$USERI3
 70
     0
  9
$USERI4
 70
     0
  9
$USERI5
 70
     0
  9
$USERR1
 40
0.0
  9
$USERR2
 40
0.0
  9
$USERR3
 40
0.0
  9
$USERR4
 40
0.0
  9
$USERR5
 40
0.0
  9
$WORLDVIEW
 70
     1
  9
$SHADEDGE
 70
     3
  9
$SHADEDIF
 70
    70
  9
$TILEMODE
 70
     1
  9
$MAXACTVP
 70
    64
  9
$PINSBASE
 10
0.0
 20
0.0
 30
0.0
  9
$PLIMCHECK
 70
     0
  9
$PEXTMIN
 10
1.0000000000E+20
 20
1.0000000000E+20
 30
1.0000000000E+20
  9
$PEXTMAX
 10
-1.0000000000E+20
 20
-1.0000000000E+20
 30
-1.0000000000E+20
  9
$PLIMMIN
 10
0.0
 20
0.0
  9
$PLIMMAX
 10
420.0
 20
297.0
  9
$UNITMODE
 70
     0
  9
$VISRETAIN
 70
     1
  9
$PLINEGEN
 70
     0
  9
$PSLTSCALE
 70
     1
  9
$TREEDEPTH
 70
  3020
  9
$PICKSTYLE
 70
     1
  9
$CMLSTYLE
  2
STANDARD
  9
$CMLJUST
 70
     0
  9
$CMLSCALE
 40
20.0
  9
$PROXYGRAPHICS
 70
     1
  9
$MEASUREMENT
 70
     1
  0
ENDSEC
  0
SECTION
  2
CLASSES
  0
CLASS
  1
ACDBDICTIONARYWDFLT
  2
AcDbDictionaryWithDefault
  3
ObjectDBX Classes
 90
        0
280
     0
281
     0
  0
CLASS
  1
VISUALSTYLE
  2
AcDbVisualStyle
  3
ObjectDBX Classes
 90
     4095
280
     0
281
     0
  0
CLASS
  1
MATERIAL
  2
AcDbMaterial
  3
ObjectDBX Classes
 90
     1153
280
     0
281
     0
  0
CLASS
  1
XRECORD
  2
AcDbXrecord
  3
AutoCAD 2000
 90
        0
280
     0
281
     0
  0
CLASS
  1
LWPOLYLINE
  2
AcDbPolyline
  3
AutoCAD 2000
 90
        0
280
     0
281
     1
  0
CLASS
  1
HATCH
  2
AcDbHatch
  3
AutoCAD 2000
 90
        0
280
     0
281
     1
  0
ENDSEC
  0
SECTION
  2
TABLES
  0
TABLE
  2
VPORT
  5
8
330
0
100
AcDbSymbolTable
 70
     1
  0
VPORT
  5
29
330
8
100
AcDbSymbolTableRecord
100
AcDbViewportTableRecord
  2
*ACTIVE
 70
     0
 10
0.0
 20
0.0
 11
1.0
 21
1.0
 12
105.0
 22
148.5
 13
0.0
 23
0.0
 14
10.0
 24
10.0
 15
10.0
 25
10.0
 16
0.0
 26
0.0
 36
1.0
 17
0.0
 27
0.0
 37
0.0
 40
297.0
 41
0.7070707071
 42
50.0
 43
0.0
 44
0.0
 50
0.0
 51
0.0
 71
     0
 72
  2000
 73
     1
 74
     3
 75
     0
 76
     0
 77
     0
 78
     0
  0
ENDTAB
  0
TABLE
  2
LTYPE
  5
5
330
0
100
AcDbSymbolTable
 70
     6
  0
LTYPE
  5
14
330
5
100
AcDbSymbolTableRecord
100
AcDbLinetypeTableRecord
  2
BYBLOCK
 70
     0
  3

 72
    65
 73
     0
 40
0.0
  0
LTYPE
  5
15
330
5
100
AcDbSymbolTableRecord
100
AcDbLinetypeTableRecord
  2
BYLAYER
 70
     0
  3

 72
    65
 73
     0
 40
0.0
  0
LTYPE
  5
16
330
5
100
AcDbSymbolTableRecord
100
AcDbLinetypeTableRecord
  2
CONTINUOUS
 70
     0
  3
Solid line
 72
    65
 73
     0
 40
0.0
  0
LTYPE
  5
3F
330
5
100
AcDbSymbolTableRecord
100
AcDbLinetypeTableRecord
  2
HIDDEN
 70
     0
  3
Hidden __ __ __ __ __ __ __ __ __ __ __ __ __ __
 72
    65
 73
     2
 40
1.905
 49
1.27
 74
     0
 49
-0.635
 74
     0
  0
LTYPE
  5
40
330
5
100
AcDbSymbolTableRecord
100
AcDbLinetypeTableRecord
  2
PHANTOM
 70
     0
  3
Phantom ______  __  __  ______  __  __  ______
 72
    65
 73
     6
 40
12.7
 49
6.35
 74
     0
 49
-1.27
 74
     0
 49
1.27
 74
     0
 49
-1.27
 74
     0
 49
1.27
 74
     0
 49
-1.27
 74
     0
  0
LTYPE
  5
41
330
5
100
AcDbSymbolTableRecord
100
AcDbLinetypeTableRecord
  2
CENTER
 70
     0
  3
Center ____ _ ____ _ ____ _ ____ _ ____ _ ____
 72
    65
 73
     4
 40
10.16
 49
6.35
 74
     0
 49
-1.27
 74
     0
 49
1.27
 74
     0
 49
-1.27
 74
     0
  0
LTYPE
  5
42
330
5
100
AcDbSymbolTableRecord
100
AcDbLinetypeTableRecord
  2
CENTERX2
 70
     0
  3
Center (2x) ________  __  ________  __  _____
 72
    65
 73
     4
 40
20.32
 49
12.7
 74
     0
 49
-2.54
 74
     0
 49
2.54
 74
     0
 49
-2.54
 74
     0
  0
LTYPE
  5
43
330
5
100
AcDbSymbolTableRecord
100
AcDbLinetypeTableRecord
  2
DOT2
 70
     0
  3
Dot (.5x) ........................................
 72
    65
 73
     2
 40
0.635
 49
0.0
 74
     0
 49
-0.635
 74
     0
  0
ENDTAB
  0
TABLE
  2
LAYER
  5
2
330
0
100
AcDbSymbolTable
 70
     7
  0
LAYER
  5
10
330
2
100
AcDbSymbolTableRecord
100
AcDbLayerTableRecord
  2
0
 70
     0
 62
     7
  6
CONTINUOUS
  0
LAYER
  5
44
330
2
100
AcDbSymbolTableRecord
100
AcDbLayerTableRecord
  2
AUFNAHME
 70
     0
 62
     7
  6
CONTINUOUS
  0
LAYER
  5
45
330
2
100
AcDbSymbolTableRecord
100
AcDbLayerTableRecord
  2
MASS
 70
     0
 62
     4
  6
CONTINUOUS
  0
LAYER
  5
46
330
2
100
AcDbSymbolTableRecord
100
AcDbLayerTableRecord
  2
EW
 70
     0
 62
     1
  6
HIDDEN
  0
LAYER
  5
47
330
2
100
AcDbSymbolTableRecord
100
AcDbLayerTableRecord
  2
UNSICHT
 70
     0
 62
     4
  6
CENTER
  0
LAYER
  5
48
330
2
100
AcDbSymbolTableRecord
100
AcDbLayerTableRecord
  2
TEXT
 70
     0
 62
     7
  6
CONTINUOUS
  0
LAYER
  5
49
330
2
100
AcDbSymbolTableRecord
100
AcDbLayerTableRecord
  2
ZAPFEN
 70
     0
 62
     4
  6
CONTINUOUS
  0
ENDTAB
  0
TABLE
  2
STYLE
  5
3
330
0
100
AcDbSymbolTable
 70
     2
  0
STYLE
  5
11
330
3
100
AcDbSymbolTableRecord
100
AcDbTextStyleTableRecord
  2
STANDARD
 70
     0
 40
0.0
 41
1.0
 50
0.0
 71
     0
 42
3.5
  3
txt
  4

  0
STYLE
  5
70
330
3
100
AcDbSymbolTableRecord
100
AcDbTextStyleTableRecord
  2
SLDTEXTSTYLE0
 70
     0
 40
0.0
 41
0.605
 50
0.0
 71
     0
 42
0.2
  3
TXT
  4

  0
ENDTAB
  0
TABLE
  2
VIEW
  5
6
330
0
100
AcDbSymbolTable
 70
     0
  0
ENDTAB
  0
TABLE
  2
UCS
  5
7
330
0
100
AcDbSymbolTable
 70
     0
  0
ENDTAB
  0
TABLE
  2
APPID
  5
9
330
0
100
AcDbSymbolTable
 70
     1
  0
APPID
  5
12
330
9
100
AcDbSymbolTableRecord
100
AcDbRegAppTableRecord
  2
ACAD
 70
     0
  0
ENDTAB
  0
TABLE
  2
DIMSTYLE
  5
A
330
0
100
AcDbSymbolTable
 70
     4
  0
DIMSTYLE
105
27
330
A
100
AcDbSymbolTableRecord
100
AcDbDimStyleTableRecord
  2
ISO-25
 70
     0
  3

  4

  5

  6

  7

 40
1.0
 41
2.5
 42
0.625
 43
3.75
 44
1.25
 45
0.0
 46
0.0
 47
0.0
 48
0.0
140
2.5
141
2.5
142
0.0
143
0.0393700787
144
1.0
145
0.0
146
1.0
147
0.625
 71
     0
 72
     0
 73
     0
 74
     0
 75
     0
 76
     0
 77
     1
 78
     8
170
     0
171
     3
172
     1
173
     0
174
     0
175
     0
176
     0
177
     0
178
     0
270
     2
271
     2
272
     2
273
     2
274
     3
340
11
275
     0
280
     0
281
     0
282
     0
283
     0
284
     8
285
     0
286
     0
287
     3
288
     0
  0
DIMSTYLE
105
71
102
{ACAD_REACTORS
330
6F
330
7B
330
93
102
}
330
A
100
AcDbSymbolTableRecord
100
AcDbDimStyleTableRecord
  2
SLDDIMSTYLE0
 70
     0
  3

  4

  5

  6

  7

 40
1.0
 41
3.5
 42
0.0625
 43
0.38
 44
0.0
 45
0.000000001
 46
0.0
 47
0.0
 48
0.0
140
3.5
141
0.09
142
0.0
143
25.4
144
1.0
145
0.0
146
1.0
147
0.875
 71
     0
 72
     0
 73
     0
 74
     0
 75
     0
 76
     0
 77
     1
 78
    12
170
     0
171
     2
172
     0
173
     1
174
     0
175
     0
176
     0
177
     0
178
     0
270
     2
271
     2
272
     3
273
     2
274
     2
340
70
275
     0
280
     0
281
     0
282
     0
283
     1
284
    12
285
     0
286
     0
287
     3
288
     0
  0
DIMSTYLE
105
86
102
{ACAD_REACTORS
330
85
102
}
330
A
100
AcDbSymbolTableRecord
100
AcDbDimStyleTableRecord
  2
SLDDIMSTYLE1
 70
     0
  3

  4

  5

  6

  7

 40
1.0
 41
3.5
 42
0.0625
 43
0.38
 44
0.0
 45
0.000000001
 46
0.0
 47
0.0
 48
0.0
140
3.5
141
0.09
142
0.0
143
25.4
144
1.0
145
0.0
146
1.0
147
0.875
 71
     0
 72
     0
 73
     0
 74
     0
 75
     0
 76
     0
 77
     1
 78
    12
170
     0
171
     2
172
     1
173
     1
174
     0
175
     0
176
     0
177
     0
178
     0
270
     2
271
     2
272
     3
273
     2
274
     2
340
70
275
     0
280
     0
281
     0
282
     0
283
     1
284
    12
285
     0
286
     0
288
     0
  0
DIMSTYLE
105
9F
102
{ACAD_REACTORS
330
9E
102
}
330
A
100
AcDbSymbolTableRecord
100
AcDbDimStyleTableRecord
  2
SLDDIMSTYLE2
 70
     0
  3

  4

  5

  6

  7

 40
1.0
 41
3.5
 42
0.0625
 43
0.38
 44
0.0
 45
0.000000001
 46
0.0
 47
0.0
 48
0.0
140
3.5
141
0.09
142
0.0
143
25.4
144
1.0
145
0.0
146
1.0
147
0.875
 71
     0
 72
     0
 73
     0
 74
     0
 75
     0
 76
     0
 77
     1
 78
    12
170
     0
171
     2
172
     1
173
     1
174
     0
175
     0
176
     0
177
     0
178
     0
270
     2
271
     2
272
     3
273
     2
274
     2
340
70
275
     0
280
     0
281
     0
282
     0
283
     1
284
    12
285
     0
286
     0
288
     0
  0
ENDTAB
  0
TABLE
  2
BLOCK_RECORD
  5
1
330
0
100
AcDbSymbolTable
 70
     6
  0
BLOCK_RECORD
  5
1F
330
1
100
AcDbSymbolTableRecord
100
AcDbBlockTableRecord
  2
*MODEL_SPACE
  0
BLOCK_RECORD
  5
1B
330
1
100
AcDbSymbolTableRecord
100
AcDbBlockTableRecord
  2
*PAPER_SPACE
  0
BLOCK_RECORD
  5
23
330
1
100
AcDbSymbolTableRecord
100
AcDbBlockTableRecord
  2
*PAPER_SPACE0
  0
BLOCK_RECORD
  5
72
330
1
100
AcDbSymbolTableRecord
100
AcDbBlockTableRecord
  2
_D
  0
BLOCK_RECORD
  5
7C
330
1
100
AcDbSymbolTableRecord
100
AcDbBlockTableRecord
  2
_D_1
  0
BLOCK_RECORD
  5
87
330
1
100
AcDbSymbolTableRecord
100
AcDbBlockTableRecord
  2
_D_2
  0
BLOCK_RECORD
  5
94
330
1
100
AcDbSymbolTableRecord
100
AcDbBlockTableRecord
  2
_D_3
  0
BLOCK_RECORD
  5
A0
330
1
100
AcDbSymbolTableRecord
100
AcDbBlockTableRecord
  2
_D_4
  0
ENDTAB
  0
ENDSEC
  0
SECTION
  2
BLOCKS
  0
BLOCK
  5
20
330
1F
100
AcDbEntity
  8
0
100
AcDbBlockBegin
  2
*MODEL_SPACE
 70
     0
 10
0.0
 20
0.0
 30
0.0
  3
*MODEL_SPACE
  1

  0
ENDBLK
  5
21
330
1F
100
AcDbEntity
  8
0
100
AcDbBlockEnd
  0
BLOCK
  5
1C
330
1B
100
AcDbEntity
 67
     1
  8
0
100
AcDbBlockBegin
  2
*PAPER_SPACE
 70
     0
 10
0.0
 20
0.0
 30
0.0
  3
*PAPER_SPACE
  1

  0
ENDBLK
  5
1D
330
1B
100
AcDbEntity
 67
     1
  8
0
100
AcDbBlockEnd
  0
BLOCK
  5
24
330
23
100
AcDbEntity
  8
0
100
AcDbBlockBegin
  2
*PAPER_SPACE0
 70
     0
 10
0.0
 20
0.0
 30
0.0
  3
*PAPER_SPACE0
  1

  0
ENDBLK
  5
25
330
23
100
AcDbEntity
  8
0
100
AcDbBlockEnd
  0
BLOCK
  5
73
330
72
100
AcDbEntity
  8
0
100
AcDbBlockBegin
  2
_D
 70
     0
 10
0.0
 20
0.0
 30
0.0
  3
_D
  1

  0
SOLID
  5
75
330
72
100
AcDbEntity
  8
MASS
100
AcDbTrace
 10
22.999992372
 20
-15.511895974
 30
0.0
 11
19.499992372
 21
-15.061895974
 31
0.0
 12
19.499992372
 22
-15.961895974
 32
0.0
 13
19.499992372
 23
-15.961895974
 33
0.0
  0
SOLID
  5
76
330
72
100
AcDbEntity
  8
MASS
100
AcDbTrace
 10
-22.0
 20
-15.511895974
 30
0.0
 11
-18.5
 21
-15.961895974
 31
0.0
 12
-18.5
 22
-15.061895974
 32
0.0
 13
-18.5
 23
-15.061895974
 33
0.0
  0
LINE
  5
77
330
72
100
AcDbEntity
  8
MASS
100
AcDbLine
 10
22.999992372
 20
1.835009155
 30
0.0
 11
22.999992372
 21
-16.511895974
 31
0.0
  0
LINE
  5
78
330
72
100
AcDbEntity
  8
MASS
100
AcDbLine
 10
-22.0
 20
-1.25
 30
0.0
 11
-22.0
 21
-16.511895974
 31
0.0
  0
LINE
  5
79
330
72
100
AcDbEntity
  8
MASS
100
AcDbLine
 10
22.999992372
 20
-15.511895974
 30
0.0
 11
-22.0
 21
-15.511895974
 31
0.0
  0
MTEXT
  5
7A
330
72
100
AcDbEntity
  8
MASS
100
AcDbMText
 10
-3.0072957121
 20
-11.0001587684
 30
0.1
 40
3.5
 41
0.0
 71
     1
 72
     1
  1
45
  7
SLDTEXTSTYLE0
  0
ENDBLK
  5
74
330
72
100
AcDbEntity
  8
0
100
AcDbBlockEnd
  0
BLOCK
  5
7D
330
7C
100
AcDbEntity
  8
0
100
AcDbBlockBegin
  2
_D_1
 70
     0
 10
0.0
 20
0.0
 30
0.0
  3
_D_1
  1

  0
SOLID
  5
7F
330
7C
100
AcDbEntity
  8
MASS
100
AcDbTrace
 10
0.0
 20
-8.3198970556
 30
0.0
 11
-3.5
 21
-7.8698970556
 31
0.0
 12
-3.5
 22
-8.7698970556
 32
0.0
 13
-3.5
 23
-8.7698970556
 33
0.0
  0
SOLID
  5
80
330
7C
100
AcDbEntity
  8
MASS
100
AcDbTrace
 10
-22.0
 20
-8.3198970556
 30
0.0
 11
-18.5
 21
-8.7698970556
 31
0.0
 12
-18.5
 22
-7.8698970556
 32
0.0
 13
-18.5
 23
-7.8698970556
 33
0.0
  0
LINE
  5
81
330
7C
100
AcDbEntity
  8
MASS
100
AcDbLine
 10
0.0
 20
-1.75
 30
0.0
 11
0.0
 21
-9.3198970556
 31
0.0
  0
LINE
  5
82
330
7C
100
AcDbEntity
  8
MASS
100
AcDbLine
 10
-22.0
 20
-1.25
 30
0.0
 11
-22.0
 21
-9.3198970556
 31
0.0
  0
LINE
  5
83
330
7C
100
AcDbEntity
  8
MASS
100
AcDbLine
 10
0.0
 20
-8.3198970556
 30
0.0
 11
-22.0
 21
-8.3198970556
 31
0.0
  0
MTEXT
  5
84
330
7C
100
AcDbEntity
  8
MASS
100
AcDbMText
 10
-14.5072918981
 20
-3.80815985
 30
0.1
 40
3.5
 41
0.0
 71
     1
 72
     1
  1
22
  7
SLDTEXTSTYLE0
  0
ENDBLK
  5
7E
330
7C
100
AcDbEntity
  8
0
100
AcDbBlockEnd
  0
BLOCK
  5
88
330
87
100
AcDbEntity
  8
0
100
AcDbBlockBegin
  2
_D_2
 70
     0
 10
0.0
 20
0.0
 30
0.0
  3
_D_2
  1

  0
SOLID
  5
8A
330
87
100
AcDbEntity
  8
MASS
100
AcDbTrace
 10
-27.6321243364
 20
-1.75
 30
0.0
 11
-28.0821243364
 21
-5.25
 31
0.0
 12
-27.1821243364
 22
-5.25
 32
0.0
 13
-27.1821243364
 23
-5.25
 33
0.0
  0
SOLID
  5
8B
330
87
100
AcDbEntity
  8
MASS
100
AcDbTrace
 10
-27.6321243364
 20
1.75
 30
0.0
 11
-27.1821243364
 21
5.25
 31
0.0
 12
-28.0821243364
 22
5.25
 32
0.0
 13
-28.0821243364
 23
5.25
 33
0.0
  0
LINE
  5
8C
330
87
100
AcDbEntity
  8
MASS
100
AcDbLine
 10
-21.5
 20
-1.75
 30
0.0
 11
-28.6321243364
 21
-1.75
 31
0.0
  0
LINE
  5
8D
330
87
100
AcDbEntity
  8
MASS
100
AcDbLine
 10
-21.5
 20
1.75
 30
0.0
 11
-28.6321243364
 21
1.75
 31
0.0
  0
LINE
  5
8E
330
87
100
AcDbEntity
  8
MASS
100
AcDbLine
 10
-27.6321243364
 20
-1.75
 30
0.0
 11
-27.6321243364
 21
-6.75
 31
0.0
  0
LINE
  5
8F
330
87
100
AcDbEntity
  8
MASS
100
AcDbLine
 10
-27.6321243364
 20
-1.75
 30
0.0
 11
-27.6321243364
 21
1.75
 31
0.0
  0
LINE
  5
90
330
87
100
AcDbEntity
  8
MASS
100
AcDbLine
 10
-27.6321243364
 20
1.75
 30
0.0
 11
-27.6321243364
 21
17.9004101758
 31
0.0
  0
MTEXT
  5
91
330
87
100
AcDbEntity
  8
MASS
100
AcDbMText
 10
-32.1438615421
 20
4.6149930661
 30
0.1
 40
3.5
 41
0.0
 71
     1
 72
     1
  1
%%c
  7
SLDTEXTSTYLE0
 11
6.123233995736766E-17
 21
1.0
 31
0.0
  0
MTEXT
  5
92
330
87
100
AcDbEntity
  8
MASS
100
AcDbMText
 10
-32.1438615421
 20
9.7872154531
 30
0.1
 40
3.5
 41
0.0
 71
     1
 72
     1
  1
3.5
  7
SLDTEXTSTYLE0
 11
6.123233995736766E-17
 21
1.0
 31
0.0
  0
ENDBLK
  5
89
330
87
100
AcDbEntity
  8
0
100
AcDbBlockEnd
  0
BLOCK
  5
95
330
94
100
AcDbEntity
  8
0
100
AcDbBlockBegin
  2
_D_3
 70
     0
 10
0.0
 20
0.0
 30
0.0
  3
_D_3
  1

  0
SOLID
  5
97
330
94
100
AcDbEntity
  8
MASS
100
AcDbTrace
 10
0.0
 20
-8.3198970556
 30
0.0
 11
3.5
 21
-8.7698970556
 31
0.0
 12
3.5
 22
-7.8698970556
 32
0.0
 13
3.5
 23
-7.8698970556
 33
0.0
  0
SOLID
  5
98
330
94
100
AcDbEntity
  8
MASS
100
AcDbTrace
 10
22.999992372
 20
-8.3198970556
 30
0.0
 11
19.499992372
 21
-7.8698970556
 31
0.0
 12
19.499992372
 22
-8.7698970556
 32
0.0
 13
19.499992372
 23
-8.7698970556
 33
0.0
  0
LINE
  5
99
330
94
100
AcDbEntity
  8
MASS
100
AcDbLine
 10
0.0
 20
-1.75
 30
0.0
 11
0.0
 21
-9.3198970556
 31
0.0
  0
LINE
  5
9A
330
94
100
AcDbEntity
  8
MASS
100
AcDbLine
 10
22.999992372
 20
1.835009155
 30
0.0
 11
22.999992372
 21
-9.3198970556
 31
0.0
  0
LINE
  5
9B
330
94
100
AcDbEntity
  8
MASS
100
AcDbLine
 10
0.0
 20
-8.3198970556
 30
0.0
 11
22.999992372
 21
-8.3198970556
 31
0.0
  0
MTEXT
  5
9C
330
94
100
AcDbEntity
  8
MASS
100
AcDbMText
 10
4.0454816825
 20
-3.80815985
 30
0.1
 40
3.5
 41
0.0
 71
     1
 72
     1
  1
10 -
  7
SLDTEXTSTYLE0
  0
MTEXT
  5
9D
330
94
100
AcDbEntity
  8
MASS
100
AcDbMText
 10
11.9399268932
 20
-3.80815985
 30
0.1
 40
3.5
 41
0.0
 71
     1
 72
     1
  1
23
  7
SLDTEXTSTYLE0
  0
ENDBLK
  5
96
330
94
100
AcDbEntity
  8
0
100
AcDbBlockEnd
  0
BLOCK
  5
A1
330
A0
100
AcDbEntity
  8
0
100
AcDbBlockBegin
  2
_D_4
 70
     0
 10
0.0
 20
0.0
 30
0.0
  3
_D_4
  1

  0
SOLID
  5
A3
330
A0
100
AcDbEntity
  8
MASS
100
AcDbTrace
 10
32.6579709959
 20
1.9350076311
 30
0.0
 11
33.1079709959
 21
5.4350076311
 31
0.0
 12
32.2079709959
 22
5.4350076311
 32
0.0
 13
32.2079709959
 23
5.4350076311
 33
0.0
  0
LINE
  5
A4
330
A0
100
AcDbEntity
  8
MASS
100
AcDbLine
 10
22.8999938959
 20
1.9350076311
 30
0.0
 11
33.6579709959
 21
1.9350076311
 31
0.0
  0
LINE
  5
A5
330
A0
100
AcDbEntity
  8
MASS
100
AcDbLine
 10
32.6579709959
 20
-0.015464783
 30
0.0
 11
32.6579709959
 21
1.9350076311
 31
0.0
  0
LINE
  5
A6
330
A0
100
AcDbEntity
  8
MASS
100
AcDbLine
 10
32.6579709959
 20
1.9350076311
 30
0.0
 11
32.6579709959
 21
34.0263008681
 31
0.0
  0
MTEXT
  5
A7
330
A0
100
AcDbEntity
  8
MASS
100
AcDbMText
 10
28.1462337903
 20
5.1707461085
 30
0.1
 40
3.5
 41
0.0
 71
     1
 72
     1
  1
%%c
  7
SLDTEXTSTYLE0
 11
-7.044195017643634E-15
 21
1.0
 31
0.0
  0
MTEXT
  5
A8
330
A0
100
AcDbEntity
  8
MASS
100
AcDbMText
 10
28.1462337903
 20
10.3429684956
 30
0.1
 40
3.5
 41
0.0
 71
     1
 72
     1
  1
3.9 - 4.9 (8.9)
  7
SLDTEXTSTYLE0
 11
-7.044195017643634E-15
 21
1.0
 31
0.0
  0
ENDBLK
  5
A2
330
A0
100
AcDbEntity
  8
0
100
AcDbBlockEnd
  0
ENDSEC
  0
SECTION
  2
ENTITIES
  0
LINE
  5
4A
330
1F
100
AcDbEntity
  8
ZAPFEN
100
AcDbLine
 10
-21.5
 20
-1.75
 30
0.0
 11
-22.0
 21
-1.25
 31
0.0
  0
LINE
  5
4B
330
1F
100
AcDbEntity
  8
ZAPFEN
100
AcDbLine
 10
-22.0
 20
-1.25
 30
0.0
 11
-22.0
 21
1.25
 31
0.0
  0
LINE
  5
4C
330
1F
100
AcDbEntity
  8
ZAPFEN
100
AcDbLine
 10
-22.0
 20
1.25
 30
0.0
 11
-21.5
 21
1.75
 31
0.0
  0
LINE
  5
4D
330
1F
100
AcDbEntity
  8
ZAPFEN
100
AcDbLine
 10
-21.5
 20
1.75
 30
0.0
 11
0.0
 21
1.75
 31
0.0
  0
LINE
  5
4E
330
1F
100
AcDbEntity
  8
AUFNAHME
  6
CONTINUOUS
100
AcDbLine
 10
3.0
 20
1.75
 30
0.0
 11
19.367215069
 21
1.75
 31
0.0
  0
LINE
  5
4F
330
1F
100
AcDbEntity
  8
AUFNAHME
  6
CONTINUOUS
100
AcDbLine
 10
19.367215069
 20
1.75
 30
0.0
 11
22.894759718
 21
1.934870552
 31
0.0
  0
LINE
  5
50
330
1F
100
AcDbEntity
  8
AUFNAHME
  6
CONTINUOUS
100
AcDbLine
 10
22.999992372
 20
1.835009155
 30
0.0
 11
22.864756626
 21
-0.747974979
 31
0.0
  0
LINE
  5
51
330
1F
100
AcDbEntity
  8
AUFNAHME
  6
CONTINUOUS
100
AcDbLine
 10
22.864756626
 20
-0.747974979
 30
0.0
 11
21.80883789
 21
-1.75
 31
0.0
  0
LINE
  5
52
330
1F
100
AcDbEntity
  8
AUFNAHME
  6
CONTINUOUS
100
AcDbLine
 10
21.80883789
 20
-1.75
 30
0.0
 11
1.624161497
 21
-1.75
 31
0.0
  0
LINE
  5
53
330
1F
100
AcDbEntity
  8
ZAPFEN
100
AcDbLine
 10
-21.5
 20
-1.75
 30
0.0
 11
0.0
 21
-1.75
 31
0.0
  0
LINE
  5
54
330
1F
100
AcDbEntity
  8
ZAPFEN
100
AcDbLine
 10
-21.5
 20
-1.75
 30
0.0
 11
-21.5
 21
1.75
 31
0.0
  0
LINE
  5
55
330
1F
100
AcDbEntity
  8
EW
  6
HIDDEN
100
AcDbLine
 10
-22.0
 20
0.5
 30
0.0
 11
13.247344193
 21
0.5
 31
0.0
  0
LINE
  5
56
330
1F
100
AcDbEntity
  8
EW
  6
HIDDEN
100
AcDbLine
 10
-22.0
 20
-0.5
 30
0.0
 11
13.290953812
 21
-0.5
 31
0.0
  0
LINE
  5
57
330
1F
100
AcDbEntity
  8
EW
  6
HIDDEN
100
AcDbLine
 10
13.203337845
 20
0.5
 30
0.0
 11
14.941222367
 21
0.808288574
 31
0.0
  0
LINE
  5
58
330
1F
100
AcDbEntity
  8
EW
  6
HIDDEN
100
AcDbLine
 10
13.290953812
 20
-0.5
 30
0.0
 11
15.92631453
 21
-0.037261963
 31
0.0
  0
LINE
  5
59
330
1F
100
AcDbEntity
  8
UNSICHT
  6
CENTER
100
AcDbLine
 10
-23.356221897
 20
-0.015464783
 30
0.0
 11
24.624165837
 21
-0.015464783
 31
0.0
  0
LINE
  5
5A
330
1F
100
AcDbEntity
  8
AUFNAHME
  6
CONTINUOUS
100
AcDbLine
 10
3.0
 20
1.75
 30
0.0
 11
0.0
 21
1.75
 31
0.0
  0
LINE
  5
5B
330
1F
100
AcDbEntity
  8
AUFNAHME
  6
CONTINUOUS
100
AcDbLine
 10
1.624161497
 20
-1.75
 30
0.0
 11
0.0
 21
-1.75
 31
0.0
  0
LINE
  5
5C
330
1F
100
AcDbEntity
  8
ZAPFEN
100
AcDbLine
 10
0.0
 20
-1.75
 30
0.0
 11
0.0
 21
1.75
 31
0.0
  0
ARC
  5
5D
330
1F
100
AcDbEntity
  8
AUFNAHME
  6
CONTINUOUS
100
AcDbCircle
 10
22.8999938959
 20
1.8350091551
 30
0.0
 40
0.0999984760695227
100
AcDbArc
 50
359.9999999622
 51
93.0003798603
  0
ARC
  5
5E
330
1F
100
AcDbEntity
  8
AUFNAHME
  6
CONTINUOUS
100
AcDbCircle
 10
15.9251903883
 20
0.0415372916
 30
0.0
 40
0.0773496761415354
100
AcDbArc
 50
279.443343867
 51
325.0
  0
ARC
  5
5F
330
1F
100
AcDbEntity
  8
AUFNAHME
  6
CONTINUOUS
100
AcDbCircle
 10
15.8841224724
 20
0.2884326653
 30
0.0
 40
0.3276373091925283
100
AcDbArc
 50
260.570531322
 51
279.4438155517
  0
ARC
  5
60
330
1F
100
AcDbEntity
  8
AUFNAHME
  6
CONTINUOUS
100
AcDbCircle
 10
15.9390125923
 20
0.6189419432
 30
0.0
 40
0.6626735879041193
100
AcDbArc
 50
247.669247656
 51
260.5705312528
  0
ARC
  5
61
330
1F
100
AcDbEntity
  8
AUFNAHME
  6
CONTINUOUS
100
AcDbCircle
 10
16.4238909522
 20
1.7994000673
 30
0.0
 40
1.938835178999978
100
AcDbArc
 50
235.0
 51
247.6693330373
  0
ARC
  5
62
330
1F
100
AcDbEntity
  8
AUFNAHME
  6
CONTINUOUS
100
AcDbCircle
 10
16.4238909522
 20
1.7994000673
 30
0.0
 40
1.938835178999984
100
AcDbArc
 50
222.3306667874
 51
235.0
  0
ARC
  5
63
330
1F
100
AcDbEntity
  8
AUFNAHME
  6
CONTINUOUS
100
AcDbCircle
 10
15.4804613261
 20
0.9400229979
 30
0.0
 40
0.6626735878092723
100
AcDbArc
 50
209.429468678
 51
222.3307523174
  0
ARC
  5
64
330
1F
100
AcDbEntity
  8
AUFNAHME
  6
CONTINUOUS
100
AcDbCircle
 10
15.1886577225
 20
0.7754023271
 30
0.0
 40
0.3276373087151787
100
AcDbArc
 50
190.556184539
 51
209.4294686834
  0
ARC
  5
65
330
1F
100
AcDbEntity
  8
AUFNAHME
  6
CONTINUOUS
100
AcDbCircle
 10
14.9426059077
 20
0.7295503529
 30
0.0
 40
0.0773496760000011
100
AcDbArc
 50
145.0
 51
190.5566560023
  0
ARC
  5
66
330
1F
100
AcDbEntity
  8
AUFNAHME
  6
CONTINUOUS
100
AcDbCircle
 10
14.9426059077
 20
0.7295503529
 30
0.0
 40
0.0773496759999932
100
AcDbArc
 50
99.443343867
 51
145.0
  0
ARC
  5
67
330
1F
100
AcDbEntity
  8
AUFNAHME
  6
CONTINUOUS
100
AcDbCircle
 10
14.9836738228
 20
0.4826549796
 30
0.0
 40
0.3276373086172379
100
AcDbArc
 50
80.570531322
 51
99.4438154079
  0
ARC
  5
68
330
1F
100
AcDbEntity
  8
AUFNAHME
  6
CONTINUOUS
100
AcDbCircle
 10
14.9287837038
 20
0.1521457005
 30
0.0
 40
0.6626735883154936
100
AcDbArc
 50
67.669247656
 51
80.5705313523
  0
ARC
  5
69
330
1F
100
AcDbEntity
  8
AUFNAHME
  6
CONTINUOUS
100
AcDbCircle
 10
14.443905346
 20
-1.028312424
 30
0.0
 40
1.938835179000014
100
AcDbArc
 50
55.0
 51
67.6693330981
  0
ARC
  5
6A
330
1F
100
AcDbEntity
  8
AUFNAHME
  6
CONTINUOUS
100
AcDbCircle
 10
14.443905346
 20
-1.028312424
 30
0.0
 40
1.938835179000008
100
AcDbArc
 50
42.330666885
 51
55.0
  0
ARC
  5
6B
330
1F
100
AcDbEntity
  8
AUFNAHME
  6
CONTINUOUS
100
AcDbCircle
 10
15.3873349699
 20
-0.1689353521
 30
0.0
 40
0.6626735878092631
100
AcDbArc
 50
29.429468678
 51
42.3307523174
  0
ARC
  5
6C
330
1F
100
AcDbEntity
  8
AUFNAHME
  6
CONTINUOUS
100
AcDbCircle
 10
15.6791385734
 20
-0.0043146814
 30
0.0
 40
0.3276373087151702
100
AcDbArc
 50
10.556184539
 51
29.4294686834
  0
ARC
  5
6D
330
1F
100
AcDbEntity
  8
AUFNAHME
  6
CONTINUOUS
100
AcDbCircle
 10
15.9251903883
 20
0.0415372916
 30
0.0
 40
0.0773496761415354
100
AcDbArc
 50
325.0
 51
10.5566568662
  0
ARC
  5
6E
330
1F
100
AcDbEntity
  8
AUFNAHME
  6
CONTINUOUS
100
AcDbCircle
 10
16.71350876
 20
0.250777506
 30
0.0
 40
2.070688380000006
100
AcDbArc
 50
133.612507683
 51
255.069231977
  0
DIMENSION
  5
6F
330
1F
100
AcDbEntity
  8
MASS
100
AcDbDimension
  2
_D
 10
-22.0
 20
-15.511895974
 30
0.0
 11
0.499996186
 21
-15.511895974
 31
0.0
 70
   160
  1
<>
  3
SLDDIMSTYLE0
100
AcDbAlignedDimension
 13
22.999992372
 23
1.835009155
 33
0.0
 14
-22.0
 24
-1.25
 34
0.0
100
AcDbRotatedDimension
  0
DIMENSION
  5
7B
330
1F
100
AcDbEntity
  8
MASS
100
AcDbDimension
  2
_D_1
 10
-22.0
 20
-8.3198970556
 30
0.0
 11
-11.0
 21
-8.3198970556
 31
0.0
 70
   160
  1
<>
  3
SLDDIMSTYLE0
100
AcDbAlignedDimension
 13
0.0
 23
-1.75
 33
0.0
 14
-22.0
 24
-1.25
 34
0.0
100
AcDbRotatedDimension
  0
DIMENSION
  5
85
330
1F
100
AcDbEntity
  8
MASS
100
AcDbDimension
  2
_D_2
 10
-27.6321243364
 20
1.75
 30
0.0
 11
-27.6321243364
 21
11.257701621
 31
0.0
 70
   160
  1
%%c<>
  3
SLDDIMSTYLE1
100
AcDbAlignedDimension
 13
-21.5
 23
-1.75
 33
0.0
 14
-21.5
 24
1.75
 34
0.0
 50
90.0
100
AcDbRotatedDimension
  0
DIMENSION
  5
93
330
1F
100
AcDbEntity
  8
MASS
100
AcDbDimension
  2
_D_3
 10
22.999992372
 20
-8.3198970556
 30
0.0
 11
11.499996186
 21
-8.3198970556
 31
0.0
 70
   160
  1
10 - <>
  3
SLDDIMSTYLE0
100
AcDbAlignedDimension
 13
0.0
 23
-1.75
 33
0.0
 14
22.999992372
 24
1.835009155
 34
0.0
100
AcDbRotatedDimension
  0
DIMENSION
  5
9E
330
1F
100
AcDbEntity
  8
MASS
100
AcDbDimension
  2
_D_4
 10
32.6579709959
 20
-0.015464783
 30
0.0
 11
32.6579709959
 21
19.5985234883
 31
0.0
 70
   160
  1
%%c3.9 - 4.9 (8.9)
  3
SLDDIMSTYLE2
100
AcDbAlignedDimension
 13
22.8999938959
 23
1.9350076311
 33
0.0
 14
24.624165837
 24
-0.015464783
 34
0.0
 50
90.0
100
AcDbRotatedDimension
  0
MTEXT
  5
A9
330
1F
100
AcDbEntity
  8
MASS
100
AcDbMText
 10
7.9431889308
 20
8.343434992
 30
0.0
 40
3.5
 41
0.0
 71
     1
 72
     1
  1
615.080
  7
SLDTEXTSTYLE0
  0
ENDSEC
  0
SECTION
  2
OBJECTS
  0
DICTIONARY
  5
C
330
0
100
AcDbDictionary
  3
ACAD_GROUP
350
D
  3
ACAD_MLINESTYLE
350
17
  0
DICTIONARY
  5
D
102
{ACAD_REACTORS
330
C
102
}
330
C
100
AcDbDictionary
  0
DICTIONARY
  5
17
102
{ACAD_REACTORS
330
C
102
}
330
C
100
AcDbDictionary
  3
STANDARD
350
18
  0
MLINESTYLE
  5
18
102
{ACAD_REACTORS
330
17
102
}
330
17
100
AcDbMlineStyle
  2
Standard
 70
     0
  3

 62
   256
 51
90.0
 52
90.0
 71
     2
 49
0.5
 62
   256
  6
BYLAYER
 49
-0.5
 62
   256
  6
BYLAYER
  0
ENDSEC
  0
EOF
