  0
SECTION
  2
HEADER
  9
$ACADVER
  1
AC1009
  9
$INSBASE
 10
0.0
 20
0.0
 30
0.0
  9
$EXTMIN
 10
-2.0747643880830711
 20
-0.3579999999999876
 30
0.0
  9
$EXTMAX
 10
0.7108311549588532
 20
1.3766478235726289
 30
0.0
  9
$LIMMIN
 10
0.0
 20
0.0
  9
$LIMMAX
 10
12.0
 20
9.0
  9
$ORTHOMODE
 70
     1
  9
$REGENMODE
 70
     1
  9
$FILLMODE
 70
     1
  9
$QTEXTMODE
 70
     0
  9
$MIRRTEXT
 70
     1
  9
$DRAGMODE
 70
     2
  9
$LTSCALE
 40
1.0
  9
$OSMODE
 70
   183
  9
$ATTMODE
 70
     1
  9
$TEXTSIZE
 40
0.2
  9
$TRACEWID
 40
0.05
  9
$TEXTSTYLE
  7
STYLE1
  9
$CLAYER
  8
DIM
  9
$CELTYPE
  6
BYLAYER
  9
$CECOLOR
 62
   256
  9
$DIMSCALE
 40
1.0
  9
$DIMASZ
 40
0.12
  9
$DIMEXO
 40
0.0625
  9
$DIMDLI
 40
0.38
  9
$DIMRND
 40
0.0
  9
$DIMDLE
 40
0.0
  9
$DIMEXE
 40
0.0625
  9
$DIMTP
 40
0.0
  9
$DIMTM
 40
0.0
  9
$DIMTXT
 40
0.125
  9
$DIMCEN
 40
0.0
  9
$DIMTSZ
 40
0.0
  9
$DIMTOL
 70
     0
  9
$DIMLIM
 70
     0
  9
$DIMTIH
 70
     0
  9
$DIMTOH
 70
     0
  9
$DIMSE1
 70
     0
  9
$DIMSE2
 70
     0
  9
$DIMTAD
 70
     1
  9
$DIMZIN
 70
     0
  9
$DIMBLK
  1

  9
$DIMASO
 70
     1
  9
$DIMSHO
 70
     1
  9
$DIMPOST
  1

  9
$DIMAPOST
  1

  9
$DIMALT
 70
     0
  9
$DIMALTD
 70
     2
  9
$DIMALTF
 40
25.399999999999999
  9
$DIMLFAC
 40
1.0
  9
$DIMTOFL
 70
     1
  9
$DIMTVP
 40
0.0
  9
$DIMTIX
 70
     0
  9
$DIMSOXD
 70
     0
  9
$DIMSAH
 70
     0
  9
$DIMBLK1
  1

  9
$DIMBLK2
  1

  9
$DIMSTYLE
  2
STANDARD
  9
$DIMCLRD
 70
     0
  9
$DIMCLRE
 70
     0
  9
$DIMCLRT
 70
     0
  9
$DIMTFAC
 40
1.0
  9
$DIMGAP
 40
0.05
  9
$LUNITS
 70
     2
  9
$LUPREC
 70
     4
  9
$SKETCHINC
 40
0.1
  9
$FILLETRAD
 40
0.0
  9
$AUNITS
 70
     0
  9
$AUPREC
 70
     0
  9
$MENU
  1
acad
  9
$ELEVATION
 40
0.0
  9
$PELEVATION
 40
0.0
  9
$THICKNESS
 40
0.0
  9
$LIMCHECK
 70
     0
  9
$BLIPMODE
 70
     0
  9
$CHAMFERA
 40
0.0
  9
$CHAMFERB
 40
0.0
  9
$SKPOLY
 70
     0
  9
$TDCREATE
 40
2452642.5607607751
  9
$TDUPDATE
 40
2452646.5605580551
  9
$TDINDWG
 40
0.0334689699
  9
$TDUSRTIMER
 40
0.0334682755
  9
$USRTIMER
 70
     1
  9
$ANGBASE
 50
0.0
  9
$ANGDIR
 70
     0
  9
$PDMODE
 70
    65
  9
$PDSIZE
 40
-2.0
  9
$PLINEWID
 40
0.0
  9
$COORDS
 70
     1
  9
$SPLFRAME
 70
     0
  9
$SPLINETYPE
 70
     6
  9
$SPLINESEGS
 70
     8
  9
$ATTDIA
 70
     0
  9
$ATTREQ
 70
     1
  9
$HANDLING
 70
 22529
  9
$HANDSEED
  5
859
  9
$SURFTAB1
 70
     6
  9
$SURFTAB2
 70
     6
  9
$SURFTYPE
 70
     6
  9
$SURFU
 70
     6
  9
$SURFV
 70
     6
  9
$UCSNAME
  2

  9
$UCSORG
 10
0.0
 20
0.0
 30
0.0
  9
$UCSXDIR
 10
1.0
 20
0.0
 30
0.0
  9
$UCSYDIR
 10
0.0
 20
1.0
 30
0.0
  9
$PUCSNAME
  2

  9
$PUCSORG
 10
0.0
 20
0.0
 30
0.0
  9
$PUCSXDIR
 10
1.0
 20
0.0
 30
0.0
  9
$PUCSYDIR
 10
0.0
 20
1.0
 30
0.0
  9
$USERI1
 70
     0
  9
$USERI2
 70
     0
  9
$USERI3
 70
     0
  9
$USERI4
 70
     0
  9
$USERI5
 70
     0
  9
$USERR1
 40
0.0
  9
$USERR2
 40
0.0
  9
$USERR3
 40
0.0
  9
$USERR4
 40
0.0
  9
$USERR5
 40
0.0
  9
$WORLDVIEW
 70
     1
  9
$SHADEDGE
 70
     3
  9
$SHADEDIF
 70
    70
  9
$TILEMODE
 70
     1
  9
$MAXACTVP
 70
    16
  9
$PLIMCHECK
 70
     0
  9
$PEXTMIN
 10
0.0
 20
0.0
 30
0.0
  9
$PEXTMAX
 10
0.0
 20
0.0
 30
0.0
  9
$PLIMMIN
 10
0.0
 20
0.0
  9
$PLIMMAX
 10
12.0
 20
9.0
  9
$UNITMODE
 70
     0
  9
$VISRETAIN
 70
     0
  9
$PLINEGEN
 70
     0
  9
$PSLTSCALE
 70
     1
  0
ENDSEC
  0
SECTION
  2
TABLES
  0
TABLE
  2
VPORT
 70
     2
  0
VPORT
  2
*ACTIVE
 70
     0
 10
0.0
 20
0.0
 11
1.0
 21
1.0
 12
-249.64181735199469
 22
-245.39021757832461
 13
0.0
 23
0.0
 14
1.0
 24
1.0
 15
0.0
 25
0.0
 16
0.0
 26
0.0
 36
1.0
 17
248.95965176913489
 27
245.8997127951682
 37
0.0
 40
1.8688954925678789
 41
1.4987562189054719
 42
50.0
 43
0.0
 44
0.0
 50
0.0
 51
0.0
 71
     0
 72
  1000
 73
     1
 74
     0
 75
     0
 76
     0
 77
     0
 78
     0
  0
ENDTAB
  0
TABLE
  2
LTYPE
 70
    13
  0
LTYPE
  2
CONTINUOUS
 70
     0
  3
Solid line
 72
    65
 73
     0
 40
0.0
  0
LTYPE
  2
HIDDEN
 70
     0
  3
__ __ __ __ __ __ __ __ __ __ __ __ __ __ __ __
 72
    65
 73
     2
 40
0.375
 49
0.25
 49
-0.125
  0
LTYPE
  2
CENTER
 70
     0
  3
____ _ ____ _ ____ _ ____ _ ____ _ ____ _ ____
 72
    65
 73
     4
 40
2.0
 49
1.25
 49
-0.25
 49
0.25
 49
-0.25
  0
LTYPE
  2
PHANTOM2
 70
     0
  3
Phantom (.5x) ___ _ _ ___ _ _ ___ _ _ ___ _ _
 72
    65
 73
     6
 40
31.75
 49
15.875
 49
-3.174999999999998
 49
3.174999999999998
 49
-3.174999999999998
 49
3.174999999999998
 49
-3.174999999999998
  0
LTYPE
  2
AMCONSTR
 70
     0
  3
_______________________
 72
    65
 73
     2
 40
9999.0
 49
9999.0
 49
0.0
  0
LTYPE
  2
ACISOWELD
 70
     0
  3
_ _ _ _ _
 72
    65
 73
     2
 40
2.0
 49
2.0
 49
-1.0
  0
LTYPE
  2
ACISOTGB
 70
     0
  3
__ . . __ . .
 72
    65
 73
     6
 40
9.0
 49
4.0
 49
-1.0
 49
1.0
 49
-1.0
 49
1.0
 49
-1.0
  0
LTYPE
  2
ACISOTGL
 70
     0
  3
_ _ _ _ _
 72
    65
 73
     2
 40
3.0
 49
2.0
 49
-1.0
  0
LTYPE
  2
CENTER2
 70
     0
  3
Center (.5x) ___ _ ___ _ ___ _ ___ _ ___ _ ___
 72
    65
 73
     4
 40
1.125
 49
0.75
 49
-0.125
 49
0.125
 49
-0.125
  0
LTYPE
  2
HIDDEN2
 70
     0
  3
Hidden (.5x) _ _ _ _ _ _ _ _ _ _ _ _ _ _ _ _ _
 72
    65
 73
     2
 40
0.1875
 49
0.125
 49
-0.0625
  0
LTYPE
  2
AMZIGZAG2
 70
     0
  3
/\/-/\/-/\/-/\/-/\/-/\/
 72
    65
 73
     2
 40
0.4401
 49
0.0001
 49
-0.4400000000000003
  0
LTYPE
  2
ACANSTGBM
 70
     0
  3
__ . . __ . .
 72
    65
 73
     6
 40
9.0
 49
4.0
 49
-1.0
 49
1.0
 49
-1.0
 49
1.0
 49
-1.0
  0
LTYPE
  2
ACANSTGLM
 70
     0
  3
_ _ _ _ _
 72
    65
 73
     2
 40
3.0
 49
2.0
 49
-1.0
  0
ENDTAB
  0
TABLE
  2
LAYER
 70
     7
  0
LAYER
  2
0
 70
     0
 62
     7
  6
CONTINUOUS
  0
LAYER
  2
LINE
 70
     0
 62
     3
  6
CONTINUOUS
  0
LAYER
  2
HIDDEN
 70
     0
 62
     2
  6
HIDDEN
  0
LAYER
  2
DIM
 70
     0
 62
     7
  6
CONTINUOUS
  0
LAYER
  2
CTRL
 70
     0
 62
     1
  6
CENTER
  0
LAYER
  2
KA
 70
     0
 62
     3
  6
CONTINUOUS
  0
LAYER
  2
DEFPOINTS
 70
     0
 62
     7
  6
CONTINUOUS
  0
ENDTAB
  0
TABLE
  2
STYLE
 70
     8
  0
STYLE
  2
STANDARD
 70
     0
 40
0.0
 41
1.0
 50
0.0
 71
     0
 42
0.2
  3
ROMANS.SHX
  4

  0
STYLE
  2
ROMANS
 70
     0
 40
0.0
 41
1.0
 50
0.0
 71
     0
 42
0.24
  3
romans
  4

  0
STYLE
  2
STYLE1
 70
     0
 40
0.0
 41
1.0
 50
0.0
 71
     0
 42
0.2
  3
romans.shx
  4

  0
STYLE
  2

 70
     1
 40
0.0
 41
1.0
 50
0.0
 71
     0
 42
0.2
  3
ltypeshp.shx
  4

  0
STYLE
  2
ACISOTS
 70
     0
 40
1.0
 41
1.0
 50
0.0
 71
     0
 42
0.2
  3
isocp.shx
  4

  0
STYLE
  2
ACISOGDT
 70
     0
 40
0.0
 41
1.0
 50
0.0
 71
     0
 42
0.2
  3
amgdt.shx
  4

  0
STYLE
  2
ACANSTS
 70
     0
 40
1.0
 41
1.0
 50
0.0
 71
     0
 42
0.2
  3
romans.shx
  4

  0
STYLE
  2
ACANSGDT
 70
     0
 40
0.0
 41
1.0
 50
0.0
 71
     0
 42
0.2
  3
amgdtans.shx
  4

  0
ENDTAB
  0
TABLE
  2
VIEW
 70
     0
  0
ENDTAB
  0
TABLE
  2
UCS
 70
     0
  0
ENDTAB
  0
TABLE
  2
APPID
 70
    13
  0
APPID
  2
ACAD
 70
     0
  0
APPID
  2
GENIUS_GENDIM_13
 70
     0
  0
APPID
  2
GENIUS_GENDTOL_13
 70
     0
  0
APPID
  2
GENIUS_GE3DTOL_13
 70
     0
  0
APPID
  2
MCAD_NO_VIS
 70
     0
  0
APPID
  2
ACAD_TEMP_GRAPHIC
 70
     0
  0
APPID
  2
AD_DRAW
 70
     0
  0
APPID
  2
ACATTRIBSERVICES
 70
     0
  0
APPID
  2
ASURF_PCURVE_APPNAME
 70
     0
  0
APPID
  2
AMG_3D2D_5_0
 70
     0
  0
APPID
  2
DESIGNERASSEMBLIES
 70
     0
  0
APPID
  2
ACADM_DIM_EDIT
 70
     0
  0
APPID
  2
AMDT_DM_ADJ
 70
     0
  0
ENDTAB
  0
TABLE
  2
DIMSTYLE
 70
    14
  0
DIMSTYLE
  2
STANDARD
 70
     0
  3

  4

  5

  6

  7

 40
1.0
 41
0.12
 42
0.0625
 43
0.38
 44
0.0625
 45
0.0
 46
0.0
 47
0.0
 48
0.0
140
0.125
141
0.0
142
0.0
143
25.399999999999999
144
1.0
145
0.0
146
1.0
147
0.05
 71
     0
 72
     0
 73
     0
 74
     0
 75
     0
 76
     0
 77
     1
 78
     0
170
     0
171
     2
172
     1
173
     0
174
     0
175
     0
176
     0
177
     0
178
     0
  0
DIMSTYLE
  2
AM_ISO
 70
     0
  3

  4
"
  5

  6

  7

 40
1.0
 41
2.5
 42
1.0
 43
10.0
 44
1.0
 45
0.0
 46
0.0
 47
0.1
 48
0.1
140
3.5
141
0.0
142
0.0
143
0.0393701
144
1.0
145
0.0
146
0.71
147
1.5
 71
     0
 72
     0
 73
     0
 74
     0
 75
     0
 76
     0
 77
     1
 78
     8
170
     0
171
     2
172
     1
173
     0
174
     0
175
     0
176
   256
177
   256
178
     2
  0
DIMSTYLE
  2
AM_ISO$3
 70
     0
  3

  4
"
  5

  6

  7

 40
1.0
 41
2.5
 42
1.0
 43
10.0
 44
1.0
 45
0.0
 46
0.0
 47
0.1
 48
0.1
140
3.5
141
0.0
142
0.0
143
0.0393701
144
1.0
145
0.0
146
0.71
147
1.5
 71
     0
 72
     0
 73
     0
 74
     1
 75
     0
 76
     0
 77
     1
 78
     8
170
     0
171
     2
172
     0
173
     0
174
     0
175
     0
176
   256
177
   256
178
     2
  0
DIMSTYLE
  2
AM_ISO$4
 70
     0
  3

  4
"
  5

  6

  7

 40
1.0
 41
2.5
 42
1.0
 43
10.0
 44
1.0
 45
0.0
 46
0.0
 47
0.1
 48
0.1
140
3.5
141
0.0
142
0.0
143
0.0393701
144
1.0
145
0.0
146
0.71
147
1.5
 71
     0
 72
     0
 73
     0
 74
     1
 75
     0
 76
     0
 77
     1
 78
     8
170
     0
171
     2
172
     0
173
     0
174
     0
175
     0
176
   256
177
   256
178
     2
  0
DIMSTYLE
  2
AM_ISO$6
 70
     0
  3

  4
"
  5

  6

  7

 40
1.0
 41
2.5
 42
1.0
 43
10.0
 44
1.0
 45
0.0
 46
0.0
 47
0.1
 48
0.1
140
3.5
141
0.0
142
0.0
143
0.0393701
144
1.0
145
0.0
146
0.71
147
1.5
 71
     0
 72
     0
 73
     0
 74
     0
 75
     0
 76
     0
 77
     0
 78
     8
170
     0
171
     2
172
     1
173
     0
174
     0
175
     0
176
   256
177
   256
178
     2
  0
DIMSTYLE
  2
AM_ISO$7
 70
     0
  3

  4
"
  5

  6

  7

 40
1.0
 41
2.5
 42
1.0
 43
10.0
 44
1.0
 45
0.0
 46
0.0
 47
0.1
 48
0.1
140
5.0
141
0.0
142
0.0
143
0.0393701
144
1.0
145
0.0
146
0.71
147
1.5
 71
     0
 72
     0
 73
     0
 74
     0
 75
     0
 76
     0
 77
     1
 78
     8
170
     0
171
     2
172
     1
173
     0
174
     0
175
     0
176
   256
177
   256
178
     2
  0
DIMSTYLE
  2
AM_ISO$SF
 70
     0
  3

  4
"
  5

  6

  7

 40
1.0
 41
2.5
 42
1.0
 43
10.0
 44
1.0
 45
0.0
 46
0.0
 47
0.1
 48
0.1
140
3.5
141
0.0
142
0.0
143
0.0393701
144
1.0
145
0.0
146
0.71
147
1.5
 71
     0
 72
     0
 73
     0
 74
     0
 75
     1
 76
     1
 77
     1
 78
     8
170
     0
171
     2
172
     1
173
     0
174
     0
175
     0
176
   256
177
   256
178
     2
  0
DIMSTYLE
  2
AM_ISO$SH
 70
     0
  3

  4
"
  5

  6
GENAXEH
  7

 40
1.0
 41
2.5
 42
1.0
 43
10.0
 44
1.0
 45
0.0
 46
0.0
 47
0.1
 48
0.1
140
3.5
141
0.0
142
0.0
143
0.0393701
144
2.0
145
0.0
146
0.71
147
1.5
 71
     0
 72
     0
 73
     0
 74
     0
 75
     1
 76
     1
 77
     1
 78
     8
170
     0
171
     2
172
     1
173
     1
174
     0
175
     0
176
   256
177
   256
178
     2
  0
DIMSTYLE
  2
AM_ANSI
 70
     0
  3

  4
"
  5

  6

  7

 40
1.0
 41
2.5
 42
1.0
 43
10.0
 44
1.0
 45
0.0
 46
0.0
 47
0.1
 48
0.1
140
3.5
141
0.0
142
0.0
143
0.0393701
144
1.0
145
0.0
146
0.71
147
1.5
 71
     0
 72
     0
 73
     1
 74
     1
 75
     0
 76
     0
 77
     0
 78
     8
170
     0
171
     2
172
     0
173
     0
174
     0
175
     0
176
   256
177
   256
178
     2
  0
DIMSTYLE
  2
AM_ANSI$3
 70
     0
  3

  4
"
  5

  6

  7

 40
1.0
 41
2.5
 42
1.0
 43
10.0
 44
1.0
 45
0.0
 46
0.0
 47
0.1
 48
0.1
140
3.5
141
0.0
142
0.0
143
0.0393701
144
1.0
145
0.0
146
0.71
147
1.5
 71
     0
 72
     0
 73
     1
 74
     1
 75
     0
 76
     0
 77
     0
 78
     8
170
     0
171
     2
172
     0
173
     0
174
     0
175
     0
176
   256
177
   256
178
     2
  0
DIMSTYLE
  2
AM_ANSI$4
 70
     0
  3

  4
"
  5

  6

  7

 40
1.0
 41
2.5
 42
1.0
 43
10.0
 44
1.0
 45
0.0
 46
0.0
 47
0.1
 48
0.1
140
3.5
141
0.0
142
0.0
143
0.0393701
144
1.0
145
0.0
146
0.71
147
1.5
 71
     0
 72
     0
 73
     1
 74
     1
 75
     0
 76
     0
 77
     0
 78
     8
170
     0
171
     2
172
     0
173
     0
174
     0
175
     0
176
   256
177
   256
178
     2
  0
DIMSTYLE
  2
AM_ANSI$7
 70
     0
  3

  4
"
  5

  6

  7

 40
1.0
 41
2.5
 42
1.0
 43
10.0
 44
1.0
 45
0.0
 46
0.0
 47
0.1
 48
0.1
140
5.0
141
0.0
142
0.0
143
0.0393701
144
1.0
145
0.0
146
0.71
147
1.5
 71
     0
 72
     0
 73
     1
 74
     1
 75
     0
 76
     0
 77
     0
 78
     8
170
     0
171
     2
172
     0
173
     0
174
     0
175
     0
176
   256
177
   256
178
     2
  0
DIMSTYLE
  2
AM_ANSI$SF
 70
     0
  3

  4
"
  5

  6

  7

 40
1.0
 41
2.5
 42
1.0
 43
10.0
 44
1.0
 45
0.0
 46
0.0
 47
0.1
 48
0.1
140
3.5
141
0.0
142
0.0
143
0.0393701
144
1.0
145
0.0
146
0.71
147
1.5
 71
     0
 72
     0
 73
     1
 74
     1
 75
     1
 76
     1
 77
     0
 78
     8
170
     0
171
     2
172
     0
173
     0
174
     0
175
     0
176
   256
177
   256
178
     2
  0
DIMSTYLE
  2
AM_ANSI$SH
 70
     0
  3

  4
"
  5

  6
GENAXEH
  7

 40
1.0
 41
2.5
 42
1.0
 43
10.0
 44
1.0
 45
0.0
 46
0.0
 47
0.1
 48
0.1
140
3.5
141
0.0
142
0.0
143
0.0393701
144
1.0
145
0.0
146
0.71
147
1.5
 71
     0
 72
     0
 73
     1
 74
     1
 75
     1
 76
     1
 77
     0
 78
     8
170
     0
171
     2
172
     0
173
     1
174
     0
175
     0
176
   256
177
   256
178
     2
  0
ENDTAB
  0
ENDSEC
  0
SECTION
  2
BLOCKS
  0
BLOCK
  8
0
  2
$MODEL_SPACE
 70
     0
 10
0.0
 20
0.0
 30
0.0
  3
$MODEL_SPACE
  1

  0
ENDBLK
  5
1C
  8
0
  0
BLOCK
 67
     1
  8
0
  2
$PAPER_SPACE
 70
     0
 10
0.0
 20
0.0
 30
0.0
  3
$PAPER_SPACE
  1

  0
ENDBLK
  5
4B3
 67
     1
  8
0
  0
BLOCK
  8
0
  2
*U0
 70
     1
 10
0.0
 20
0.0
 30
0.0
  3
*U0
  1

  0
ENDBLK
  5
3D8
  8
0
  0
BLOCK
  8
0
  2
GENAXEH
 70
     0
 10
0.0
 20
0.0
 30
0.0
  3
GENAXEH
  1

  0
LINE
  5
416
  8
0
 10
-1.0
 20
0.0
 30
0.0
 11
1.0
 21
0.0
 31
0.0
  0
ENDBLK
  5
418
  8
0
  0
BLOCK
  8
0
  2
*D2
 70
     1
 10
0.0
 20
0.0
 30
0.0
  3
*D2
  1

  0
LINE
  5
830
  8
DIM
 62
     0
 10
-1.3583199999999971
 20
0.3295388148040135
 30
0.0
 11
-1.3583199999999971
 21
1.2641478235726289
 31
0.0
  0
LINE
  5
831
  8
DIM
 62
     0
 10
0.0590000000000009
 20
0.3749993750000089
 30
0.0
 11
0.059000000000001
 21
1.2641478235726289
 31
0.0
  0
LINE
  5
832
  8
DIM
 62
     0
 10
-1.2383199999999981
 20
1.2016478235726289
 30
0.0
 11
-0.0609999999999991
 21
1.2016478235726289
 31
0.0
  0
SOLID
  5
833
  8
DIM
 62
     0
 10
-1.2383199999999981
 20
1.2216478235726289
 30
0.0
 11
-1.2383199999999981
 21
1.1816478235726291
 31
0.0
 12
-1.3583199999999971
 22
1.2016478235726289
 32
0.0
 13
-1.3583199999999971
 23
1.2016478235726289
 33
0.0
  0
SOLID
  5
834
  8
DIM
 62
     0
 10
-0.0609999999999991
 20
1.2216478235726289
 30
0.0
 11
-0.0609999999999991
 21
1.1816478235726291
 31
0.0
 12
0.059000000000001
 22
1.2016478235726289
 32
0.0
 13
0.059000000000001
 23
1.2016478235726289
 33
0.0
  0
TEXT
  5
835
  8
DIM
 62
     0
 10
-0.9264457142857139
 20
1.2516478235726289
 30
0.0
 40
0.125
  1
1.417
  7
ROMANS
  0
POINT
  5
836
  8
DEFPOINTS
 62
     0
 10
-1.3583199999999971
 20
0.2670388148040135
 30
0.0
  0
POINT
  5
837
  8
DEFPOINTS
 62
     0
 10
0.0590000000000009
 20
0.3124993750000089
 30
0.0
  0
POINT
  5
838
  8
DEFPOINTS
 62
     0
 10
0.059000000000001
 20
1.2016478235726289
 30
0.0
  0
ENDBLK
  5
719
  8
0
  0
BLOCK
  8
0
  2
*D3
 70
     1
 10
0.0
 20
0.0
 30
0.0
  3
*D3
  1

  0
LINE
  5
840
  8
DIM
 62
     0
 10
0.1215000000000003
 20
0.1180000000000126
 30
0.0
 11
0.7108311549588532
 21
0.1180000000000124
 31
0.0
  0
LINE
  5
841
  8
DIM
 62
     0
 10
0.1215000000000002
 20
-0.1179999999999874
 30
0.0
 11
0.7108311549588532
 21
-0.1179999999999876
 31
0.0
  0
LINE
  5
842
  8
DIM
 62
     0
 10
0.6483311549588532
 20
-0.2379999999999876
 30
0.0
 11
0.6483311549588531
 21
-0.3579999999999876
 31
0.0
  0
LINE
  5
843
  8
DIM
 62
     0
 10
0.6483311549588532
 20
0.2380000000000124
 30
0.0
 11
0.6483311549588535
 21
1.038357142857155
 31
0.0
  0
LINE
  5
844
  8
DIM
 62
     0
 10
0.6483311549588532
 20
-0.1179999999999876
 30
0.0
 11
0.6483311549588532
 21
0.1180000000000124
 31
0.0
  0
SOLID
  5
845
  8
DIM
 62
     0
 10
0.6283311549588532
 20
-0.2379999999999876
 30
0.0
 11
0.6683311549588532
 21
-0.2379999999999876
 31
0.0
 12
0.6483311549588532
 22
-0.1179999999999876
 32
0.0
 13
0.6483311549588532
 23
-0.1179999999999876
 33
0.0
  0
SOLID
  5
846
  8
DIM
 62
     0
 10
0.6283311549588532
 20
0.2380000000000124
 30
0.0
 11
0.6683311549588532
 21
0.2380000000000124
 31
0.0
 12
0.6483311549588532
 22
0.1180000000000124
 32
0.0
 13
0.6483311549588532
 23
0.1180000000000124
 33
0.0
  0
INSERT
  5
847
  8
DIM
  2
*U7
 10
0.0
 20
0.0
 30
0.0
  0
POINT
  5
848
  8
DEFPOINTS
 62
     0
 10
0.0590000000000003
 20
0.1180000000000126
 30
0.0
  0
POINT
  5
849
  8
DEFPOINTS
 62
     0
 10
0.0590000000000002
 20
-0.1179999999999874
 30
0.0
  0
POINT
  5
84A
  8
DEFPOINTS
 62
     0
 10
0.6483311549588532
 20
-0.1179999999999876
 30
0.0
  0
ENDBLK
  5
727
  8
0
  0
BLOCK
  8
0
  2
*D4
 70
     1
 10
0.0
 20
0.0
 30
0.0
  3
*D4
  1

  0
LINE
  5
81B
  8
DIM
 62
     0
 10
-1.381449999999997
 20
0.3124993750000056
 30
0.0
 11
-1.962264388083071
 21
0.3124993750000058
 31
0.0
  0
LINE
  5
81C
  8
DIM
 62
     0
 10
-1.3814499999999901
 20
-0.3124993750000055
 30
0.0
 11
-1.962264388083071
 21
-0.3124993750000053
 31
0.0
  0
LINE
  5
81D
  8
DIM
 62
     0
 10
-1.899764388083071
 20
-0.1924993750000054
 30
0.0
 11
-1.899764388083071
 21
0.1924993750000058
 31
0.0
  0
LINE
  5
81E
  8
DIM
 62
     0
 10
-1.899764388083071
 20
0.3124993750000058
 30
0.0
 11
-1.899764388083071
 21
1.145594613095243
 31
0.0
  0
SOLID
  5
81F
  8
DIM
 62
     0
 10
-1.919764388083071
 20
-0.1924993750000054
 30
0.0
 11
-1.879764388083071
 21
-0.1924993750000054
 31
0.0
 12
-1.899764388083071
 22
-0.3124993750000053
 32
0.0
 13
-1.899764388083071
 23
-0.3124993750000053
 33
0.0
  0
SOLID
  5
820
  8
DIM
 62
     0
 10
-1.919764388083071
 20
0.1924993750000058
 30
0.0
 11
-1.879764388083071
 21
0.1924993750000058
 31
0.0
 12
-1.899764388083071
 22
0.3124993750000058
 32
0.0
 13
-1.899764388083071
 23
0.3124993750000058
 33
0.0
  0
INSERT
  5
821
  8
DIM
  2
*U6
 10
0.0
 20
0.0
 30
0.0
  0
POINT
  5
822
  8
DEFPOINTS
 62
     0
 10
-1.3189499999999981
 20
0.3124993750000056
 30
0.0
  0
POINT
  5
823
  8
DEFPOINTS
 62
     0
 10
-1.3189499999999901
 20
-0.3124993750000056
 30
0.0
  0
POINT
  5
824
  8
DEFPOINTS
 62
     0
 10
-1.899764388083071
 20
-0.3124993750000053
 30
0.0
  0
ENDBLK
  5
748
  8
0
  0
BLOCK
  8
0
  2
*D5
 70
     1
 10
0.0
 20
0.0
 30
0.0
  3
*D5
  1

  0
LINE
  5
810
  8
DIM
 62
     0
 10
0.0
 20
0.3749993750000005
 30
0.0
 11
0.0
 21
0.9473005013115475
 31
0.0
  0
LINE
  5
811
  8
DIM
 62
     0
 10
0.0589999999999996
 20
0.3749993750000067
 30
0.0
 11
0.0589999999999997
 21
0.9473005013115475
 31
0.0
  0
LINE
  5
812
  8
DIM
 62
     0
 10
0.1789999999999996
 20
0.8848005013115475
 30
0.0
 11
0.2989999999999996
 21
0.8848005013115475
 31
0.0
  0
LINE
  5
813
  8
DIM
 62
     0
 10
-0.1199999999999999
 20
0.8848005013115475
 30
0.0
 11
-0.8449258545257466
 21
0.8848005013115475
 31
0.0
  0
LINE
  5
814
  8
DIM
 62
     0
 10
0.0589999999999996
 20
0.8848005013115475
 30
0.0
 11
0.0
 21
0.8848005013115475
 31
0.0
  0
SOLID
  5
815
  8
DIM
 62
     0
 10
0.1789999999999996
 20
0.9048005013115474
 30
0.0
 11
0.1789999999999996
 21
0.8648005013115476
 31
0.0
 12
0.0589999999999996
 22
0.8848005013115475
 32
0.0
 13
0.0589999999999996
 23
0.8848005013115475
 33
0.0
  0
SOLID
  5
816
  8
DIM
 62
     0
 10
-0.1199999999999999
 20
0.9048005013115474
 30
0.0
 11
-0.1199999999999999
 21
0.8648005013115476
 31
0.0
 12
0.0
 22
0.8848005013115475
 32
0.0
 13
0.0
 23
0.8848005013115475
 33
0.0
  0
TEXT
  5
817
  8
DIM
 62
     0
 10
-0.8127829973828896
 20
0.9348005013115475
 30
0.0
 40
0.125
  1
0.059
  7
ROMANS
  0
POINT
  5
818
  8
DEFPOINTS
 62
     0
 10
0.0
 20
0.3124993750000005
 30
0.0
  0
POINT
  5
819
  8
DEFPOINTS
 62
     0
 10
0.0589999999999996
 20
0.3124993750000067
 30
0.0
  0
POINT
  5
81A
  8
DEFPOINTS
 62
     0
 10
0.0589999999999996
 20
0.8848005013115475
 30
0.0
  0
ENDBLK
  5
77E
  8
0
  0
BLOCK
  8
0
  2
*U6
 70
     1
 10
0.0
 20
0.0
 30
0.0
  3
*U6
  1

  0
TEXT
  5
850
  8
DIM
 62
     0
 10
-1.9497643880830711
 20
0.4705946130952439
 30
0.0
 40
0.125
  1
\U+2205
 50
90.0
  7
ROMANS
  0
TEXT
  5
851
  8
DIM
 62
     0
 10
-1.9497643880830711
 20
0.5836898511904819
 30
0.0
 40
0.125
  1
0.625
 50
90.0
  7
ROMANS
  0
ENDBLK
  5
853
  8
0
  0
BLOCK
  8
0
  2
*U7
 70
     1
 10
0.0
 20
0.0
 30
0.0
  3
*U7
  1

  0
TEXT
  5
855
  8
DIM
 62
     0
 10
0.5983311549588533
 20
0.4288333333333461
 30
0.0
 40
0.125
  1
\U+2205
 50
90.0
  7
ROMANS
  0
TEXT
  5
856
  8
DIM
 62
     0
 10
0.5983311549588533
 20
0.5419285714285842
 30
0.0
 40
0.125
  1
6mm
 50
90.0
  7
ROMANS
  0
ENDBLK
  5
858
  8
0
  0
ENDSEC
  0
SECTION
  2
ENTITIES
  0
LINE
  5
65D
  8
HIDDEN
 10
-1.3583199999999971
 20
-0.1179999999999907
 30
0.0
 11
0.0590000000000002
 21
-0.1179999999999874
 31
0.0
  0
LINE
  5
65E
  8
HIDDEN
 10
-1.3583199999999971
 20
0.1180000000000149
 30
0.0
 11
0.0590000000000003
 21
0.1180000000000126
 31
0.0
  0
LINE
  5
65F
  8
KA
 10
-0.0610644435655375
 20
-0.3124993750000089
 30
0.0
 11
-1.3189499999999901
 21
-0.3124993750000056
 31
0.0
  0
LINE
  5
660
  8
CTRL
 10
0.1486572523983364
 20
0.0000000000000134
 30
0.0
 11
-1.4470993698389929
 21
-0.0000000000000011
 31
0.0
  0
LINE
  5
661
  8
KA
 10
-0.061064443565535
 20
0.3124993750000088
 30
0.0
 11
-1.3189499999999981
 21
0.3124993750000056
 31
0.0
  0
LINE
  5
663
  8
KA
 10
-1.3583199999999971
 20
-0.2897690949020068
 30
0.0
 11
-1.3583199999999991
 21
0.2897690949020093
 31
0.0
  0
LINE
  5
6F3
  8
LINE
 10
0.0589999999999998
 20
-0.3124993750000068
 30
0.0
 11
0.0
 21
-0.3124993750000005
 31
0.0
  0
LINE
  5
6F4
  8
LINE
 10
0.0589999999999998
 20
0.3124993750000065
 30
0.0
 11
0.0
 21
0.3124993750000005
 31
0.0
  0
LINE
  5
6F7
  8
KA
 10
0.0
 20
-0.2906572825940371
 30
0.0
 11
-0.0610644435655362
 21
-0.2906572825940337
 31
0.0
  0
LINE
  5
6F8
  8
KA
 10
-0.0610644435655374
 20
-0.3124993750000089
 30
0.0
 11
-0.061064443565535
 21
0.3124993750000088
 31
0.0
  0
LINE
  5
6FB
  8
LINE
 10
0.0
 20
-0.312499375
 30
0.0
 11
0.0
 21
0.312499375
 31
0.0
  0
LINE
  5
6FC
  8
KA
 10
0.0
 20
0.2906572825940369
 30
0.0
 11
-0.0610644435655362
 21
0.2906572825940335
 31
0.0
  0
LINE
  5
700
  8
LINE
 10
0.0590000000000009
 20
-0.3124993750000089
 30
0.0
 11
0.0589999999999996
 21
0.3124993750000067
 31
0.0
  0
LINE
  5
708
  8
KA
 10
-1.3189499999999961
 20
0.3124993750000057
 30
0.0
 11
-1.3583199999999991
 21
0.2897690949020095
 31
0.0
  0
LINE
  5
709
  8
KA
 10
-1.318949999999991
 20
-0.3124993750000047
 30
0.0
 11
-1.3583199999999971
 21
-0.2897690949020068
 31
0.0
  0
DIMENSION
  5
70C
  8
DIM
  2
*D2
 10
0.059000000000001
 20
1.2016478235726289
 30
0.0
 11
-0.6496599999999996
 21
1.2016478235726289
 31
0.0
 70
   128
 13
-1.3583199999999971
 23
0.2670388148040135
 33
0.0
 14
0.0590000000000009
 24
0.3124993750000089
 34
0.0
  0
DIMENSION
  5
71A
  8
DIM
  2
*D3
 10
0.6483311549588532
 20
-0.1179999999999876
 30
0.0
 11
0.6483311549588532
 21
0.7145476190476318
 31
0.0
 70
   128
  1
%%C6mm
 13
0.0590000000000003
 23
0.1180000000000126
 33
0.0
 14
0.0590000000000002
 24
-0.1179999999999874
 34
0.0
 50
90.0
  0
DIMENSION
  5
73C
  8
DIM
  2
*D4
 10
-1.899764388083071
 20
-0.3124993750000053
 30
0.0
 11
-1.899764388083071
 21
0.7890469940476247
 31
0.0
 70
   128
  1
%%c<>
 13
-1.3189499999999981
 23
0.3124993750000056
 33
0.0
 14
-1.3189499999999901
 24
-0.3124993750000056
 34
0.0
 50
90.0
  0
DIMENSION
  5
770
  8
DIM
  2
*D5
 10
0.0589999999999996
 20
0.8848005013115475
 30
0.0
 11
-0.5479020450019372
 21
0.8848005013115475
 31
0.0
 70
   128
 13
0.0
 23
0.3124993750000005
 33
0.0
 14
0.0589999999999996
 24
0.3124993750000067
 34
0.0
  0
ENDSEC
  0
EOF
