  0
SECTION
  2
HEADER
  9
$ACADVER
  1
AC1015
  9
$ACADMAINTVER
 70
    13
  9
$DWGCODEPAGE
  3
ANSI_1252
  9
$INSBASE
 10
312.9486589243621
 20
-1038.47173726141
 30
0.0
  9
$EXTMIN
 10
-51.76366015494193
 20
-27.00234703438297
 30
-0.0015258207003583
  9
$EXTMAX
 10
70.77872812878263
 20
49.91583808827548
 30
0.0000000349246037
  9
$LIMMIN
 10
0.0
 20
0.0
  9
$LIMMAX
 10
12.0
 20
9.0
  9
$ORTHOMODE
 70
     1
  9
$REGENMODE
 70
     1
  9
$FILLMODE
 70
     1
  9
$QTEXTMODE
 70
     0
  9
$MIRRTEXT
 70
     0
  9
$LTSCALE
 40
10.0
  9
$ATTMODE
 70
     1
  9
$TEXTSIZE
 40
5.0
  9
$TRACEWID
 40
0.05
  9
$TEXTSTYLE
  7
ROMANS
  9
$CLAYER
  8
DIM
  9
$CELTYPE
  6
BYLAYER
  9
$CECOLOR
 62
     3
  9
$CELTSCALE
 40
1.0
  9
$DISPSILH
 70
     0
  9
$DIMSCALE
 40
15.0
  9
$DIMASZ
 40
0.18
  9
$DIMEXO
 40
0.0625
  9
$DIMDLI
 40
0.38
  9
$DIMRND
 40
0.0
  9
$DIMDLE
 40
0.0
  9
$DIMEXE
 40
0.18
  9
$DIMTP
 40
0.0
  9
$DIMTM
 40
0.0
  9
$DIMTXT
 40
0.18
  9
$DIMCEN
 40
0.09
  9
$DIMTSZ
 40
0.0
  9
$DIMTOL
 70
     0
  9
$DIMLIM
 70
     0
  9
$DIMTIH
 70
     0
  9
$DIMTOH
 70
     0
  9
$DIMSE1
 70
     0
  9
$DIMSE2
 70
     0
  9
$DIMTAD
 70
     1
  9
$DIMZIN
 70
     0
  9
$DIMBLK
  1

  9
$DIMASO
 70
     1
  9
$DIMSHO
 70
     1
  9
$DIMPOST
  1

  9
$DIMAPOST
  1

  9
$DIMALT
 70
     0
  9
$DIMALTD
 70
     2
  9
$DIMALTF
 40
25.4
  9
$DIMLFAC
 40
1.0
  9
$DIMTOFL
 70
     0
  9
$DIMTVP
 40
0.0
  9
$DIMTIX
 70
     0
  9
$DIMSOXD
 70
     0
  9
$DIMSAH
 70
     0
  9
$DIMBLK1
  1

  9
$DIMBLK2
  1

  9
$DIMSTYLE
  2
STANDARD
  9
$DIMCLRD
 70
   256
  9
$DIMCLRE
 70
   256
  9
$DIMCLRT
 70
   256
  9
$DIMTFAC
 40
1.0
  9
$DIMGAP
 40
0.09
  9
$DIMJUST
 70
     0
  9
$DIMSD1
 70
     0
  9
$DIMSD2
 70
     0
  9
$DIMTOLJ
 70
     1
  9
$DIMTZIN
 70
     0
  9
$DIMALTZ
 70
     0
  9
$DIMALTTZ
 70
     0
  9
$DIMUPT
 70
     0
  9
$DIMDEC
 70
     1
  9
$DIMTDEC
 70
     1
  9
$DIMALTU
 70
     2
  9
$DIMALTTD
 70
     2
  9
$DIMTXSTY
  7
ROMANS
  9
$DIMAUNIT
 70
     0
  9
$DIMADEC
 70
     0
  9
$DIMALTRND
 40
0.0
  9
$DIMAZIN
 70
     0
  9
$DIMDSEP
 70
    46
  9
$DIMATFIT
 70
     3
  9
$DIMFRAC
 70
     0
  9
$DIMLDRBLK
  1

  9
$DIMLUNIT
 70
     2
  9
$DIMLWD
 70
    -1
  9
$DIMLWE
 70
    -1
  9
$DIMTMOVE
 70
     0
  9
$LUNITS
 70
     2
  9
$LUPREC
 70
     4
  9
$SKETCHINC
 40
0.1
  9
$FILLETRAD
 40
0.0
  9
$AUNITS
 70
     0
  9
$AUPREC
 70
     0
  9
$MENU
  1
acad
  9
$ELEVATION
 40
0.0
  9
$PELEVATION
 40
0.0
  9
$THICKNESS
 40
0.0
  9
$LIMCHECK
 70
     0
  9
$CHAMFERA
 40
1.5
  9
$CHAMFERB
 40
1.5
  9
$CHAMFERC
 40
0.0
  9
$CHAMFERD
 40
0.0
  9
$SKPOLY
 70
     0
  9
$TDCREATE
 40
2449974.566112731
  9
$TDUCREATE
 40
2449974.816112731
  9
$TDUPDATE
 40
2452660.550285497
  9
$TDUUPDATE
 40
2452660.800285497
  9
$TDINDWG
 40
0.9867693171
  9
$TDUSRTIMER
 40
0.9867690856
  9
$USRTIMER
 70
     1
  9
$ANGBASE
 50
0.0
  9
$ANGDIR
 70
     0
  9
$PDMODE
 70
     0
  9
$PDSIZE
 40
0.0
  9
$PLINEWID
 40
0.0
  9
$SPLFRAME
 70
     0
  9
$SPLINETYPE
 70
     6
  9
$SPLINESEGS
 70
     8
  9
$HANDSEED
  5
1BB
  9
$SURFTAB1
 70
     6
  9
$SURFTAB2
 70
     6
  9
$SURFTYPE
 70
     6
  9
$SURFU
 70
     6
  9
$SURFV
 70
     6
  9
$UCSBASE
  2

  9
$UCSNAME
  2

  9
$UCSORG
 10
0.0
 20
0.0
 30
0.0
  9
$UCSXDIR
 10
1.0
 20
0.0
 30
0.0
  9
$UCSYDIR
 10
0.0
 20
1.0
 30
0.0
  9
$UCSORTHOREF
  2

  9
$UCSORTHOVIEW
 70
     0
  9
$UCSORGTOP
 10
0.0
 20
0.0
 30
0.0
  9
$UCSORGBOTTOM
 10
0.0
 20
0.0
 30
0.0
  9
$UCSORGLEFT
 10
0.0
 20
0.0
 30
0.0
  9
$UCSORGRIGHT
 10
0.0
 20
0.0
 30
0.0
  9
$UCSORGFRONT
 10
0.0
 20
0.0
 30
0.0
  9
$UCSORGBACK
 10
0.0
 20
0.0
 30
0.0
  9
$PUCSBASE
  2

  9
$PUCSNAME
  2

  9
$PUCSORG
 10
0.0
 20
0.0
 30
0.0
  9
$PUCSXDIR
 10
1.0
 20
0.0
 30
0.0
  9
$PUCSYDIR
 10
0.0
 20
1.0
 30
0.0
  9
$PUCSORTHOREF
  2

  9
$PUCSORTHOVIEW
 70
     0
  9
$PUCSORGTOP
 10
0.0
 20
0.0
 30
0.0
  9
$PUCSORGBOTTOM
 10
0.0
 20
0.0
 30
0.0
  9
$PUCSORGLEFT
 10
0.0
 20
0.0
 30
0.0
  9
$PUCSORGRIGHT
 10
0.0
 20
0.0
 30
0.0
  9
$PUCSORGFRONT
 10
0.0
 20
0.0
 30
0.0
  9
$PUCSORGBACK
 10
0.0
 20
0.0
 30
0.0
  9
$USERI1
 70
     0
  9
$USERI2
 70
     0
  9
$USERI3
 70
     0
  9
$USERI4
 70
     0
  9
$USERI5
 70
     0
  9
$USERR1
 40
0.0
  9
$USERR2
 40
0.0
  9
$USERR3
 40
0.0
  9
$USERR4
 40
0.0
  9
$USERR5
 40
0.0
  9
$WORLDVIEW
 70
     1
  9
$SHADEDGE
 70
     3
  9
$SHADEDIF
 70
    70
  9
$TILEMODE
 70
     1
  9
$MAXACTVP
 70
    16
  9
$PINSBASE
 10
0.0
 20
0.0
 30
0.0
  9
$PLIMCHECK
 70
     0
  9
$PEXTMIN
 10
1.000000000000000E+20
 20
1.000000000000000E+20
 30
1.000000000000000E+20
  9
$PEXTMAX
 10
-1.000000000000000E+20
 20
-1.000000000000000E+20
 30
-1.000000000000000E+20
  9
$PLIMMIN
 10
0.0
 20
0.0
  9
$PLIMMAX
 10
12.0
 20
9.0
  9
$UNITMODE
 70
     0
  9
$VISRETAIN
 70
     0
  9
$PLINEGEN
 70
     0
  9
$PSLTSCALE
 70
     1
  9
$TREEDEPTH
 70
  3020
  9
$CMLSTYLE
  2
STANDARD
  9
$CMLJUST
 70
     0
  9
$CMLSCALE
 40
1.0
  9
$PROXYGRAPHICS
 70
     1
  9
$MEASUREMENT
 70
     0
  9
$CELWEIGHT
370
    -1
  9
$ENDCAPS
280
     0
  9
$JOINSTYLE
280
     0
  9
$LWDISPLAY
290
     0
  9
$INSUNITS
 70
     0
  9
$HYPERLINKBASE
  1

  9
$STYLESHEET
  1

  9
$XEDIT
290
     1
  9
$CEPSNTYPE
380
     0
  9
$PSTYLEMODE
290
     1
  9
$FINGERPRINTGUID
  2
{68339D29-D71A-4731-8A28-335676C3431C}
  9
$VERSIONGUID
  2
{6208A7EE-C9F5-4E54-B0D3-244A2E47B31A}
  9
$EXTNAMES
290
     1
  9
$PSVPSCALE
 40
0.0
  9
$OLESTARTUP
290
     0
  0
ENDSEC
  0
SECTION
  2
CLASSES
  0
CLASS
  1
DICTIONARYVAR
  2
AcDbDictionaryVar
  3
AutoCAD 2000
 90
        0
280
     0
281
     0
  0
CLASS
  1
LWPOLYLINE
  2
AcDbPolyline
  3
AutoCAD 2000
 90
    32768
280
     0
281
     1
  0
CLASS
  1
OLE2FRAME
  2
AcDbOle2Frame
  3
AutoCAD 2000
 90
    32768
280
     0
281
     1
  0
CLASS
  1
ACDBDICTIONARYWDFLT
  2
AcDbDictionaryWithDefault
  3
AutoCAD 2000
 90
        0
280
     0
281
     0
  0
CLASS
  1
ACDBPLACEHOLDER
  2
AcDbPlaceHolder
  3
AutoCAD 2000
 90
        0
280
     0
281
     0
  0
CLASS
  1
LAYOUT
  2
AcDbLayout
  3
AutoCAD 2000
 90
        0
280
     0
281
     0
  0
CLASS
  1
LONG_TRANSACTION
  2
AcDbLongTransaction
  3
AutoCAD 2000
 90
    32768
280
     0
281
     0
  0
CLASS
  1
LWPOLYLINE
  2
AcDbPolyline
  3
AutoCAD 2000
 90
    32768
280
     0
281
     1
  0
CLASS
  1
HATCH
  2
AcDbHatch
  3
AutoCAD 2000
 90
    32768
280
     0
281
     1
  0
CLASS
  1
XRECORD
  2
AcDbXrecord
  3
AutoCAD 2000
 90
    32768
280
     0
281
     0
  0
ENDSEC
  0
SECTION
  2
TABLES
  0
TABLE
  2
VPORT
  5
12
330
0
100
AcDbSymbolTable
 70
     2
  0
VPORT
  5
1BA
330
12
100
AcDbSymbolTableRecord
100
AcDbViewportTableRecord
  2
*Active
 70
     0
 10
0.0
 20
0.0
 11
1.0
 21
1.0
 12
9.507533986920357
 22
11.45674552694624
 13
0.0
 23
0.0
 14
1.0
 24
1.0
 15
0.0
 25
0.0
 16
0.0
 26
0.0
 36
1.0
 17
0.0
 27
0.0
 37
0.0
 40
82.16933369408133
 41
1.498756218905472
 42
50.0
 43
0.0
 44
0.0
 50
0.0
 51
0.0
 71
     0
 72
 10000
 73
     1
 74
     1
 75
     0
 76
     0
 77
     0
 78
     0
281
     0
 65
     1
110
0.0
120
0.0
130
0.0
111
1.0
121
0.0
131
0.0
112
0.0
122
1.0
132
0.0
 79
     0
146
0.0
  0
ENDTAB
  0
TABLE
  2
LTYPE
  5
D
330
0
100
AcDbSymbolTable
 70
     3
  0
LTYPE
  5
E
330
D
100
AcDbSymbolTableRecord
100
AcDbLinetypeTableRecord
  2
BYBLOCK
 70
     0
  3

 72
    65
 73
     0
 40
0.0
  0
LTYPE
  5
F
330
D
100
AcDbSymbolTableRecord
100
AcDbLinetypeTableRecord
  2
BYLAYER
 70
     0
  3

 72
    65
 73
     0
 40
0.0
  0
LTYPE
  5
5
330
D
100
AcDbSymbolTableRecord
100
AcDbLinetypeTableRecord
  2
CONTINUOUS
 70
     0
  3
Solid line
 72
    65
 73
     0
 40
0.0
  0
LTYPE
  5
26
330
D
100
AcDbSymbolTableRecord
100
AcDbLinetypeTableRecord
  2
HIDDEN
 70
     0
  3
_ _ _ _ _ _ _ _ _ _ _ _ _ _ _ _ _ _ _ _ _ _ _
 72
    65
 73
     2
 40
0.375
 49
0.25
 74
     0
 49
-0.125
 74
     0
  0
LTYPE
  5
21
330
D
100
AcDbSymbolTableRecord
100
AcDbLinetypeTableRecord
  2
CENTER
 70
     0
  3
____ _ ____ _ ____ _ ____ _ ____ _ ____ _ ____
 72
    65
 73
     4
 40
2.0
 49
1.25
 74
     0
 49
-0.25
 74
     0
 49
0.25
 74
     0
 49
-0.25
 74
     0
  0
ENDTAB
  0
TABLE
  2
LAYER
  5
A
330
0
100
AcDbSymbolTable
 70
     7
  0
LAYER
  5
4
330
A
100
AcDbSymbolTableRecord
100
AcDbLayerTableRecord
  2
0
 70
     0
 62
     7
  6
CONTINUOUS
370
    -3
390
67
  0
LAYER
  5
1B
330
A
100
AcDbSymbolTableRecord
100
AcDbLayerTableRecord
  2
LINE
 70
     0
 62
     3
  6
CONTINUOUS
370
    -3
390
67
  0
LAYER
  5
25
330
A
100
AcDbSymbolTableRecord
100
AcDbLayerTableRecord
  2
HIDDEN
 70
     0
 62
     2
  6
HIDDEN
370
    -3
390
67
  0
LAYER
  5
20
330
A
100
AcDbSymbolTableRecord
100
AcDbLayerTableRecord
  2
CTRL
 70
     0
 62
     1
  6
CENTER
370
    -3
390
67
  0
LAYER
  5
D6
330
A
100
AcDbSymbolTableRecord
100
AcDbLayerTableRecord
  2
DIM
 70
     0
 62
     7
  6
CONTINUOUS
370
    -3
390
67
  0
LAYER
  5
D7
330
A
100
AcDbSymbolTableRecord
100
AcDbLayerTableRecord
  2
KA
 70
     0
 62
     3
  6
CONTINUOUS
370
    -3
390
67
  0
LAYER
  5
D9
330
A
100
AcDbSymbolTableRecord
100
AcDbLayerTableRecord
  2
Defpoints
 70
     0
 62
     7
  6
CONTINUOUS
290
     0
370
    -3
390
67
  0
ENDTAB
  0
TABLE
  2
STYLE
  5
B
330
0
100
AcDbSymbolTable
 70
     2
  0
STYLE
  5
C
330
B
100
AcDbSymbolTableRecord
100
AcDbTextStyleTableRecord
  2
STANDARD
 70
     0
 40
0.0
 41
1.0
 50
0.0
 71
     0
 42
0.2
  3
txt
  4

  0
STYLE
  5
1C
330
B
100
AcDbSymbolTableRecord
100
AcDbTextStyleTableRecord
  2
ROMANS
 70
     0
 40
0.0
 41
1.0
 50
0.0
 71
     0
 42
5.0
  3
romans
  4

  0
ENDTAB
  0
TABLE
  2
VIEW
  5
10
330
0
100
AcDbSymbolTable
 70
     0
  0
ENDTAB
  0
TABLE
  2
UCS
  5
11
330
0
100
AcDbSymbolTable
 70
     0
  0
ENDTAB
  0
TABLE
  2
APPID
  5
14
330
0
100
AcDbSymbolTable
 70
     1
  0
APPID
  5
15
330
14
100
AcDbSymbolTableRecord
100
AcDbRegAppTableRecord
  2
ACAD
 70
     0
  0
ENDTAB
  0
TABLE
  2
DIMSTYLE
  5
16
330
0
100
AcDbSymbolTable
 70
     1
100
AcDbDimStyleTable
 71
     1
340
1E
  0
DIMSTYLE
105
1E
102
{ACAD_REACTORS
330
D8
330
E6
330
F3
330
100
330
10D
102
}
330
16
100
AcDbSymbolTableRecord
100
AcDbDimStyleTableRecord
  2
STANDARD
 70
     0
 40
15.0
 73
     0
 74
     0
 77
     1
176
   256
177
   256
178
   256
271
     1
272
     1
340
1C
371
    -1
372
    -1
  0
ENDTAB
  0
TABLE
  2
BLOCK_RECORD
  5
1
330
0
100
AcDbSymbolTable
 70
     5
  0
BLOCK_RECORD
  5
2
102
{ACAD_XDICTIONARY
360
C4
102
}
330
1
100
AcDbSymbolTableRecord
100
AcDbBlockTableRecord
  2
*MODEL_SPACE
340
6A
  0
BLOCK_RECORD
  5
7
102
{ACAD_XDICTIONARY
360
C6
102
}
330
1
100
AcDbSymbolTableRecord
100
AcDbBlockTableRecord
  2
*PAPER_SPACE
340
6B
  0
BLOCK_RECORD
  5
DA
330
1
100
AcDbSymbolTableRecord
100
AcDbBlockTableRecord
  2
*D0
340
0
  0
BLOCK_RECORD
  5
E7
330
1
100
AcDbSymbolTableRecord
100
AcDbBlockTableRecord
  2
*D1
340
0
  0
BLOCK_RECORD
  5
F4
330
1
100
AcDbSymbolTableRecord
100
AcDbBlockTableRecord
  2
*D2
340
0
  0
BLOCK_RECORD
  5
101
330
1
100
AcDbSymbolTableRecord
100
AcDbBlockTableRecord
  2
*D3
340
0
  0
BLOCK_RECORD
  5
10E
330
1
100
AcDbSymbolTableRecord
100
AcDbBlockTableRecord
  2
*D4
340
0
  0
ENDTAB
  0
ENDSEC
  0
SECTION
  2
BLOCKS
  0
BLOCK
  5
3
330
2
100
AcDbEntity
  8
0
100
AcDbBlockBegin
  2
*MODEL_SPACE
 70
     0
 10
0.0
 20
0.0
 30
0.0
  3
*MODEL_SPACE
  1

  0
ENDBLK
  5
6
330
2
100
AcDbEntity
  8
0
100
AcDbBlockEnd
  0
BLOCK
  5
8
330
7
100
AcDbEntity
 67
     1
  8
0
100
AcDbBlockBegin
  2
*PAPER_SPACE
 70
     0
 10
0.0
 20
0.0
 30
0.0
  3
*PAPER_SPACE
  1

  0
ENDBLK
  5
9
330
7
100
AcDbEntity
 67
     1
  8
0
100
AcDbBlockEnd
  0
BLOCK
  5
E4
330
DA
100
AcDbEntity
  8
0
 62
     3
100
AcDbBlockBegin
  2
*D0
 70
     1
 10
0.0
 20
0.0
 30
0.0
  3
*D0
  1

  0
LINE
  5
1B1
330
DA
100
AcDbEntity
  8
DIM
100
AcDbLine
 10
-24.00000000000003
 20
11.32749999999964
 30
0.0
 11
-24.00000000000003
 21
48.5634906957334
 31
0.0
  0
LINE
  5
1B2
330
DA
100
AcDbEntity
  8
DIM
100
AcDbLine
 10
50.00312902599507
 20
26.4375093072407
 30
0.0
 11
50.00312902599507
 21
48.56349069573339
 31
0.0
  0
LINE
  5
1B3
330
DA
100
AcDbEntity
  8
DIM
100
AcDbLine
 10
-21.30000000000003
 20
45.8634906957334
 30
0.0
 11
47.30312902599506
 21
45.8634906957334
 31
0.0
  0
SOLID
  5
1B4
330
DA
100
AcDbEntity
  8
DIM
100
AcDbTrace
 10
-21.30000000000003
 20
46.3134906957334
 30
0.0
 11
-21.30000000000003
 21
45.41349069573339
 31
0.0
 12
-24.00000000000003
 22
45.8634906957334
 32
0.0
 13
-24.00000000000003
 23
45.8634906957334
 33
0.0
  0
SOLID
  5
1B5
330
DA
100
AcDbEntity
  8
DIM
100
AcDbTrace
 10
47.30312902599506
 20
46.3134906957334
 30
0.0
 11
47.30312902599506
 21
45.41349069573339
 31
0.0
 12
50.00312902599507
 22
45.8634906957334
 32
0.0
 13
50.00312902599507
 23
45.8634906957334
 33
0.0
  0
MTEXT
  5
1B6
330
DA
100
AcDbEntity
  8
DIM
100
AcDbMText
 10
13.00156451299752
 20
48.5634906957334
 30
0.0
 40
2.699999999999999
 41
0.0
 71
     5
 72
     1
  1
\A1;74.0
  7
ROMANS
 73
     1
 44
1.0
  0
POINT
  5
1B7
330
DA
100
AcDbEntity
  8
Defpoints
 62
     0
100
AcDbPoint
 10
-24.00000000000003
 20
10.38999999999964
 30
0.0
  0
POINT
  5
1B8
330
DA
100
AcDbEntity
  8
Defpoints
 62
     0
100
AcDbPoint
 10
50.00312902599507
 20
25.5000093072407
 30
0.0
  0
POINT
  5
1B9
330
DA
100
AcDbEntity
  8
Defpoints
 62
     0
100
AcDbPoint
 10
50.00312902599507
 20
45.8634906957334
 30
0.0
  0
ENDBLK
  5
E5
330
DA
100
AcDbEntity
  8
0
 62
     3
100
AcDbBlockEnd
  0
BLOCK
  5
F1
330
E7
100
AcDbEntity
  8
0
 62
     3
100
AcDbBlockBegin
  2
*D1
 70
     1
 10
0.0
 20
0.0
 30
0.0
  3
*D1
  1

  0
LINE
  5
1A8
330
E7
100
AcDbEntity
  8
DIM
100
AcDbLine
 10
-0.1875
 20
19.49999999999964
 30
0.0
 11
-50.40992097156738
 21
19.49999999999966
 31
0.0
  0
LINE
  5
1A9
330
E7
100
AcDbEntity
  8
DIM
100
AcDbLine
 10
-0.1875
 20
-19.4999999999993
 30
0.0
 11
-50.4099209715674
 21
-19.49999999999929
 31
0.0
  0
LINE
  5
1AA
330
E7
100
AcDbEntity
  8
DIM
100
AcDbLine
 10
-47.70992097156738
 20
16.79999999999966
 30
0.0
 11
-47.7099209715674
 21
-16.79999999999929
 31
0.0
  0
SOLID
  5
1AB
330
E7
100
AcDbEntity
  8
DIM
100
AcDbTrace
 10
-48.15992097156739
 20
16.79999999999966
 30
0.0
 11
-47.25992097156738
 21
16.79999999999966
 31
0.0
 12
-47.70992097156738
 22
19.49999999999966
 32
0.0
 13
-47.70992097156738
 23
19.49999999999966
 33
0.0
  0
SOLID
  5
1AC
330
E7
100
AcDbEntity
  8
DIM
100
AcDbTrace
 10
-48.1599209715674
 20
-16.79999999999929
 30
0.0
 11
-47.2599209715674
 21
-16.79999999999929
 31
0.0
 12
-47.7099209715674
 22
-19.49999999999929
 32
0.0
 13
-47.7099209715674
 23
-19.49999999999929
 33
0.0
  0
MTEXT
  5
1AD
330
E7
100
AcDbEntity
  8
DIM
100
AcDbMText
 10
-50.40992097156739
 20
0.0000000000001773
 30
0.0
 40
2.699999999999999
 41
0.0
 71
     5
 72
     1
  1
\A1;%%c39.0
  7
ROMANS
 11
0.0000000000000001
 21
1.0
 31
0.0
 73
     1
 44
1.0
  0
POINT
  5
1AE
330
E7
100
AcDbEntity
  8
Defpoints
 62
     0
100
AcDbPoint
 10
0.75
 20
19.49999999999964
 30
0.0
  0
POINT
  5
1AF
330
E7
100
AcDbEntity
  8
Defpoints
 62
     0
100
AcDbPoint
 10
0.75
 20
-19.4999999999993
 30
0.0
  0
POINT
  5
1B0
330
E7
100
AcDbEntity
  8
Defpoints
 62
     0
100
AcDbPoint
 10
-47.7099209715674
 20
-19.49999999999929
 30
0.0
  0
ENDBLK
  5
F2
330
E7
100
AcDbEntity
  8
0
 62
     3
100
AcDbBlockEnd
  0
BLOCK
  5
FE
330
F4
100
AcDbEntity
  8
0
 62
     3
100
AcDbBlockBegin
  2
*D2
 70
     1
 10
0.0
 20
0.0
 30
0.0
  3
*D2
  1

  0
LINE
  5
19E
330
F4
100
AcDbEntity
  8
DIM
100
AcDbLine
 10
0.0000000000000001
 20
19.68749999999966
 30
0.0
 11
0.0000000000000009
 21
33.40261457019728
 31
0.0
  0
LINE
  5
19F
330
F4
100
AcDbEntity
  8
DIM
100
AcDbLine
 10
3.999999999999771
 20
20.43750000000011
 30
0.0
 11
3.999999999999772
 21
33.40261457019728
 31
0.0
  0
LINE
  5
1A0
330
F4
100
AcDbEntity
  8
DIM
100
AcDbLine
 10
-2.699999999999998
 20
30.70261457019728
 30
0.0
 11
-5.399999999999998
 21
30.70261457019728
 31
0.0
  0
LINE
  5
1A1
330
F4
100
AcDbEntity
  8
DIM
100
AcDbLine
 10
6.699999999999771
 20
30.70261457019728
 30
0.0
 11
17.75714285714262
 21
30.70261457019728
 31
0.0
  0
SOLID
  5
1A2
330
F4
100
AcDbEntity
  8
DIM
100
AcDbTrace
 10
-2.699999999999998
 20
31.15261457019728
 30
0.0
 11
-2.699999999999998
 21
30.25261457019728
 31
0.0
 12
0.0000000000000007
 22
30.70261457019728
 32
0.0
 13
0.0000000000000007
 23
30.70261457019728
 33
0.0
  0
SOLID
  5
1A3
330
F4
100
AcDbEntity
  8
DIM
100
AcDbTrace
 10
6.699999999999771
 20
31.15261457019728
 30
0.0
 11
6.699999999999771
 21
30.25261457019728
 31
0.0
 12
3.999999999999772
 22
30.70261457019728
 32
0.0
 13
3.999999999999772
 23
30.70261457019728
 33
0.0
  0
MTEXT
  5
1A4
330
F4
100
AcDbEntity
  8
DIM
100
AcDbMText
 10
13.5785714285712
 20
33.40261457019728
 30
0.0
 40
2.699999999999999
 41
0.0
 71
     5
 72
     1
  1
\A1;4.0
  7
ROMANS
 73
     1
 44
1.0
  0
POINT
  5
1A5
330
F4
100
AcDbEntity
  8
Defpoints
 62
     0
100
AcDbPoint
 10
0.0
 20
18.74999999999966
 30
0.0
  0
POINT
  5
1A6
330
F4
100
AcDbEntity
  8
Defpoints
 62
     0
100
AcDbPoint
 10
3.999999999999771
 20
19.50000000000011
 30
0.0
  0
POINT
  5
1A7
330
F4
100
AcDbEntity
  8
Defpoints
 62
     0
100
AcDbPoint
 10
3.999999999999772
 20
30.70261457019728
 30
0.0
  0
ENDBLK
  5
FF
330
F4
100
AcDbEntity
  8
0
 62
     3
100
AcDbBlockEnd
  0
BLOCK
  5
10B
330
101
100
AcDbEntity
  8
0
 62
     3
100
AcDbBlockBegin
  2
*D3
 70
     1
 10
0.0
 20
0.0
 30
0.0
  3
*D3
  1

  0
LINE
  5
195
330
101
100
AcDbEntity
  8
DIM
100
AcDbLine
 10
0.0000000000000001
 20
19.68749999999966
 30
0.0
 11
0.0000000000000014
 21
41.65987744414104
 31
0.0
  0
LINE
  5
196
330
101
100
AcDbEntity
  8
DIM
100
AcDbLine
 10
50.00312902599507
 20
26.4375093072407
 30
0.0
 11
50.00312902599507
 21
41.65987744414104
 31
0.0
  0
LINE
  5
197
330
101
100
AcDbEntity
  8
DIM
100
AcDbLine
 10
2.700000000000001
 20
38.95987744414104
 30
0.0
 11
47.30312902599506
 21
38.95987744414104
 31
0.0
  0
SOLID
  5
198
330
101
100
AcDbEntity
  8
DIM
100
AcDbTrace
 10
2.700000000000001
 20
39.40987744414104
 30
0.0
 11
2.700000000000001
 21
38.50987744414103
 31
0.0
 12
0.0000000000000012
 22
38.95987744414104
 32
0.0
 13
0.0000000000000012
 23
38.95987744414104
 33
0.0
  0
SOLID
  5
199
330
101
100
AcDbEntity
  8
DIM
100
AcDbTrace
 10
47.30312902599506
 20
39.40987744414104
 30
0.0
 11
47.30312902599506
 21
38.50987744414103
 31
0.0
 12
50.00312902599507
 22
38.95987744414104
 32
0.0
 13
50.00312902599507
 23
38.95987744414104
 33
0.0
  0
MTEXT
  5
19A
330
101
100
AcDbEntity
  8
DIM
100
AcDbMText
 10
25.00156451299753
 20
41.65987744414104
 30
0.0
 40
2.699999999999999
 41
0.0
 71
     5
 72
     1
  1
\A1;50.0
  7
ROMANS
 73
     1
 44
1.0
  0
POINT
  5
19B
330
101
100
AcDbEntity
  8
Defpoints
 62
     0
100
AcDbPoint
 10
0.0
 20
18.74999999999966
 30
0.0
  0
POINT
  5
19C
330
101
100
AcDbEntity
  8
Defpoints
 62
     0
100
AcDbPoint
 10
50.00312902599507
 20
25.5000093072407
 30
0.0
  0
POINT
  5
19D
330
101
100
AcDbEntity
  8
Defpoints
 62
     0
100
AcDbPoint
 10
50.00312902599507
 20
38.95987744414104
 30
0.0
  0
ENDBLK
  5
10C
330
101
100
AcDbEntity
  8
0
 62
     3
100
AcDbBlockEnd
  0
BLOCK
  5
118
330
10E
100
AcDbEntity
  8
0
 62
     3
100
AcDbBlockBegin
  2
*D4
 70
     1
 10
0.0
 20
0.0
 30
0.0
  3
*D4
  1

  0
LINE
  5
18C
330
10E
100
AcDbEntity
  8
DIM
100
AcDbLine
 10
49.4353449339867
 20
27.00000000000271
 30
0.0
 11
70.77498837481041
 21
27.00000000000271
 31
0.0
  0
LINE
  5
18D
330
10E
100
AcDbEntity
  8
DIM
100
AcDbLine
 10
49.43534493398789
 20
-26.99999999999636
 30
0.0
 11
70.77498837481041
 21
-26.99999999999636
 31
0.0
  0
LINE
  5
18E
330
10E
100
AcDbEntity
  8
DIM
100
AcDbLine
 10
68.0749883748104
 20
24.30000000000271
 30
0.0
 11
68.0749883748104
 21
-24.29999999999636
 31
0.0
  0
SOLID
  5
18F
330
10E
100
AcDbEntity
  8
DIM
100
AcDbTrace
 10
67.62498837481039
 20
24.30000000000271
 30
0.0
 11
68.5249883748104
 21
24.30000000000271
 31
0.0
 12
68.0749883748104
 22
27.00000000000271
 32
0.0
 13
68.0749883748104
 23
27.00000000000271
 33
0.0
  0
SOLID
  5
190
330
10E
100
AcDbEntity
  8
DIM
100
AcDbTrace
 10
67.62498837481039
 20
-24.29999999999636
 30
0.0
 11
68.5249883748104
 21
-24.29999999999636
 31
0.0
 12
68.0749883748104
 22
-26.99999999999636
 32
0.0
 13
68.0749883748104
 23
-26.99999999999636
 33
0.0
  0
MTEXT
  5
191
330
10E
100
AcDbEntity
  8
DIM
100
AcDbMText
 10
65.3749883748104
 20
0.0000000000031847
 30
0.0
 40
2.699999999999999
 41
0.0
 71
     5
 72
     1
  1
\A1;%%c54.0
  7
ROMANS
 11
0.0000000000000001
 21
1.0
 31
0.0
 73
     1
 44
1.0
  0
POINT
  5
192
330
10E
100
AcDbEntity
  8
Defpoints
 62
     0
100
AcDbPoint
 10
48.4978449339867
 20
27.00000000000271
 30
0.0
  0
POINT
  5
193
330
10E
100
AcDbEntity
  8
Defpoints
 62
     0
100
AcDbPoint
 10
48.49784493398789
 20
-26.99999999999636
 30
0.0
  0
POINT
  5
194
330
10E
100
AcDbEntity
  8
Defpoints
 62
     0
100
AcDbPoint
 10
68.0749883748104
 20
-26.99999999999636
 30
0.0
  0
ENDBLK
  5
119
330
10E
100
AcDbEntity
  8
0
 62
     3
100
AcDbBlockEnd
  0
ENDSEC
  0
SECTION
  2
ENTITIES
  0
LINE
  5
1F
330
2
100
AcDbEntity
  8
CTRL
100
AcDbLine
 10
-24.55840024520043
 20
-0.0000000000002274
 30
0.0
 11
54.14298662428326
 21
0.0000000000006821
 31
0.0
  0
LINE
  5
22
330
2
100
AcDbEntity
  8
LINE
100
AcDbLine
 10
48.4978449339867
 20
27.00000000000271
 30
0.0
 11
50.00312902599507
 21
25.5000093072407
 31
0.0
  0
LINE
  5
23
330
2
100
AcDbEntity
  8
LINE
100
AcDbLine
 10
50.00312902599507
 20
-25.68030362894614
 30
0.0
 11
48.6880734266196
 21
-26.99999999999636
 31
0.0
  0
LINE
  5
24
330
2
100
AcDbEntity
  8
HIDDEN
100
AcDbLine
 10
-23.56698729810772
 20
-5.500000000000226
 30
0.0
 11
-1.0
 21
-5.500000000000226
 31
0.0
  0
LINE
  5
27
330
2
100
AcDbEntity
  8
KA
100
AcDbLine
 10
-23.38999983084574
 20
-11.00000000000022
 30
0.0
 11
-21.22533718045912
 21
-10.69577650426525
 31
0.0
  0
LINE
  5
28
330
2
100
AcDbEntity
  8
HIDDEN
100
AcDbLine
 10
-23.56698729810772
 20
5.49999999999977
 30
0.0
 11
-1.0
 21
5.49999999999977
 31
0.0
  0
LINE
  5
29
330
2
100
AcDbEntity
  8
KA
100
AcDbLine
 10
-23.38999983084574
 20
10.99999999999976
 30
0.0
 11
-21.22533718045923
 21
10.69577650426572
 31
0.0
  0
LINE
  5
2A
330
2
100
AcDbEntity
  8
KA
100
AcDbLine
 10
-23.99999999999994
 20
-0.0000000000002274
 30
0.0
 11
-24.0
 21
-10.39000000000032
 31
0.0
  0
ARC
  5
2B
330
2
100
AcDbEntity
  8
KA
100
AcDbCircle
 10
-23.39000000000001
 20
-10.39000000000032
 30
0.0
 40
0.61
100
AcDbArc
 50
180.0
 51
270.0
  0
LINE
  5
2C
330
2
100
AcDbEntity
  8
HIDDEN
100
AcDbLine
 10
-23.99999999999994
 20
-5.750000000000227
 30
0.0
 11
-23.56698729810772
 21
-5.500000000000226
 31
0.0
  0
LINE
  5
2D
330
2
100
AcDbEntity
  8
HIDDEN
100
AcDbLine
 10
-23.56698729810772
 20
-5.500000000000226
 30
0.0
 11
-23.56698729810772
 21
-0.0000000000002274
 31
0.0
  0
LINE
  5
2E
330
2
100
AcDbEntity
  8
HIDDEN
100
AcDbLine
 10
-23.56698729810772
 20
5.49999999999977
 30
0.0
 11
-23.56698729810772
 21
-0.0000000000002274
 31
0.0
  0
LINE
  5
2F
330
2
100
AcDbEntity
  8
HIDDEN
100
AcDbLine
 10
-23.99999999999994
 20
5.749999999999772
 30
0.0
 11
-23.56698729810772
 21
5.49999999999977
 31
0.0
  0
ARC
  5
30
330
2
100
AcDbEntity
  8
KA
100
AcDbCircle
 10
-23.39000000000001
 20
10.38999999999964
 30
0.0
 40
0.61
100
AcDbArc
 50
90.0
 51
179.9999999999999
  0
LINE
  5
31
330
2
100
AcDbEntity
  8
KA
100
AcDbLine
 10
-23.99999999999994
 20
-0.0000000000002274
 30
0.0
 11
-24.0
 21
10.38999999999964
 31
0.0
  0
LINE
  5
32
330
2
100
AcDbEntity
  8
LINE
100
AcDbLine
 10
6.009618943233647
 20
27.00000000000182
 30
0.0
 11
48.4978449339867
 21
27.00000000000271
 31
0.0
  0
LINE
  5
33
330
2
100
AcDbEntity
  8
LINE
100
AcDbLine
 10
6.009618943235012
 20
-26.99999999999727
 30
0.0
 11
48.6880734266196
 21
-26.99999999999636
 31
0.0
  0
ARC
  5
34
330
2
100
AcDbEntity
  8
KA
100
AcDbCircle
 10
-5.84000000000003
 20
-25.02482126942823
 30
0.0
 40
14.65462765270468
100
AcDbArc
 50
73.14139857799094
 51
106.8586014220089
  0
ARC
  5
35
330
2
100
AcDbEntity
  8
KA
100
AcDbCircle
 10
-5.84000000000003
 20
25.02482126942867
 30
0.0
 40
14.65462765270468
100
AcDbArc
 50
253.1413985779909
 51
286.858601422009
  0
LINE
  5
36
330
2
100
AcDbEntity
  8
KA
100
AcDbLine
 10
-8.560021786647496
 20
13.24999999999977
 30
0.0
 11
-3.119978213352509
 21
13.24999999999977
 31
0.0
  0
LINE
  5
37
330
2
100
AcDbEntity
  8
KA
100
AcDbLine
 10
-8.560021786647496
 20
-13.25000000000022
 30
0.0
 11
-3.119978213352509
 21
-13.25000000000022
 31
0.0
  0
LINE
  5
38
330
2
100
AcDbEntity
  8
KA
100
AcDbLine
 10
-19.49999999999993
 20
-11.00000000000022
 30
0.0
 11
-10.09
 21
-11.00000000000022
 31
0.0
  0
LINE
  5
39
330
2
100
AcDbEntity
  8
KA
100
AcDbLine
 10
-19.49999999999993
 20
-0.0000000000002274
 30
0.0
 11
-19.5
 21
-11.00000000000022
 31
0.0
  0
LINE
  5
3A
330
2
100
AcDbEntity
  8
KA
100
AcDbLine
 10
-19.5
 20
-11.00000000000022
 30
0.0
 11
-21.22533718045912
 21
-10.69577650426525
 31
0.0
  0
LINE
  5
3B
330
2
100
AcDbEntity
  8
KA
100
AcDbLine
 10
-21.22533718045912
 20
-10.69577650426525
 30
0.0
 11
-21.22533718045912
 21
-0.0000000000002274
 31
0.0
  0
LWPOLYLINE
  5
3C
330
2
100
AcDbEntity
  8
KA
100
AcDbPolyline
 90
       16
 70
     1
 43
0.0
 10
-5.525698855600237
 20
-0.0000000000002274
 42
0.1244221799445328
 10
-5.820189079779254
 20
1.1651108219678
 42
0.1057245435363058
 10
-6.733678693139494
 20
2.236941748012668
 42
0.0868893055637331
 10
-8.027048262388916
 20
2.911889243411677
 42
0.0770601789445748
 10
-9.649999999999947
 20
3.163513358278577
 42
0.0770601789445744
 10
-11.27295173761108
 20
2.911889243411677
 42
0.0868893055637335
 10
-12.56632130686051
 20
2.236941748012668
 42
0.105724543536305
 10
-13.47981092022084
 20
1.1651108219678
 42
0.1244221799445327
 10
-13.77430114439984
 20
-0.0000000000002274
 42
0.124422179944533
 10
-13.47981092022084
 20
-1.165110821967345
 42
0.1057245435363053
 10
-12.56632130686051
 20
-2.23694174801335
 42
0.0868893055637333
 10
-11.27295173761108
 20
-2.911889243411224
 42
0.0770601789445746
 10
-9.650000000000003
 20
-3.163513358278351
 42
0.0770601789445746
 10
-8.027048262388916
 20
-2.911889243411224
 42
0.0868893055637332
 10
-6.733678693139494
 20
-2.23694174801335
 42
0.1057245435363056
 10
-5.820189079779254
 20
-1.165110821967345
 42
0.1244221799445327
  0
CIRCLE
  5
3D
330
2
100
AcDbEntity
  8
KA
100
AcDbCircle
 10
-9.650000000000003
 20
-0.0000000000002274
 30
0.0
 40
3.0
  0
LINE
  5
3E
330
2
100
AcDbEntity
  8
KA
100
AcDbLine
 10
-21.22533718045923
 20
10.69577650426572
 30
0.0
 11
-21.22533718045912
 21
-0.0000000000002274
 31
0.0
  0
LINE
  5
3F
330
2
100
AcDbEntity
  8
KA
100
AcDbLine
 10
-19.5
 20
10.99999999999976
 30
0.0
 11
-21.22533718045923
 21
10.69577650426572
 31
0.0
  0
LINE
  5
40
330
2
100
AcDbEntity
  8
KA
100
AcDbLine
 10
-19.49999999999993
 20
-0.0000000000002274
 30
0.0
 11
-19.5
 21
10.99999999999976
 31
0.0
  0
LINE
  5
41
330
2
100
AcDbEntity
  8
KA
100
AcDbLine
 10
-19.5
 20
10.99999999999976
 30
0.0
 11
-10.09
 21
10.99999999999976
 31
0.0
  0
LINE
  5
42
330
2
100
AcDbEntity
  8
KA
100
AcDbLine
 10
-10.09
 20
10.99999999999976
 30
0.0
 11
-8.906431948161241
 21
13.04999999999972
 31
0.0
  0
ARC
  5
43
330
2
100
AcDbEntity
  8
KA
100
AcDbCircle
 10
-8.560021786647496
 20
12.84999999999968
 30
0.0
 40
0.4
100
AcDbArc
 50
89.99999999999998
 51
149.9999999999999
  0
LINE
  5
44
330
2
100
AcDbEntity
  8
KA
100
AcDbLine
 10
-10.09
 20
2.967557918558668
 30
0.0
 11
-10.09
 21
-2.967557918558441
 31
0.0
  0
ARC
  5
45
330
2
100
AcDbEntity
  8
KA
100
AcDbCircle
 10
-8.560021786647496
 20
-12.85000000000036
 30
0.0
 40
0.4
100
AcDbArc
 50
210.0
 51
270.0
  0
LINE
  5
46
330
2
100
AcDbEntity
  8
KA
100
AcDbLine
 10
-10.09
 20
-11.00000000000022
 30
0.0
 11
-8.906431948161241
 21
-13.05000000000041
 31
0.0
  0
LINE
  5
47
330
2
100
AcDbEntity
  8
KA
100
AcDbLine
 10
-1.59000000000003
 20
-11.00000000000022
 30
0.0
 11
-1.5
 21
-11.00000000000022
 31
0.0
  0
LINE
  5
48
330
2
100
AcDbEntity
  8
KA
100
AcDbLine
 10
-1.59000000000003
 20
10.99999999999976
 30
0.0
 11
-1.5
 21
10.99999999999976
 31
0.0
  0
LINE
  5
4A
330
2
100
AcDbEntity
  8
LINE
100
AcDbLine
 10
0.0
 20
0.0000000000000564
 30
0.0
 11
0.0
 21
-18.75000000000022
 31
0.0
  0
LINE
  5
4B
330
2
100
AcDbEntity
  8
KA
100
AcDbLine
 10
-1.5
 20
-11.00000000000022
 30
0.0
 11
-1.5
 21
-0.0000000000002274
 31
0.0
  0
LINE
  5
4C
330
2
100
AcDbEntity
  8
KA
100
AcDbLine
 10
-1.5
 20
-11.00000000000022
 30
0.0
 11
0.0
 21
-10.59807621135336
 31
0.0
  0
LINE
  5
4D
330
2
100
AcDbEntity
  8
HIDDEN
100
AcDbLine
 10
-1.0
 20
-0.0000000000002274
 30
0.0
 11
-1.0
 21
-5.500000000000226
 31
0.0
  0
LINE
  5
4E
330
2
100
AcDbEntity
  8
HIDDEN
100
AcDbLine
 10
-1.0
 20
-5.500000000000226
 30
0.0
 11
2.175426480542909
 21
-0.0000000000002274
 31
0.0
  0
LINE
  5
4F
330
2
100
AcDbEntity
  8
LINE
100
AcDbLine
 10
0.0
 20
-18.75000000000022
 30
0.0
 11
0.75
 21
-19.50000000000022
 31
0.0
  0
LINE
  5
50
330
2
100
AcDbEntity
  8
LINE
100
AcDbLine
 10
0.75
 20
-19.50000000000022
 30
0.0
 11
0.75
 21
-0.0000000000002274
 31
0.0
  0
LINE
  5
51
330
2
100
AcDbEntity
  8
LINE
100
AcDbLine
 10
0.75
 20
19.49999999999964
 30
0.0
 11
0.75
 21
-0.0000000000002274
 31
0.0
  0
LINE
  5
52
330
2
100
AcDbEntity
  8
LINE
100
AcDbLine
 10
0.0
 20
18.74999999999966
 30
0.0
 11
0.75
 21
19.49999999999964
 31
0.0
  0
LINE
  5
53
330
2
100
AcDbEntity
  8
HIDDEN
100
AcDbLine
 10
-1.0
 20
5.49999999999977
 30
0.0
 11
2.175426480542909
 21
-0.0000000000002274
 31
0.0
  0
LINE
  5
54
330
2
100
AcDbEntity
  8
HIDDEN
100
AcDbLine
 10
-1.0
 20
-0.0000000000002274
 30
0.0
 11
-1.0
 21
5.49999999999977
 31
0.0
  0
LINE
  5
55
330
2
100
AcDbEntity
  8
KA
100
AcDbLine
 10
-1.5
 20
10.99999999999976
 30
0.0
 11
0.0
 21
10.59807621135382
 31
0.0
  0
LINE
  5
56
330
2
100
AcDbEntity
  8
KA
100
AcDbLine
 10
-1.5
 20
10.99999999999976
 30
0.0
 11
-1.5
 21
-0.0000000000002274
 31
0.0
  0
LINE
  5
57
330
2
100
AcDbEntity
  8
LINE
100
AcDbLine
 10
0.0
 20
0.0000000000000564
 30
0.0
 11
0.0
 21
18.74999999999966
 31
0.0
  0
LINE
  5
59
330
2
100
AcDbEntity
  8
KA
100
AcDbLine
 10
-1.59000000000003
 20
10.99999999999976
 30
0.0
 11
-2.773568051838821
 21
13.04999999999972
 31
0.0
  0
ARC
  5
5A
330
2
100
AcDbEntity
  8
KA
100
AcDbCircle
 10
-3.119978213352509
 20
12.84999999999968
 30
0.0
 40
0.4
100
AcDbArc
 50
30.00000000000005
 51
89.99999999999998
  0
ARC
  5
5B
330
2
100
AcDbEntity
  8
KA
100
AcDbCircle
 10
-3.119978213352509
 20
-12.85000000000036
 30
0.0
 40
0.4
100
AcDbArc
 50
270.0
 51
329.9999999999998
  0
LINE
  5
5C
330
2
100
AcDbEntity
  8
KA
100
AcDbLine
 10
-1.59000000000003
 20
-11.00000000000022
 30
0.0
 11
-2.773568051838708
 21
-13.05000000000041
 31
0.0
  0
LINE
  5
5D
330
2
100
AcDbEntity
  8
KA
100
AcDbLine
 10
-1.59000000000003
 20
-11.00000000000022
 30
0.0
 11
-1.5
 21
-11.00000000000022
 31
0.0
  0
LINE
  5
5E
330
2
100
AcDbEntity
  8
LINE
100
AcDbLine
 10
0.75
 20
19.49999999999964
 30
0.0
 11
4.000000000000113
 21
19.50000000000011
 31
0.0
  0
LINE
  5
5F
330
2
100
AcDbEntity
  8
LINE
100
AcDbLine
 10
0.75
 20
-19.4999999999993
 30
0.0
 11
4.000000000001023
 21
-19.4999999999993
 31
0.0
  0
LINE
  5
60
330
2
100
AcDbEntity
  8
LINE
100
AcDbLine
 10
4.000000000000113
 20
19.50000000000089
 30
0.0
 11
4.000000000001023
 21
-19.4999999999993
 31
0.0
  0
LINE
  5
61
330
2
100
AcDbEntity
  8
LINE
100
AcDbLine
 10
4.0
 20
19.50000000000089
 30
0.0
 11
6.00961894323359
 21
27.00000000000182
 31
0.0
  0
LINE
  5
62
330
2
100
AcDbEntity
  8
LINE
100
AcDbLine
 10
4.000000000000852
 20
-19.49999999999841
 30
0.0
 11
6.009618943234102
 21
-26.99999999999704
 31
0.0
  0
LINE
  5
63
330
2
100
AcDbEntity
  8
LINE
100
AcDbLine
 10
48.49784493398658
 20
27.00000000000271
 30
0.0
 11
48.49784493398789
 21
-26.99999999999636
 31
0.0
  0
LINE
  5
A0
330
2
100
AcDbEntity
  8
LINE
100
AcDbLine
 10
6.009618943233704
 20
27.00000000000182
 30
0.0
 11
6.009618943235012
 21
-26.99999999999704
 31
0.0
  0
DIMENSION
  5
D8
330
2
100
AcDbEntity
  8
DIM
100
AcDbDimension
  2
*D0
 10
50.00312902599507
 20
45.8634906957334
 30
0.0
 11
13.00156451299752
 21
48.5634906957334
 31
0.0
 70
    32
 71
     5
 42
74.00312902599511
  3
STANDARD
100
AcDbAlignedDimension
 13
-24.00000000000003
 23
10.38999999999964
 33
0.0
 14
50.00312902599507
 24
25.5000093072407
 34
0.0
100
AcDbRotatedDimension
  0
DIMENSION
  5
E6
330
2
100
AcDbEntity
  8
DIM
100
AcDbDimension
  2
*D1
 10
-47.7099209715674
 20
-19.49999999999929
 30
0.0
 11
-50.40992097156739
 21
0.0000000000001773
 31
0.0
 70
    32
  1
%%c<>
 71
     5
 42
38.99999999999895
  3
STANDARD
100
AcDbAlignedDimension
 13
0.75
 23
19.49999999999964
 33
0.0
 14
0.75
 24
-19.4999999999993
 34
0.0
 50
90.0
100
AcDbRotatedDimension
  0
DIMENSION
  5
F3
330
2
100
AcDbEntity
  8
DIM
100
AcDbDimension
  2
*D2
 10
3.999999999999772
 20
30.70261457019728
 30
0.0
 11
13.5785714285712
 21
33.40261457019728
 31
0.0
 70
    32
 71
     5
 42
3.999999999999771
  3
STANDARD
100
AcDbAlignedDimension
 13
0.0
 23
18.74999999999966
 33
0.0
 14
3.999999999999771
 24
19.50000000000011
 34
0.0
100
AcDbRotatedDimension
  0
DIMENSION
  5
100
330
2
100
AcDbEntity
  8
DIM
100
AcDbDimension
  2
*D3
 10
50.00312902599507
 20
38.95987744414104
 30
0.0
 11
25.00156451299753
 21
41.65987744414104
 31
0.0
 70
    32
 71
     5
 42
50.00312902599507
  3
STANDARD
100
AcDbAlignedDimension
 13
0.0
 23
18.74999999999966
 33
0.0
 14
50.00312902599507
 24
25.5000093072407
 34
0.0
100
AcDbRotatedDimension
  0
DIMENSION
  5
10D
330
2
100
AcDbEntity
  8
DIM
100
AcDbDimension
  2
*D4
 10
68.0749883748104
 20
-26.99999999999636
 30
0.0
 11
65.3749883748104
 21
0.0000000000031847
 31
0.0
 70
    32
  1
%%c<>
 71
     5
 42
53.99999999999907
  3
STANDARD
100
AcDbAlignedDimension
 13
48.4978449339867
 23
27.00000000000271
 33
0.0
 14
48.49784493398789
 24
-26.99999999999636
 34
0.0
 50
90.0
100
AcDbRotatedDimension
  0
LINE
  5
141
330
2
100
AcDbEntity
  8
LINE
100
AcDbLine
 10
50.00312902599507
 20
25.5000093072407
 30
0.0
 11
50.00312902599507
 21
-25.68030362894614
 31
0.0
  0
ENDSEC
  0
SECTION
  2
OBJECTS
  0
DICTIONARY
  5
1A
330
0
100
AcDbDictionary
281
     1
  3
ACAD_GROUP
350
18
  3
ACAD_LAYOUT
350
68
  3
ACAD_MLINESTYLE
350
19
  3
ACAD_PLOTSETTINGS
350
69
  3
ACAD_PLOTSTYLENAME
350
66
  3
AcDbVariableDictionary
350
73
  0
DICTIONARY
  5
C4
330
2
100
AcDbDictionary
280
     1
281
     1
  3
ACAD_LAYOUTSELFREF
360
C5
  0
DICTIONARY
  5
C6
330
7
100
AcDbDictionary
280
     1
281
     1
  3
ACAD_LAYOUTSELFREF
360
C7
  0
DICTIONARY
  5
18
102
{ACAD_REACTORS
330
1A
102
}
330
1A
100
AcDbDictionary
281
     1
  0
DICTIONARY
  5
68
102
{ACAD_REACTORS
330
1A
102
}
330
1A
100
AcDbDictionary
281
     1
  3
Layout1
350
6B
  3
Model
350
6A
  0
DICTIONARY
  5
19
102
{ACAD_REACTORS
330
1A
102
}
330
1A
100
AcDbDictionary
281
     1
  3
STANDARD
350
1D
  0
DICTIONARY
  5
69
102
{ACAD_REACTORS
330
1A
102
}
330
1A
100
AcDbDictionary
281
     1
  0
ACDBDICTIONARYWDFLT
  5
66
102
{ACAD_REACTORS
330
1A
102
}
330
1A
100
AcDbDictionary
281
     1
  3
Normal
350
67
100
AcDbDictionaryWithDefault
340
67
  0
DICTIONARY
  5
73
102
{ACAD_REACTORS
330
1A
102
}
330
1A
100
AcDbDictionary
281
     1
  3
DIMASSOC
350
74
  0
XRECORD
  5
C5
102
{ACAD_REACTORS
330
C4
102
}
330
C4
100
AcDbXrecord
280
     1
340
2
  0
XRECORD
  5
C7
102
{ACAD_REACTORS
330
C6
102
}
330
C6
100
AcDbXrecord
280
     1
340
7
  0
LAYOUT
  5
6B
102
{ACAD_REACTORS
330
68
102
}
330
68
100
AcDbPlotSettings
  1

  2
\\HAL\Compaq IJ900
  4

  6

 40
0.0
 41
0.0
 42
0.0
 43
0.0
 44
0.0
 45
0.0
 46
0.0
 47
0.0
 48
0.0
 49
0.0
140
0.0
141
0.0
142
1.0
143
1.0
 70
   688
 72
     0
 73
     0
 74
     5
  7
KPT.ctb
 75
    16
147
1.0
148
0.0
149
0.0
100
AcDbLayout
  1
Layout1
 70
     1
 71
     1
 10
0.0
 20
0.0
 11
12.0
 21
9.0
 12
0.0
 22
0.0
 32
0.0
 14
1.000000000000000E+20
 24
1.000000000000000E+20
 34
1.000000000000000E+20
 15
-1.000000000000000E+20
 25
-1.000000000000000E+20
 35
-1.000000000000000E+20
146
0.0
 13
0.0
 23
0.0
 33
0.0
 16
1.0
 26
0.0
 36
0.0
 17
0.0
 27
1.0
 37
0.0
 76
     0
330
7
  0
LAYOUT
  5
6A
102
{ACAD_REACTORS
330
68
102
}
330
68
100
AcDbPlotSettings
  1

  2
\\HAL\Compaq IJ900
  4

  6

 40
0.0
 41
0.0
 42
0.0
 43
0.0
 44
0.0
 45
0.0
 46
0.0
 47
0.0
 48
0.0
 49
0.0
140
0.0
141
0.0
142
1.0
143
1.0
 70
  1712
 72
     0
 73
     0
 74
     0
  7
KPT.ctb
 75
     0
147
1.0
148
0.0
149
0.0
100
AcDbLayout
  1
Model
 70
     1
 71
     0
 10
0.0
 20
0.0
 11
12.0
 21
9.0
 12
0.0
 22
0.0
 32
0.0
 14
0.0
 24
0.0
 34
0.0
 15
0.0
 25
0.0
 35
0.0
146
0.0
 13
0.0
 23
0.0
 33
0.0
 16
1.0
 26
0.0
 36
0.0
 17
0.0
 27
1.0
 37
0.0
 76
     0
330
2
  0
MLINESTYLE
  5
1D
102
{ACAD_REACTORS
330
19
102
}
330
19
100
AcDbMlineStyle
  2
STANDARD
 70
     0
  3

 62
   256
 51
90.0
 52
90.0
 71
     2
 49
0.5
 62
   256
  6
BYLAYER
 49
-0.5
 62
   256
  6
BYLAYER
  0
ACDBPLACEHOLDER
  5
67
102
{ACAD_REACTORS
330
66
102
}
330
66
  0
DICTIONARYVAR
  5
74
102
{ACAD_REACTORS
330
73
102
}
330
73
100
DictionaryVariables
280
     0
  1
1
  0
ENDSEC
  0
EOF
