  0
SECTION
  2
HEADER
  9
$ACADVER
  1
AC1015
  9
$ACADMAINTVER
 70
    13
  9
$DWGCODEPAGE
  3
ANSI_1252
  9
$INSBASE
 10
375.5603353458325
 20
-1414.022093460248
 30
0.0
  9
$EXTMIN
 10
-24.5584002452004
 20
-19.49999999999977
 30
0.0
  9
$EXTMAX
 10
103.1490673471842
 20
48.41365700384977
 30
0.0
  9
$LIMMIN
 10
0.0
 20
0.0
  9
$LIMMAX
 10
12.0
 20
9.0
  9
$ORTHOMODE
 70
     1
  9
$REGENMODE
 70
     1
  9
$FILLMODE
 70
     1
  9
$QTEXTMODE
 70
     0
  9
$MIRRTEXT
 70
     0
  9
$LTSCALE
 40
10.0
  9
$ATTMODE
 70
     1
  9
$TEXTSIZE
 40
5.0
  9
$TRACEWID
 40
0.05
  9
$TEXTSTYLE
  7
ROMANS
  9
$CLAYER
  8
DIM
  9
$CELTYPE
  6
BYLAYER
  9
$CECOLOR
 62
     3
  9
$CELTSCALE
 40
1.0
  9
$DISPSILH
 70
     0
  9
$DIMSCALE
 40
15.0
  9
$DIMASZ
 40
0.18
  9
$DIMEXO
 40
0.0625
  9
$DIMDLI
 40
0.38
  9
$DIMRND
 40
0.0
  9
$DIMDLE
 40
0.0
  9
$DIMEXE
 40
0.18
  9
$DIMTP
 40
0.0
  9
$DIMTM
 40
0.0
  9
$DIMTXT
 40
0.18
  9
$DIMCEN
 40
0.09
  9
$DIMTSZ
 40
0.0
  9
$DIMTOL
 70
     0
  9
$DIMLIM
 70
     0
  9
$DIMTIH
 70
     0
  9
$DIMTOH
 70
     0
  9
$DIMSE1
 70
     0
  9
$DIMSE2
 70
     0
  9
$DIMTAD
 70
     1
  9
$DIMZIN
 70
     0
  9
$DIMBLK
  1

  9
$DIMASO
 70
     1
  9
$DIMSHO
 70
     1
  9
$DIMPOST
  1

  9
$DIMAPOST
  1

  9
$DIMALT
 70
     0
  9
$DIMALTD
 70
     2
  9
$DIMALTF
 40
25.4
  9
$DIMLFAC
 40
1.0
  9
$DIMTOFL
 70
     0
  9
$DIMTVP
 40
0.0
  9
$DIMTIX
 70
     0
  9
$DIMSOXD
 70
     0
  9
$DIMSAH
 70
     0
  9
$DIMBLK1
  1

  9
$DIMBLK2
  1

  9
$DIMSTYLE
  2
STANDARD
  9
$DIMCLRD
 70
   256
  9
$DIMCLRE
 70
   256
  9
$DIMCLRT
 70
     0
  9
$DIMTFAC
 40
1.0
  9
$DIMGAP
 40
0.09
  9
$DIMJUST
 70
     0
  9
$DIMSD1
 70
     0
  9
$DIMSD2
 70
     0
  9
$DIMTOLJ
 70
     1
  9
$DIMTZIN
 70
     0
  9
$DIMALTZ
 70
     0
  9
$DIMALTTZ
 70
     0
  9
$DIMUPT
 70
     0
  9
$DIMDEC
 70
     1
  9
$DIMTDEC
 70
     1
  9
$DIMALTU
 70
     2
  9
$DIMALTTD
 70
     2
  9
$DIMTXSTY
  7
ROMANS
  9
$DIMAUNIT
 70
     0
  9
$DIMADEC
 70
     0
  9
$DIMALTRND
 40
0.0
  9
$DIMAZIN
 70
     0
  9
$DIMDSEP
 70
    46
  9
$DIMATFIT
 70
     3
  9
$DIMFRAC
 70
     0
  9
$DIMLDRBLK
  1

  9
$DIMLUNIT
 70
     2
  9
$DIMLWD
 70
    -1
  9
$DIMLWE
 70
    -1
  9
$DIMTMOVE
 70
     0
  9
$LUNITS
 70
     2
  9
$LUPREC
 70
     4
  9
$SKETCHINC
 40
0.1
  9
$FILLETRAD
 40
0.0
  9
$AUNITS
 70
     0
  9
$AUPREC
 70
     0
  9
$MENU
  1
acad
  9
$ELEVATION
 40
0.0
  9
$PELEVATION
 40
0.0
  9
$THICKNESS
 40
0.0
  9
$LIMCHECK
 70
     0
  9
$CHAMFERA
 40
1.5
  9
$CHAMFERB
 40
1.5
  9
$CHAMFERC
 40
0.0
  9
$CHAMFERD
 40
0.0
  9
$SKPOLY
 70
     0
  9
$TDCREATE
 40
2449974.566112731
  9
$TDUCREATE
 40
2449974.816112731
  9
$TDUPDATE
 40
2452660.549685671
  9
$TDUUPDATE
 40
2452660.799685671
  9
$TDINDWG
 40
0.9834299190
  9
$TDUSRTIMER
 40
0.9834295718
  9
$USRTIMER
 70
     1
  9
$ANGBASE
 50
0.0
  9
$ANGDIR
 70
     0
  9
$PDMODE
 70
     0
  9
$PDSIZE
 40
0.0
  9
$PLINEWID
 40
0.0
  9
$SPLFRAME
 70
     0
  9
$SPLINETYPE
 70
     6
  9
$SPLINESEGS
 70
     8
  9
$HANDSEED
  5
1FB
  9
$SURFTAB1
 70
     6
  9
$SURFTAB2
 70
     6
  9
$SURFTYPE
 70
     6
  9
$SURFU
 70
     6
  9
$SURFV
 70
     6
  9
$UCSBASE
  2

  9
$UCSNAME
  2

  9
$UCSORG
 10
0.0
 20
0.0
 30
0.0
  9
$UCSXDIR
 10
1.0
 20
0.0
 30
0.0
  9
$UCSYDIR
 10
0.0
 20
1.0
 30
0.0
  9
$UCSORTHOREF
  2

  9
$UCSORTHOVIEW
 70
     0
  9
$UCSORGTOP
 10
0.0
 20
0.0
 30
0.0
  9
$UCSORGBOTTOM
 10
0.0
 20
0.0
 30
0.0
  9
$UCSORGLEFT
 10
0.0
 20
0.0
 30
0.0
  9
$UCSORGRIGHT
 10
0.0
 20
0.0
 30
0.0
  9
$UCSORGFRONT
 10
0.0
 20
0.0
 30
0.0
  9
$UCSORGBACK
 10
0.0
 20
0.0
 30
0.0
  9
$PUCSBASE
  2

  9
$PUCSNAME
  2

  9
$PUCSORG
 10
0.0
 20
0.0
 30
0.0
  9
$PUCSXDIR
 10
1.0
 20
0.0
 30
0.0
  9
$PUCSYDIR
 10
0.0
 20
1.0
 30
0.0
  9
$PUCSORTHOREF
  2

  9
$PUCSORTHOVIEW
 70
     0
  9
$PUCSORGTOP
 10
0.0
 20
0.0
 30
0.0
  9
$PUCSORGBOTTOM
 10
0.0
 20
0.0
 30
0.0
  9
$PUCSORGLEFT
 10
0.0
 20
0.0
 30
0.0
  9
$PUCSORGRIGHT
 10
0.0
 20
0.0
 30
0.0
  9
$PUCSORGFRONT
 10
0.0
 20
0.0
 30
0.0
  9
$PUCSORGBACK
 10
0.0
 20
0.0
 30
0.0
  9
$USERI1
 70
     0
  9
$USERI2
 70
     0
  9
$USERI3
 70
     0
  9
$USERI4
 70
     0
  9
$USERI5
 70
     0
  9
$USERR1
 40
0.0
  9
$USERR2
 40
0.0
  9
$USERR3
 40
0.0
  9
$USERR4
 40
0.0
  9
$USERR5
 40
0.0
  9
$WORLDVIEW
 70
     1
  9
$SHADEDGE
 70
     3
  9
$SHADEDIF
 70
    70
  9
$TILEMODE
 70
     1
  9
$MAXACTVP
 70
    16
  9
$PINSBASE
 10
0.0
 20
0.0
 30
0.0
  9
$PLIMCHECK
 70
     0
  9
$PEXTMIN
 10
1.000000000000000E+20
 20
1.000000000000000E+20
 30
1.000000000000000E+20
  9
$PEXTMAX
 10
-1.000000000000000E+20
 20
-1.000000000000000E+20
 30
-1.000000000000000E+20
  9
$PLIMMIN
 10
0.0
 20
0.0
  9
$PLIMMAX
 10
12.0
 20
9.0
  9
$UNITMODE
 70
     0
  9
$VISRETAIN
 70
     0
  9
$PLINEGEN
 70
     0
  9
$PSLTSCALE
 70
     1
  9
$TREEDEPTH
 70
  3020
  9
$CMLSTYLE
  2
STANDARD
  9
$CMLJUST
 70
     0
  9
$CMLSCALE
 40
1.0
  9
$PROXYGRAPHICS
 70
     1
  9
$MEASUREMENT
 70
     0
  9
$CELWEIGHT
370
    -1
  9
$ENDCAPS
280
     0
  9
$JOINSTYLE
280
     0
  9
$LWDISPLAY
290
     0
  9
$INSUNITS
 70
     0
  9
$HYPERLINKBASE
  1

  9
$STYLESHEET
  1

  9
$XEDIT
290
     1
  9
$CEPSNTYPE
380
     0
  9
$PSTYLEMODE
290
     1
  9
$FINGERPRINTGUID
  2
{B1960311-6538-469D-A252-4DABE9CB405A}
  9
$VERSIONGUID
  2
{0140B3BF-5CEA-474C-A4DB-D09B0112A60D}
  9
$EXTNAMES
290
     1
  9
$PSVPSCALE
 40
0.0
  9
$OLESTARTUP
290
     0
  0
ENDSEC
  0
SECTION
  2
CLASSES
  0
CLASS
  1
DICTIONARYVAR
  2
AcDbDictionaryVar
  3
AutoCAD 2000
 90
        0
280
     0
281
     0
  0
CLASS
  1
LWPOLYLINE
  2
AcDbPolyline
  3
AutoCAD 2000
 90
    32768
280
     0
281
     1
  0
CLASS
  1
OLE2FRAME
  2
AcDbOle2Frame
  3
AutoCAD 2000
 90
    32768
280
     0
281
     1
  0
CLASS
  1
ACDBDICTIONARYWDFLT
  2
AcDbDictionaryWithDefault
  3
AutoCAD 2000
 90
        0
280
     0
281
     0
  0
CLASS
  1
ACDBPLACEHOLDER
  2
AcDbPlaceHolder
  3
AutoCAD 2000
 90
        0
280
     0
281
     0
  0
CLASS
  1
LAYOUT
  2
AcDbLayout
  3
AutoCAD 2000
 90
        0
280
     0
281
     0
  0
CLASS
  1
LONG_TRANSACTION
  2
AcDbLongTransaction
  3
AutoCAD 2000
 90
    32768
280
     0
281
     0
  0
CLASS
  1
LWPOLYLINE
  2
AcDbPolyline
  3
AutoCAD 2000
 90
    32768
280
     0
281
     1
  0
CLASS
  1
HATCH
  2
AcDbHatch
  3
AutoCAD 2000
 90
    32768
280
     0
281
     1
  0
CLASS
  1
XRECORD
  2
AcDbXrecord
  3
AutoCAD 2000
 90
    32768
280
     0
281
     0
  0
ENDSEC
  0
SECTION
  2
TABLES
  0
TABLE
  2
VPORT
  5
12
330
0
100
AcDbSymbolTable
 70
     2
  0
VPORT
  5
1FA
330
12
100
AcDbSymbolTableRecord
100
AcDbViewportTableRecord
  2
*Active
 70
     0
 10
0.0
 20
0.0
 11
1.0
 21
1.0
 12
39.29533384833399
 22
14.45682866004877
 13
0.0
 23
0.0
 14
1.0
 24
1.0
 15
0.0
 25
0.0
 16
0.0
 26
0.0
 36
1.0
 17
0.0
 27
0.0
 37
0.0
 40
85.63794249165061
 41
1.498756218905472
 42
50.0
 43
0.0
 44
0.0
 50
0.0
 51
0.0
 71
     0
 72
 10000
 73
     1
 74
     1
 75
     0
 76
     0
 77
     0
 78
     0
281
     0
 65
     1
110
0.0
120
0.0
130
0.0
111
1.0
121
0.0
131
0.0
112
0.0
122
1.0
132
0.0
 79
     0
146
0.0
  0
ENDTAB
  0
TABLE
  2
LTYPE
  5
D
330
0
100
AcDbSymbolTable
 70
     3
  0
LTYPE
  5
E
330
D
100
AcDbSymbolTableRecord
100
AcDbLinetypeTableRecord
  2
BYBLOCK
 70
     0
  3

 72
    65
 73
     0
 40
0.0
  0
LTYPE
  5
F
330
D
100
AcDbSymbolTableRecord
100
AcDbLinetypeTableRecord
  2
BYLAYER
 70
     0
  3

 72
    65
 73
     0
 40
0.0
  0
LTYPE
  5
5
330
D
100
AcDbSymbolTableRecord
100
AcDbLinetypeTableRecord
  2
CONTINUOUS
 70
     0
  3
Solid line
 72
    65
 73
     0
 40
0.0
  0
LTYPE
  5
26
330
D
100
AcDbSymbolTableRecord
100
AcDbLinetypeTableRecord
  2
HIDDEN
 70
     0
  3
_ _ _ _ _ _ _ _ _ _ _ _ _ _ _ _ _ _ _ _ _ _ _
 72
    65
 73
     2
 40
0.375
 49
0.25
 74
     0
 49
-0.125
 74
     0
  0
LTYPE
  5
21
330
D
100
AcDbSymbolTableRecord
100
AcDbLinetypeTableRecord
  2
CENTER
 70
     0
  3
____ _ ____ _ ____ _ ____ _ ____ _ ____ _ ____
 72
    65
 73
     4
 40
2.0
 49
1.25
 74
     0
 49
-0.25
 74
     0
 49
0.25
 74
     0
 49
-0.25
 74
     0
  0
ENDTAB
  0
TABLE
  2
LAYER
  5
A
330
0
100
AcDbSymbolTable
 70
     7
  0
LAYER
  5
4
330
A
100
AcDbSymbolTableRecord
100
AcDbLayerTableRecord
  2
0
 70
     0
 62
     7
  6
CONTINUOUS
370
    -3
390
61
  0
LAYER
  5
1B
330
A
100
AcDbSymbolTableRecord
100
AcDbLayerTableRecord
  2
LINE
 70
     0
 62
     3
  6
CONTINUOUS
370
    -3
390
61
  0
LAYER
  5
25
330
A
100
AcDbSymbolTableRecord
100
AcDbLayerTableRecord
  2
HIDDEN
 70
     0
 62
     2
  6
HIDDEN
370
    -3
390
61
  0
LAYER
  5
20
330
A
100
AcDbSymbolTableRecord
100
AcDbLayerTableRecord
  2
CTRL
 70
     0
 62
     1
  6
CENTER
370
    -3
390
61
  0
LAYER
  5
184
330
A
100
AcDbSymbolTableRecord
100
AcDbLayerTableRecord
  2
DIM
 70
     0
 62
     7
  6
CONTINUOUS
370
    -3
390
61
  0
LAYER
  5
187
330
A
100
AcDbSymbolTableRecord
100
AcDbLayerTableRecord
  2
Defpoints
 70
     0
 62
     7
  6
CONTINUOUS
290
     0
370
    -3
390
61
  0
LAYER
  5
1F3
330
A
100
AcDbSymbolTableRecord
100
AcDbLayerTableRecord
  2
KA
 70
     0
 62
     3
  6
CONTINUOUS
370
    -3
390
61
  0
ENDTAB
  0
TABLE
  2
STYLE
  5
B
330
0
100
AcDbSymbolTable
 70
     2
  0
STYLE
  5
C
330
B
100
AcDbSymbolTableRecord
100
AcDbTextStyleTableRecord
  2
STANDARD
 70
     0
 40
0.0
 41
1.0
 50
0.0
 71
     0
 42
0.2
  3
txt
  4

  0
STYLE
  5
1C
330
B
100
AcDbSymbolTableRecord
100
AcDbTextStyleTableRecord
  2
ROMANS
 70
     0
 40
0.0
 41
1.0
 50
0.0
 71
     0
 42
5.0
  3
romans
  4

  0
ENDTAB
  0
TABLE
  2
VIEW
  5
10
330
0
100
AcDbSymbolTable
 70
     0
  0
ENDTAB
  0
TABLE
  2
UCS
  5
11
330
0
100
AcDbSymbolTable
 70
     0
  0
ENDTAB
  0
TABLE
  2
APPID
  5
14
330
0
100
AcDbSymbolTable
 70
     1
  0
APPID
  5
15
330
14
100
AcDbSymbolTableRecord
100
AcDbRegAppTableRecord
  2
ACAD
 70
     0
  0
ENDTAB
  0
TABLE
  2
DIMSTYLE
  5
16
330
0
100
AcDbSymbolTable
 70
     1
100
AcDbDimStyleTable
 71
     1
340
1E
  0
DIMSTYLE
105
1E
102
{ACAD_REACTORS
330
186
330
194
330
1A1
102
}
330
16
100
AcDbSymbolTableRecord
100
AcDbDimStyleTableRecord
  2
STANDARD
 70
     0
 40
15.0
 73
     0
 74
     0
 77
     1
176
   256
177
   256
271
     1
272
     1
340
1C
371
    -1
372
    -1
  0
ENDTAB
  0
TABLE
  2
BLOCK_RECORD
  5
1
330
0
100
AcDbSymbolTable
 70
     3
  0
BLOCK_RECORD
  5
2
102
{ACAD_XDICTIONARY
360
172
102
}
330
1
100
AcDbSymbolTableRecord
100
AcDbBlockTableRecord
  2
*MODEL_SPACE
340
64
  0
BLOCK_RECORD
  5
7
102
{ACAD_XDICTIONARY
360
174
102
}
330
1
100
AcDbSymbolTableRecord
100
AcDbBlockTableRecord
  2
*PAPER_SPACE
340
65
  0
BLOCK_RECORD
  5
188
330
1
100
AcDbSymbolTableRecord
100
AcDbBlockTableRecord
  2
*D0
340
0
  0
BLOCK_RECORD
  5
195
330
1
100
AcDbSymbolTableRecord
100
AcDbBlockTableRecord
  2
*D1
340
0
  0
BLOCK_RECORD
  5
1A2
330
1
100
AcDbSymbolTableRecord
100
AcDbBlockTableRecord
  2
*D2
340
0
  0
ENDTAB
  0
ENDSEC
  0
SECTION
  2
BLOCKS
  0
BLOCK
  5
3
330
2
100
AcDbEntity
  8
0
100
AcDbBlockBegin
  2
*MODEL_SPACE
 70
     0
 10
0.0
 20
0.0
 30
0.0
  3
*MODEL_SPACE
  1

  0
ENDBLK
  5
6
330
2
100
AcDbEntity
  8
0
100
AcDbBlockEnd
  0
BLOCK
  5
8
330
7
100
AcDbEntity
 67
     1
  8
0
100
AcDbBlockBegin
  2
*PAPER_SPACE
 70
     0
 10
0.0
 20
0.0
 30
0.0
  3
*PAPER_SPACE
  1

  0
ENDBLK
  5
9
330
7
100
AcDbEntity
 67
     1
  8
0
100
AcDbBlockEnd
  0
BLOCK
  5
192
330
188
100
AcDbEntity
  8
0
 62
     3
100
AcDbBlockBegin
  2
*D0
 70
     1
 10
0.0
 20
0.0
 30
0.0
  3
*D0
  1

  0
LINE
  5
1E4
330
188
100
AcDbEntity
  8
DIM
100
AcDbLine
 10
-23.99999999999994
 20
11.32749999999917
 30
0.0
 11
-23.99999999999994
 21
47.06365700384977
 31
0.0
  0
LINE
  5
1E5
330
188
100
AcDbEntity
  8
DIM
100
AcDbLine
 10
79.99999999999992
 20
18.93720732661495
 30
0.0
 11
79.99999999999992
 21
47.06365700384977
 31
0.0
  0
LINE
  5
1E6
330
188
100
AcDbEntity
  8
DIM
100
AcDbLine
 10
-21.29999999999994
 20
44.36365700384977
 30
0.0
 11
77.29999999999994
 21
44.36365700384977
 31
0.0
  0
SOLID
  5
1E7
330
188
100
AcDbEntity
  8
DIM
100
AcDbTrace
 10
-21.29999999999994
 20
44.81365700384976
 30
0.0
 11
-21.29999999999994
 21
43.91365700384976
 31
0.0
 12
-23.99999999999994
 22
44.36365700384977
 32
0.0
 13
-23.99999999999994
 23
44.36365700384977
 33
0.0
  0
SOLID
  5
1E8
330
188
100
AcDbEntity
  8
DIM
100
AcDbTrace
 10
77.29999999999994
 20
44.81365700384976
 30
0.0
 11
77.29999999999994
 21
43.91365700384976
 31
0.0
 12
79.99999999999992
 22
44.36365700384977
 32
0.0
 13
79.99999999999992
 23
44.36365700384977
 33
0.0
  0
MTEXT
  5
1E9
330
188
100
AcDbEntity
  8
DIM
 62
     0
100
AcDbMText
 10
28.0
 20
47.06365700384977
 30
0.0
 40
2.699999999999998
 41
0.0
 71
     5
 72
     1
  1
\A1;104.0
  7
ROMANS
 73
     1
 44
1.0
  0
POINT
  5
1EA
330
188
100
AcDbEntity
  8
Defpoints
 62
     0
100
AcDbPoint
 10
-23.99999999999994
 20
10.38999999999917
 30
0.0
  0
POINT
  5
1EB
330
188
100
AcDbEntity
  8
Defpoints
 62
     0
100
AcDbPoint
 10
79.99999999999992
 20
17.99970732661495
 30
0.0
  0
POINT
  5
1EC
330
188
100
AcDbEntity
  8
Defpoints
 62
     0
100
AcDbPoint
 10
79.99999999999992
 20
44.36365700384977
 30
0.0
  0
ENDBLK
  5
193
330
188
100
AcDbEntity
  8
0
 62
     3
100
AcDbBlockEnd
  0
BLOCK
  5
19F
330
195
100
AcDbEntity
  8
0
 62
     3
100
AcDbBlockBegin
  2
*D1
 70
     1
 10
0.0
 20
0.0
 30
0.0
  3
*D1
  1

  0
LINE
  5
1DB
330
195
100
AcDbEntity
  8
DIM
100
AcDbLine
 10
0.0000000000000001
 20
19.68749999999909
 30
0.0
 11
0.000000000000001
 21
35.00060348457914
 31
0.0
  0
LINE
  5
1DC
330
195
100
AcDbEntity
  8
DIM
100
AcDbLine
 10
79.99999999999992
 20
18.93720732661495
 30
0.0
 11
79.99999999999992
 21
35.00060348457914
 31
0.0
  0
LINE
  5
1DD
330
195
100
AcDbEntity
  8
DIM
100
AcDbLine
 10
2.7
 20
32.30060348457914
 30
0.0
 11
77.29999999999994
 21
32.30060348457914
 31
0.0
  0
SOLID
  5
1DE
330
195
100
AcDbEntity
  8
DIM
100
AcDbTrace
 10
2.7
 20
32.75060348457913
 30
0.0
 11
2.7
 21
31.85060348457914
 31
0.0
 12
0.0000000000000008
 22
32.30060348457914
 32
0.0
 13
0.0000000000000008
 23
32.30060348457914
 33
0.0
  0
SOLID
  5
1DF
330
195
100
AcDbEntity
  8
DIM
100
AcDbTrace
 10
77.29999999999994
 20
32.75060348457913
 30
0.0
 11
77.29999999999994
 21
31.85060348457914
 31
0.0
 12
79.99999999999992
 22
32.30060348457914
 32
0.0
 13
79.99999999999992
 23
32.30060348457914
 33
0.0
  0
MTEXT
  5
1E0
330
195
100
AcDbEntity
  8
DIM
 62
     0
100
AcDbMText
 10
39.99999999999996
 20
35.00060348457914
 30
0.0
 40
2.699999999999998
 41
0.0
 71
     5
 72
     1
  1
\A1;80.0
  7
ROMANS
 73
     1
 44
1.0
  0
POINT
  5
1E1
330
195
100
AcDbEntity
  8
Defpoints
 62
     0
100
AcDbPoint
 10
0.0
 20
18.74999999999909
 30
0.0
  0
POINT
  5
1E2
330
195
100
AcDbEntity
  8
Defpoints
 62
     0
100
AcDbPoint
 10
79.99999999999992
 20
17.99970732661495
 30
0.0
  0
POINT
  5
1E3
330
195
100
AcDbEntity
  8
Defpoints
 62
     0
100
AcDbPoint
 10
79.99999999999992
 20
32.30060348457914
 30
0.0
  0
ENDBLK
  5
1A0
330
195
100
AcDbEntity
  8
0
 62
     3
100
AcDbBlockEnd
  0
BLOCK
  5
1AC
330
1A2
100
AcDbEntity
  8
0
 62
     3
100
AcDbBlockBegin
  2
*D2
 70
     1
 10
0.0
 20
0.0
 30
0.0
  3
*D2
  1

  0
LINE
  5
1D2
330
1A2
100
AcDbEntity
  8
DIM
100
AcDbLine
 10
79.43750002855239
 20
19.5
 30
0.0
 11
103.1490673471842
 21
19.49999999999999
 31
0.0
  0
LINE
  5
1D3
330
1A2
100
AcDbEntity
  8
DIM
100
AcDbLine
 10
79.43750002855239
 20
-19.49999999999795
 30
0.0
 11
103.1490673471842
 21
-19.49999999999795
 31
0.0
  0
LINE
  5
1D4
330
1A2
100
AcDbEntity
  8
DIM
100
AcDbLine
 10
100.449067347184
 20
16.79999999999999
 30
0.0
 11
100.449067347184
 21
-16.79999999999795
 31
0.0
  0
SOLID
  5
1D5
330
1A2
100
AcDbEntity
  8
DIM
100
AcDbTrace
 10
99.99906734718429
 20
16.79999999999999
 30
0.0
 11
100.8990673471842
 21
16.79999999999999
 31
0.0
 12
100.449067347184
 22
19.49999999999999
 32
0.0
 13
100.449067347184
 23
19.49999999999999
 33
0.0
  0
SOLID
  5
1D6
330
1A2
100
AcDbEntity
  8
DIM
100
AcDbTrace
 10
99.99906734718429
 20
-16.79999999999795
 30
0.0
 11
100.8990673471842
 21
-16.79999999999795
 31
0.0
 12
100.449067347184
 22
-19.49999999999795
 32
0.0
 13
100.449067347184
 23
-19.49999999999795
 33
0.0
  0
MTEXT
  5
1D7
330
1A2
100
AcDbEntity
  8
DIM
 62
     0
100
AcDbMText
 10
97.74906734718427
 20
0.0000000000010351
 30
0.0
 40
2.699999999999998
 41
0.0
 71
     5
 72
     1
  1
\A1;%%c39.0
  7
ROMANS
 11
0.0000000000000001
 21
1.0
 31
0.0
 73
     1
 44
1.0
  0
POINT
  5
1D8
330
1A2
100
AcDbEntity
  8
Defpoints
 62
     0
100
AcDbPoint
 10
78.50000002855239
 20
19.5
 30
0.0
  0
POINT
  5
1D9
330
1A2
100
AcDbEntity
  8
Defpoints
 62
     0
100
AcDbPoint
 10
78.50000002855239
 20
-19.49999999999795
 30
0.0
  0
POINT
  5
1DA
330
1A2
100
AcDbEntity
  8
Defpoints
 62
     0
100
AcDbPoint
 10
100.449067347184
 20
-19.49999999999795
 30
0.0
  0
ENDBLK
  5
1AD
330
1A2
100
AcDbEntity
  8
0
 62
     3
100
AcDbBlockEnd
  0
ENDSEC
  0
SECTION
  2
ENTITIES
  0
LINE
  5
B2
330
2
100
AcDbEntity
  8
CTRL
100
AcDbLine
 10
-24.5584002452004
 20
0.0
 30
0.0
 11
81.89365422011475
 21
0.0
 31
0.0
  0
LINE
  5
B3
330
2
100
AcDbEntity
  8
KA
100
AcDbLine
 10
-23.38999983084562
 20
10.99999999999907
 30
0.0
 11
-21.22533718045905
 21
10.69577650426503
 31
0.0
  0
LINE
  5
B4
330
2
100
AcDbEntity
  8
HIDDEN
100
AcDbLine
 10
-23.56698729810767
 20
5.49999999999909
 30
0.0
 11
-1.0
 21
5.49999999999909
 31
0.0
  0
LINE
  5
B5
330
2
100
AcDbEntity
  8
KA
100
AcDbLine
 10
-23.38999983084568
 20
-11.0000000000009
 30
0.0
 11
-21.22533718045905
 21
-10.69577650426595
 31
0.0
  0
LINE
  5
B6
330
2
100
AcDbEntity
  8
HIDDEN
100
AcDbLine
 10
-23.56698729810767
 20
-5.500000000000909
 30
0.0
 11
-1.0
 21
-5.500000000000909
 31
0.0
  0
LINE
  5
B7
330
2
100
AcDbEntity
  8
KA
100
AcDbLine
 10
-23.99999999999994
 20
0.0
 30
0.0
 11
-23.99999999999994
 21
10.38999999999917
 31
0.0
  0
ARC
  5
B8
330
2
100
AcDbEntity
  8
KA
100
AcDbCircle
 10
-23.38999999999992
 20
10.38999999999917
 30
0.0
 40
0.61
100
AcDbArc
 50
90.0
 51
180.0
  0
LINE
  5
B9
330
2
100
AcDbEntity
  8
HIDDEN
100
AcDbLine
 10
-23.99999999999994
 20
5.75
 30
0.0
 11
-23.56698729810767
 21
5.49999999999909
 31
0.0
  0
LINE
  5
BA
330
2
100
AcDbEntity
  8
HIDDEN
100
AcDbLine
 10
-23.56698729810767
 20
5.49999999999909
 30
0.0
 11
-23.56698729810767
 21
0.0
 31
0.0
  0
LINE
  5
BB
330
2
100
AcDbEntity
  8
HIDDEN
100
AcDbLine
 10
-23.56698729810767
 20
-5.500000000000909
 30
0.0
 11
-23.56698729810767
 21
0.0
 31
0.0
  0
LINE
  5
BC
330
2
100
AcDbEntity
  8
HIDDEN
100
AcDbLine
 10
-23.99999999999994
 20
-5.750000000000909
 30
0.0
 11
-23.56698729810767
 21
-5.500000000000909
 31
0.0
  0
ARC
  5
BD
330
2
100
AcDbEntity
  8
KA
100
AcDbCircle
 10
-23.38999999999998
 20
-10.3900000000001
 30
0.0
 40
0.61
100
AcDbArc
 50
180.0
 51
270.0
  0
LINE
  5
BE
330
2
100
AcDbEntity
  8
KA
100
AcDbLine
 10
-23.99999999999994
 20
0.0
 30
0.0
 11
-24.0
 21
-10.3900000000001
 31
0.0
  0
LINE
  5
C1
330
2
100
AcDbEntity
  8
KA
100
AcDbLine
 10
-8.560021786647382
 20
-13.25
 30
0.0
 11
-3.119978213352508
 21
-13.25
 31
0.0
  0
LINE
  5
C2
330
2
100
AcDbEntity
  8
KA
100
AcDbLine
 10
-8.560021786647496
 20
13.24999999999908
 30
0.0
 11
-3.119978213352508
 21
13.24999999999908
 31
0.0
  0
ARC
  5
C3
330
2
100
AcDbEntity
  8
KA
100
AcDbCircle
 10
-5.839999999999918
 20
25.02482126942798
 30
0.0
 40
14.65462765270467
100
AcDbArc
 50
253.1413985779871
 51
286.8586014220126
  0
ARC
  5
C4
330
2
100
AcDbEntity
  8
KA
100
AcDbCircle
 10
-5.839999999999918
 20
-25.02482126942891
 30
0.0
 40
14.65462765270467
100
AcDbArc
 50
73.14139857798725
 51
106.8586014220126
  0
LINE
  5
C5
330
2
100
AcDbEntity
  8
KA
100
AcDbLine
 10
-10.08999999999991
 20
-11.0000000000009
 30
0.0
 11
-8.906431948161181
 21
-13.04999999999995
 31
0.0
  0
ARC
  5
C6
330
2
100
AcDbEntity
  8
KA
100
AcDbCircle
 10
-8.560021786647496
 20
-12.84999999999991
 30
0.0
 40
0.4
100
AcDbArc
 50
210.0000000000004
 51
270.0
  0
LINE
  5
C7
330
2
100
AcDbEntity
  8
KA
100
AcDbLine
 10
-10.08999999999991
 20
2.967557918557986
 30
0.0
 11
-10.08999999999991
 21
-2.967557918558893
 31
0.0
  0
ARC
  5
C8
330
2
100
AcDbEntity
  8
KA
100
AcDbCircle
 10
-8.560021786647496
 20
12.84999999999898
 30
0.0
 40
0.4
100
AcDbArc
 50
90.0
 51
149.9999999999993
  0
LINE
  5
C9
330
2
100
AcDbEntity
  8
KA
100
AcDbLine
 10
-10.08999999999991
 20
10.99999999999907
 30
0.0
 11
-8.906431948161181
 21
13.04999999999904
 31
0.0
  0
LINE
  5
CA
330
2
100
AcDbEntity
  8
KA
100
AcDbLine
 10
-19.5
 20
10.99999999999907
 30
0.0
 11
-10.08999999999991
 21
10.99999999999907
 31
0.0
  0
LINE
  5
CB
330
2
100
AcDbEntity
  8
KA
100
AcDbLine
 10
-19.5
 20
0.0
 30
0.0
 11
-19.5
 21
10.99999999999907
 31
0.0
  0
LINE
  5
CC
330
2
100
AcDbEntity
  8
KA
100
AcDbLine
 10
-19.5
 20
10.99999999999907
 30
0.0
 11
-21.22533718045905
 21
10.69577650426503
 31
0.0
  0
LINE
  5
CD
330
2
100
AcDbEntity
  8
KA
100
AcDbLine
 10
-21.22533718045905
 20
10.69577650426503
 30
0.0
 11
-21.22533718045905
 21
0.0
 31
0.0
  0
CIRCLE
  5
CE
330
2
100
AcDbEntity
  8
KA
100
AcDbCircle
 10
-9.649999999999975
 20
0.0
 30
0.0
 40
3.0
  0
LWPOLYLINE
  5
CF
330
2
100
AcDbEntity
  8
KA
100
AcDbPolyline
 90
       16
 70
     1
 43
0.0
 10
-5.525698855600296
 20
0.0
 42
0.1244221799445328
 10
-5.820189079779195
 20
1.165110821967118
 42
0.1057245435363058
 10
-6.733678693139494
 20
2.236941748011984
 42
0.0868893055637331
 10
-8.027048262388916
 20
2.911889243410996
 42
0.0770601789445748
 10
-9.64999999999992
 20
3.163513358278123
 42
0.0770601789445744
 10
-11.27295173761107
 20
2.911889243410996
 42
0.0868893055637335
 10
-12.56632130686051
 20
2.236941748011984
 42
0.105724543536305
 10
-13.47981092022081
 20
1.165110821967118
 42
0.1244221799445327
 10
-13.77430114439965
 20
0.0
 42
0.124422179944533
 10
-13.47981092022081
 20
-1.165110821968028
 42
0.1057245435363053
 10
-12.56632130686051
 20
-2.236941748012895
 42
0.0868893055637333
 10
-11.27295173761107
 20
-2.911889243411906
 42
0.0770601789445746
 10
-9.649999999999975
 20
-3.163513358279033
 42
0.0770601789445746
 10
-8.027048262388916
 20
-2.911889243411906
 42
0.0868893055637332
 10
-6.733678693139494
 20
-2.236941748012895
 42
0.1057245435363056
 10
-5.820189079779195
 20
-1.165110821968028
 42
0.1244221799445327
  0
LINE
  5
D0
330
2
100
AcDbEntity
  8
KA
100
AcDbLine
 10
-21.22533718045905
 20
-10.69577650426595
 30
0.0
 11
-21.22533718045905
 21
0.0
 31
0.0
  0
LINE
  5
D1
330
2
100
AcDbEntity
  8
KA
100
AcDbLine
 10
-19.5
 20
-11.0000000000009
 30
0.0
 11
-21.22533718045905
 21
-10.69577650426595
 31
0.0
  0
LINE
  5
D2
330
2
100
AcDbEntity
  8
KA
100
AcDbLine
 10
-19.5
 20
0.0
 30
0.0
 11
-19.5
 21
-11.0000000000009
 31
0.0
  0
LINE
  5
D3
330
2
100
AcDbEntity
  8
KA
100
AcDbLine
 10
-19.5
 20
-11.0000000000009
 30
0.0
 11
-10.08999999999991
 21
-11.0000000000009
 31
0.0
  0
LINE
  5
D7
330
2
100
AcDbEntity
  8
LINE
100
AcDbLine
 10
0.75
 20
-19.49999999999977
 30
0.0
 11
78.50000002855239
 21
-19.49999999999795
 31
0.0
  0
LINE
  5
D8
330
2
100
AcDbEntity
  8
LINE
100
AcDbLine
 10
0.75
 20
19.5
 30
0.0
 11
78.50000002855239
 21
19.5
 31
0.0
  0
LINE
  5
D9
330
2
100
AcDbEntity
  8
KA
100
AcDbLine
 10
-1.589999999999918
 20
-11.0000000000009
 30
0.0
 11
-1.499999999999943
 21
-11.0000000000009
 31
0.0
  0
LINE
  5
DA
330
2
100
AcDbEntity
  8
KA
100
AcDbLine
 10
-1.589999999999918
 20
-11.0000000000009
 30
0.0
 11
-2.77356805183865
 21
-13.04999999999995
 31
0.0
  0
ARC
  5
DB
330
2
100
AcDbEntity
  8
KA
100
AcDbCircle
 10
-3.119978213352508
 20
-12.84999999999991
 30
0.0
 40
0.4
100
AcDbArc
 50
270.0
 51
329.9999999999993
  0
ARC
  5
DC
330
2
100
AcDbEntity
  8
KA
100
AcDbCircle
 10
-3.119978213352508
 20
12.84999999999898
 30
0.0
 40
0.4
100
AcDbArc
 50
30.00000000000054
 51
90.0
  0
LINE
  5
DD
330
2
100
AcDbEntity
  8
KA
100
AcDbLine
 10
-1.589999999999974
 20
10.99999999999907
 30
0.0
 11
-2.77356805183865
 21
13.04999999999904
 31
0.0
  0
LINE
  5
DF
330
2
100
AcDbEntity
  8
LINE
100
AcDbLine
 10
0.0
 20
0.0
 30
0.0
 11
0.0
 21
18.74999999999909
 31
0.0
  0
LINE
  5
E0
330
2
100
AcDbEntity
  8
KA
100
AcDbLine
 10
-1.5
 20
10.99999999999907
 30
0.0
 11
-1.5
 21
0.0
 31
0.0
  0
LINE
  5
E1
330
2
100
AcDbEntity
  8
KA
100
AcDbLine
 10
-1.5
 20
10.99999999999907
 30
0.0
 11
0.0
 21
10.5980762113529
 31
0.0
  0
LINE
  5
E2
330
2
100
AcDbEntity
  8
HIDDEN
100
AcDbLine
 10
-1.0
 20
0.0
 30
0.0
 11
-1.0
 21
5.49999999999909
 31
0.0
  0
LINE
  5
E3
330
2
100
AcDbEntity
  8
HIDDEN
100
AcDbLine
 10
-1.0
 20
5.49999999999909
 30
0.0
 11
2.175426480542851
 21
0.0
 31
0.0
  0
LINE
  5
E4
330
2
100
AcDbEntity
  8
LINE
100
AcDbLine
 10
0.0
 20
18.74999999999909
 30
0.0
 11
0.75
 21
19.49999999999909
 31
0.0
  0
LINE
  5
E5
330
2
100
AcDbEntity
  8
LINE
100
AcDbLine
 10
0.75
 20
19.49999999999909
 30
0.0
 11
0.75
 21
0.0
 31
0.0
  0
LINE
  5
E6
330
2
100
AcDbEntity
  8
LINE
100
AcDbLine
 10
0.75
 20
-19.49999999999977
 30
0.0
 11
0.75
 21
0.0
 31
0.0
  0
LINE
  5
E7
330
2
100
AcDbEntity
  8
LINE
100
AcDbLine
 10
0.0
 20
-18.74999999999976
 30
0.0
 11
0.75
 21
-19.49999999999977
 31
0.0
  0
LINE
  5
E8
330
2
100
AcDbEntity
  8
HIDDEN
100
AcDbLine
 10
-1.0
 20
-5.500000000000909
 30
0.0
 11
2.175426480542851
 21
0.0
 31
0.0
  0
LINE
  5
E9
330
2
100
AcDbEntity
  8
HIDDEN
100
AcDbLine
 10
-1.0
 20
0.0
 30
0.0
 11
-1.0
 21
-5.500000000000909
 31
0.0
  0
LINE
  5
EA
330
2
100
AcDbEntity
  8
KA
100
AcDbLine
 10
-1.499999999999943
 20
-11.0000000000009
 30
0.0
 11
0.0000000000001137
 21
-10.59807621135382
 31
0.0
  0
LINE
  5
EB
330
2
100
AcDbEntity
  8
KA
100
AcDbLine
 10
-1.499999999999943
 20
-11.0000000000009
 30
0.0
 11
-1.5
 21
0.0
 31
0.0
  0
LINE
  5
EC
330
2
100
AcDbEntity
  8
LINE
100
AcDbLine
 10
0.0000000000002751
 20
0.0
 30
0.0
 11
0.0
 21
-18.74999999999976
 31
0.0
  0
LINE
  5
EE
330
2
100
AcDbEntity
  8
KA
100
AcDbLine
 10
-1.589999999999974
 20
10.99999999999907
 30
0.0
 11
-1.5
 21
10.99999999999907
 31
0.0
  0
LINE
  5
EF
330
2
100
AcDbEntity
  8
KA
100
AcDbLine
 10
-1.589999999999918
 20
-11.0000000000009
 30
0.0
 11
-1.499999999999943
 21
-11.0000000000009
 31
0.0
  0
LINE
  5
F4
330
2
100
AcDbEntity
  8
LINE
100
AcDbLine
 10
78.50000002855239
 20
19.5
 30
0.0
 11
78.50000002855239
 21
-19.49999999999795
 31
0.0
  0
LINE
  5
F5
330
2
100
AcDbEntity
  8
LINE
100
AcDbLine
 10
78.50000002855264
 20
19.49999999999909
 30
0.0
 11
79.99999999999992
 21
17.99970732661495
 31
0.0
  0
LINE
  5
F6
330
2
100
AcDbEntity
  8
LINE
100
AcDbLine
 10
80.0000000285525
 20
-17.99999999999795
 30
0.0
 11
78.5000000285525
 21
-19.49999999999795
 31
0.0
  0
LINE
  5
F7
330
2
100
AcDbEntity
  8
LINE
100
AcDbLine
 10
79.99999999999992
 20
17.99970732661495
 30
0.0
 11
80.0000000285525
 21
-17.99999999999795
 31
0.0
  0
DIMENSION
  5
186
330
2
100
AcDbEntity
  8
DIM
100
AcDbDimension
  2
*D0
 10
79.99999999999992
 20
44.36365700384977
 30
0.0
 11
28.0
 21
47.06365700384977
 31
0.0
 70
    32
 71
     5
 42
103.9999999999996
  3
STANDARD
100
AcDbAlignedDimension
 13
-23.99999999999994
 23
10.38999999999917
 33
0.0
 14
79.99999999999992
 24
17.99970732661495
 34
0.0
100
AcDbRotatedDimension
  0
DIMENSION
  5
194
330
2
100
AcDbEntity
  8
DIM
100
AcDbDimension
  2
*D1
 10
79.99999999999992
 20
32.30060348457914
 30
0.0
 11
39.99999999999996
 21
35.00060348457914
 31
0.0
 70
    32
 71
     5
 42
79.99999999999992
  3
STANDARD
100
AcDbAlignedDimension
 13
0.0
 23
18.74999999999909
 33
0.0
 14
79.99999999999992
 24
17.99970732661495
 34
0.0
100
AcDbRotatedDimension
  0
DIMENSION
  5
1A1
330
2
100
AcDbEntity
  8
DIM
100
AcDbDimension
  2
*D2
 10
100.449067347184
 20
-19.49999999999795
 30
0.0
 11
97.74906734718427
 21
0.0000000000010351
 31
0.0
 70
    32
  1
%%c<>
 71
     5
 42
38.99999999999795
  3
STANDARD
100
AcDbAlignedDimension
 13
78.50000002855239
 23
19.5
 33
0.0
 14
78.50000002855239
 24
-19.49999999999795
 34
0.0
 50
90.0
100
AcDbRotatedDimension
  0
ENDSEC
  0
SECTION
  2
OBJECTS
  0
DICTIONARY
  5
1A
330
0
100
AcDbDictionary
281
     1
  3
ACAD_GROUP
350
18
  3
ACAD_LAYOUT
350
62
  3
ACAD_MLINESTYLE
350
19
  3
ACAD_PLOTSETTINGS
350
63
  3
ACAD_PLOTSTYLENAME
350
60
  3
AcDbVariableDictionary
350
178
  0
DICTIONARY
  5
172
330
2
100
AcDbDictionary
280
     1
281
     1
  3
ACAD_LAYOUTSELFREF
360
173
  0
DICTIONARY
  5
174
330
7
100
AcDbDictionary
280
     1
281
     1
  3
ACAD_LAYOUTSELFREF
360
175
  0
DICTIONARY
  5
18
102
{ACAD_REACTORS
330
1A
102
}
330
1A
100
AcDbDictionary
281
     1
  0
DICTIONARY
  5
62
102
{ACAD_REACTORS
330
1A
102
}
330
1A
100
AcDbDictionary
281
     1
  3
Layout1
350
65
  3
Model
350
64
  0
DICTIONARY
  5
19
102
{ACAD_REACTORS
330
1A
102
}
330
1A
100
AcDbDictionary
281
     1
  3
STANDARD
350
1D
  0
DICTIONARY
  5
63
102
{ACAD_REACTORS
330
1A
102
}
330
1A
100
AcDbDictionary
281
     1
  0
ACDBDICTIONARYWDFLT
  5
60
102
{ACAD_REACTORS
330
1A
102
}
330
1A
100
AcDbDictionary
281
     1
  3
Normal
350
61
100
AcDbDictionaryWithDefault
340
61
  0
DICTIONARY
  5
178
102
{ACAD_REACTORS
330
1A
102
}
330
1A
100
AcDbDictionary
281
     1
  3
DIMASSOC
350
179
  0
XRECORD
  5
173
102
{ACAD_REACTORS
330
172
102
}
330
172
100
AcDbXrecord
280
     1
340
2
  0
XRECORD
  5
175
102
{ACAD_REACTORS
330
174
102
}
330
174
100
AcDbXrecord
280
     1
340
7
  0
LAYOUT
  5
65
102
{ACAD_REACTORS
330
62
102
}
330
62
100
AcDbPlotSettings
  1

  2
\\HAL\Compaq IJ900
  4

  6

 40
0.0
 41
0.0
 42
0.0
 43
0.0
 44
0.0
 45
0.0
 46
0.0
 47
0.0
 48
0.0
 49
0.0
140
0.0
141
0.0
142
1.0
143
1.0
 70
   688
 72
     0
 73
     0
 74
     5
  7
KPT.ctb
 75
    16
147
1.0
148
0.0
149
0.0
100
AcDbLayout
  1
Layout1
 70
     1
 71
     1
 10
0.0
 20
0.0
 11
12.0
 21
9.0
 12
0.0
 22
0.0
 32
0.0
 14
1.000000000000000E+20
 24
1.000000000000000E+20
 34
1.000000000000000E+20
 15
-1.000000000000000E+20
 25
-1.000000000000000E+20
 35
-1.000000000000000E+20
146
0.0
 13
0.0
 23
0.0
 33
0.0
 16
1.0
 26
0.0
 36
0.0
 17
0.0
 27
1.0
 37
0.0
 76
     0
330
7
  0
LAYOUT
  5
64
102
{ACAD_REACTORS
330
62
102
}
330
62
100
AcDbPlotSettings
  1

  2
\\HAL\Compaq IJ900
  4

  6

 40
0.0
 41
0.0
 42
0.0
 43
0.0
 44
0.0
 45
0.0
 46
0.0
 47
0.0
 48
0.0
 49
0.0
140
0.0
141
0.0
142
1.0
143
1.0
 70
  1712
 72
     0
 73
     0
 74
     0
  7
KPT.ctb
 75
     0
147
1.0
148
0.0
149
0.0
100
AcDbLayout
  1
Model
 70
     1
 71
     0
 10
0.0
 20
0.0
 11
12.0
 21
9.0
 12
0.0
 22
0.0
 32
0.0
 14
0.0
 24
0.0
 34
0.0
 15
0.0
 25
0.0
 35
0.0
146
0.0
 13
0.0
 23
0.0
 33
0.0
 16
1.0
 26
0.0
 36
0.0
 17
0.0
 27
1.0
 37
0.0
 76
     0
330
2
  0
MLINESTYLE
  5
1D
102
{ACAD_REACTORS
330
19
102
}
330
19
100
AcDbMlineStyle
  2
STANDARD
 70
     0
  3

 62
   256
 51
90.0
 52
90.0
 71
     2
 49
0.5
 62
   256
  6
BYLAYER
 49
-0.5
 62
   256
  6
BYLAYER
  0
ACDBPLACEHOLDER
  5
61
102
{ACAD_REACTORS
330
60
102
}
330
60
  0
DICTIONARYVAR
  5
179
102
{ACAD_REACTORS
330
178
102
}
330
178
100
DictionaryVariables
280
     0
  1
1
  0
ENDSEC
  0
EOF
