  0
SECTION
  2
HEADER
  9
$ACADVER
  1
AC1015
  9
$ACADMAINTVER
 70
    13
  9
$DWGCODEPAGE
  3
ANSI_1252
  9
$INSBASE
 10
283.4938324781613
 20
-611.3523989794859
 30
0.0
  9
$EXTMIN
 10
-24.24162924451417
 20
-21.00118719241797
 30
-0.0000000000000058
  9
$EXTMAX
 10
70.93041256319793
 20
45.2047832735806
 30
0.0000000000000104
  9
$LIMMIN
 10
0.0
 20
0.0
  9
$LIMMAX
 10
12.0
 20
9.0
  9
$ORTHOMODE
 70
     1
  9
$REGENMODE
 70
     1
  9
$FILLMODE
 70
     1
  9
$QTEXTMODE
 70
     0
  9
$MIRRTEXT
 70
     0
  9
$LTSCALE
 40
10.0
  9
$ATTMODE
 70
     1
  9
$TEXTSIZE
 40
5.0
  9
$TRACEWID
 40
0.05
  9
$TEXTSTYLE
  7
ROMANS
  9
$CLAYER
  8
DIM
  9
$CELTYPE
  6
BYLAYER
  9
$CECOLOR
 62
   256
  9
$CELTSCALE
 40
1.0
  9
$DISPSILH
 70
     0
  9
$DIMSCALE
 40
15.0
  9
$DIMASZ
 40
0.18
  9
$DIMEXO
 40
0.0625
  9
$DIMDLI
 40
0.38
  9
$DIMRND
 40
0.0
  9
$DIMDLE
 40
0.0
  9
$DIMEXE
 40
0.18
  9
$DIMTP
 40
0.0
  9
$DIMTM
 40
0.0
  9
$DIMTXT
 40
0.18
  9
$DIMCEN
 40
0.09
  9
$DIMTSZ
 40
0.0
  9
$DIMTOL
 70
     0
  9
$DIMLIM
 70
     0
  9
$DIMTIH
 70
     0
  9
$DIMTOH
 70
     0
  9
$DIMSE1
 70
     0
  9
$DIMSE2
 70
     0
  9
$DIMTAD
 70
     1
  9
$DIMZIN
 70
     0
  9
$DIMBLK
  1

  9
$DIMASO
 70
     1
  9
$DIMSHO
 70
     1
  9
$DIMPOST
  1

  9
$DIMAPOST
  1

  9
$DIMALT
 70
     0
  9
$DIMALTD
 70
     2
  9
$DIMALTF
 40
25.4
  9
$DIMLFAC
 40
1.0
  9
$DIMTOFL
 70
     0
  9
$DIMTVP
 40
0.0
  9
$DIMTIX
 70
     0
  9
$DIMSOXD
 70
     0
  9
$DIMSAH
 70
     0
  9
$DIMBLK1
  1

  9
$DIMBLK2
  1

  9
$DIMSTYLE
  2
STANDARD
  9
$DIMCLRD
 70
     0
  9
$DIMCLRE
 70
     0
  9
$DIMCLRT
 70
     0
  9
$DIMTFAC
 40
1.0
  9
$DIMGAP
 40
0.09
  9
$DIMJUST
 70
     0
  9
$DIMSD1
 70
     0
  9
$DIMSD2
 70
     0
  9
$DIMTOLJ
 70
     1
  9
$DIMTZIN
 70
     0
  9
$DIMALTZ
 70
     0
  9
$DIMALTTZ
 70
     0
  9
$DIMUPT
 70
     0
  9
$DIMDEC
 70
     1
  9
$DIMTDEC
 70
     1
  9
$DIMALTU
 70
     2
  9
$DIMALTTD
 70
     2
  9
$DIMTXSTY
  7
ROMANS
  9
$DIMAUNIT
 70
     0
  9
$DIMADEC
 70
     0
  9
$DIMALTRND
 40
0.0
  9
$DIMAZIN
 70
     0
  9
$DIMDSEP
 70
    46
  9
$DIMATFIT
 70
     3
  9
$DIMFRAC
 70
     0
  9
$DIMLDRBLK
  1

  9
$DIMLUNIT
 70
     2
  9
$DIMLWD
 70
    -2
  9
$DIMLWE
 70
    -2
  9
$DIMTMOVE
 70
     0
  9
$LUNITS
 70
     2
  9
$LUPREC
 70
     4
  9
$SKETCHINC
 40
0.1
  9
$FILLETRAD
 40
0.0
  9
$AUNITS
 70
     0
  9
$AUPREC
 70
     0
  9
$MENU
  1
acad
  9
$ELEVATION
 40
0.0
  9
$PELEVATION
 40
0.0
  9
$THICKNESS
 40
0.0
  9
$LIMCHECK
 70
     0
  9
$CHAMFERA
 40
1.0
  9
$CHAMFERB
 40
1.0
  9
$CHAMFERC
 40
0.0
  9
$CHAMFERD
 40
0.0
  9
$SKPOLY
 70
     0
  9
$TDCREATE
 40
2449974.566112731
  9
$TDUCREATE
 40
2449974.816112731
  9
$TDUPDATE
 40
2452660.548496574
  9
$TDUUPDATE
 40
2452660.798496574
  9
$TDINDWG
 40
0.9824018866
  9
$TDUSRTIMER
 40
0.9824016551
  9
$USRTIMER
 70
     1
  9
$ANGBASE
 50
0.0
  9
$ANGDIR
 70
     0
  9
$PDMODE
 70
     0
  9
$PDSIZE
 40
0.0
  9
$PLINEWID
 40
0.0
  9
$SPLFRAME
 70
     0
  9
$SPLINETYPE
 70
     6
  9
$SPLINESEGS
 70
     8
  9
$HANDSEED
  5
11B
  9
$SURFTAB1
 70
     6
  9
$SURFTAB2
 70
     6
  9
$SURFTYPE
 70
     6
  9
$SURFU
 70
     6
  9
$SURFV
 70
     6
  9
$UCSBASE
  2

  9
$UCSNAME
  2

  9
$UCSORG
 10
0.0
 20
0.0
 30
0.0
  9
$UCSXDIR
 10
1.0
 20
0.0
 30
0.0
  9
$UCSYDIR
 10
0.0
 20
1.0
 30
0.0
  9
$UCSORTHOREF
  2

  9
$UCSORTHOVIEW
 70
     0
  9
$UCSORGTOP
 10
0.0
 20
0.0
 30
0.0
  9
$UCSORGBOTTOM
 10
0.0
 20
0.0
 30
0.0
  9
$UCSORGLEFT
 10
0.0
 20
0.0
 30
0.0
  9
$UCSORGRIGHT
 10
0.0
 20
0.0
 30
0.0
  9
$UCSORGFRONT
 10
0.0
 20
0.0
 30
0.0
  9
$UCSORGBACK
 10
0.0
 20
0.0
 30
0.0
  9
$PUCSBASE
  2

  9
$PUCSNAME
  2

  9
$PUCSORG
 10
0.0
 20
0.0
 30
0.0
  9
$PUCSXDIR
 10
1.0
 20
0.0
 30
0.0
  9
$PUCSYDIR
 10
0.0
 20
1.0
 30
0.0
  9
$PUCSORTHOREF
  2

  9
$PUCSORTHOVIEW
 70
     0
  9
$PUCSORGTOP
 10
0.0
 20
0.0
 30
0.0
  9
$PUCSORGBOTTOM
 10
0.0
 20
0.0
 30
0.0
  9
$PUCSORGLEFT
 10
0.0
 20
0.0
 30
0.0
  9
$PUCSORGRIGHT
 10
0.0
 20
0.0
 30
0.0
  9
$PUCSORGFRONT
 10
0.0
 20
0.0
 30
0.0
  9
$PUCSORGBACK
 10
0.0
 20
0.0
 30
0.0
  9
$USERI1
 70
     0
  9
$USERI2
 70
     0
  9
$USERI3
 70
     0
  9
$USERI4
 70
     0
  9
$USERI5
 70
     0
  9
$USERR1
 40
0.0
  9
$USERR2
 40
0.0
  9
$USERR3
 40
0.0
  9
$USERR4
 40
0.0
  9
$USERR5
 40
0.0
  9
$WORLDVIEW
 70
     1
  9
$SHADEDGE
 70
     3
  9
$SHADEDIF
 70
    70
  9
$TILEMODE
 70
     1
  9
$MAXACTVP
 70
    16
  9
$PINSBASE
 10
0.0
 20
0.0
 30
0.0
  9
$PLIMCHECK
 70
     0
  9
$PEXTMIN
 10
1.000000000000000E+20
 20
1.000000000000000E+20
 30
1.000000000000000E+20
  9
$PEXTMAX
 10
-1.000000000000000E+20
 20
-1.000000000000000E+20
 30
-1.000000000000000E+20
  9
$PLIMMIN
 10
0.0
 20
0.0
  9
$PLIMMAX
 10
12.0
 20
9.0
  9
$UNITMODE
 70
     0
  9
$VISRETAIN
 70
     0
  9
$PLINEGEN
 70
     0
  9
$PSLTSCALE
 70
     1
  9
$TREEDEPTH
 70
  3020
  9
$CMLSTYLE
  2
STANDARD
  9
$CMLJUST
 70
     0
  9
$CMLSCALE
 40
1.0
  9
$PROXYGRAPHICS
 70
     1
  9
$MEASUREMENT
 70
     0
  9
$CELWEIGHT
370
    -1
  9
$ENDCAPS
280
     0
  9
$JOINSTYLE
280
     0
  9
$LWDISPLAY
290
     0
  9
$INSUNITS
 70
     0
  9
$HYPERLINKBASE
  1

  9
$STYLESHEET
  1

  9
$XEDIT
290
     1
  9
$CEPSNTYPE
380
     0
  9
$PSTYLEMODE
290
     1
  9
$FINGERPRINTGUID
  2
{3BD38552-A103-4A00-AFF1-58978A4B2AB7}
  9
$VERSIONGUID
  2
{DD4C4765-1E8C-436F-BD4A-88C7F19EB909}
  9
$EXTNAMES
290
     1
  9
$PSVPSCALE
 40
0.0
  9
$OLESTARTUP
290
     0
  0
ENDSEC
  0
SECTION
  2
CLASSES
  0
CLASS
  1
DICTIONARYVAR
  2
AcDbDictionaryVar
  3
AutoCAD 2000
 90
        0
280
     0
281
     0
  0
CLASS
  1
LWPOLYLINE
  2
AcDbPolyline
  3
AutoCAD 2000
 90
    32768
280
     0
281
     1
  0
CLASS
  1
OLE2FRAME
  2
AcDbOle2Frame
  3
AutoCAD 2000
 90
    32768
280
     0
281
     1
  0
CLASS
  1
ACDBDICTIONARYWDFLT
  2
AcDbDictionaryWithDefault
  3
AutoCAD 2000
 90
        0
280
     0
281
     0
  0
CLASS
  1
ACDBPLACEHOLDER
  2
AcDbPlaceHolder
  3
AutoCAD 2000
 90
        0
280
     0
281
     0
  0
CLASS
  1
LAYOUT
  2
AcDbLayout
  3
AutoCAD 2000
 90
        0
280
     0
281
     0
  0
ENDSEC
  0
SECTION
  2
TABLES
  0
TABLE
  2
VPORT
  5
12
330
0
100
AcDbSymbolTable
 70
     2
  0
VPORT
  5
11A
330
12
100
AcDbSymbolTableRecord
100
AcDbViewportTableRecord
  2
*Active
 70
     0
 10
0.0
 20
0.0
 11
1.0
 21
1.0
 12
23.34439165934186
 22
12.10179804058131
 13
0.0
 23
0.0
 14
1.0
 24
1.0
 15
0.0
 25
0.0
 16
0.0
 26
0.0
 36
1.0
 17
0.0
 27
0.0
 37
0.0
 40
66.69943111543459
 41
1.498756218905472
 42
50.0
 43
0.0
 44
0.0
 50
0.0
 51
0.0
 71
     0
 72
 10000
 73
     1
 74
     1
 75
     0
 76
     0
 77
     0
 78
     0
281
     0
 65
     1
110
0.0
120
0.0
130
0.0
111
1.0
121
0.0
131
0.0
112
0.0
122
1.0
132
0.0
 79
     0
146
0.0
  0
ENDTAB
  0
TABLE
  2
LTYPE
  5
D
330
0
100
AcDbSymbolTable
 70
     3
  0
LTYPE
  5
E
330
D
100
AcDbSymbolTableRecord
100
AcDbLinetypeTableRecord
  2
BYBLOCK
 70
     0
  3

 72
    65
 73
     0
 40
0.0
  0
LTYPE
  5
F
330
D
100
AcDbSymbolTableRecord
100
AcDbLinetypeTableRecord
  2
BYLAYER
 70
     0
  3

 72
    65
 73
     0
 40
0.0
  0
LTYPE
  5
5
330
D
100
AcDbSymbolTableRecord
100
AcDbLinetypeTableRecord
  2
CONTINUOUS
 70
     0
  3
Solid line
 72
    65
 73
     0
 40
0.0
  0
LTYPE
  5
2A
330
D
100
AcDbSymbolTableRecord
100
AcDbLinetypeTableRecord
  2
HIDDEN
 70
     0
  3
_ _ _ _ _ _ _ _ _ _ _ _ _ _ _ _ _ _ _ _ _ _ _
 72
    65
 73
     2
 40
0.375
 49
0.25
 74
     0
 49
-0.125
 74
     0
  0
LTYPE
  5
21
330
D
100
AcDbSymbolTableRecord
100
AcDbLinetypeTableRecord
  2
CENTER
 70
     0
  3
____ _ ____ _ ____ _ ____ _ ____ _ ____ _ ____
 72
    65
 73
     4
 40
2.0
 49
1.25
 74
     0
 49
-0.25
 74
     0
 49
0.25
 74
     0
 49
-0.25
 74
     0
  0
ENDTAB
  0
TABLE
  2
LAYER
  5
A
330
0
100
AcDbSymbolTable
 70
     7
  0
LAYER
  5
4
330
A
100
AcDbSymbolTableRecord
100
AcDbLayerTableRecord
  2
0
 70
     0
 62
     7
  6
CONTINUOUS
370
    -3
390
60
  0
LAYER
  5
1B
330
A
100
AcDbSymbolTableRecord
100
AcDbLayerTableRecord
  2
LINE
 70
     0
 62
     3
  6
CONTINUOUS
370
    -3
390
60
  0
LAYER
  5
29
330
A
100
AcDbSymbolTableRecord
100
AcDbLayerTableRecord
  2
HIDDEN
 70
     0
 62
     2
  6
HIDDEN
370
    -3
390
60
  0
LAYER
  5
20
330
A
100
AcDbSymbolTableRecord
100
AcDbLayerTableRecord
  2
CTRL
 70
     0
 62
     1
  6
CENTER
370
    -3
390
60
  0
LAYER
  5
70
330
A
100
AcDbSymbolTableRecord
100
AcDbLayerTableRecord
  2
DIM
 70
     0
 62
     7
  6
CONTINUOUS
370
    -3
390
60
  0
LAYER
  5
71
330
A
100
AcDbSymbolTableRecord
100
AcDbLayerTableRecord
  2
KA
 70
     0
 62
     3
  6
CONTINUOUS
370
    -3
390
60
  0
LAYER
  5
73
330
A
100
AcDbSymbolTableRecord
100
AcDbLayerTableRecord
  2
Defpoints
 70
     0
 62
     7
  6
CONTINUOUS
290
     0
370
    -3
390
60
  0
ENDTAB
  0
TABLE
  2
STYLE
  5
B
330
0
100
AcDbSymbolTable
 70
     2
  0
STYLE
  5
C
330
B
100
AcDbSymbolTableRecord
100
AcDbTextStyleTableRecord
  2
STANDARD
 70
     0
 40
0.0
 41
1.0
 50
0.0
 71
     0
 42
0.2
  3
txt
  4

  0
STYLE
  5
1C
330
B
100
AcDbSymbolTableRecord
100
AcDbTextStyleTableRecord
  2
ROMANS
 70
     0
 40
0.0
 41
1.0
 50
0.0
 71
     0
 42
5.0
  3
romans
  4

  0
ENDTAB
  0
TABLE
  2
VIEW
  5
10
330
0
100
AcDbSymbolTable
 70
     0
  0
ENDTAB
  0
TABLE
  2
UCS
  5
11
330
0
100
AcDbSymbolTable
 70
     0
  0
ENDTAB
  0
TABLE
  2
APPID
  5
14
330
0
100
AcDbSymbolTable
 70
     1
  0
APPID
  5
15
330
14
100
AcDbSymbolTableRecord
100
AcDbRegAppTableRecord
  2
ACAD
 70
     0
  0
ENDTAB
  0
TABLE
  2
DIMSTYLE
  5
16
330
0
100
AcDbSymbolTable
 70
     1
100
AcDbDimStyleTable
 71
     1
340
1E
  0
DIMSTYLE
105
1E
102
{ACAD_REACTORS
330
72
330
80
330
8D
330
D7
102
}
330
16
100
AcDbSymbolTableRecord
100
AcDbDimStyleTableRecord
  2
STANDARD
 70
     0
 40
15.0
 73
     0
 74
     0
 77
     1
271
     1
272
     1
340
1C
  0
ENDTAB
  0
TABLE
  2
BLOCK_RECORD
  5
1
330
0
100
AcDbSymbolTable
 70
     4
  0
BLOCK_RECORD
  5
2
330
1
100
AcDbSymbolTableRecord
100
AcDbBlockTableRecord
  2
*MODEL_SPACE
340
63
  0
BLOCK_RECORD
  5
7
330
1
100
AcDbSymbolTableRecord
100
AcDbBlockTableRecord
  2
*PAPER_SPACE
340
64
  0
BLOCK_RECORD
  5
74
330
1
100
AcDbSymbolTableRecord
100
AcDbBlockTableRecord
  2
*D0
340
0
  0
BLOCK_RECORD
  5
81
330
1
100
AcDbSymbolTableRecord
100
AcDbBlockTableRecord
  2
*D1
340
0
  0
BLOCK_RECORD
  5
8E
330
1
100
AcDbSymbolTableRecord
100
AcDbBlockTableRecord
  2
*D2
340
0
  0
BLOCK_RECORD
  5
D8
330
1
100
AcDbSymbolTableRecord
100
AcDbBlockTableRecord
  2
*D3
340
0
  0
ENDTAB
  0
ENDSEC
  0
SECTION
  2
BLOCKS
  0
BLOCK
  5
3
330
2
100
AcDbEntity
  8
0
100
AcDbBlockBegin
  2
*MODEL_SPACE
 70
     0
 10
0.0
 20
0.0
 30
0.0
  3
*MODEL_SPACE
  1

  0
ENDBLK
  5
6
330
2
100
AcDbEntity
  8
0
100
AcDbBlockEnd
  0
BLOCK
  5
8
330
7
100
AcDbEntity
 67
     1
  8
0
100
AcDbBlockBegin
  2
*PAPER_SPACE
 70
     0
 10
0.0
 20
0.0
 30
0.0
  3
*PAPER_SPACE
  1

  0
ENDBLK
  5
9
330
7
100
AcDbEntity
 67
     1
  8
0
100
AcDbBlockEnd
  0
BLOCK
  5
7E
330
74
100
AcDbEntity
  8
0
 62
     3
100
AcDbBlockBegin
  2
*D0
 70
     1
 10
0.0
 20
0.0
 30
0.0
  3
*D0
  1

  0
LINE
  5
111
330
74
100
AcDbEntity
  8
DIM
 62
     0
370
    -2
100
AcDbLine
 10
-20.00000000000011
 20
9.643861601851197
 30
0.0
 11
-20.0000000000001
 21
43.85320404051113
 31
0.0
  0
LINE
  5
112
330
74
100
AcDbEntity
  8
DIM
 62
     0
370
    -2
100
AcDbLine
 10
50.0186974579417
 20
20.43750000000067
 30
0.0
 11
50.0186974579417
 21
43.85320404051113
 31
0.0
  0
LINE
  5
113
330
74
100
AcDbEntity
  8
DIM
 62
     0
370
    -2
100
AcDbLine
 10
-17.3000000000001
 20
41.15320404051113
 30
0.0
 11
47.3186974579417
 21
41.15320404051113
 31
0.0
  0
SOLID
  5
114
330
74
100
AcDbEntity
  8
DIM
 62
     0
100
AcDbTrace
 10
-17.3000000000001
 20
41.60320404051113
 30
0.0
 11
-17.3000000000001
 21
40.70320404051113
 31
0.0
 12
-20.0000000000001
 22
41.15320404051113
 32
0.0
 13
-20.0000000000001
 23
41.15320404051113
 33
0.0
  0
SOLID
  5
115
330
74
100
AcDbEntity
  8
DIM
 62
     0
100
AcDbTrace
 10
47.3186974579417
 20
41.60320404051113
 30
0.0
 11
47.3186974579417
 21
40.70320404051113
 31
0.0
 12
50.0186974579417
 22
41.15320404051113
 32
0.0
 13
50.0186974579417
 23
41.15320404051113
 33
0.0
  0
MTEXT
  5
116
330
74
100
AcDbEntity
  8
DIM
 62
     0
100
AcDbMText
 10
15.00934872897079
 20
43.85320404051113
 30
0.0
 40
2.699999999999999
 41
0.0
 71
     5
 72
     1
  1
\A1;70.0
  7
ROMANS
 73
     1
 44
1.0
  0
POINT
  5
117
330
74
100
AcDbEntity
  8
Defpoints
 62
     0
100
AcDbPoint
 10
-20.00000000000011
 20
8.706361601851197
 30
0.0
  0
POINT
  5
118
330
74
100
AcDbEntity
  8
Defpoints
 62
     0
100
AcDbPoint
 10
50.0186974579417
 20
19.50000000000067
 30
0.0
  0
POINT
  5
119
330
74
100
AcDbEntity
  8
Defpoints
 62
     0
100
AcDbPoint
 10
50.0186974579417
 20
41.15320404051113
 30
0.0
  0
ENDBLK
  5
7F
330
74
100
AcDbEntity
  8
0
 62
     3
100
AcDbBlockEnd
  0
BLOCK
  5
8B
330
81
100
AcDbEntity
  8
0
 62
     3
100
AcDbBlockBegin
  2
*D1
 70
     1
 10
0.0
 20
0.0
 30
0.0
  3
*D1
  1

  0
LINE
  5
108
330
81
100
AcDbEntity
  8
DIM
 62
     0
370
    -2
100
AcDbLine
 10
0.0000000000000001
 20
15.43749999999965
 30
0.0
 11
0.0000000000000013
 21
35.49191824367557
 31
0.0
  0
LINE
  5
109
330
81
100
AcDbEntity
  8
DIM
 62
     0
370
    -2
100
AcDbLine
 10
50.0186974579417
 20
20.43750000000067
 30
0.0
 11
50.0186974579417
 21
35.49191824367558
 31
0.0
  0
LINE
  5
10A
330
81
100
AcDbEntity
  8
DIM
 62
     0
370
    -2
100
AcDbLine
 10
2.700000000000001
 20
32.79191824367558
 30
0.0
 11
47.3186974579417
 21
32.79191824367558
 31
0.0
  0
SOLID
  5
10B
330
81
100
AcDbEntity
  8
DIM
 62
     0
100
AcDbTrace
 10
2.700000000000001
 20
33.24191824367558
 30
0.0
 11
2.700000000000001
 21
32.34191824367558
 31
0.0
 12
0.0000000000000011
 22
32.79191824367558
 32
0.0
 13
0.0000000000000011
 23
32.79191824367558
 33
0.0
  0
SOLID
  5
10C
330
81
100
AcDbEntity
  8
DIM
 62
     0
100
AcDbTrace
 10
47.3186974579417
 20
33.24191824367558
 30
0.0
 11
47.3186974579417
 21
32.34191824367558
 31
0.0
 12
50.0186974579417
 22
32.79191824367558
 32
0.0
 13
50.0186974579417
 23
32.79191824367558
 33
0.0
  0
MTEXT
  5
10D
330
81
100
AcDbEntity
  8
DIM
 62
     0
100
AcDbMText
 10
25.00934872897085
 20
35.49191824367558
 30
0.0
 40
2.699999999999999
 41
0.0
 71
     5
 72
     1
  1
\A1;50.0
  7
ROMANS
 73
     1
 44
1.0
  0
POINT
  5
10E
330
81
100
AcDbEntity
  8
Defpoints
 62
     0
100
AcDbPoint
 10
0.0
 20
14.49999999999965
 30
0.0
  0
POINT
  5
10F
330
81
100
AcDbEntity
  8
Defpoints
 62
     0
100
AcDbPoint
 10
50.0186974579417
 20
19.50000000000067
 30
0.0
  0
POINT
  5
110
330
81
100
AcDbEntity
  8
Defpoints
 62
     0
100
AcDbPoint
 10
50.0186974579417
 20
32.79191824367558
 30
0.0
  0
ENDBLK
  5
8C
330
81
100
AcDbEntity
  8
0
 62
     3
100
AcDbBlockEnd
  0
BLOCK
  5
98
330
8E
100
AcDbEntity
  8
0
 62
     3
100
AcDbBlockBegin
  2
*D2
 70
     1
 10
0.0
 20
0.0
 30
0.0
  3
*D2
  1

  0
LINE
  5
FF
330
8E
100
AcDbEntity
  8
DIM
 62
     0
370
    -2
100
AcDbLine
 10
49.45619745794171
 20
21.00000000000079
 30
0.0
 11
70.92990053414833
 21
21.00000000000078
 31
0.0
  0
LINE
  5
100
330
8E
100
AcDbEntity
  8
DIM
 62
     0
370
    -2
100
AcDbLine
 10
49.45619745794147
 20
-20.99999999999929
 30
0.0
 11
70.92990053414833
 21
-20.9999999999993
 31
0.0
  0
LINE
  5
101
330
8E
100
AcDbEntity
  8
DIM
 62
     0
370
    -2
100
AcDbLine
 10
68.22990053414833
 20
18.30000000000078
 30
0.0
 11
68.22990053414833
 21
-18.2999999999993
 31
0.0
  0
SOLID
  5
102
330
8E
100
AcDbEntity
  8
DIM
 62
     0
100
AcDbTrace
 10
67.77990053414832
 20
18.30000000000078
 30
0.0
 11
68.67990053414833
 21
18.30000000000078
 31
0.0
 12
68.22990053414833
 22
21.00000000000078
 32
0.0
 13
68.22990053414833
 23
21.00000000000078
 33
0.0
  0
SOLID
  5
103
330
8E
100
AcDbEntity
  8
DIM
 62
     0
100
AcDbTrace
 10
67.77990053414832
 20
-18.2999999999993
 30
0.0
 11
68.67990053414833
 21
-18.2999999999993
 31
0.0
 12
68.22990053414833
 22
-20.9999999999993
 32
0.0
 13
68.22990053414833
 23
-20.9999999999993
 33
0.0
  0
MTEXT
  5
104
330
8E
100
AcDbEntity
  8
DIM
 62
     0
100
AcDbMText
 10
65.52990053414832
 20
0.0000000000007511
 30
0.0
 40
2.699999999999999
 41
0.0
 71
     5
 72
     1
  1
\A1;%%c42.0
  7
ROMANS
 11
0.0000000000000001
 21
1.0
 31
0.0
 73
     1
 44
1.0
  0
POINT
  5
105
330
8E
100
AcDbEntity
  8
Defpoints
 62
     0
100
AcDbPoint
 10
48.51869745794171
 20
21.00000000000079
 30
0.0
  0
POINT
  5
106
330
8E
100
AcDbEntity
  8
Defpoints
 62
     0
100
AcDbPoint
 10
48.51869745794147
 20
-20.99999999999929
 30
0.0
  0
POINT
  5
107
330
8E
100
AcDbEntity
  8
Defpoints
 62
     0
100
AcDbPoint
 10
68.22990053414833
 20
-20.9999999999993
 30
0.0
  0
ENDBLK
  5
99
330
8E
100
AcDbEntity
  8
0
 62
     3
100
AcDbBlockEnd
  0
BLOCK
  5
E3
330
D8
100
AcDbEntity
  8
0
 62
     3
100
AcDbBlockBegin
  2
*D3
 70
     1
 10
0.0
 20
0.0
 30
0.0
  3
*D3
  1

  0
LINE
  5
F5
330
D8
100
AcDbEntity
  8
DIM
 62
     0
370
    -2
100
AcDbLine
 10
0.0000000000000001
 20
15.43749999999965
 30
0.0
 11
0.0000000000000008
 21
28.14290550588459
 31
0.0
  0
LINE
  5
F6
330
D8
100
AcDbEntity
  8
DIM
 62
     0
370
    -2
100
AcDbLine
 10
3.999999999999346
 20
16.43749999999966
 30
0.0
 11
3.999999999999347
 21
28.14290550588459
 31
0.0
  0
LINE
  5
F7
330
D8
100
AcDbEntity
  8
DIM
 62
     0
370
    -2
100
AcDbLine
 10
-2.699999999999998
 20
25.44290550588458
 30
0.0
 11
-5.399999999999998
 21
25.44290550588458
 31
0.0
  0
LINE
  5
F8
330
D8
100
AcDbEntity
  8
DIM
 62
     0
370
    -2
100
AcDbLine
 10
6.699999999999347
 20
25.44290550588458
 30
0.0
 11
17.7571428571422
 21
25.44290550588458
 31
0.0
  0
SOLID
  5
F9
330
D8
100
AcDbEntity
  8
DIM
 62
     0
100
AcDbTrace
 10
-2.699999999999998
 20
25.89290550588458
 30
0.0
 11
-2.699999999999998
 21
24.99290550588459
 31
0.0
 12
0.0000000000000007
 22
25.44290550588458
 32
0.0
 13
0.0000000000000007
 23
25.44290550588458
 33
0.0
  0
SOLID
  5
FA
330
D8
100
AcDbEntity
  8
DIM
 62
     0
100
AcDbTrace
 10
6.699999999999347
 20
25.89290550588458
 30
0.0
 11
6.699999999999347
 21
24.99290550588459
 31
0.0
 12
3.999999999999347
 22
25.44290550588458
 32
0.0
 13
3.999999999999347
 23
25.44290550588458
 33
0.0
  0
MTEXT
  5
FB
330
D8
100
AcDbEntity
  8
DIM
 62
     0
100
AcDbMText
 10
13.57857142857077
 20
28.14290550588459
 30
0.0
 40
2.699999999999999
 41
0.0
 71
     5
 72
     1
  1
\A1;4.0
  7
ROMANS
 73
     1
 44
1.0
  0
POINT
  5
FC
330
D8
100
AcDbEntity
  8
Defpoints
 62
     0
100
AcDbPoint
 10
0.0
 20
14.49999999999965
 30
0.0
  0
POINT
  5
FD
330
D8
100
AcDbEntity
  8
Defpoints
 62
     0
100
AcDbPoint
 10
3.999999999999346
 20
15.49999999999966
 30
0.0
  0
POINT
  5
FE
330
D8
100
AcDbEntity
  8
Defpoints
 62
     0
100
AcDbPoint
 10
3.999999999999347
 20
25.44290550588458
 30
0.0
  0
ENDBLK
  5
E4
330
D8
100
AcDbEntity
  8
0
 62
     3
100
AcDbBlockEnd
  0
ENDSEC
  0
SECTION
  2
ENTITIES
  0
LINE
  5
1F
330
2
100
AcDbEntity
  8
CTRL
100
AcDbLine
 10
-24.24078049695873
 20
-0.0000000000003411
 30
0.0
 11
54.1807942571221
 21
0.0000000000009095
 31
0.0
  0
LINE
  5
22
330
2
100
AcDbEntity
  8
LINE
100
AcDbLine
 10
48.51869745794147
 20
-20.99999999999929
 30
0.0
 11
5.473720558370504
 21
-20.99999999999929
 31
0.0
  0
LINE
  5
23
330
2
100
AcDbEntity
  8
LINE
100
AcDbLine
 10
48.51869745794171
 20
21.00000000000079
 30
0.0
 11
5.473720558370856
 21
21.00000000000089
 31
0.0
  0
LINE
  5
24
330
2
100
AcDbEntity
  8
LINE
100
AcDbLine
 10
1.0
 20
15.49999999999966
 30
0.0
 11
1.0
 21
0.0059999999996379
 31
0.0
  0
LINE
  5
25
330
2
100
AcDbEntity
  8
LINE
100
AcDbLine
 10
0.0
 20
14.49999999999965
 30
0.0
 11
0.0
 21
-0.0000000000003411
 31
0.0
  0
LWPOLYLINE
  5
26
330
2
100
AcDbEntity
  8
KA
100
AcDbPolyline
 90
       16
 70
     1
 43
0.0
 10
-11.69405206010432
 20
-0.0000000000003411
 42
-0.1171140427110635
 10
-11.42894493973699
 20
1.116309303516344
 42
-0.1043555384268854
 10
-10.62726113049061
 20
2.119340444571774
 42
-0.0902545617377738
 10
-9.475841418029915
 20
2.761171232031983
 42
-0.0823113820561539
 10
-8.051799999999985
 20
2.997199999999678
 42
-0.0823113820561487
 10
-6.627758581970311
 20
2.761171232031983
 42
-0.0902545617377748
 10
-5.476338869509618
 20
2.119340444571774
 42
-0.104355538426877
 10
-4.674655060263205
 20
1.116309303516344
 42
-0.1171140427110464
 10
-4.409547939895928
 20
-0.0000000000003411
 42
-0.1171140427110441
 10
-4.674655060263205
 20
-1.116309303516914
 42
-0.1043555384268713
 10
-5.476338869509618
 20
-2.119340444572458
 42
-0.09025456173778
 10
-6.627758581970311
 20
-2.761171232032436
 42
-0.0823113820561449
 10
-8.051799999999985
 20
-2.997200000000133
 42
-0.0823113820561462
 10
-9.475841418029915
 20
-2.761171232032436
 42
-0.0902545617377663
 10
-10.62726113049061
 20
-2.119340444572458
 42
-0.1043555384268826
 10
-11.42894493973699
 20
-1.116309303516914
 42
-0.1171140427110487
  0
CIRCLE
  5
27
330
2
100
AcDbEntity
  8
KA
100
AcDbCircle
 10
-8.051799999999985
 20
-0.0000000000003411
 30
0.0
 40
2.4765
  0
LINE
  5
28
330
2
100
AcDbEntity
  8
HIDDEN
100
AcDbLine
 10
-19.48580779350101
 20
4.499999999999658
 30
0.0
 11
1.263164003404965
 21
4.499999999999658
 31
0.0
  0
LINE
  5
2B
330
2
100
AcDbEntity
  8
HIDDEN
100
AcDbLine
 10
-19.48580779350101
 20
-4.500000000000341
 30
0.0
 11
1.26316400340508
 21
-4.500000000000341
 31
0.0
  0
LINE
  5
2C
330
2
100
AcDbEntity
  8
KA
100
AcDbLine
 10
-8.400000000000119
 20
9.004299999999716
 30
0.0
 11
-17.50000000000011
 21
9.004299999999716
 31
0.0
  0
LINE
  5
2D
330
2
100
AcDbEntity
  8
KA
100
AcDbLine
 10
-8.400000000000119
 20
-9.004300000000283
 30
0.0
 11
-17.50000000000001
 21
-9.004300000000283
 31
0.0
  0
LINE
  5
2E
330
2
100
AcDbEntity
  8
KA
100
AcDbLine
 10
-20.00000000000011
 20
8.706361601851199
 30
0.0
 11
-20.00000000000003
 21
-0.0000000000003411
 31
0.0
  0
LINE
  5
2F
330
2
100
AcDbEntity
  8
KA
100
AcDbLine
 10
-17.50000000000011
 20
9.004299999999716
 30
0.0
 11
-17.50000000000001
 21
-9.004300000000283
 31
0.0
  0
LINE
  5
30
330
2
100
AcDbEntity
  8
KA
100
AcDbLine
 10
-17.50000000000011
 20
9.004299999999716
 30
0.0
 11
-18.75000000000001
 21
8.783891274114122
 31
0.0
  0
LINE
  5
31
330
2
100
AcDbEntity
  8
KA
100
AcDbLine
 10
-19.70658795558333
 20
8.952563540104279
 30
0.0
 11
-18.75000000000001
 21
8.783891274114122
 31
0.0
  0
ARC
  5
32
330
2
100
AcDbEntity
  8
KA
100
AcDbCircle
 10
-19.75000000000011
 20
8.706361601851199
 30
0.0
 40
0.25
100
AcDbArc
 50
79.99999999999976
 51
179.9999999999999
  0
LINE
  5
33
330
2
100
AcDbEntity
  8
KA
100
AcDbLine
 10
-18.75000000000001
 20
8.783891274114122
 30
0.0
 11
-18.75000000000001
 21
-0.0000000000003411
 31
0.0
  0
LINE
  5
34
330
2
100
AcDbEntity
  8
KA
100
AcDbLine
 10
-18.75000000000001
 20
-8.783891274114807
 30
0.0
 11
-18.75000000000001
 21
-0.0000000000003411
 31
0.0
  0
ARC
  5
35
330
2
100
AcDbEntity
  8
KA
100
AcDbCircle
 10
-19.75000000000003
 20
-8.706361601851767
 30
0.0
 40
0.25
100
AcDbArc
 50
179.9999999999999
 51
280.0
  0
LINE
  5
36
330
2
100
AcDbEntity
  8
KA
100
AcDbLine
 10
-19.70658795558333
 20
-8.952563540104847
 30
0.0
 11
-18.75000000000001
 21
-8.783891274114807
 31
0.0
  0
LINE
  5
37
330
2
100
AcDbEntity
  8
KA
100
AcDbLine
 10
-17.50000000000001
 20
-9.004300000000283
 30
0.0
 11
-18.75000000000001
 21
-8.783891274114807
 31
0.0
  0
LINE
  5
38
330
2
100
AcDbEntity
  8
KA
100
AcDbLine
 10
-20.00000000000003
 20
-8.706361601851767
 30
0.0
 11
-20.00000000000003
 21
-0.0000000000003411
 31
0.0
  0
LINE
  5
39
330
2
100
AcDbEntity
  8
HIDDEN
100
AcDbLine
 10
-19.48580779350101
 20
4.499999999999658
 30
0.0
 11
-19.48580779350101
 21
-0.0000000000003411
 31
0.0
  0
LINE
  5
3A
330
2
100
AcDbEntity
  8
HIDDEN
100
AcDbLine
 10
-19.48580779350101
 20
4.499999999999658
 30
0.0
 11
-20.00000000000011
 21
4.796869008837233
 31
0.0
  0
LINE
  5
3B
330
2
100
AcDbEntity
  8
HIDDEN
100
AcDbLine
 10
-19.48580779350101
 20
-4.500000000000341
 30
0.0
 11
-19.48580779350101
 21
-0.0000000000003411
 31
0.0
  0
LINE
  5
3C
330
2
100
AcDbEntity
  8
HIDDEN
100
AcDbLine
 10
-19.48580779350101
 20
-4.500000000000341
 30
0.0
 11
-20.00000000000003
 21
-4.7968690088378
 31
0.0
  0
LINE
  5
42
330
2
100
AcDbEntity
  8
LINE
100
AcDbLine
 10
0.0
 20
-14.50000000000033
 30
0.0
 11
0.0
 21
-0.0000000000003411
 31
0.0
  0
LINE
  5
43
330
2
100
AcDbEntity
  8
LINE
100
AcDbLine
 10
1.0
 20
-15.50000000000034
 30
0.0
 11
1.0
 21
-0.0060000000004301
 31
0.0
  0
LINE
  5
44
330
2
100
AcDbEntity
  8
KA
100
AcDbLine
 10
-0.4179438598665115
 20
9.004299999999716
 30
0.0
 11
-1.4500000000001
 21
9.004299999999716
 31
0.0
  0
LINE
  5
45
330
2
100
AcDbEntity
  8
KA
100
AcDbLine
 10
-0.4179438598665115
 20
-9.004300000000283
 30
0.0
 11
-1.4500000000001
 21
-9.004300000000283
 31
0.0
  0
LINE
  5
46
330
2
100
AcDbEntity
  8
KA
100
AcDbLine
 10
-0.4179438598665115
 20
9.004299999999716
 30
0.0
 11
-0.4179438598665115
 21
-9.004300000000283
 31
0.0
  0
LINE
  5
47
330
2
100
AcDbEntity
  8
KA
100
AcDbLine
 10
-0.4179438598665115
 20
-9.004300000000283
 30
0.0
 11
0.0
 21
-8.763000000000374
 31
0.0
  0
LINE
  5
48
330
2
100
AcDbEntity
  8
KA
100
AcDbLine
 10
-0.4179438598665115
 20
9.004299999999716
 30
0.0
 11
0.0
 21
8.762999999999692
 31
0.0
  0
LINE
  5
49
330
2
100
AcDbEntity
  8
HIDDEN
100
AcDbLine
 10
1.263164003404965
 20
4.499999999999658
 30
0.0
 11
1.26316400340508
 21
-4.500000000000341
 31
0.0
  0
LINE
  5
4A
330
2
100
AcDbEntity
  8
HIDDEN
100
AcDbLine
 10
1.263164003404965
 20
4.499999999999658
 30
0.0
 11
3.861240214758453
 21
-0.0000000000003411
 31
0.0
  0
LINE
  5
4B
330
2
100
AcDbEntity
  8
HIDDEN
100
AcDbLine
 10
1.26316400340508
 20
-4.500000000000341
 30
0.0
 11
3.861240214758453
 21
-0.0000000000003411
 31
0.0
  0
LINE
  5
4C
330
2
100
AcDbEntity
  8
KA
100
AcDbLine
 10
-7.19004704085944
 20
11.09999999999968
 30
0.0
 11
-2.659952959140923
 21
11.09999999999968
 31
0.0
  0
LINE
  5
4D
330
2
100
AcDbEntity
  8
KA
100
AcDbLine
 10
-1.4500000000001
 20
9.004299999999716
 30
0.0
 11
-2.659952959140923
 21
11.09999999999968
 31
0.0
  0
LINE
  5
4E
330
2
100
AcDbEntity
  8
KA
100
AcDbLine
 10
-8.400000000000119
 20
9.004299999999716
 30
0.0
 11
-7.19004704085944
 21
11.09999999999968
 31
0.0
  0
ARC
  5
4F
330
2
100
AcDbEntity
  8
KA
100
AcDbCircle
 10
-4.924999999999981
 20
18.38109982723301
 30
0.0
 40
10.0
100
AcDbArc
 50
249.6655200278138
 51
290.3344799721858
  0
ARC
  5
50
330
2
100
AcDbEntity
  8
KA
100
AcDbCircle
 10
-4.924999999999981
 20
-18.38109982723358
 30
0.0
 40
10.0
100
AcDbArc
 50
69.6655200278139
 51
110.3344799721859
  0
LINE
  5
51
330
2
100
AcDbEntity
  8
KA
100
AcDbLine
 10
-8.400000000000119
 20
-9.004300000000283
 30
0.0
 11
-7.190047040859326
 21
-11.10000000000036
 31
0.0
  0
LINE
  5
52
330
2
100
AcDbEntity
  8
KA
100
AcDbLine
 10
-1.4500000000001
 20
-9.004300000000283
 30
0.0
 11
-2.659952959140837
 21
-11.10000000000036
 31
0.0
  0
LINE
  5
53
330
2
100
AcDbEntity
  8
KA
100
AcDbLine
 10
-7.190047040859326
 20
-11.10000000000036
 30
0.0
 11
-2.659952959140837
 21
-11.10000000000036
 31
0.0
  0
LINE
  5
54
330
2
100
AcDbEntity
  8
KA
100
AcDbLine
 10
-8.400000000000119
 20
2.451899061951505
 30
0.0
 11
-8.400000000000119
 21
-2.451899061952076
 31
0.0
  0
LINE
  5
5A
330
2
100
AcDbEntity
  8
LINE
100
AcDbLine
 10
48.51869745794157
 20
21.00000000000091
 30
0.0
 11
48.51869745794136
 21
-20.99999999999909
 31
0.0
  0
LINE
  5
5B
330
2
100
AcDbEntity
  8
LINE
100
AcDbLine
 10
50.01869745794146
 20
-19.4999999999993
 30
0.0
 11
50.0186974579417
 21
19.50000000000067
 31
0.0
  0
LINE
  5
5C
330
2
100
AcDbEntity
  8
LINE
100
AcDbLine
 10
50.01869745794146
 20
-19.4999999999993
 30
0.0
 11
48.51869745794147
 21
-20.99999999999929
 31
0.0
  0
LINE
  5
5D
330
2
100
AcDbEntity
  8
LINE
100
AcDbLine
 10
48.51869745794171
 20
21.00000000000079
 30
0.0
 11
50.0186974579417
 21
19.50000000000067
 31
0.0
  0
DIMENSION
  5
72
330
2
100
AcDbEntity
  8
DIM
100
AcDbDimension
  2
*D0
 10
50.0186974579417
 20
41.15320404051113
 30
0.0
 11
15.00934872897079
 21
43.85320404051113
 31
0.0
 70
    32
 71
     5
 42
70.01869745794181
  3
STANDARD
100
AcDbAlignedDimension
 13
-20.00000000000011
 23
8.706361601851197
 33
0.0
 14
50.0186974579417
 24
19.50000000000067
 34
0.0
100
AcDbRotatedDimension
  0
DIMENSION
  5
80
330
2
100
AcDbEntity
  8
DIM
100
AcDbDimension
  2
*D1
 10
50.0186974579417
 20
32.79191824367558
 30
0.0
 11
25.00934872897085
 21
35.49191824367558
 31
0.0
 70
    32
 71
     5
 42
50.0186974579417
  3
STANDARD
100
AcDbAlignedDimension
 13
0.0
 23
14.49999999999965
 33
0.0
 14
50.0186974579417
 24
19.50000000000067
 34
0.0
100
AcDbRotatedDimension
  0
DIMENSION
  5
8D
330
2
100
AcDbEntity
  8
DIM
100
AcDbDimension
  2
*D2
 10
68.22990053414833
 20
-20.9999999999993
 30
0.0
 11
65.52990053414832
 21
0.0000000000007511
 31
0.0
 70
    32
  1
%%c<>
 71
     5
 42
42.00000000000009
  3
STANDARD
100
AcDbAlignedDimension
 13
48.51869745794171
 23
21.00000000000079
 33
0.0
 14
48.51869745794147
 24
-20.99999999999929
 34
0.0
 50
90.0
100
AcDbRotatedDimension
  0
LINE
  5
C5
330
2
100
AcDbEntity
  8
LINE
100
AcDbLine
 10
3.999999999999601
 20
15.50000000000061
 30
0.0
 11
3.999999999999602
 21
-15.50000000000032
 31
0.0
  0
LINE
  5
C6
330
2
100
AcDbEntity
  8
LINE
100
AcDbLine
 10
5.473720558370502
 20
-20.99999999999929
 30
0.0
 11
3.999999999999603
 21
-15.50000000000034
 31
0.0
  0
LINE
  5
C8
330
2
100
AcDbEntity
  8
LINE
100
AcDbLine
 10
1.0
 20
15.49999999999966
 30
0.0
 11
3.999999999999601
 21
15.49999999999966
 31
0.0
  0
LINE
  5
C9
330
2
100
AcDbEntity
  8
LINE
100
AcDbLine
 10
1.0
 20
-15.50000000000034
 30
0.0
 11
3.999999999999601
 21
-15.50000000000034
 31
0.0
  0
LINE
  5
CA
330
2
100
AcDbEntity
  8
LINE
100
AcDbLine
 10
5.473720558370502
 20
20.99999999999957
 30
0.0
 11
3.999999999999603
 21
15.50000000000061
 31
0.0
  0
LINE
  5
CB
330
2
100
AcDbEntity
  8
LINE
100
AcDbLine
 10
5.473720558370856
 20
21.00000000000089
 30
0.0
 11
5.473720558370856
 21
-20.99999999999929
 31
0.0
  0
LINE
  5
CC
330
2
100
AcDbEntity
  8
LINE
100
AcDbLine
 10
1.0
 20
15.49999999999966
 30
0.0
 11
0.0
 21
14.49999999999965
 31
0.0
  0
LINE
  5
CD
330
2
100
AcDbEntity
  8
LINE
100
AcDbLine
 10
0.0
 20
-14.50000000000033
 30
0.0
 11
1.0
 21
-15.50000000000034
 31
0.0
  0
DIMENSION
  5
D7
330
2
100
AcDbEntity
  8
DIM
100
AcDbDimension
  2
*D3
 10
3.999999999999347
 20
25.44290550588458
 30
0.0
 11
13.57857142857077
 21
28.14290550588459
 31
0.0
 70
    32
 71
     5
 42
3.999999999999346
  3
STANDARD
100
AcDbAlignedDimension
 13
0.0
 23
14.49999999999965
 33
0.0
 14
3.999999999999346
 24
15.49999999999966
 34
0.0
100
AcDbRotatedDimension
  0
ENDSEC
  0
SECTION
  2
OBJECTS
  0
DICTIONARY
  5
1A
330
0
100
AcDbDictionary
281
     1
  3
ACAD_GROUP
350
18
  3
ACAD_LAYOUT
350
61
  3
ACAD_MLINESTYLE
350
19
  3
ACAD_PLOTSETTINGS
350
62
  3
ACAD_PLOTSTYLENAME
350
5F
  3
AcDbVariableDictionary
350
68
  0
DICTIONARY
  5
18
102
{ACAD_REACTORS
330
1A
102
}
330
1A
100
AcDbDictionary
281
     1
  0
DICTIONARY
  5
61
102
{ACAD_REACTORS
330
1A
102
}
330
1A
100
AcDbDictionary
281
     1
  3
Layout1
350
64
  3
Model
350
63
  0
DICTIONARY
  5
19
102
{ACAD_REACTORS
330
1A
102
}
330
1A
100
AcDbDictionary
281
     1
  3
STANDARD
350
1D
  0
DICTIONARY
  5
62
102
{ACAD_REACTORS
330
1A
102
}
330
1A
100
AcDbDictionary
281
     1
  0
ACDBDICTIONARYWDFLT
  5
5F
102
{ACAD_REACTORS
330
1A
102
}
330
1A
100
AcDbDictionary
281
     1
  3
Normal
350
60
100
AcDbDictionaryWithDefault
340
60
  0
DICTIONARY
  5
68
102
{ACAD_REACTORS
330
1A
102
}
330
1A
100
AcDbDictionary
281
     1
  3
DIMASSOC
350
69
  0
LAYOUT
  5
64
102
{ACAD_REACTORS
330
61
102
}
330
61
100
AcDbPlotSettings
  1

  2
\\PRINT_SRV\HP LaserJet (Engineering)
  4

  6

 40
0.0
 41
0.0
 42
0.0
 43
0.0
 44
0.0
 45
0.0
 46
0.0
 47
0.0
 48
0.0
 49
0.0
140
0.0
141
0.0
142
1.0
143
1.0
 70
   688
 72
     0
 73
     0
 74
     5
  7
KPT.ctb
 75
    16
147
1.0
148
0.0
149
0.0
100
AcDbLayout
  1
Layout1
 70
     1
 71
     1
 10
0.0
 20
0.0
 11
12.0
 21
9.0
 12
0.0
 22
0.0
 32
0.0
 14
1.000000000000000E+20
 24
1.000000000000000E+20
 34
1.000000000000000E+20
 15
-1.000000000000000E+20
 25
-1.000000000000000E+20
 35
-1.000000000000000E+20
146
0.0
 13
0.0
 23
0.0
 33
0.0
 16
1.0
 26
0.0
 36
0.0
 17
0.0
 27
1.0
 37
0.0
 76
     0
330
7
  0
LAYOUT
  5
63
102
{ACAD_REACTORS
330
61
102
}
330
61
100
AcDbPlotSettings
  1

  2
\\PRINT_SRV\HP LaserJet (Engineering)
  4

  6

 40
0.0
 41
0.0
 42
0.0
 43
0.0
 44
0.0
 45
0.0
 46
0.0
 47
0.0
 48
0.0
 49
0.0
140
0.0
141
0.0
142
1.0
143
1.0
 70
  1712
 72
     0
 73
     0
 74
     0
  7
KPT.ctb
 75
     0
147
1.0
148
0.0
149
0.0
100
AcDbLayout
  1
Model
 70
     1
 71
     0
 10
0.0
 20
0.0
 11
12.0
 21
9.0
 12
0.0
 22
0.0
 32
0.0
 14
0.0
 24
0.0
 34
0.0
 15
0.0
 25
0.0
 35
0.0
146
0.0
 13
0.0
 23
0.0
 33
0.0
 16
1.0
 26
0.0
 36
0.0
 17
0.0
 27
1.0
 37
0.0
 76
     0
330
2
  0
MLINESTYLE
  5
1D
102
{ACAD_REACTORS
330
19
102
}
330
19
100
AcDbMlineStyle
  2
STANDARD
 70
     0
  3

 62
   256
 51
90.0
 52
90.0
 71
     2
 49
0.5
 62
   256
  6
BYLAYER
 49
-0.5
 62
   256
  6
BYLAYER
  0
ACDBPLACEHOLDER
  5
60
102
{ACAD_REACTORS
330
5F
102
}
330
5F
  0
DICTIONARYVAR
  5
69
102
{ACAD_REACTORS
330
68
102
}
330
68
100
DictionaryVariables
280
     0
  1
1
  0
ENDSEC
  0
EOF
