  0
SECTION
  2
HEADER
  9
$ACADVER
  1
AC1015
  9
$ACADMAINTVER
 70
    13
  9
$DWGCODEPAGE
  3
ANSI_1252
  9
$INSBASE
 10
287.351281895583
 20
-202.4562200826411
 30
0.0
  9
$EXTMIN
 10
-24.25578688736891
 20
-15.51165886945909
 30
-0.0015258207003583
  9
$EXTMAX
 10
88.12234637731615
 20
35.79382799460404
 30
0.0000000349246037
  9
$LIMMIN
 10
0.0
 20
0.0
  9
$LIMMAX
 10
12.0
 20
9.0
  9
$ORTHOMODE
 70
     1
  9
$REGENMODE
 70
     1
  9
$FILLMODE
 70
     1
  9
$QTEXTMODE
 70
     0
  9
$MIRRTEXT
 70
     0
  9
$LTSCALE
 40
10.0
  9
$ATTMODE
 70
     1
  9
$TEXTSIZE
 40
5.0
  9
$TRACEWID
 40
0.05
  9
$TEXTSTYLE
  7
ROMANS
  9
$CLAYER
  8
DIM
  9
$CELTYPE
  6
BYLAYER
  9
$CECOLOR
 62
     3
  9
$CELTSCALE
 40
1.0
  9
$DISPSILH
 70
     0
  9
$DIMSCALE
 40
15.0
  9
$DIMASZ
 40
0.18
  9
$DIMEXO
 40
0.0625
  9
$DIMDLI
 40
0.38
  9
$DIMRND
 40
0.0
  9
$DIMDLE
 40
0.0
  9
$DIMEXE
 40
0.18
  9
$DIMTP
 40
0.0
  9
$DIMTM
 40
0.0
  9
$DIMTXT
 40
0.18
  9
$DIMCEN
 40
0.09
  9
$DIMTSZ
 40
0.0
  9
$DIMTOL
 70
     0
  9
$DIMLIM
 70
     0
  9
$DIMTIH
 70
     0
  9
$DIMTOH
 70
     0
  9
$DIMSE1
 70
     0
  9
$DIMSE2
 70
     0
  9
$DIMTAD
 70
     1
  9
$DIMZIN
 70
     0
  9
$DIMBLK
  1

  9
$DIMASO
 70
     1
  9
$DIMSHO
 70
     1
  9
$DIMPOST
  1

  9
$DIMAPOST
  1

  9
$DIMALT
 70
     0
  9
$DIMALTD
 70
     2
  9
$DIMALTF
 40
25.4
  9
$DIMLFAC
 40
1.0
  9
$DIMTOFL
 70
     0
  9
$DIMTVP
 40
0.0
  9
$DIMTIX
 70
     0
  9
$DIMSOXD
 70
     0
  9
$DIMSAH
 70
     0
  9
$DIMBLK1
  1

  9
$DIMBLK2
  1

  9
$DIMSTYLE
  2
STANDARD
  9
$DIMCLRD
 70
     0
  9
$DIMCLRE
 70
     0
  9
$DIMCLRT
 70
     0
  9
$DIMTFAC
 40
1.0
  9
$DIMGAP
 40
0.09
  9
$DIMJUST
 70
     0
  9
$DIMSD1
 70
     0
  9
$DIMSD2
 70
     0
  9
$DIMTOLJ
 70
     1
  9
$DIMTZIN
 70
     0
  9
$DIMALTZ
 70
     0
  9
$DIMALTTZ
 70
     0
  9
$DIMUPT
 70
     0
  9
$DIMDEC
 70
     1
  9
$DIMTDEC
 70
     1
  9
$DIMALTU
 70
     2
  9
$DIMALTTD
 70
     2
  9
$DIMTXSTY
  7
ROMANS
  9
$DIMAUNIT
 70
     0
  9
$DIMADEC
 70
     0
  9
$DIMALTRND
 40
0.0
  9
$DIMAZIN
 70
     0
  9
$DIMDSEP
 70
    46
  9
$DIMATFIT
 70
     3
  9
$DIMFRAC
 70
     0
  9
$DIMLDRBLK
  1

  9
$DIMLUNIT
 70
     2
  9
$DIMLWD
 70
    -2
  9
$DIMLWE
 70
    -2
  9
$DIMTMOVE
 70
     0
  9
$LUNITS
 70
     2
  9
$LUPREC
 70
     4
  9
$SKETCHINC
 40
0.1
  9
$FILLETRAD
 40
0.0
  9
$AUNITS
 70
     0
  9
$AUPREC
 70
     0
  9
$MENU
  1
acad
  9
$ELEVATION
 40
0.0
  9
$PELEVATION
 40
0.0
  9
$THICKNESS
 40
0.0
  9
$LIMCHECK
 70
     0
  9
$CHAMFERA
 40
1.5
  9
$CHAMFERB
 40
1.5
  9
$CHAMFERC
 40
0.0
  9
$CHAMFERD
 40
0.0
  9
$SKPOLY
 70
     0
  9
$TDCREATE
 40
2449974.566112731
  9
$TDUCREATE
 40
2449974.816112731
  9
$TDUPDATE
 40
2452660.514115312
  9
$TDUUPDATE
 40
2452660.764115312
  9
$TDINDWG
 40
0.9651759259
  9
$TDUSRTIMER
 40
0.9651758102
  9
$USRTIMER
 70
     1
  9
$ANGBASE
 50
0.0
  9
$ANGDIR
 70
     0
  9
$PDMODE
 70
     0
  9
$PDSIZE
 40
0.0
  9
$PLINEWID
 40
0.0
  9
$SPLFRAME
 70
     0
  9
$SPLINETYPE
 70
     6
  9
$SPLINESEGS
 70
     8
  9
$HANDSEED
  5
12C
  9
$SURFTAB1
 70
     6
  9
$SURFTAB2
 70
     6
  9
$SURFTYPE
 70
     6
  9
$SURFU
 70
     6
  9
$SURFV
 70
     6
  9
$UCSBASE
  2

  9
$UCSNAME
  2

  9
$UCSORG
 10
0.0
 20
0.0
 30
0.0
  9
$UCSXDIR
 10
1.0
 20
0.0
 30
0.0
  9
$UCSYDIR
 10
0.0
 20
1.0
 30
0.0
  9
$UCSORTHOREF
  2

  9
$UCSORTHOVIEW
 70
     0
  9
$UCSORGTOP
 10
0.0
 20
0.0
 30
0.0
  9
$UCSORGBOTTOM
 10
0.0
 20
0.0
 30
0.0
  9
$UCSORGLEFT
 10
0.0
 20
0.0
 30
0.0
  9
$UCSORGRIGHT
 10
0.0
 20
0.0
 30
0.0
  9
$UCSORGFRONT
 10
0.0
 20
0.0
 30
0.0
  9
$UCSORGBACK
 10
0.0
 20
0.0
 30
0.0
  9
$PUCSBASE
  2

  9
$PUCSNAME
  2

  9
$PUCSORG
 10
0.0
 20
0.0
 30
0.0
  9
$PUCSXDIR
 10
1.0
 20
0.0
 30
0.0
  9
$PUCSYDIR
 10
0.0
 20
1.0
 30
0.0
  9
$PUCSORTHOREF
  2

  9
$PUCSORTHOVIEW
 70
     0
  9
$PUCSORGTOP
 10
0.0
 20
0.0
 30
0.0
  9
$PUCSORGBOTTOM
 10
0.0
 20
0.0
 30
0.0
  9
$PUCSORGLEFT
 10
0.0
 20
0.0
 30
0.0
  9
$PUCSORGRIGHT
 10
0.0
 20
0.0
 30
0.0
  9
$PUCSORGFRONT
 10
0.0
 20
0.0
 30
0.0
  9
$PUCSORGBACK
 10
0.0
 20
0.0
 30
0.0
  9
$USERI1
 70
     0
  9
$USERI2
 70
     0
  9
$USERI3
 70
     0
  9
$USERI4
 70
     0
  9
$USERI5
 70
     0
  9
$USERR1
 40
0.0
  9
$USERR2
 40
0.0
  9
$USERR3
 40
0.0
  9
$USERR4
 40
0.0
  9
$USERR5
 40
0.0
  9
$WORLDVIEW
 70
     1
  9
$SHADEDGE
 70
     3
  9
$SHADEDIF
 70
    70
  9
$TILEMODE
 70
     1
  9
$MAXACTVP
 70
    16
  9
$PINSBASE
 10
0.0
 20
0.0
 30
0.0
  9
$PLIMCHECK
 70
     0
  9
$PEXTMIN
 10
1.000000000000000E+20
 20
1.000000000000000E+20
 30
1.000000000000000E+20
  9
$PEXTMAX
 10
-1.000000000000000E+20
 20
-1.000000000000000E+20
 30
-1.000000000000000E+20
  9
$PLIMMIN
 10
0.0
 20
0.0
  9
$PLIMMAX
 10
12.0
 20
9.0
  9
$UNITMODE
 70
     0
  9
$VISRETAIN
 70
     0
  9
$PLINEGEN
 70
     0
  9
$PSLTSCALE
 70
     1
  9
$TREEDEPTH
 70
  3020
  9
$CMLSTYLE
  2
STANDARD
  9
$CMLJUST
 70
     0
  9
$CMLSCALE
 40
1.0
  9
$PROXYGRAPHICS
 70
     1
  9
$MEASUREMENT
 70
     0
  9
$CELWEIGHT
370
    -1
  9
$ENDCAPS
280
     0
  9
$JOINSTYLE
280
     0
  9
$LWDISPLAY
290
     0
  9
$INSUNITS
 70
     0
  9
$HYPERLINKBASE
  1

  9
$STYLESHEET
  1

  9
$XEDIT
290
     1
  9
$CEPSNTYPE
380
     0
  9
$PSTYLEMODE
290
     1
  9
$FINGERPRINTGUID
  2
{180A84F1-470A-4A37-ABDC-6FE31631AF6F}
  9
$VERSIONGUID
  2
{B1A40F2B-E87A-4D7A-9256-324004F11582}
  9
$EXTNAMES
290
     1
  9
$PSVPSCALE
 40
0.0
  9
$OLESTARTUP
290
     0
  0
ENDSEC
  0
SECTION
  2
CLASSES
  0
CLASS
  1
DICTIONARYVAR
  2
AcDbDictionaryVar
  3
AutoCAD 2000
 90
        0
280
     0
281
     0
  0
CLASS
  1
LWPOLYLINE
  2
AcDbPolyline
  3
AutoCAD 2000
 90
    32768
280
     0
281
     1
  0
CLASS
  1
OLE2FRAME
  2
AcDbOle2Frame
  3
AutoCAD 2000
 90
    32768
280
     0
281
     1
  0
CLASS
  1
ACDBDICTIONARYWDFLT
  2
AcDbDictionaryWithDefault
  3
AutoCAD 2000
 90
        0
280
     0
281
     0
  0
CLASS
  1
ACDBPLACEHOLDER
  2
AcDbPlaceHolder
  3
AutoCAD 2000
 90
        0
280
     0
281
     0
  0
CLASS
  1
LAYOUT
  2
AcDbLayout
  3
AutoCAD 2000
 90
        0
280
     0
281
     0
  0
ENDSEC
  0
SECTION
  2
TABLES
  0
TABLE
  2
VPORT
  5
12
330
0
100
AcDbSymbolTable
 70
     2
  0
VPORT
  5
12B
330
12
100
AcDbSymbolTableRecord
100
AcDbViewportTableRecord
  2
*Active
 70
     0
 10
0.0
 20
0.0
 11
1.0
 21
1.0
 12
31.93327974497361
 22
10.14108456257247
 13
0.0
 23
0.0
 14
1.0
 24
1.0
 15
0.0
 25
0.0
 16
0.0
 26
0.0
 36
1.0
 17
0.0
 27
0.0
 37
0.0
 40
75.35381398609695
 41
1.498756218905472
 42
50.0
 43
0.0
 44
0.0
 50
0.0
 51
0.0
 71
     0
 72
 10000
 73
     1
 74
     1
 75
     0
 76
     0
 77
     0
 78
     0
281
     0
 65
     1
110
0.0
120
0.0
130
0.0
111
1.0
121
0.0
131
0.0
112
0.0
122
1.0
132
0.0
 79
     0
146
0.0
  0
ENDTAB
  0
TABLE
  2
LTYPE
  5
D
330
0
100
AcDbSymbolTable
 70
     3
  0
LTYPE
  5
E
330
D
100
AcDbSymbolTableRecord
100
AcDbLinetypeTableRecord
  2
BYBLOCK
 70
     0
  3

 72
    65
 73
     0
 40
0.0
  0
LTYPE
  5
F
330
D
100
AcDbSymbolTableRecord
100
AcDbLinetypeTableRecord
  2
BYLAYER
 70
     0
  3

 72
    65
 73
     0
 40
0.0
  0
LTYPE
  5
5
330
D
100
AcDbSymbolTableRecord
100
AcDbLinetypeTableRecord
  2
CONTINUOUS
 70
     0
  3
Solid line
 72
    65
 73
     0
 40
0.0
  0
LTYPE
  5
39
330
D
100
AcDbSymbolTableRecord
100
AcDbLinetypeTableRecord
  2
HIDDEN
 70
     0
  3
_ _ _ _ _ _ _ _ _ _ _ _ _ _ _ _ _ _ _ _ _ _ _
 72
    65
 73
     2
 40
0.375
 49
0.25
 74
     0
 49
-0.125
 74
     0
  0
LTYPE
  5
23
330
D
100
AcDbSymbolTableRecord
100
AcDbLinetypeTableRecord
  2
CENTER
 70
     0
  3
____ _ ____ _ ____ _ ____ _ ____ _ ____ _ ____
 72
    65
 73
     4
 40
2.0
 49
1.25
 74
     0
 49
-0.25
 74
     0
 49
0.25
 74
     0
 49
-0.25
 74
     0
  0
ENDTAB
  0
TABLE
  2
LAYER
  5
A
330
0
100
AcDbSymbolTable
 70
     7
  0
LAYER
  5
4
330
A
100
AcDbSymbolTableRecord
100
AcDbLayerTableRecord
  2
0
 70
     0
 62
     7
  6
CONTINUOUS
370
    -3
390
6D
  0
LAYER
  5
1B
330
A
100
AcDbSymbolTableRecord
100
AcDbLayerTableRecord
  2
LINE
 70
     0
 62
     3
  6
CONTINUOUS
370
    -3
390
6D
  0
LAYER
  5
38
330
A
100
AcDbSymbolTableRecord
100
AcDbLayerTableRecord
  2
HIDDEN
 70
     0
 62
     2
  6
HIDDEN
370
    -3
390
6D
  0
LAYER
  5
22
330
A
100
AcDbSymbolTableRecord
100
AcDbLayerTableRecord
  2
CTRL
 70
     0
 62
     1
  6
CENTER
370
    -3
390
6D
  0
LAYER
  5
7D
330
A
100
AcDbSymbolTableRecord
100
AcDbLayerTableRecord
  2
DIM
 70
     0
 62
     7
  6
CONTINUOUS
370
    -3
390
6D
  0
LAYER
  5
7F
330
A
100
AcDbSymbolTableRecord
100
AcDbLayerTableRecord
  2
Defpoints
 70
     0
 62
     7
  6
CONTINUOUS
290
     0
370
    -3
390
6D
  0
LAYER
  5
10F
330
A
100
AcDbSymbolTableRecord
100
AcDbLayerTableRecord
  2
KA
 70
     0
 62
     3
  6
CONTINUOUS
370
    -3
390
6D
  0
ENDTAB
  0
TABLE
  2
STYLE
  5
B
330
0
100
AcDbSymbolTable
 70
     2
  0
STYLE
  5
C
330
B
100
AcDbSymbolTableRecord
100
AcDbTextStyleTableRecord
  2
STANDARD
 70
     0
 40
0.0
 41
1.0
 50
0.0
 71
     0
 42
0.2
  3
txt
  4

  0
STYLE
  5
1C
330
B
100
AcDbSymbolTableRecord
100
AcDbTextStyleTableRecord
  2
ROMANS
 70
     0
 40
0.0
 41
1.0
 50
0.0
 71
     0
 42
5.0
  3
romans
  4

  0
ENDTAB
  0
TABLE
  2
VIEW
  5
10
330
0
100
AcDbSymbolTable
 70
     0
  0
ENDTAB
  0
TABLE
  2
UCS
  5
11
330
0
100
AcDbSymbolTable
 70
     0
  0
ENDTAB
  0
TABLE
  2
APPID
  5
14
330
0
100
AcDbSymbolTable
 70
     1
  0
APPID
  5
15
330
14
100
AcDbSymbolTableRecord
100
AcDbRegAppTableRecord
  2
ACAD
 70
     0
  0
ENDTAB
  0
TABLE
  2
DIMSTYLE
  5
16
330
0
100
AcDbSymbolTable
 70
     1
100
AcDbDimStyleTable
 71
     1
340
1E
  0
DIMSTYLE
105
1E
102
{ACAD_REACTORS
330
96
330
D1
330
DE
102
}
330
16
100
AcDbSymbolTableRecord
100
AcDbDimStyleTableRecord
  2
STANDARD
 70
     0
 40
15.0
 73
     0
 74
     0
 77
     1
271
     1
272
     1
340
1C
  0
ENDTAB
  0
TABLE
  2
BLOCK_RECORD
  5
1
330
0
100
AcDbSymbolTable
 70
     4
  0
BLOCK_RECORD
  5
2
330
1
100
AcDbSymbolTableRecord
100
AcDbBlockTableRecord
  2
*MODEL_SPACE
340
70
  0
BLOCK_RECORD
  5
7
330
1
100
AcDbSymbolTableRecord
100
AcDbBlockTableRecord
  2
*PAPER_SPACE
340
71
  0
BLOCK_RECORD
  5
97
330
1
100
AcDbSymbolTableRecord
100
AcDbBlockTableRecord
  2
*D1
340
0
  0
BLOCK_RECORD
  5
D2
330
1
100
AcDbSymbolTableRecord
100
AcDbBlockTableRecord
  2
*D2
340
0
  0
BLOCK_RECORD
  5
DF
330
1
100
AcDbSymbolTableRecord
100
AcDbBlockTableRecord
  2
*D3
340
0
  0
ENDTAB
  0
ENDSEC
  0
SECTION
  2
BLOCKS
  0
BLOCK
  5
3
330
2
100
AcDbEntity
  8
0
100
AcDbBlockBegin
  2
*MODEL_SPACE
 70
     0
 10
0.0
 20
0.0
 30
0.0
  3
*MODEL_SPACE
  1

  0
ENDBLK
  5
6
330
2
100
AcDbEntity
  8
0
100
AcDbBlockEnd
  0
BLOCK
  5
8
330
7
100
AcDbEntity
 67
     1
  8
0
100
AcDbBlockBegin
  2
*PAPER_SPACE
 70
     0
 10
0.0
 20
0.0
 30
0.0
  3
*PAPER_SPACE
  1

  0
ENDBLK
  5
9
330
7
100
AcDbEntity
 67
     1
  8
0
100
AcDbBlockEnd
  0
BLOCK
  5
A2
330
97
100
AcDbEntity
  8
0
 62
     3
100
AcDbBlockBegin
  2
*D1
 70
     1
 10
0.0
 20
0.0
 30
0.0
  3
*D1
  1

  0
LINE
  5
122
330
97
100
AcDbEntity
  8
DIM
 62
     0
370
    -2
100
AcDbLine
 10
-19.99999999999988
 20
9.643861601851625
 30
0.0
 11
-19.99999999999988
 21
34.44003959774294
 31
0.0
  0
LINE
  5
123
330
97
100
AcDbEntity
  8
DIM
 62
     0
370
    -2
100
AcDbLine
 10
65.00000000000008
 20
12.973398384863
 30
0.0
 11
65.00000000000008
 21
34.44003959774294
 31
0.0
  0
LINE
  5
124
330
97
100
AcDbEntity
  8
DIM
 62
     0
370
    -2
100
AcDbLine
 10
-17.29999999999988
 20
31.74003959774293
 30
0.0
 11
62.30000000000008
 21
31.74003959774293
 31
0.0
  0
SOLID
  5
125
330
97
100
AcDbEntity
  8
DIM
 62
     0
100
AcDbTrace
 10
-17.29999999999988
 20
32.19003959774294
 30
0.0
 11
-17.29999999999988
 21
31.29003959774293
 31
0.0
 12
-19.99999999999988
 22
31.74003959774293
 32
0.0
 13
-19.99999999999988
 23
31.74003959774293
 33
0.0
  0
SOLID
  5
126
330
97
100
AcDbEntity
  8
DIM
 62
     0
100
AcDbTrace
 10
62.30000000000008
 20
32.19003959774294
 30
0.0
 11
62.30000000000008
 21
31.29003959774293
 31
0.0
 12
65.00000000000008
 22
31.74003959774293
 32
0.0
 13
65.00000000000008
 23
31.74003959774293
 33
0.0
  0
MTEXT
  5
127
330
97
100
AcDbEntity
  8
DIM
 62
     0
100
AcDbMText
 10
22.50000000000008
 20
34.44003959774294
 30
0.0
 40
2.699999999999999
 41
0.0
 71
     5
 72
     1
  1
\A1;85.0
  7
ROMANS
 73
     1
 44
1.0
  0
POINT
  5
128
330
97
100
AcDbEntity
  8
Defpoints
 62
     0
100
AcDbPoint
 10
-19.99999999999988
 20
8.706361601851625
 30
0.0
  0
POINT
  5
129
330
97
100
AcDbEntity
  8
Defpoints
 62
     0
100
AcDbPoint
 10
65.00000000000008
 20
12.035898384863
 30
0.0
  0
POINT
  5
12A
330
97
100
AcDbEntity
  8
Defpoints
 62
     0
100
AcDbPoint
 10
65.00000000000008
 20
31.74003959774293
 30
0.0
  0
ENDBLK
  5
A3
330
97
100
AcDbEntity
  8
0
 62
     3
100
AcDbBlockEnd
  0
BLOCK
  5
DC
330
D2
100
AcDbEntity
  8
0
 62
     3
100
AcDbBlockBegin
  2
*D2
 70
     1
 10
0.0
 20
0.0
 30
0.0
  3
*D2
  1

  0
LINE
  5
119
330
D2
100
AcDbEntity
  8
DIM
 62
     0
370
    -2
100
AcDbLine
 10
0.0000000000001137
 20
15.43750000000031
 30
0.0
 11
0.0000000000001144
 21
25.92987660786711
 31
0.0
  0
LINE
  5
11A
330
D2
100
AcDbEntity
  8
DIM
 62
     0
370
    -2
100
AcDbLine
 10
65.00000000000008
 20
12.973398384863
 30
0.0
 11
65.00000000000008
 21
25.92987660786711
 31
0.0
  0
LINE
  5
11B
330
D2
100
AcDbEntity
  8
DIM
 62
     0
370
    -2
100
AcDbLine
 10
2.700000000000113
 20
23.22987660786711
 30
0.0
 11
62.30000000000008
 21
23.22987660786711
 31
0.0
  0
SOLID
  5
11C
330
D2
100
AcDbEntity
  8
DIM
 62
     0
100
AcDbTrace
 10
2.700000000000113
 20
23.67987660786711
 30
0.0
 11
2.700000000000113
 21
22.77987660786711
 31
0.0
 12
0.0000000000001142
 22
23.22987660786711
 32
0.0
 13
0.0000000000001142
 23
23.22987660786711
 33
0.0
  0
SOLID
  5
11D
330
D2
100
AcDbEntity
  8
DIM
 62
     0
100
AcDbTrace
 10
62.30000000000008
 20
23.67987660786711
 30
0.0
 11
62.30000000000008
 21
22.77987660786711
 31
0.0
 12
65.00000000000008
 22
23.22987660786711
 32
0.0
 13
65.00000000000008
 23
23.22987660786711
 33
0.0
  0
MTEXT
  5
11E
330
D2
100
AcDbEntity
  8
DIM
 62
     0
100
AcDbMText
 10
32.5000000000001
 20
25.92987660786711
 30
0.0
 40
2.699999999999999
 41
0.0
 71
     5
 72
     1
  1
\A1;65.0
  7
ROMANS
 73
     1
 44
1.0
  0
POINT
  5
11F
330
D2
100
AcDbEntity
  8
Defpoints
 62
     0
100
AcDbPoint
 10
0.0000000000001137
 20
14.50000000000031
 30
0.0
  0
POINT
  5
120
330
D2
100
AcDbEntity
  8
Defpoints
 62
     0
100
AcDbPoint
 10
65.00000000000008
 20
12.035898384863
 30
0.0
  0
POINT
  5
121
330
D2
100
AcDbEntity
  8
Defpoints
 62
     0
100
AcDbPoint
 10
65.00000000000008
 20
23.22987660786711
 30
0.0
  0
ENDBLK
  5
DD
330
D2
100
AcDbEntity
  8
0
 62
     3
100
AcDbBlockEnd
  0
BLOCK
  5
E9
330
DF
100
AcDbEntity
  8
0
 62
     3
100
AcDbBlockBegin
  2
*D3
 70
     1
 10
0.0
 20
0.0
 30
0.0
  3
*D3
  1

  0
LINE
  5
110
330
DF
100
AcDbEntity
  8
DIM
 62
     0
370
    -2
100
AcDbLine
 10
63.93749999999986
 20
15.50000000000042
 30
0.0
 11
88.10388802805094
 21
15.50000000000042
 31
0.0
  0
LINE
  5
111
330
DF
100
AcDbEntity
  8
DIM
 62
     0
370
    -2
100
AcDbLine
 10
63.93749999999991
 20
-15.49999999999954
 30
0.0
 11
88.10388802805094
 21
-15.49999999999955
 31
0.0
  0
LINE
  5
112
330
DF
100
AcDbEntity
  8
DIM
 62
     0
370
    -2
100
AcDbLine
 10
85.40388802805095
 20
12.80000000000041
 30
0.0
 11
85.40388802805095
 21
-12.79999999999955
 31
0.0
  0
SOLID
  5
113
330
DF
100
AcDbEntity
  8
DIM
 62
     0
100
AcDbTrace
 10
84.95388802805093
 20
12.80000000000041
 30
0.0
 11
85.85388802805095
 21
12.80000000000041
 31
0.0
 12
85.40388802805095
 22
15.50000000000042
 32
0.0
 13
85.40388802805095
 23
15.50000000000042
 33
0.0
  0
SOLID
  5
114
330
DF
100
AcDbEntity
  8
DIM
 62
     0
100
AcDbTrace
 10
84.95388802805093
 20
-12.79999999999955
 30
0.0
 11
85.85388802805095
 21
-12.79999999999955
 31
0.0
 12
85.40388802805095
 22
-15.49999999999955
 32
0.0
 13
85.40388802805095
 23
-15.49999999999955
 33
0.0
  0
MTEXT
  5
115
330
DF
100
AcDbEntity
  8
DIM
 62
     0
100
AcDbMText
 10
82.70388802805094
 20
0.0000000000004481
 30
0.0
 40
2.699999999999999
 41
0.0
 71
     5
 72
     1
  1
\A1;%%c31.0
  7
ROMANS
 11
0.0000000000000001
 21
1.0
 31
0.0
 73
     1
 44
1.0
  0
POINT
  5
116
330
DF
100
AcDbEntity
  8
Defpoints
 62
     0
100
AcDbPoint
 10
62.99999999999986
 20
15.50000000000042
 30
0.0
  0
POINT
  5
117
330
DF
100
AcDbEntity
  8
Defpoints
 62
     0
100
AcDbPoint
 10
62.99999999999991
 20
-15.49999999999954
 30
0.0
  0
POINT
  5
118
330
DF
100
AcDbEntity
  8
Defpoints
 62
     0
100
AcDbPoint
 10
85.40388802805095
 20
-15.49999999999955
 30
0.0
  0
ENDBLK
  5
EA
330
DF
100
AcDbEntity
  8
0
 62
     3
100
AcDbBlockEnd
  0
ENDSEC
  0
SECTION
  2
ENTITIES
  0
LINE
  5
1F
330
2
100
AcDbEntity
  8
LINE
100
AcDbLine
 10
1.0
 20
-15.49999999999968
 30
0.0
 11
62.99999999999997
 21
-15.49999999999957
 31
0.0
  0
LINE
  5
20
330
2
100
AcDbEntity
  8
LINE
100
AcDbLine
 10
1.000000000000113
 20
15.50000000000031
 30
0.0
 11
62.99999999999986
 21
15.50000000000042
 31
0.0
  0
LINE
  5
21
330
2
100
AcDbEntity
  8
CTRL
100
AcDbLine
 10
-24.24078049695839
 20
0.0
 30
0.0
 11
74.82982559250368
 21
0.0000000000003126
 31
0.0
  0
LWPOLYLINE
  5
24
330
2
100
AcDbEntity
  8
KA
100
AcDbPolyline
 90
       16
 70
     1
 43
0.0
 10
-11.69405206010409
 20
0.0
 42
-0.1171140427110635
 10
-11.4289449397367
 20
1.116309303516487
 42
-0.1043555384268854
 10
-10.62726113049029
 20
2.119340444572117
 42
-0.0902545617377738
 10
-9.475841418029716
 20
2.761171232032324
 42
-0.0823113820561539
 10
-8.0517999999999
 20
2.997199999999935
 42
-0.0823113820561487
 10
-6.627758581970113
 20
2.761171232032324
 42
-0.0902545617377748
 10
-5.476338869509618
 20
2.119340444572117
 42
-0.104355538426877
 10
-4.674655060262978
 20
1.116309303516487
 42
-0.1171140427110464
 10
-4.409547939895702
 20
0.0
 42
-0.1171140427110441
 10
-4.674655060262978
 20
-1.116309303516516
 42
-0.1043555384268713
 10
-5.476338869509618
 20
-2.119340444572003
 42
-0.09025456173778
 10
-6.627758581970283
 20
-2.761171232032296
 42
-0.0823113820561449
 10
-8.0517999999999
 20
-2.997199999999764
 42
-0.0823113820561462
 10
-9.475841418029716
 20
-2.761171232032296
 42
-0.0902545617377663
 10
-10.62726113049029
 20
-2.119340444572003
 42
-0.1043555384268826
 10
-11.4289449397369
 20
-1.116309303516516
 42
-0.1171140427110487
  0
CIRCLE
  5
36
330
2
100
AcDbEntity
  8
KA
100
AcDbCircle
 10
-8.0517999999999
 20
0.0
 30
0.0
 40
2.4765
  0
LINE
  5
37
330
2
100
AcDbEntity
  8
HIDDEN
100
AcDbLine
 10
-19.48580779350072
 20
4.5
 30
0.0
 11
1.263164003405194
 21
4.5
 31
0.0
  0
LINE
  5
3A
330
2
100
AcDbEntity
  8
HIDDEN
100
AcDbLine
 10
-19.48580779350078
 20
-4.499999999999886
 30
0.0
 11
1.263164003405194
 21
-4.5
 31
0.0
  0
LINE
  5
3B
330
2
100
AcDbEntity
  8
KA
100
AcDbLine
 10
-7.190047040859212
 20
11.09999999999999
 30
0.0
 11
-2.659952959140639
 21
11.09999999999999
 31
0.0
  0
ARC
  5
3C
330
2
100
AcDbEntity
  8
KA
100
AcDbCircle
 10
-4.925000000000011
 20
18.38109982723329
 30
0.0
 40
10.0
100
AcDbArc
 50
249.6655200278138
 51
290.3344799721859
  0
ARC
  5
3D
330
2
100
AcDbEntity
  8
KA
100
AcDbCircle
 10
-4.924999999999897
 20
-18.38109982723321
 30
0.0
 40
10.0
100
AcDbArc
 50
69.6655200278139
 51
110.3344799721861
  0
LINE
  5
3E
330
2
100
AcDbEntity
  8
KA
100
AcDbLine
 10
-7.190047040859298
 20
-11.09999999999999
 30
0.0
 11
-2.659952959140468
 21
-11.09999999999999
 31
0.0
  0
LINE
  5
3F
330
2
100
AcDbEntity
  8
KA
100
AcDbLine
 10
-19.99999999999988
 20
8.706361601851625
 30
0.0
 11
-20.0
 21
0.0
 31
0.0
  0
LINE
  5
40
330
2
100
AcDbEntity
  8
KA
100
AcDbLine
 10
-17.49999999999988
 20
9.004300000000114
 30
0.0
 11
-17.5
 21
-9.0043
 31
0.0
  0
LINE
  5
41
330
2
100
AcDbEntity
  8
KA
100
AcDbLine
 10
-17.49999999999988
 20
9.004300000000114
 30
0.0
 11
-18.75
 21
8.783891274114495
 31
0.0
  0
LINE
  5
42
330
2
100
AcDbEntity
  8
KA
100
AcDbLine
 10
-19.70658795558319
 20
8.952563540104591
 30
0.0
 11
-18.75
 21
8.783891274114495
 31
0.0
  0
ARC
  5
43
330
2
100
AcDbEntity
  8
KA
100
AcDbCircle
 10
-19.74999999999988
 20
8.706361601851511
 30
0.0
 40
0.25
100
AcDbArc
 50
79.99999999999976
 51
179.9999999999999
  0
LINE
  5
44
330
2
100
AcDbEntity
  8
KA
100
AcDbLine
 10
-18.75
 20
8.783891274114495
 30
0.0
 11
-18.75
 21
0.0
 31
0.0
  0
LINE
  5
45
330
2
100
AcDbEntity
  8
KA
100
AcDbLine
 10
-18.75
 20
-8.783891274114409
 30
0.0
 11
-18.75
 21
0.0
 31
0.0
  0
ARC
  5
46
330
2
100
AcDbEntity
  8
KA
100
AcDbCircle
 10
-19.75
 20
-8.706361601851511
 30
0.0
 40
0.25
100
AcDbArc
 50
179.9999999999999
 51
280.0000000000001
  0
LINE
  5
47
330
2
100
AcDbEntity
  8
KA
100
AcDbLine
 10
-19.70658795558319
 20
-8.952563540104478
 30
0.0
 11
-18.75
 21
-8.783891274114409
 31
0.0
  0
LINE
  5
48
330
2
100
AcDbEntity
  8
KA
100
AcDbLine
 10
-17.5
 20
-9.0043
 30
0.0
 11
-18.75
 21
-8.783891274114409
 31
0.0
  0
LINE
  5
49
330
2
100
AcDbEntity
  8
KA
100
AcDbLine
 10
-20.0
 20
-8.706361601851511
 30
0.0
 11
-20.0
 21
0.0000000000001137
 31
0.0
  0
LINE
  5
4A
330
2
100
AcDbEntity
  8
HIDDEN
100
AcDbLine
 10
-19.48580779350072
 20
4.5
 30
0.0
 11
-19.48580779350072
 21
0.0
 31
0.0
  0
LINE
  5
4B
330
2
100
AcDbEntity
  8
HIDDEN
100
AcDbLine
 10
-19.48580779350072
 20
4.5
 30
0.0
 11
-19.99999999999988
 21
4.796869008837518
 31
0.0
  0
LINE
  5
4C
330
2
100
AcDbEntity
  8
HIDDEN
100
AcDbLine
 10
-19.48580779350078
 20
-4.499999999999886
 30
0.0
 11
-19.48580779350072
 21
0.0000000000001137
 31
0.0
  0
LINE
  5
4D
330
2
100
AcDbEntity
  8
HIDDEN
100
AcDbLine
 10
-19.48580779350078
 20
-4.499999999999886
 30
0.0
 11
-20.0
 21
-4.796869008837518
 31
0.0
  0
LINE
  5
4E
330
2
100
AcDbEntity
  8
KA
100
AcDbLine
 10
-8.399999999999891
 20
9.004300000000114
 30
0.0
 11
-7.190047040859212
 21
11.09999999999999
 31
0.0
  0
LINE
  5
4F
330
2
100
AcDbEntity
  8
KA
100
AcDbLine
 10
-8.399999999999891
 20
9.004300000000114
 30
0.0
 11
-17.5
 21
9.004300000000114
 31
0.0
  0
LINE
  5
50
330
2
100
AcDbEntity
  8
KA
100
AcDbLine
 10
-8.399999999999891
 20
-9.004300000000085
 30
0.0
 11
-7.190047040859298
 21
-11.09999999999999
 31
0.0
  0
LINE
  5
51
330
2
100
AcDbEntity
  8
KA
100
AcDbLine
 10
-8.399999999999891
 20
-9.004300000000085
 30
0.0
 11
-17.5
 21
-9.0043
 31
0.0
  0
LINE
  5
52
330
2
100
AcDbEntity
  8
KA
100
AcDbLine
 10
-8.399999999999891
 20
2.45189906195182
 30
0.0
 11
-8.399999999999891
 21
-2.451899061951678
 31
0.0
  0
LINE
  5
53
330
2
100
AcDbEntity
  8
LINE
100
AcDbLine
 10
1.0
 20
15.50000000000042
 30
0.0
 11
1.0
 21
-15.49999999999957
 31
0.0
  0
LINE
  5
54
330
2
100
AcDbEntity
  8
LINE
100
AcDbLine
 10
1.000000000000113
 20
15.50000000000031
 30
0.0
 11
0.0000000000001137
 21
14.50000000000031
 31
0.0
  0
LINE
  5
55
330
2
100
AcDbEntity
  8
LINE
100
AcDbLine
 10
0.0000000000001137
 20
-14.49999999999968
 30
0.0
 11
1.0
 21
-15.49999999999968
 31
0.0
  0
LINE
  5
56
330
2
100
AcDbEntity
  8
LINE
100
AcDbLine
 10
0.0000000000001137
 20
-14.49999999999968
 30
0.0
 11
0.0
 21
0.0
 31
0.0
  0
LINE
  5
57
330
2
100
AcDbEntity
  8
LINE
100
AcDbLine
 10
0.0000000000001137
 20
14.50000000000031
 30
0.0
 11
0.0
 21
0.0
 31
0.0
  0
LINE
  5
58
330
2
100
AcDbEntity
  8
KA
100
AcDbLine
 10
-0.4179438598663126
 20
9.004300000000114
 30
0.0
 11
-1.449999999999903
 21
9.004300000000114
 31
0.0
  0
LINE
  5
59
330
2
100
AcDbEntity
  8
KA
100
AcDbLine
 10
-0.4179438598663126
 20
-9.004300000000085
 30
0.0
 11
-1.450000000000017
 21
-9.004300000000085
 31
0.0
  0
LINE
  5
5A
330
2
100
AcDbEntity
  8
KA
100
AcDbLine
 10
-0.4179438598663126
 20
9.004300000000114
 30
0.0
 11
-0.4179438598663126
 21
-9.004300000000085
 31
0.0
  0
LINE
  5
5B
330
2
100
AcDbEntity
  8
KA
100
AcDbLine
 10
-0.4179438598663126
 20
-9.004300000000085
 30
0.0
 11
0.0
 21
-8.763000000000005
 31
0.0
  0
LINE
  5
5C
330
2
100
AcDbEntity
  8
KA
100
AcDbLine
 10
-0.4179438598663126
 20
9.004300000000114
 30
0.0
 11
0.0000000000001137
 21
8.763000000000118
 31
0.0
  0
LINE
  5
5D
330
2
100
AcDbEntity
  8
HIDDEN
100
AcDbLine
 10
1.263164003405194
 20
4.5
 30
0.0
 11
1.263164003405194
 21
-4.5
 31
0.0
  0
LINE
  5
5E
330
2
100
AcDbEntity
  8
HIDDEN
100
AcDbLine
 10
1.263164003405194
 20
4.5
 30
0.0
 11
3.861240214758538
 21
0.0
 31
0.0
  0
LINE
  5
5F
330
2
100
AcDbEntity
  8
HIDDEN
100
AcDbLine
 10
1.263164003405194
 20
-4.5
 30
0.0
 11
3.861240214758538
 21
0.0
 31
0.0
  0
LINE
  5
60
330
2
100
AcDbEntity
  8
KA
100
AcDbLine
 10
-1.449999999999903
 20
9.004300000000114
 30
0.0
 11
-2.659952959140639
 21
11.09999999999999
 31
0.0
  0
LINE
  5
61
330
2
100
AcDbEntity
  8
KA
100
AcDbLine
 10
-1.449999999999903
 20
-9.004300000000085
 30
0.0
 11
-2.659952959140468
 21
-11.09999999999999
 31
0.0
  0
LINE
  5
62
330
2
100
AcDbEntity
  8
LINE
100
AcDbLine
 10
62.99999999999997
 20
-15.49999999999951
 30
0.0
 11
64.99999999999997
 21
-12.03589838486218
 31
0.0
  0
LINE
  5
63
330
2
100
AcDbEntity
  8
LINE
100
AcDbLine
 10
62.99999999999986
 20
15.50000000000042
 30
0.0
 11
65.00000000000008
 21
12.035898384863
 31
0.0
  0
LINE
  5
64
330
2
100
AcDbEntity
  8
LINE
100
AcDbLine
 10
63.00000000000008
 20
15.50000000000042
 30
0.0
 11
62.99999999999997
 21
-15.49999999999957
 31
0.0
  0
LINE
  5
65
330
2
100
AcDbEntity
  8
LINE
100
AcDbLine
 10
65.00000000000008
 20
12.035898384863
 30
0.0
 11
64.99999999999997
 21
-12.03589838486218
 31
0.0
  0
DIMENSION
  5
96
330
2
100
AcDbEntity
  8
DIM
100
AcDbDimension
  2
*D1
 10
65.00000000000008
 20
31.74003959774293
 30
0.0
 11
22.50000000000008
 21
31.74003959774293
 31
0.0
 70
   160
 71
     5
 42
84.99999999999998
  3
STANDARD
100
AcDbAlignedDimension
 13
-19.99999999999988
 23
8.706361601851625
 33
0.0
 14
65.00000000000008
 24
12.035898384863
 34
0.0
100
AcDbRotatedDimension
  0
DIMENSION
  5
D1
330
2
100
AcDbEntity
  8
DIM
100
AcDbDimension
  2
*D2
 10
65.00000000000008
 20
23.22987660786711
 30
0.0
 11
32.5000000000001
 21
25.92987660786711
 31
0.0
 70
    32
 71
     5
 42
64.99999999999997
  3
STANDARD
100
AcDbAlignedDimension
 13
0.0000000000001137
 23
14.50000000000031
 33
0.0
 14
65.00000000000008
 24
12.035898384863
 34
0.0
100
AcDbRotatedDimension
  0
DIMENSION
  5
DE
330
2
100
AcDbEntity
  8
DIM
100
AcDbDimension
  2
*D3
 10
85.40388802805095
 20
-15.49999999999955
 30
0.0
 11
82.70388802805094
 21
0.0000000000004481
 31
0.0
 70
    32
  1
%%c<>
 71
     5
 42
30.99999999999997
  3
STANDARD
100
AcDbAlignedDimension
 13
62.99999999999986
 23
15.50000000000042
 33
0.0
 14
62.99999999999991
 24
-15.49999999999954
 34
0.0
 50
90.0
100
AcDbRotatedDimension
  0
ENDSEC
  0
SECTION
  2
OBJECTS
  0
DICTIONARY
  5
1A
330
0
100
AcDbDictionary
281
     1
  3
ACAD_GROUP
350
18
  3
ACAD_LAYOUT
350
6E
  3
ACAD_MLINESTYLE
350
19
  3
ACAD_PLOTSETTINGS
350
6F
  3
ACAD_PLOTSTYLENAME
350
6C
  3
AcDbVariableDictionary
350
75
  0
DICTIONARY
  5
18
102
{ACAD_REACTORS
330
1A
102
}
330
1A
100
AcDbDictionary
281
     1
  0
DICTIONARY
  5
6E
102
{ACAD_REACTORS
330
1A
102
}
330
1A
100
AcDbDictionary
281
     1
  3
Layout1
350
71
  3
Model
350
70
  0
DICTIONARY
  5
19
102
{ACAD_REACTORS
330
1A
102
}
330
1A
100
AcDbDictionary
281
     1
  3
STANDARD
350
1D
  0
DICTIONARY
  5
6F
102
{ACAD_REACTORS
330
1A
102
}
330
1A
100
AcDbDictionary
281
     1
  0
ACDBDICTIONARYWDFLT
  5
6C
102
{ACAD_REACTORS
330
1A
102
}
330
1A
100
AcDbDictionary
281
     1
  3
Normal
350
6D
100
AcDbDictionaryWithDefault
340
6D
  0
DICTIONARY
  5
75
102
{ACAD_REACTORS
330
1A
102
}
330
1A
100
AcDbDictionary
281
     1
  3
DIMASSOC
350
76
  0
LAYOUT
  5
71
102
{ACAD_REACTORS
330
6E
102
}
330
6E
100
AcDbPlotSettings
  1

  2
\\PRINT_SRV\HP LaserJet (Engineering)
  4

  6

 40
0.0
 41
0.0
 42
0.0
 43
0.0
 44
0.0
 45
0.0
 46
0.0
 47
0.0
 48
0.0
 49
0.0
140
0.0
141
0.0
142
1.0
143
1.0
 70
   688
 72
     0
 73
     0
 74
     5
  7
KPT.ctb
 75
    16
147
1.0
148
0.0
149
0.0
100
AcDbLayout
  1
Layout1
 70
     1
 71
     1
 10
0.0
 20
0.0
 11
12.0
 21
9.0
 12
0.0
 22
0.0
 32
0.0
 14
1.000000000000000E+20
 24
1.000000000000000E+20
 34
1.000000000000000E+20
 15
-1.000000000000000E+20
 25
-1.000000000000000E+20
 35
-1.000000000000000E+20
146
0.0
 13
0.0
 23
0.0
 33
0.0
 16
1.0
 26
0.0
 36
0.0
 17
0.0
 27
1.0
 37
0.0
 76
     0
330
7
  0
LAYOUT
  5
70
102
{ACAD_REACTORS
330
6E
102
}
330
6E
100
AcDbPlotSettings
  1

  2
\\PRINT_SRV\HP LaserJet (Engineering)
  4

  6

 40
0.0
 41
0.0
 42
0.0
 43
0.0
 44
0.0
 45
0.0
 46
0.0
 47
0.0
 48
0.0
 49
0.0
140
0.0
141
0.0
142
1.0
143
1.0
 70
  1712
 72
     0
 73
     0
 74
     0
  7
KPT.ctb
 75
     0
147
1.0
148
0.0
149
0.0
100
AcDbLayout
  1
Model
 70
     1
 71
     0
 10
0.0
 20
0.0
 11
12.0
 21
9.0
 12
0.0
 22
0.0
 32
0.0
 14
0.0
 24
0.0
 34
0.0
 15
0.0
 25
0.0
 35
0.0
146
0.0
 13
0.0
 23
0.0
 33
0.0
 16
1.0
 26
0.0
 36
0.0
 17
0.0
 27
1.0
 37
0.0
 76
     0
330
2
  0
MLINESTYLE
  5
1D
102
{ACAD_REACTORS
330
19
102
}
330
19
100
AcDbMlineStyle
  2
STANDARD
 70
     0
  3

 62
   256
 51
90.0
 52
90.0
 71
     2
 49
0.5
 62
   256
  6
BYLAYER
 49
-0.5
 62
   256
  6
BYLAYER
  0
ACDBPLACEHOLDER
  5
6D
102
{ACAD_REACTORS
330
6C
102
}
330
6C
  0
DICTIONARYVAR
  5
76
102
{ACAD_REACTORS
330
75
102
}
330
75
100
DictionaryVariables
280
     0
  1
1
  0
ENDSEC
  0
EOF
