  0
SECTION
  2
HEADER
  9
$ACADVER
  1
AC1015
  9
$ACADMAINTVER
 70
     6
  9
$DWGCODEPAGE
  3
ANSI_1252
  9
$INSBASE
 10
0.0
 20
0.0
 30
0.0
  9
$EXTMIN
 10
-33.98219529279146
 20
-55.82241363203994
 30
0.0
  9
$EXTMAX
 10
169.1224168811216
 20
40.44070984622087
 30
0.0
  9
$LIMMIN
 10
0.0
 20
0.0
  9
$LIMMAX
 10
210.0
 20
297.0
  9
$ORTHOMODE
 70
     0
  9
$REGENMODE
 70
     1
  9
$FILLMODE
 70
     1
  9
$QTEXTMODE
 70
     0
  9
$MIRRTEXT
 70
     1
  9
$LTSCALE
 40
1.0
  9
$ATTMODE
 70
     1
  9
$TEXTSIZE
 40
3.5
  9
$TRACEWID
 40
1.0
  9
$TEXTSTYLE
  7
STANDARD
  9
$CLAYER
  8
1
  9
$CELTYPE
  6
BYLAYER
  9
$CECOLOR
 62
   256
  9
$CELTSCALE
 40
1.0
  9
$DISPSILH
 70
     0
  9
$DIMSCALE
 40
1.0
  9
$DIMASZ
 40
3.5
  9
$DIMEXO
 40
0.0
  9
$DIMDLI
 40
3.75
  9
$DIMRND
 40
0.0
  9
$DIMDLE
 40
0.0
  9
$DIMEXE
 40
1.0
  9
$DIMTP
 40
0.0
  9
$DIMTM
 40
0.0
  9
$DIMTXT
 40
3.5
  9
$DIMCEN
 40
2.5
  9
$DIMTSZ
 40
0.0
  9
$DIMTOL
 70
     0
  9
$DIMLIM
 70
     0
  9
$DIMTIH
 70
     1
  9
$DIMTOH
 70
     1
  9
$DIMSE1
 70
     0
  9
$DIMSE2
 70
     0
  9
$DIMTAD
 70
     1
  9
$DIMZIN
 70
     0
  9
$DIMBLK
  1

  9
$DIMASO
 70
     1
  9
$DIMSHO
 70
     1
  9
$DIMPOST
  1

  9
$DIMAPOST
  1

  9
$DIMALT
 70
     0
  9
$DIMALTD
 70
     3
  9
$DIMALTF
 40
0.0393700787
  9
$DIMLFAC
 40
1.0
  9
$DIMTOFL
 70
     1
  9
$DIMTVP
 40
0.0
  9
$DIMTIX
 70
     0
  9
$DIMSOXD
 70
     0
  9
$DIMSAH
 70
     0
  9
$DIMBLK1
  1

  9
$DIMBLK2
  1

  9
$DIMSTYLE
  2
ISO-25
  9
$DIMCLRD
 70
     0
  9
$DIMCLRE
 70
     0
  9
$DIMCLRT
 70
     0
  9
$DIMTFAC
 40
1.0
  9
$DIMGAP
 40
1.5
  9
$DIMJUST
 70
     0
  9
$DIMSD1
 70
     0
  9
$DIMSD2
 70
     0
  9
$DIMTOLJ
 70
     0
  9
$DIMTZIN
 70
     0
  9
$DIMALTZ
 70
     0
  9
$DIMALTTZ
 70
     0
  9
$DIMUPT
 70
     0
  9
$DIMDEC
 70
     2
  9
$DIMTDEC
 70
     3
  9
$DIMALTU
 70
     2
  9
$DIMALTTD
 70
     3
  9
$DIMTXSTY
  7
STANDARD
  9
$DIMAUNIT
 70
     0
  9
$DIMADEC
 70
     0
  9
$DIMALTRND
 40
0.0
  9
$DIMAZIN
 70
     0
  9
$DIMDSEP
 70
    46
  9
$DIMATFIT
 70
     3
  9
$DIMFRAC
 70
     0
  9
$DIMLDRBLK
  1

  9
$DIMLUNIT
 70
     2
  9
$DIMLWD
 70
    -2
  9
$DIMLWE
 70
    -2
  9
$DIMTMOVE
 70
     2
  9
$LUNITS
 70
     2
  9
$LUPREC
 70
     2
  9
$SKETCHINC
 40
1.0
  9
$FILLETRAD
 40
10.0
  9
$AUNITS
 70
     0
  9
$AUPREC
 70
     2
  9
$MENU
  1
.
  9
$ELEVATION
 40
0.0
  9
$PELEVATION
 40
0.0
  9
$THICKNESS
 40
0.0
  9
$LIMCHECK
 70
     0
  9
$CHAMFERA
 40
10.0
  9
$CHAMFERB
 40
10.0
  9
$CHAMFERC
 40
20.0
  9
$CHAMFERD
 40
0.0
  9
$SKPOLY
 70
     0
  9
$TDCREATE
 40
2456443.317886771
  9
$TDUCREATE
 40
2456443.234553438
  9
$TDUPDATE
 40
2458589.64731368
  9
$TDUUPDATE
 40
2458589.563980347
  9
$TDINDWG
 40
0.0050054398
  9
$TDUSRTIMER
 40
0.0001296528
  9
$USRTIMER
 70
     1
  9
$ANGBASE
 50
0.0
  9
$ANGDIR
 70
     0
  9
$PDMODE
 70
     0
  9
$PDSIZE
 40
-1.0
  9
$PLINEWID
 40
0.0
  9
$SPLFRAME
 70
     0
  9
$SPLINETYPE
 70
     6
  9
$SPLINESEGS
 70
     8
  9
$HANDSEED
  5
16B
  9
$SURFTAB1
 70
     6
  9
$SURFTAB2
 70
     6
  9
$SURFTYPE
 70
     6
  9
$SURFU
 70
     6
  9
$SURFV
 70
     6
  9
$UCSBASE
  2

  9
$UCSNAME
  2

  9
$UCSORG
 10
0.0
 20
0.0
 30
0.0
  9
$UCSXDIR
 10
1.0
 20
0.0
 30
0.0
  9
$UCSYDIR
 10
0.0
 20
1.0
 30
0.0
  9
$UCSORTHOREF
  2

  9
$UCSORTHOVIEW
 70
     0
  9
$UCSORGTOP
 10
0.0
 20
0.0
 30
0.0
  9
$UCSORGBOTTOM
 10
0.0
 20
0.0
 30
0.0
  9
$UCSORGLEFT
 10
0.0
 20
0.0
 30
0.0
  9
$UCSORGRIGHT
 10
0.0
 20
0.0
 30
0.0
  9
$UCSORGFRONT
 10
0.0
 20
0.0
 30
0.0
  9
$UCSORGBACK
 10
0.0
 20
0.0
 30
0.0
  9
$PUCSBASE
  2

  9
$PUCSNAME
  2

  9
$PUCSORG
 10
0.0
 20
0.0
 30
0.0
  9
$PUCSXDIR
 10
1.0
 20
0.0
 30
0.0
  9
$PUCSYDIR
 10
0.0
 20
1.0
 30
0.0
  9
$PUCSORTHOREF
  2

  9
$PUCSORTHOVIEW
 70
     0
  9
$PUCSORGTOP
 10
0.0
 20
0.0
 30
0.0
  9
$PUCSORGBOTTOM
 10
0.0
 20
0.0
 30
0.0
  9
$PUCSORGLEFT
 10
0.0
 20
0.0
 30
0.0
  9
$PUCSORGRIGHT
 10
0.0
 20
0.0
 30
0.0
  9
$PUCSORGFRONT
 10
0.0
 20
0.0
 30
0.0
  9
$PUCSORGBACK
 10
0.0
 20
0.0
 30
0.0
  9
$USERI1
 70
     0
  9
$USERI2
 70
     0
  9
$USERI3
 70
     0
  9
$USERI4
 70
     0
  9
$USERI5
 70
     0
  9
$USERR1
 40
0.0
  9
$USERR2
 40
0.0
  9
$USERR3
 40
0.0
  9
$USERR4
 40
0.0
  9
$USERR5
 40
0.0
  9
$WORLDVIEW
 70
     1
  9
$SHADEDGE
 70
     3
  9
$SHADEDIF
 70
    70
  9
$TILEMODE
 70
     1
  9
$MAXACTVP
 70
    64
  9
$PINSBASE
 10
0.0
 20
0.0
 30
0.0
  9
$PLIMCHECK
 70
     0
  9
$PEXTMIN
 10
1.000000000000000E+20
 20
1.000000000000000E+20
 30
1.000000000000000E+20
  9
$PEXTMAX
 10
-1.000000000000000E+20
 20
-1.000000000000000E+20
 30
-1.000000000000000E+20
  9
$PLIMMIN
 10
0.0
 20
0.0
  9
$PLIMMAX
 10
0.0
 20
0.0
  9
$UNITMODE
 70
     0
  9
$VISRETAIN
 70
     1
  9
$PLINEGEN
 70
     0
  9
$PSLTSCALE
 70
     1
  9
$TREEDEPTH
 70
  3020
  9
$CMLSTYLE
  2
STANDARD
  9
$CMLJUST
 70
     0
  9
$CMLSCALE
 40
20.0
  9
$PROXYGRAPHICS
 70
     1
  9
$MEASUREMENT
 70
     1
  9
$CELWEIGHT
370
    -1
  9
$ENDCAPS
280
     0
  9
$JOINSTYLE
280
     0
  9
$LWDISPLAY
290
     0
  9
$INSUNITS
 70
     0
  9
$HYPERLINKBASE
  1

  9
$STYLESHEET
  1

  9
$XEDIT
290
     1
  9
$CEPSNTYPE
380
     0
  9
$PSTYLEMODE
290
     1
  9
$FINGERPRINTGUID
  2
{7516F9B1-5395-429E-B40A-9A46F262986B}
  9
$VERSIONGUID
  2
{FAEB1C32-E019-11D5-929B-00C0DF256EC4}
  9
$EXTNAMES
290
     1
  9
$PSVPSCALE
 40
0.0
  9
$OLESTARTUP
290
     0
  0
ENDSEC
  0
SECTION
  2
CLASSES
  0
CLASS
  1
ACDBDICTIONARYWDFLT
  2
AcDbDictionaryWithDefault
  3
ObjectDBX Classes
 90
        0
280
     0
281
     0
  0
CLASS
  1
VISUALSTYLE
  2
AcDbVisualStyle
  3
ObjectDBX Classes
 90
     4095
280
     0
281
     0
  0
CLASS
  1
MATERIAL
  2
AcDbMaterial
  3
ObjectDBX Classes
 90
     1153
280
     0
281
     0
  0
CLASS
  1
XRECORD
  2
AcDbXrecord
  3
ObjectDBX Classes
 90
        0
280
     0
281
     0
  0
CLASS
  1
LWPOLYLINE
  2
AcDbPolyline
  3
ObjectDBX Classes
 90
        0
280
     0
281
     1
  0
CLASS
  1
HATCH
  2
AcDbHatch
  3
ObjectDBX Classes
 90
        0
280
     0
281
     1
  0
CLASS
  1
SCALE
  2
AcDbScale
  3
ObjectDBX Classes
 90
     1153
280
     0
281
     0
  0
CLASS
  1
DICTIONARYVAR
  2
AcDbDictionaryVar
  3
ObjectDBX Classes
 90
        0
280
     0
281
     0
  0
CLASS
  1
ACDBPLACEHOLDER
  2
AcDbPlaceHolder
  3
ObjectDBX Classes
 90
        0
280
     0
281
     0
  0
CLASS
  1
LAYOUT
  2
AcDbLayout
  3
ObjectDBX Classes
 90
        0
280
     0
281
     0
  0
CLASS
  1
TABLESTYLE
  2
AcDbTableStyle
  3
ObjectDBX Classes
 90
     4095
280
     0
281
     0
  0
CLASS
  1
MLEADERSTYLE
  2
AcDbMLeaderStyle
  3
ACDB_MLEADERSTYLE_CLASS
 90
     4095
280
     0
281
     0
  0
CLASS
  1
SUN
  2
AcDbSun
  3
SCENEOE
 90
     1153
280
     0
281
     0
  0
CLASS
  1
CELLSTYLEMAP
  2
AcDbCellStyleMap
  3
ObjectDBX Classes
 90
     1152
280
     0
281
     0
  0
ENDSEC
  0
SECTION
  2
TABLES
  0
TABLE
  2
VPORT
  5
8
330
0
100
AcDbSymbolTable
 70
     1
  0
VPORT
  5
29
330
8
100
AcDbSymbolTableRecord
100
AcDbViewportTableRecord
  2
*ACTIVE
 70
     0
 10
0.0
 20
0.0
 11
1.0
 21
1.0
 12
27.5947174856269
 22
8.403564345003124
 13
0.0
 23
0.0
 14
10.0
 24
10.0
 15
10.0
 25
10.0
 16
0.0
 26
0.0
 36
1.0
 17
0.0
 27
0.0
 37
0.0
 40
269.7573962859431
 41
1.978589420654912
 42
50.0
 43
0.0
 44
0.0
 50
0.0
 51
0.0
 71
    16
 72
  2000
 73
     1
 74
     3
 75
     0
 76
     0
 77
     0
 78
     0
281
     0
 65
     1
110
0.0
120
0.0
130
0.0
111
1.0
121
0.0
131
0.0
112
0.0
122
1.0
132
0.0
 79
     0
146
0.0
  0
ENDTAB
  0
TABLE
  2
LTYPE
  5
5
330
0
100
AcDbSymbolTable
 70
     9
  0
LTYPE
  5
14
330
5
100
AcDbSymbolTableRecord
100
AcDbLinetypeTableRecord
  2
BYBLOCK
 70
     0
  3

 72
    65
 73
     0
 40
0.0
  0
LTYPE
  5
15
330
5
100
AcDbSymbolTableRecord
100
AcDbLinetypeTableRecord
  2
BYLAYER
 70
     0
  3

 72
    65
 73
     0
 40
0.0
  0
LTYPE
  5
16
330
5
100
AcDbSymbolTableRecord
100
AcDbLinetypeTableRecord
  2
CONTINUOUS
 70
     0
  3
Solid line
 72
    65
 73
     0
 40
0.0
  0
LTYPE
  5
3F
330
5
100
AcDbSymbolTableRecord
100
AcDbLinetypeTableRecord
  2
HIDDEN
 70
     0
  3
Hidden __ __ __ __ __ __ __ __ __ __ __ __ __ __
 72
    65
 73
     2
 40
1.905
 49
1.27
 74
     0
 49
-0.635
 74
     0
  0
LTYPE
  5
40
330
5
100
AcDbSymbolTableRecord
100
AcDbLinetypeTableRecord
  2
PHANTOM
 70
     0
  3
Phantom ______  __  __  ______  __  __  ______
 72
    65
 73
     6
 40
12.7
 49
6.35
 74
     0
 49
-1.27
 74
     0
 49
1.27
 74
     0
 49
-1.27
 74
     0
 49
1.27
 74
     0
 49
-1.27
 74
     0
  0
LTYPE
  5
41
330
5
100
AcDbSymbolTableRecord
100
AcDbLinetypeTableRecord
  2
CENTER
 70
     0
  3
Center ____ _ ____ _ ____ _ ____ _ ____ _ ____
 72
    65
 73
     4
 40
10.16
 49
6.35
 74
     0
 49
-1.27
 74
     0
 49
1.27
 74
     0
 49
-1.27
 74
     0
  0
LTYPE
  5
42
330
5
100
AcDbSymbolTableRecord
100
AcDbLinetypeTableRecord
  2
CENTERX2
 70
     0
  3
Center (2x) ________  __  ________  __  _____
 72
    65
 73
     4
 40
20.32
 49
12.7
 74
     0
 49
-2.54
 74
     0
 49
2.54
 74
     0
 49
-2.54
 74
     0
  0
LTYPE
  5
43
330
5
100
AcDbSymbolTableRecord
100
AcDbLinetypeTableRecord
  2
DOT2
 70
     0
  3
Dot (.5x) ........................................
 72
    65
 73
     2
 40
0.635
 49
0.0
 74
     0
 49
-0.635
 74
     0
  0
LTYPE
  5
11F
330
5
100
AcDbSymbolTableRecord
100
AcDbLinetypeTableRecord
  2
DASH
 70
     0
  3
DASH _ _ _ _ _
 72
    65
 73
     2
 40
0.75
 49
0.4
 74
     0
 49
-0.35
 74
     0
  0
LTYPE
  5
120
330
5
100
AcDbSymbolTableRecord
100
AcDbLinetypeTableRecord
  2
LONGDASH_DASH
 70
     0
  3
LONGDASH_DASH __ . __ . __
 72
    65
 73
     4
 40
0.85
 49
0.4
 74
     0
 49
-0.2
 74
     0
 49
0.05
 74
     0
 49
-0.2
 74
     0
  0
LTYPE
  5
121
330
5
100
AcDbSymbolTableRecord
100
AcDbLinetypeTableRecord
  2
LONGDASH_DASH_DASH
 70
     0
  3
LONGDASH_DASH_DASH __ . . __ . . __
 72
    65
 73
     6
 40
1.1
 49
0.4
 74
     0
 49
-0.2
 74
     0
 49
0.05
 74
     0
 49
-0.2
 74
     0
 49
0.05
 74
     0
 49
-0.2
 74
     0
  0
ENDTAB
  0
TABLE
  2
LAYER
  5
2
102
{ACAD_XDICTIONARY
360
146
102
}
330
0
100
AcDbSymbolTable
 70
    16
  0
LAYER
  5
DD
330
2
100
AcDbSymbolTableRecord
100
AcDbLayerTableRecord
  2
200
 70
     0
 62
     2
  6
CONTINUOUS
370
    50
390
132
  0
LAYER
  5
E0
330
2
100
AcDbSymbolTableRecord
100
AcDbLayerTableRecord
  2
Defpoints
 70
     0
 62
     7
  6
CONTINUOUS
290
     0
370
    -3
390
132
  0
LAYER
  5
122
330
2
100
AcDbSymbolTableRecord
100
AcDbLayerTableRecord
  2
0
 70
     0
 62
    -1
  6
CONTINUOUS
370
    -3
390
132
  0
LAYER
  5
123
330
2
100
AcDbSymbolTableRecord
100
AcDbLayerTableRecord
  2
1
 70
     0
 62
     4
  6
CONTINUOUS
370
    50
390
132
  0
LAYER
  5
124
330
2
100
AcDbSymbolTableRecord
100
AcDbLayerTableRecord
  2
2
 70
     0
 62
    -7
  6
CONTINUOUS
370
    25
390
132
  0
LAYER
  5
125
330
2
100
AcDbSymbolTableRecord
100
AcDbLayerTableRecord
  2
3
 70
     0
 62
     1
  6
DASH
370
    35
390
132
  0
LAYER
  5
126
330
2
100
AcDbSymbolTableRecord
100
AcDbLayerTableRecord
  2
4
 70
     0
 62
     2
  6
LONGDASH_DASH
370
    25
390
132
  0
LAYER
  5
127
330
2
100
AcDbSymbolTableRecord
100
AcDbLayerTableRecord
  2
6
 70
     0
 62
     5
  6
CONTINUOUS
370
    -3
390
132
  0
LAYER
  5
128
330
2
100
AcDbSymbolTableRecord
100
AcDbLayerTableRecord
  2
CUT
 70
     0
 62
     1
  6
CONTINUOUS
370
    25
390
132
  0
LAYER
  5
129
330
2
100
AcDbSymbolTableRecord
100
AcDbLayerTableRecord
  2
NOCUT
 70
     0
 62
    -7
  6
CONTINUOUS
370
    25
390
132
  0
LAYER
  5
12A
330
2
100
AcDbSymbolTableRecord
100
AcDbLayerTableRecord
  2
SK1
 70
     0
 62
     4
  6
CONTINUOUS
370
    50
390
132
  0
LAYER
  5
12B
330
2
100
AcDbSymbolTableRecord
100
AcDbLayerTableRecord
  2
SK2
 70
     0
 62
     7
  6
CONTINUOUS
370
    25
390
132
  0
LAYER
  5
12C
330
2
100
AcDbSymbolTableRecord
100
AcDbLayerTableRecord
  2
SK3
 70
     0
 62
     1
  6
DASH
370
    35
390
132
  0
LAYER
  5
12D
330
2
100
AcDbSymbolTableRecord
100
AcDbLayerTableRecord
  2
SK4
 70
     0
 62
     2
  6
LONGDASH_DASH
370
    25
390
132
  0
LAYER
  5
12E
330
2
100
AcDbSymbolTableRecord
100
AcDbLayerTableRecord
  2
SK6
 70
     0
 62
     5
  6
CONTINUOUS
370
    -3
390
132
  0
LAYER
  5
12F
330
2
100
AcDbSymbolTableRecord
100
AcDbLayerTableRecord
  2
INFTOTAL
 70
     0
 62
     9
  6
CONTINUOUS
370
    18
390
132
  0
ENDTAB
  0
TABLE
  2
STYLE
  5
3
330
0
100
AcDbSymbolTable
 70
     3
  0
STYLE
  5
11
330
3
100
AcDbSymbolTableRecord
100
AcDbTextStyleTableRecord
  2
STANDARD
 70
     0
 40
0.0
 41
1.0
 50
0.0
 71
     0
 42
3.5
  3
txt
  4

  0
STYLE
  5
80
330
3
100
AcDbSymbolTableRecord
100
AcDbTextStyleTableRecord
  2
SLDTEXTSTYLE0
 70
     0
 40
0.0
 41
0.605
 50
0.0
 71
     0
 42
0.2
  3
TXT
  4

  0
STYLE
  5
DC
330
3
100
AcDbSymbolTableRecord
100
AcDbTextStyleTableRecord
  2
BMG_Text
 70
     0
 40
3.5
 41
1.0
 50
0.0
 71
     0
 42
3.5
  3
monos.ttf
  4

1001
ACAD
1000
Monospac821 BT
1071
       49
  0
ENDTAB
  0
TABLE
  2
VIEW
  5
6
330
0
100
AcDbSymbolTable
 70
     0
  0
ENDTAB
  0
TABLE
  2
UCS
  5
7
330
0
100
AcDbSymbolTable
 70
     0
  0
ENDTAB
  0
TABLE
  2
APPID
  5
9
330
0
100
AcDbSymbolTable
 70
     4
  0
APPID
  5
12
330
9
100
AcDbSymbolTableRecord
100
AcDbRegAppTableRecord
  2
ACAD
 70
     0
  0
APPID
  5
F2
330
9
100
AcDbSymbolTableRecord
100
AcDbRegAppTableRecord
  2
ACAD_DSTYLE_DIM_LINETYPE
 70
     0
  0
APPID
  5
F3
330
9
100
AcDbSymbolTableRecord
100
AcDbRegAppTableRecord
  2
ACAD_DSTYLE_DIM_EXT1_LINETYPE
 70
     0
  0
APPID
  5
F4
330
9
100
AcDbSymbolTableRecord
100
AcDbRegAppTableRecord
  2
ACAD_DSTYLE_DIM_EXT2_LINETYPE
 70
     0
  0
ENDTAB
  0
TABLE
  2
DIMSTYLE
  5
A
330
0
100
AcDbSymbolTable
 70
     2
100
AcDbDimStyleTable
  0
DIMSTYLE
105
27
330
A
100
AcDbSymbolTableRecord
100
AcDbDimStyleTableRecord
  2
ISO-25
 70
     0
 41
2.5
 42
0.625
 43
3.75
 44
1.25
 73
     0
 74
     0
 77
     1
 78
     8
140
2.5
141
2.5
143
0.0393700787
147
0.625
171
     3
172
     1
178
     0
271
     2
272
     2
274
     3
283
     0
284
     8
340
11
  0
DIMSTYLE
105
81
102
{ACAD_REACTORS
330
7F
330
8C
330
97
102
}
330
A
100
AcDbSymbolTableRecord
100
AcDbDimStyleTableRecord
  2
SLDDIMSTYLE0
 70
     0
 41
3.5
 44
0.0
 45
0.000000001
 73
     0
 74
     0
 77
     1
 78
    12
140
3.5
147
0.875
173
     1
178
     0
271
     2
272
     3
284
    12
340
80
  0
ENDTAB
  0
TABLE
  2
BLOCK_RECORD
  5
1
330
0
100
AcDbSymbolTable
 70
     3
  0
BLOCK_RECORD
  5
1F
330
1
100
AcDbSymbolTableRecord
100
AcDbBlockTableRecord
  2
*MODEL_SPACE
340
C5
  0
BLOCK_RECORD
  5
1B
330
1
100
AcDbSymbolTableRecord
100
AcDbBlockTableRecord
  2
*PAPER_SPACE
340
C6
  0
BLOCK_RECORD
  5
82
330
1
100
AcDbSymbolTableRecord
100
AcDbBlockTableRecord
  2
_D
340
0
  0
BLOCK_RECORD
  5
8D
330
1
100
AcDbSymbolTableRecord
100
AcDbBlockTableRecord
  2
_D_1
340
0
  0
BLOCK_RECORD
  5
98
330
1
100
AcDbSymbolTableRecord
100
AcDbBlockTableRecord
  2
_D_2
340
0
  0
ENDTAB
  0
ENDSEC
  0
SECTION
  2
BLOCKS
  0
BLOCK
  5
20
330
1F
100
AcDbEntity
  8
0
100
AcDbBlockBegin
  2
*MODEL_SPACE
 70
     0
 10
0.0
 20
0.0
 30
0.0
  3
*MODEL_SPACE
  1

  0
ENDBLK
  5
21
330
1F
100
AcDbEntity
  8
0
100
AcDbBlockEnd
  0
BLOCK
  5
1C
330
1B
100
AcDbEntity
 67
     1
  8
0
100
AcDbBlockBegin
  2
*PAPER_SPACE
 70
     0
 10
0.0
 20
0.0
 30
0.0
  3
*PAPER_SPACE
  1

  0
ENDBLK
  5
1D
330
1B
100
AcDbEntity
 67
     1
  8
0
100
AcDbBlockEnd
  0
BLOCK
  5
83
330
82
100
AcDbEntity
  8
0
100
AcDbBlockBegin
  2
_D
 70
     0
 10
0.0
 20
0.0
 30
0.0
  3
_D
  1

  0
LINE
  5
85
330
82
100
AcDbEntity
  8
2
  6
Continuous
370
    -2
100
AcDbLine
 10
120.0624999999
 20
17.9999999996
 30
0.0
 11
132.3691645035
 21
17.9999999996
 31
0.0
  0
LINE
  5
86
330
82
100
AcDbEntity
  8
2
  6
Continuous
370
    -2
100
AcDbLine
 10
120.0624999999
 20
-18.0000000004
 30
0.0
 11
132.3691645035
 21
-18.0000000004
 31
0.0
  0
LINE
  5
87
330
82
100
AcDbEntity
  8
2
  6
Continuous
370
    -2
100
AcDbLine
 10
132.3691645035
 20
14.4999999996
 30
0.0
 11
132.3691645035
 21
-14.5000000004
 31
0.0
  0
SOLID
  5
88
330
82
100
AcDbEntity
  8
2
100
AcDbTrace
 10
132.9524978368333
 20
14.4999999996
 30
0.0
 11
131.7858311701667
 21
14.4999999996
 31
0.0
 12
132.3691645035
 22
17.9999999996
 32
0.0
 13
132.3691645035
 23
17.9999999996
 33
0.0
  0
SOLID
  5
89
330
82
100
AcDbEntity
  8
2
100
AcDbTrace
 10
131.7858311701667
 20
-14.5000000004
 30
0.0
 11
132.9524978368333
 21
-14.5000000004
 31
0.0
 12
132.3691645035
 22
-18.0000000004
 32
0.0
 13
132.3691645035
 23
-18.0000000004
 33
0.0
  0
MTEXT
  5
8A
330
82
100
AcDbEntity
  8
2
370
    25
100
AcDbMText
 10
129.6321645035
 20
-0.0000000004
 30
0.0
 40
3.5
 41
0.0
 71
     5
 72
     1
  1
\A1;%%c36
  7
BMG_Text
 11
0.0
 21
1.0
 31
0.0
 73
     1
 44
1.0
  0
POINT
  5
8B
330
82
100
AcDbEntity
  8
Defpoints
 62
     0
100
AcDbPoint
 10
119.9999999999
 20
17.9999999996
 30
0.0
  0
POINT
  5
E1
330
82
100
AcDbEntity
  8
Defpoints
 62
     0
100
AcDbPoint
 10
119.9999999999
 20
-18.0000000004
 30
0.0
  0
POINT
  5
E2
330
82
100
AcDbEntity
  8
Defpoints
 62
     0
100
AcDbPoint
 10
132.3691645035
 20
-18.0000000004
 30
0.0
  0
ENDBLK
  5
84
330
82
100
AcDbEntity
  8
0
100
AcDbBlockEnd
  0
BLOCK
  5
8E
330
8D
100
AcDbEntity
  8
0
100
AcDbBlockBegin
  2
_D_1
 70
     0
 10
0.0
 20
0.0
 30
0.0
  3
_D_1
  1

  0
LINE
  5
90
330
8D
100
AcDbEntity
  8
2
  6
Continuous
370
    -2
100
AcDbLine
 10
119.3125
 20
31.75
 30
0.0
 11
142.6855292066
 21
31.75
 31
0.0
  0
LINE
  5
91
330
8D
100
AcDbEntity
  8
2
  6
Continuous
370
    -2
100
AcDbLine
 10
119.3125
 20
-31.75
 30
0.0
 11
142.6855292066
 21
-31.75
 31
0.0
  0
LINE
  5
92
330
8D
100
AcDbEntity
  8
2
  6
Continuous
370
    -2
100
AcDbLine
 10
142.6855292066
 20
28.25
 30
0.0
 11
142.6855292066
 21
-28.25
 31
0.0
  0
SOLID
  5
93
330
8D
100
AcDbEntity
  8
2
100
AcDbTrace
 10
143.2688625399333
 20
28.25
 30
0.0
 11
142.1021958732667
 21
28.25
 31
0.0
 12
142.6855292066
 22
31.75
 32
0.0
 13
142.6855292066
 23
31.75
 33
0.0
  0
SOLID
  5
94
330
8D
100
AcDbEntity
  8
2
100
AcDbTrace
 10
142.1021958732667
 20
-28.25
 30
0.0
 11
143.2688625399333
 21
-28.25
 31
0.0
 12
142.6855292066
 22
-31.75
 32
0.0
 13
142.6855292066
 23
-31.75
 33
0.0
  0
MTEXT
  5
95
330
8D
100
AcDbEntity
  8
2
370
    25
100
AcDbMText
 10
139.9485292066
 20
0.0
 30
0.0
 40
3.5
 41
0.0
 71
     5
 72
     1
  1
\A1;%%c63.5
  7
BMG_Text
 11
0.0
 21
1.0
 31
0.0
 73
     1
 44
1.0
  0
POINT
  5
96
330
8D
100
AcDbEntity
  8
Defpoints
 62
     0
100
AcDbPoint
 10
119.25
 20
31.75
 30
0.0
  0
POINT
  5
E3
330
8D
100
AcDbEntity
  8
Defpoints
 62
     0
100
AcDbPoint
 10
119.25
 20
-31.75
 30
0.0
  0
POINT
  5
E4
330
8D
100
AcDbEntity
  8
Defpoints
 62
     0
100
AcDbPoint
 10
142.6855292066
 20
-31.75
 30
0.0
  0
ENDBLK
  5
8F
330
8D
100
AcDbEntity
  8
0
100
AcDbBlockEnd
  0
BLOCK
  5
99
330
98
100
AcDbEntity
  8
0
100
AcDbBlockBegin
  2
_D_2
 70
     0
 10
0.0
 20
0.0
 30
0.0
  3
_D_2
  1

  0
LINE
  5
9B
330
98
100
AcDbEntity
  8
2
  6
Continuous
370
    -2
100
AcDbLine
 10
120.0
 20
-31.2908882181
 30
0.0
 11
120.0
 21
-46.1582330983
 31
0.0
  0
LINE
  5
9C
330
98
100
AcDbEntity
  8
2
  6
Continuous
370
    -2
100
AcDbLine
 10
0.0
 20
-31.2908882181
 30
0.0
 11
0.0
 21
-46.1582330983
 31
0.0
  0
LINE
  5
9D
330
98
100
AcDbEntity
  8
2
  6
Continuous
370
    -2
100
AcDbLine
 10
116.5
 20
-46.1582330983
 30
0.0
 11
3.5
 21
-46.1582330983
 31
0.0
  0
SOLID
  5
9E
330
98
100
AcDbEntity
  8
2
100
AcDbTrace
 10
116.5
 20
-46.74156643163334
 30
0.0
 11
116.5
 21
-45.57489976496667
 31
0.0
 12
120.0
 22
-46.1582330983
 32
0.0
 13
120.0
 23
-46.1582330983
 33
0.0
  0
SOLID
  5
9F
330
98
100
AcDbEntity
  8
2
100
AcDbTrace
 10
3.5
 20
-45.57489976496667
 30
0.0
 11
3.5
 21
-46.74156643163334
 31
0.0
 12
0.0
 22
-46.1582330983
 32
0.0
 13
0.0
 23
-46.1582330983
 33
0.0
  0
MTEXT
  5
A0
330
98
100
AcDbEntity
  8
2
370
    25
100
AcDbMText
 10
60.0
 20
-43.4719830983
 30
0.0
 40
3.5
 41
0.0
 71
     5
 72
     1
  1
\A1;120
  7
BMG_Text
 73
     1
 44
1.0
  0
POINT
  5
E5
330
98
100
AcDbEntity
  8
Defpoints
 62
     0
100
AcDbPoint
 10
120.0
 20
-31.2283882181
 30
0.0
  0
POINT
  5
E6
330
98
100
AcDbEntity
  8
Defpoints
 62
     0
100
AcDbPoint
 10
0.0
 20
-31.2283882181
 30
0.0
  0
POINT
  5
E7
330
98
100
AcDbEntity
  8
Defpoints
 62
     0
100
AcDbPoint
 10
0.0
 20
-46.1582330983
 30
0.0
  0
ENDBLK
  5
9A
330
98
100
AcDbEntity
  8
0
100
AcDbBlockEnd
  0
ENDSEC
  0
SECTION
  2
ENTITIES
  0
LINE
  5
4A
330
1F
100
AcDbEntity
  8
1
100
AcDbLine
 10
119.25
 20
31.75
 30
0.0
 11
0.75
 21
31.75
 31
0.0
  0
LINE
  5
4B
330
1F
100
AcDbEntity
  8
1
100
AcDbLine
 10
0.75
 20
-31.75
 30
0.0
 11
119.25
 21
-31.75
 31
0.0
  0
LINE
  5
4C
330
1F
100
AcDbEntity
  8
1
100
AcDbLine
 10
103.9499999998
 20
-3.4641016154
 30
0.0
 11
106.9499999995
 21
-1.732050808
 31
0.0
  0
LINE
  5
4D
330
1F
100
AcDbEntity
  8
1
100
AcDbLine
 10
106.9499999995
 20
-1.732050808
 30
0.0
 11
106.9499999995
 21
1.732050808
 31
0.0
  0
LINE
  5
4E
330
1F
100
AcDbEntity
  8
1
100
AcDbLine
 10
106.9499999995
 20
1.732050808
 30
0.0
 11
103.9499999998
 21
3.4641016154
 31
0.0
  0
LINE
  5
4F
330
1F
100
AcDbEntity
  8
1
100
AcDbLine
 10
103.9499999998
 20
3.4641016154
 30
0.0
 11
100.95
 21
1.732050808
 31
0.0
  0
LINE
  5
50
330
1F
100
AcDbEntity
  8
1
100
AcDbLine
 10
100.95
 20
1.732050808
 30
0.0
 11
100.95
 21
-1.732050808
 31
0.0
  0
LINE
  5
51
330
1F
100
AcDbEntity
  8
1
100
AcDbLine
 10
100.95
 20
-1.732050808
 30
0.0
 11
103.9499999998
 21
-3.4641016154
 31
0.0
  0
LINE
  5
52
330
1F
100
AcDbEntity
  8
1
100
AcDbLine
 10
16.0499999998
 20
-3.4641016154
 30
0.0
 11
19.0499999995
 21
-1.732050808
 31
0.0
  0
LINE
  5
53
330
1F
100
AcDbEntity
  8
1
100
AcDbLine
 10
19.0499999995
 20
-1.732050808
 30
0.0
 11
19.0499999995
 21
1.732050808
 31
0.0
  0
LINE
  5
54
330
1F
100
AcDbEntity
  8
1
100
AcDbLine
 10
19.0499999995
 20
1.732050808
 30
0.0
 11
16.0499999998
 21
3.4641016154
 31
0.0
  0
LINE
  5
55
330
1F
100
AcDbEntity
  8
1
100
AcDbLine
 10
16.0499999998
 20
3.4641016154
 30
0.0
 11
13.05
 21
1.732050808
 31
0.0
  0
LINE
  5
56
330
1F
100
AcDbEntity
  8
1
100
AcDbLine
 10
13.05
 20
1.732050808
 30
0.0
 11
13.05
 21
-1.732050808
 31
0.0
  0
LINE
  5
57
330
1F
100
AcDbEntity
  8
1
100
AcDbLine
 10
13.05
 20
-1.732050808
 30
0.0
 11
16.0499999998
 21
-3.4641016154
 31
0.0
  0
LINE
  5
58
330
1F
100
AcDbEntity
  8
1
100
AcDbLine
 10
0.0
 20
-31.2283882181
 30
0.0
 11
0.0
 21
31.2283882181
 31
0.0
  0
LINE
  5
59
330
1F
100
AcDbEntity
  8
1
100
AcDbLine
 10
120.0
 20
31.2283882181
 30
0.0
 11
120.0
 21
-31.2283882181
 31
0.0
  0
LINE
  5
5A
330
1F
100
AcDbEntity
  8
3
100
AcDbLine
 10
82.9999999999
 20
17.9999999996
 30
0.0
 11
82.9999999999
 21
-18.0000000004
 31
0.0
  0
LINE
  5
5B
330
1F
100
AcDbEntity
  8
3
100
AcDbLine
 10
37.0
 20
-18.0
 30
0.0
 11
37.0
 21
18.0
 31
0.0
  0
LINE
  5
5C
330
1F
100
AcDbEntity
  8
3
100
AcDbLine
 10
77.9999999999
 20
18.2499999995
 30
0.0
 11
77.9999999999
 21
-18.2500000005
 31
0.0
  0
LINE
  5
5D
330
1F
100
AcDbEntity
  8
3
100
AcDbLine
 10
74.3915608173
 20
11.9999999998
 30
0.0
 11
74.3915608173
 21
-12.0000000002
 31
0.0
  0
LINE
  5
5E
330
1F
100
AcDbEntity
  8
3
100
AcDbLine
 10
42.0
 20
-18.25
 30
0.0
 11
42.0
 21
18.25
 31
0.0
  0
LINE
  5
5F
330
1F
100
AcDbEntity
  8
3
100
AcDbLine
 10
45.6084391823
 20
-12.0000000002
 30
0.0
 11
45.6084391823
 21
11.9999999998
 31
0.0
  0
LINE
  5
60
330
1F
100
AcDbEntity
  8
3
100
AcDbLine
 10
82.5669872979
 20
-18.2500000005
 30
0.0
 11
82.9999999999
 21
-18.0000000004
 31
0.0
  0
LINE
  5
61
330
1F
100
AcDbEntity
  8
3
100
AcDbLine
 10
82.9999999999
 20
17.9999999996
 30
0.0
 11
82.5669872979
 21
18.2499999995
 31
0.0
  0
LINE
  5
62
330
1F
100
AcDbEntity
  8
3
100
AcDbLine
 10
37.433012702
 20
18.25
 30
0.0
 11
37.0
 21
18.0
 31
0.0
  0
LINE
  5
63
330
1F
100
AcDbEntity
  8
3
100
AcDbLine
 10
37.0
 20
-18.0
 30
0.0
 11
37.433012702
 21
-18.25
 31
0.0
  0
LINE
  5
64
330
1F
100
AcDbEntity
  8
3
100
AcDbLine
 10
77.9999999999
 20
18.2499999995
 30
0.0
 11
74.3915608173
 21
11.9999999998
 31
0.0
  0
LINE
  5
65
330
1F
100
AcDbEntity
  8
3
100
AcDbLine
 10
74.3915608173
 20
-12.0000000002
 30
0.0
 11
77.9999999999
 21
-18.2500000005
 31
0.0
  0
LINE
  5
66
330
1F
100
AcDbEntity
  8
3
100
AcDbLine
 10
37.433012702
 20
-18.25
 30
0.0
 11
42.0
 21
-18.25
 31
0.0
  0
LINE
  5
67
330
1F
100
AcDbEntity
  8
3
100
AcDbLine
 10
42.0
 20
18.25
 30
0.0
 11
37.433012702
 21
18.25
 31
0.0
  0
LINE
  5
68
330
1F
100
AcDbEntity
  8
3
100
AcDbLine
 10
82.5669872979
 20
18.2499999995
 30
0.0
 11
77.9999999999
 21
18.2499999995
 31
0.0
  0
LINE
  5
69
330
1F
100
AcDbEntity
  8
3
100
AcDbLine
 10
77.9999999999
 20
-18.2500000005
 30
0.0
 11
82.5669872979
 21
-18.2500000005
 31
0.0
  0
LINE
  5
6A
330
1F
100
AcDbEntity
  8
3
100
AcDbLine
 10
42.0
 20
-18.25
 30
0.0
 11
45.6084391823
 21
-12.0000000002
 31
0.0
  0
LINE
  5
6B
330
1F
100
AcDbEntity
  8
3
100
AcDbLine
 10
45.6084391823
 20
11.9999999998
 30
0.0
 11
42.0
 21
18.25
 31
0.0
  0
LINE
  5
6C
330
1F
100
AcDbEntity
  8
3
100
AcDbLine
 10
119.9999999999
 20
17.9999999996
 30
0.0
 11
82.9999999999
 21
17.9999999996
 31
0.0
  0
LINE
  5
6D
330
1F
100
AcDbEntity
  8
3
100
AcDbLine
 10
82.9999999999
 20
-18.0000000004
 30
0.0
 11
119.9999999999
 21
-18.0000000004
 31
0.0
  0
LINE
  5
6E
330
1F
100
AcDbEntity
  8
3
100
AcDbLine
 10
0.0
 20
-18.0
 30
0.0
 11
37.0
 21
-18.0
 31
0.0
  0
LINE
  5
6F
330
1F
100
AcDbEntity
  8
3
100
AcDbLine
 10
37.0
 20
18.0
 30
0.0
 11
0.0
 21
18.0
 31
0.0
  0
LINE
  5
70
330
1F
100
AcDbEntity
  8
3
100
AcDbLine
 10
74.3915608173
 20
11.9999999998
 30
0.0
 11
45.6084391823
 21
11.9999999998
 31
0.0
  0
LINE
  5
71
330
1F
100
AcDbEntity
  8
3
100
AcDbLine
 10
45.6084391823
 20
-12.0000000002
 30
0.0
 11
74.3915608173
 21
-12.0000000002
 31
0.0
  0
LINE
  5
72
330
1F
100
AcDbEntity
  8
SK4
100
AcDbLine
 10
-2.057910749
 20
0.0
 30
0.0
 11
122.417563974
 21
0.0
 31
0.0
  0
LINE
  5
73
330
1F
100
AcDbEntity
  8
SK4
100
AcDbLine
 10
16.05
 20
-7.585643731
 30
0.0
 11
16.05
 21
7.165204045
 31
0.0
  0
LINE
  5
74
330
1F
100
AcDbEntity
  8
SK4
100
AcDbLine
 10
103.95
 20
-7.332366812
 30
0.0
 11
103.95
 21
7.165204045
 31
0.0
  0
LINE
  5
75
330
1F
100
AcDbEntity
  8
1
100
AcDbLine
 10
119.25
 20
-31.75
 30
0.0
 11
120.0
 21
-31.2283882181
 31
0.0
  0
LINE
  5
76
330
1F
100
AcDbEntity
  8
3
100
AcDbLine
 10
108.0879646535
 20
17.9999999996
 30
0.0
 11
108.0879646535
 21
22.9999999996
 31
0.0
  0
LINE
  5
77
330
1F
100
AcDbEntity
  8
3
100
AcDbLine
 10
108.0879646535
 20
22.9999999996
 30
0.0
 11
120.0
 21
22.9999999996
 31
0.0
  0
LINE
  5
78
330
1F
100
AcDbEntity
  8
3
100
AcDbLine
 10
108.0879646535
 20
-18.0000000004
 30
0.0
 11
108.0879646535
 21
-23.0000000004
 31
0.0
  0
LINE
  5
79
330
1F
100
AcDbEntity
  8
3
100
AcDbLine
 10
108.0879646535
 20
-23.0000000004
 30
0.0
 11
120.0
 21
-23.0000000004
 31
0.0
  0
ARC
  5
7A
330
1F
100
AcDbEntity
  8
1
100
AcDbCircle
 10
0.75
 20
30.95
 30
0.0
 40
0.8000000000000422
100
AcDbArc
 50
90.0
 51
159.635865194
  0
ARC
  5
7B
330
1F
100
AcDbEntity
  8
1
100
AcDbCircle
 10
0.75
 20
-30.95
 30
0.0
 40
0.8000000000000225
100
AcDbArc
 50
200.364134806
 51
270.0
  0
ARC
  5
7C
330
1F
100
AcDbEntity
  8
1
100
AcDbCircle
 10
119.25
 20
30.95
 30
0.0
 40
0.800000000000022
100
AcDbArc
 50
20.364134806
 51
90.0
  0
CIRCLE
  5
7D
330
1F
100
AcDbEntity
  8
1
100
AcDbCircle
 10
103.95
 20
0.0
 30
0.0
 40
6.000000000000014
  0
CIRCLE
  5
7E
330
1F
100
AcDbEntity
  8
1
100
AcDbCircle
 10
16.05
 20
0.0
 30
0.0
 40
6.000000000000004
  0
DIMENSION
  5
7F
330
1F
100
AcDbEntity
  8
2
  6
Continuous
370
    25
100
AcDbDimension
  2
_D
 10
132.3691645035
 20
-18.0000000004
 30
0.0
 11
132.3691645035
 21
-0.0000000004
 31
0.0
 70
   160
  1
%%c<>
 71
     5
 42
36.0
  3
SLDDIMSTYLE0
100
AcDbAlignedDimension
 13
119.9999999999
 23
17.9999999996
 33
0.0
 14
119.9999999999
 24
-18.0000000004
 34
0.0
 50
90.0
100
AcDbRotatedDimension
1001
ACAD
1000
DSTYLE
1002
{
1070
   140
1040
3.5
1070
   340
1005
DC
1070
   177
1070
   256
1070
   176
1070
   256
1070
   178
1070
   256
1070
   347
1005
14
1070
   346
1005
14
1070
   345
1005
14
1002
}
1001
ACAD_DSTYLE_DIM_LINETYPE
1070
   380
1005
14
1001
ACAD_DSTYLE_DIM_EXT1_LINETYPE
1070
   381
1005
14
1001
ACAD_DSTYLE_DIM_EXT2_LINETYPE
1070
   382
1005
14
  0
DIMENSION
  5
8C
330
1F
100
AcDbEntity
  8
2
  6
Continuous
370
    25
100
AcDbDimension
  2
_D_1
 10
142.6855292066
 20
-31.75
 30
0.0
 11
142.6855292066
 21
0.0
 31
0.0
 70
   160
  1
%%c<>
 71
     5
 42
63.49999999999999
  3
SLDDIMSTYLE0
100
AcDbAlignedDimension
 13
119.25
 23
31.75
 33
0.0
 14
119.25
 24
-31.75
 34
0.0
 50
90.0
100
AcDbRotatedDimension
1001
ACAD
1000
DSTYLE
1002
{
1070
   140
1040
3.5
1070
   340
1005
DC
1070
   177
1070
   256
1070
   176
1070
   256
1070
   178
1070
   256
1070
   347
1005
14
1070
   346
1005
14
1070
   345
1005
14
1002
}
1001
ACAD_DSTYLE_DIM_LINETYPE
1070
   380
1005
14
1001
ACAD_DSTYLE_DIM_EXT1_LINETYPE
1070
   381
1005
14
1001
ACAD_DSTYLE_DIM_EXT2_LINETYPE
1070
   382
1005
14
  0
DIMENSION
  5
97
330
1F
100
AcDbEntity
  8
2
  6
Continuous
370
    25
100
AcDbDimension
  2
_D_2
 10
0.0
 20
-46.1582330983
 30
0.0
 11
60.0
 21
-46.1582330983
 31
0.0
 70
   160
  1
<>
 71
     5
 42
120.0
  3
SLDDIMSTYLE0
100
AcDbAlignedDimension
 13
120.0
 23
-31.2283882181
 33
0.0
 14
0.0
 24
-31.2283882181
 34
0.0
100
AcDbRotatedDimension
1001
ACAD
1000
DSTYLE
1002
{
1070
   140
1040
3.5
1070
   340
1005
DC
1070
   177
1070
   256
1070
   176
1070
   256
1070
   178
1070
   256
1070
   347
1005
14
1070
   346
1005
14
1070
   345
1005
14
1002
}
1001
ACAD_DSTYLE_DIM_LINETYPE
1070
   380
1005
14
1001
ACAD_DSTYLE_DIM_EXT1_LINETYPE
1070
   381
1005
14
1001
ACAD_DSTYLE_DIM_EXT2_LINETYPE
1070
   382
1005
14
  0
MTEXT
  5
A1
330
1F
100
AcDbEntity
  8
SK6
100
AcDbMText
 10
87.051944692
 20
-25.6087247493
 30
0.0
 40
3.5
 41
0.0
 71
     1
 72
     1
  1
331.861N
  7
BMG_Text
 73
     1
 44
1.0
  0
LWPOLYLINE
  5
153
330
1F
100
AcDbEntity
  8
INFTOTAL
100
AcDbPolyline
 90
        4
 70
     1
 43
0.0
 10
-33.98219529279147
 20
40.44070984622088
 10
-33.98219529279147
 20
-55.82241363203993
 10
169.1224168811216
 20
-55.82241363203993
 10
169.1224168811216
 20
40.44070984622088
  0
LINE
  5
155
330
1F
100
AcDbEntity
  8
NOCUT
100
AcDbLine
 10
0.0
 20
0.0
 30
0.0
 11
120.0
 21
0.0
 31
0.0
  0
LINE
  5
156
330
1F
100
AcDbEntity
  8
NOCUT
100
AcDbLine
 10
120.0
 20
0.0
 30
0.0
 11
120.0
 21
31.2283882181
 31
0.0
  0
LINE
  5
157
330
1F
100
AcDbEntity
  8
NOCUT
100
AcDbLine
 10
119.3125
 20
31.75
 30
0.0
 11
0.75
 21
31.75
 31
0.0
  0
LINE
  5
158
330
1F
100
AcDbEntity
  8
NOCUT
100
AcDbLine
 10
0.0
 20
0.0
 30
0.0
 11
0.0
 21
31.2283882181
 31
0.0
  0
ARC
  5
159
330
1F
100
AcDbEntity
  8
NOCUT
100
AcDbCircle
 10
0.7499999999999026
 20
30.95000000000008
 30
0.0
 40
0.799999999999924
100
AcDbArc
 50
89.99999999999302
 51
159.6358651940029
  0
ARC
  5
15A
330
1F
100
AcDbEntity
  8
NOCUT
100
AcDbCircle
 10
119.2500000000127
 20
30.9500000000404
 30
0.0
 40
0.7999999999596196
100
AcDbArc
 50
20.36413480113462
 51
90.00000000090786
  0
LINE
  5
163
330
1F
100
AcDbEntity
  8
4
100
AcDbLine
 10
0.0
 20
0.0
 30
0.0
 11
122.417563974
 21
0.0
 31
0.0
  0
LINE
  5
164
330
1F
100
AcDbEntity
  8
4
100
AcDbLine
 10
103.95
 20
7.165204045
 30
0.0
 11
103.95
 21
-7.332366812
 31
0.0
  0
LINE
  5
165
330
1F
100
AcDbEntity
  8
4
100
AcDbLine
 10
16.05
 20
7.165204045
 30
0.0
 11
16.05
 21
-7.585643731
 31
0.0
  0
ENDSEC
  0
SECTION
  2
OBJECTS
  0
DICTIONARY
  5
C
330
0
100
AcDbDictionary
281
     1
  3
ACAD_DETAILVIEWSTYLE
350
144
  3
ACAD_GROUP
350
D
  3
ACAD_LAYOUT
350
C4
  3
ACAD_MLINESTYLE
350
17
  3
ACAD_PLOTSETTINGS
350
130
  3
ACAD_PLOTSTYLENAME
350
131
  3
ACAD_SCALELIST
350
A2
  3
ACAD_SECTIONVIEWSTYLE
350
145
  3
AcDbVariableDictionary
350
EC
  3
APPDATA
350
140
  3
DWGPROPS
350
16A
  0
DICTIONARY
  5
146
330
2
100
AcDbDictionary
280
     1
281
     1
  3
ACAD_LAYERSTATES
360
147
  0
DICTIONARY
  5
144
102
{ACAD_REACTORS
330
C
102
}
330
C
100
AcDbDictionary
281
     1
  0
DICTIONARY
  5
D
102
{ACAD_REACTORS
330
C
102
}
330
C
100
AcDbDictionary
281
     1
  0
DICTIONARY
  5
C4
102
{ACAD_REACTORS
330
C
102
}
330
C
100
AcDbDictionary
281
     1
  3
Layout1
350
C6
  3
Model
350
C5
  0
DICTIONARY
  5
17
102
{ACAD_REACTORS
330
C
102
}
330
C
100
AcDbDictionary
281
     1
  3
STANDARD
350
18
  0
DICTIONARY
  5
130
102
{ACAD_REACTORS
330
C
102
}
330
C
100
AcDbDictionary
281
     1
  0
ACDBDICTIONARYWDFLT
  5
131
102
{ACAD_REACTORS
330
C
102
}
330
C
100
AcDbDictionary
281
     1
  3
Normal
350
132
100
AcDbDictionaryWithDefault
340
132
  0
DICTIONARY
  5
A2
102
{ACAD_REACTORS
330
C
102
}
330
C
100
AcDbDictionary
281
     1
  3
A0
350
A3
  3
A1
350
A4
  3
A2
350
A5
  3
A3
350
A6
  3
A4
350
A7
  3
A5
350
A8
  3
A6
350
A9
  3
A7
350
AA
  3
A8
350
AB
  3
A9
350
AC
  3
B0
350
AD
  3
B1
350
AE
  3
B2
350
AF
  3
B3
350
B0
  3
B4
350
B1
  3
B5
350
B2
  3
B6
350
B3
  3
B7
350
B4
  3
B8
350
B5
  3
B9
350
B6
  3
C0
350
B7
  3
C1
350
B8
  3
C2
350
B9
  3
C3
350
BA
  3
C4
350
BB
  3
C5
350
BC
  3
C6
350
BD
  3
C7
350
BE
  3
C8
350
BF
  3
C9
350
C0
  3
D0
350
C1
  3
D1
350
C2
  3
D2
350
C3
  0
DICTIONARY
  5
145
102
{ACAD_REACTORS
330
C
102
}
330
C
100
AcDbDictionary
281
     1
  0
DICTIONARY
  5
EC
102
{ACAD_REACTORS
330
C
102
}
330
C
100
AcDbDictionary
281
     1
  3
DIMASSOC
350
F0
  3
HIDETEXT
350
F1
  0
DICTIONARY
  5
140
102
{ACAD_REACTORS
330
C
102
}
330
C
100
AcDbDictionary
281
     1
  0
XRECORD
  5
16A
102
{ACAD_REACTORS
330
C
102
}
330
C
100
AcDbXrecord
280
     1
  1
DWGPROPS COOKIE
  2

  3

  4

  6

  7

  8
matthias.ochs
  9

300
=
301
=
302
=
303
=
304
=
305
=
306
=
307
=
308
=
309
=
 40
0.0
 41
2456443.234553438
 42
2458589.563980347
  1

 90
        0
  0
DICTIONARY
  5
147
102
{ACAD_REACTORS
330
146
102
}
330
146
100
AcDbDictionary
281
     1
  0
LAYOUT
  5
C6
102
{ACAD_REACTORS
330
C4
102
}
330
C4
100
AcDbPlotSettings
  1

  2
none_device
  4

  6

 40
0.0
 41
0.0
 42
0.0
 43
0.0
 44
0.0
 45
0.0
 46
0.0
 47
0.0
 48
0.0
 49
0.0
140
0.0
141
0.0
142
1.0
143
1.0
 70
   688
 72
     0
 73
     0
 74
     5
  7

 75
    16
147
1.0
148
0.0
149
0.0
100
AcDbLayout
  1
Layout1
 70
     1
 71
     1
 10
0.0
 20
0.0
 11
420.0
 21
297.0
 12
0.0
 22
0.0
 32
0.0
 14
1.000000000000000E+20
 24
1.000000000000000E+20
 34
1.000000000000000E+20
 15
-1.000000000000000E+20
 25
-1.000000000000000E+20
 35
-1.000000000000000E+20
146
0.0
 13
0.0
 23
0.0
 33
0.0
 16
1.0
 26
0.0
 36
0.0
 17
0.0
 27
1.0
 37
0.0
 76
     0
330
1B
  0
LAYOUT
  5
C5
102
{ACAD_REACTORS
330
C4
102
}
330
C4
100
AcDbPlotSettings
  1

  2
none_device
  4

  6

 40
0.0
 41
0.0
 42
0.0
 43
0.0
 44
0.0
 45
0.0
 46
0.0
 47
0.0
 48
0.0
 49
0.0
140
0.0
141
0.0
142
1.0
143
1.0
 70
  1712
 72
     0
 73
     0
 74
     0
  7

 75
     0
147
1.0
148
0.0000001104899866
149
0.0
100
AcDbLayout
  1
Model
 70
     1
 71
     0
 10
0.0
 20
0.0
 11
210.0
 21
297.0
 12
0.0
 22
0.0
 32
0.0
 14
-33.98219529279146
 24
-55.82241363203994
 34
0.0
 15
169.1224168811216
 25
40.44070984622087
 35
0.0
146
0.0
 13
0.0
 23
0.0
 33
0.0
 16
1.0
 26
0.0
 36
0.0
 17
0.0
 27
1.0
 37
0.0
 76
     0
330
1F
331
29
  0
MLINESTYLE
  5
18
102
{ACAD_REACTORS
330
17
102
}
330
17
100
AcDbMlineStyle
  2
Standard
 70
     0
  3

 62
   256
 51
90.0
 52
90.0
 71
     2
 49
0.5
 62
   256
  6
BYLAYER
 49
-0.5
 62
   256
  6
BYLAYER
  0
ACDBPLACEHOLDER
  5
132
102
{ACAD_REACTORS
330
131
102
}
330
131
  0
SCALE
  5
A3
102
{ACAD_REACTORS
330
A2
102
}
330
A2
100
AcDbScale
 70
     0
300
1:1
140
1.0
141
1.0
290
     1
  0
SCALE
  5
A4
102
{ACAD_REACTORS
330
A2
102
}
330
A2
100
AcDbScale
 70
     0
300
1:2
140
1.0
141
2.0
290
     0
  0
SCALE
  5
A5
102
{ACAD_REACTORS
330
A2
102
}
330
A2
100
AcDbScale
 70
     0
300
1:4
140
1.0
141
4.0
290
     0
  0
SCALE
  5
A6
102
{ACAD_REACTORS
330
A2
102
}
330
A2
100
AcDbScale
 70
     0
300
1:5
140
1.0
141
5.0
290
     0
  0
SCALE
  5
A7
102
{ACAD_REACTORS
330
A2
102
}
330
A2
100
AcDbScale
 70
     0
300
1:8
140
1.0
141
8.0
290
     0
  0
SCALE
  5
A8
102
{ACAD_REACTORS
330
A2
102
}
330
A2
100
AcDbScale
 70
     0
300
1:10
140
1.0
141
10.0
290
     0
  0
SCALE
  5
A9
102
{ACAD_REACTORS
330
A2
102
}
330
A2
100
AcDbScale
 70
     0
300
1:16
140
1.0
141
16.0
290
     0
  0
SCALE
  5
AA
102
{ACAD_REACTORS
330
A2
102
}
330
A2
100
AcDbScale
 70
     0
300
1:20
140
1.0
141
20.0
290
     0
  0
SCALE
  5
AB
102
{ACAD_REACTORS
330
A2
102
}
330
A2
100
AcDbScale
 70
     0
300
1:30
140
1.0
141
30.0
290
     0
  0
SCALE
  5
AC
102
{ACAD_REACTORS
330
A2
102
}
330
A2
100
AcDbScale
 70
     0
300
1:40
140
1.0
141
40.0
290
     0
  0
SCALE
  5
AD
102
{ACAD_REACTORS
330
A2
102
}
330
A2
100
AcDbScale
 70
     0
300
1:50
140
1.0
141
50.0
290
     0
  0
SCALE
  5
AE
102
{ACAD_REACTORS
330
A2
102
}
330
A2
100
AcDbScale
 70
     0
300
1:100
140
1.0
141
100.0
290
     0
  0
SCALE
  5
AF
102
{ACAD_REACTORS
330
A2
102
}
330
A2
100
AcDbScale
 70
     0
300
2:1
140
2.0
141
1.0
290
     0
  0
SCALE
  5
B0
102
{ACAD_REACTORS
330
A2
102
}
330
A2
100
AcDbScale
 70
     0
300
4:1
140
4.0
141
1.0
290
     0
  0
SCALE
  5
B1
102
{ACAD_REACTORS
330
A2
102
}
330
A2
100
AcDbScale
 70
     0
300
8:1
140
8.0
141
1.0
290
     0
  0
SCALE
  5
B2
102
{ACAD_REACTORS
330
A2
102
}
330
A2
100
AcDbScale
 70
     0
300
10:1
140
10.0
141
1.0
290
     0
  0
SCALE
  5
B3
102
{ACAD_REACTORS
330
A2
102
}
330
A2
100
AcDbScale
 70
     0
300
100:1
140
100.0
141
1.0
290
     0
  0
SCALE
  5
B4
102
{ACAD_REACTORS
330
A2
102
}
330
A2
100
AcDbScale
 70
     0
300
1/128" = 1'-0"
140
0.0078125
141
12.0
290
     0
  0
SCALE
  5
B5
102
{ACAD_REACTORS
330
A2
102
}
330
A2
100
AcDbScale
 70
     0
300
1/64" = 1'-0"
140
0.015625
141
12.0
290
     0
  0
SCALE
  5
B6
102
{ACAD_REACTORS
330
A2
102
}
330
A2
100
AcDbScale
 70
     0
300
1/32" = 1'-0"
140
0.03125
141
12.0
290
     0
  0
SCALE
  5
B7
102
{ACAD_REACTORS
330
A2
102
}
330
A2
100
AcDbScale
 70
     0
300
1/16" = 1'-0"
140
0.0625
141
12.0
290
     0
  0
SCALE
  5
B8
102
{ACAD_REACTORS
330
A2
102
}
330
A2
100
AcDbScale
 70
     0
300
3/32" = 1'-0"
140
0.09375
141
12.0
290
     0
  0
SCALE
  5
B9
102
{ACAD_REACTORS
330
A2
102
}
330
A2
100
AcDbScale
 70
     0
300
1/8" = 1'-0"
140
0.125
141
12.0
290
     0
  0
SCALE
  5
BA
102
{ACAD_REACTORS
330
A2
102
}
330
A2
100
AcDbScale
 70
     0
300
3/16" = 1'-0"
140
0.1875
141
12.0
290
     0
  0
SCALE
  5
BB
102
{ACAD_REACTORS
330
A2
102
}
330
A2
100
AcDbScale
 70
     0
300
1/4" = 1'-0"
140
0.25
141
12.0
290
     0
  0
SCALE
  5
BC
102
{ACAD_REACTORS
330
A2
102
}
330
A2
100
AcDbScale
 70
     0
300
3/8" = 1'-0"
140
0.375
141
12.0
290
     0
  0
SCALE
  5
BD
102
{ACAD_REACTORS
330
A2
102
}
330
A2
100
AcDbScale
 70
     0
300
1/2" = 1'-0"
140
0.5
141
12.0
290
     0
  0
SCALE
  5
BE
102
{ACAD_REACTORS
330
A2
102
}
330
A2
100
AcDbScale
 70
     0
300
3/4" = 1'-0"
140
0.75
141
12.0
290
     0
  0
SCALE
  5
BF
102
{ACAD_REACTORS
330
A2
102
}
330
A2
100
AcDbScale
 70
     0
300
1" = 1'-0"
140
1.0
141
12.0
290
     0
  0
SCALE
  5
C0
102
{ACAD_REACTORS
330
A2
102
}
330
A2
100
AcDbScale
 70
     0
300
1-1/2" = 1'-0"
140
1.5
141
12.0
290
     0
  0
SCALE
  5
C1
102
{ACAD_REACTORS
330
A2
102
}
330
A2
100
AcDbScale
 70
     0
300
3" = 1'-0"
140
3.0
141
12.0
290
     0
  0
SCALE
  5
C2
102
{ACAD_REACTORS
330
A2
102
}
330
A2
100
AcDbScale
 70
     0
300
6" = 1'-0"
140
6.0
141
12.0
290
     0
  0
SCALE
  5
C3
102
{ACAD_REACTORS
330
A2
102
}
330
A2
100
AcDbScale
 70
     0
300
1'-0" = 1'-0"
140
12.0
141
12.0
290
     0
  0
DICTIONARYVAR
  5
F0
102
{ACAD_REACTORS
330
EC
102
}
330
EC
100
DictionaryVariables
280
     0
  1
2
  0
DICTIONARYVAR
  5
F1
102
{ACAD_REACTORS
330
EC
102
}
330
EC
100
DictionaryVariables
280
     0
  1
1
  0
ENDSEC
  0
EOF
