  0
SECTION
  2
HEADER
  9
$ACADVER
  1
AC1014
  9
$ACADMAINTVER
 70
     9
  9
$DWGCODEPAGE
  3
ANSI_1252
  9
$INSBASE
 10
0.0
 20
0.0
 30
0.0
  9
$EXTMIN
 10
0.0
 20
0.0
 30
0.0
  9
$EXTMAX
 10
210.0
 20
297.0
 30
0.0
  9
$LIMMIN
 10
0.0
 20
0.0
  9
$LIMMAX
 10
210.0
 20
297.0
  9
$ORTHOMODE
 70
     0
  9
$REGENMODE
 70
     1
  9
$FILLMODE
 70
     1
  9
$QTEXTMODE
 70
     0
  9
$MIRRTEXT
 70
     1
  9
$DRAGMODE
 70
     2
  9
$LTSCALE
 40
1.0
  9
$OSMODE
 70
    37
  9
$ATTMODE
 70
     1
  9
$TEXTSIZE
 40
3.5
  9
$TRACEWID
 40
1.0
  9
$TEXTSTYLE
  7
STANDARD
  9
$CLAYER
  8
0
  9
$CELTYPE
  6
BYLAYER
  9
$CECOLOR
 62
   256
  9
$CELTSCALE
 40
1.0
  9
$DELOBJ
 70
     1
  9
$DISPSILH
 70
     0
  9
$DIMSCALE
 40
1.0
  9
$DIMASZ
 40
3.5
  9
$DIMEXO
 40
0.0
  9
$DIMDLI
 40
3.75
  9
$DIMRND
 40
0.0
  9
$DIMDLE
 40
0.0
  9
$DIMEXE
 40
1.0
  9
$DIMTP
 40
0.0
  9
$DIMTM
 40
0.0
  9
$DIMTXT
 40
3.5
  9
$DIMCEN
 40
2.5
  9
$DIMTSZ
 40
0.0
  9
$DIMTOL
 70
     0
  9
$DIMLIM
 70
     0
  9
$DIMTIH
 70
     1
  9
$DIMTOH
 70
     1
  9
$DIMSE1
 70
     0
  9
$DIMSE2
 70
     0
  9
$DIMTAD
 70
     1
  9
$DIMZIN
 70
     0
  9
$DIMBLK
  1

  9
$DIMASO
 70
     1
  9
$DIMSHO
 70
     1
  9
$DIMPOST
  1

  9
$DIMAPOST
  1

  9
$DIMALT
 70
     0
  9
$DIMALTD
 70
     3
  9
$DIMALTF
 40
0.0393700787
  9
$DIMLFAC
 40
1.0
  9
$DIMTOFL
 70
     1
  9
$DIMTVP
 40
0.0
  9
$DIMTIX
 70
     0
  9
$DIMSOXD
 70
     0
  9
$DIMSAH
 70
     0
  9
$DIMBLK1
  1

  9
$DIMBLK2
  1

  9
$DIMSTYLE
  2
ISO-25
  9
$DIMCLRD
 70
     0
  9
$DIMCLRE
 70
     0
  9
$DIMCLRT
 70
     0
  9
$DIMTFAC
 40
1.0
  9
$DIMGAP
 40
1.5
  9
$DIMJUST
 70
     0
  9
$DIMSD1
 70
     0
  9
$DIMSD2
 70
     0
  9
$DIMTOLJ
 70
     0
  9
$DIMTZIN
 70
     0
  9
$DIMALTZ
 70
     0
  9
$DIMALTTZ
 70
     0
  9
$DIMFIT
 70
     3
  9
$DIMUPT
 70
     0
  9
$DIMUNIT
 70
     2
  9
$DIMDEC
 70
     2
  9
$DIMTDEC
 70
     3
  9
$DIMALTU
 70
     2
  9
$DIMALTTD
 70
     3
  9
$DIMTXSTY
  7
STANDARD
  9
$DIMAUNIT
 70
     0
  9
$LUNITS
 70
     2
  9
$LUPREC
 70
     2
  9
$SKETCHINC
 40
1.0
  9
$FILLETRAD
 40
10.0
  9
$AUNITS
 70
     0
  9
$AUPREC
 70
     2
  9
$MENU
  1
.
  9
$ELEVATION
 40
0.0
  9
$PELEVATION
 40
0.0
  9
$THICKNESS
 40
0.0
  9
$LIMCHECK
 70
     0
  9
$CHAMFERA
 40
0.0
  9
$CHAMFERB
 40
0.0
  9
$CHAMFERC
 40
0.0
  9
$CHAMFERD
 40
0.0
  9
$SKPOLY
 70
     0
  9
$TDCREATE
 40
2456819.513504618
  9
$TDUPDATE
 40
2456819.51350559
  9
$TDINDWG
 40
0.0000000116
  9
$TDUSRTIMER
 40
0.0000000116
  9
$USRTIMER
 70
     1
  9
$ANGBASE
 50
0.0
  9
$ANGDIR
 70
     0
  9
$PDMODE
 70
     0
  9
$PDSIZE
 40
-1.0
  9
$PLINEWID
 40
0.0
  9
$COORDS
 70
     1
  9
$SPLFRAME
 70
     0
  9
$SPLINETYPE
 70
     6
  9
$SPLINESEGS
 70
     8
  9
$ATTDIA
 70
     0
  9
$ATTREQ
 70
     1
  9
$HANDLING
 70
     1
  9
$HANDSEED
  5
1A7
  9
$SURFTAB1
 70
     6
  9
$SURFTAB2
 70
     6
  9
$SURFTYPE
 70
     6
  9
$SURFU
 70
     6
  9
$SURFV
 70
     6
  9
$UCSNAME
  2

  9
$UCSORG
 10
0.0
 20
0.0
 30
0.0
  9
$UCSXDIR
 10
1.0
 20
0.0
 30
0.0
  9
$UCSYDIR
 10
0.0
 20
1.0
 30
0.0
  9
$PUCSNAME
  2

  9
$PUCSORG
 10
0.0
 20
0.0
 30
0.0
  9
$PUCSXDIR
 10
1.0
 20
0.0
 30
0.0
  9
$PUCSYDIR
 10
0.0
 20
1.0
 30
0.0
  9
$USERI1
 70
     0
  9
$USERI2
 70
     0
  9
$USERI3
 70
     0
  9
$USERI4
 70
     0
  9
$USERI5
 70
     0
  9
$USERR1
 40
0.0
  9
$USERR2
 40
0.0
  9
$USERR3
 40
0.0
  9
$USERR4
 40
0.0
  9
$USERR5
 40
0.0
  9
$WORLDVIEW
 70
     1
  9
$SHADEDGE
 70
     3
  9
$SHADEDIF
 70
    70
  9
$TILEMODE
 70
     1
  9
$MAXACTVP
 70
    64
  9
$PINSBASE
 10
0.0
 20
0.0
 30
0.0
  9
$PLIMCHECK
 70
     0
  9
$PEXTMIN
 10
1.0000000000E+20
 20
1.0000000000E+20
 30
1.0000000000E+20
  9
$PEXTMAX
 10
-1.0000000000E+20
 20
-1.0000000000E+20
 30
-1.0000000000E+20
  9
$PLIMMIN
 10
0.0
 20
0.0
  9
$PLIMMAX
 10
420.0
 20
297.0
  9
$UNITMODE
 70
     0
  9
$VISRETAIN
 70
     1
  9
$PLINEGEN
 70
     0
  9
$PSLTSCALE
 70
     1
  9
$TREEDEPTH
 70
  3020
  9
$PICKSTYLE
 70
     1
  9
$CMLSTYLE
  2
STANDARD
  9
$CMLJUST
 70
     0
  9
$CMLSCALE
 40
20.0
  9
$PROXYGRAPHICS
 70
     1
  9
$MEASUREMENT
 70
     1
  0
ENDSEC
  0
SECTION
  2
CLASSES
  0
CLASS
  1
ACDBDICTIONARYWDFLT
  2
AcDbDictionaryWithDefault
  3
ObjectDBX Classes
 90
        0
280
     0
281
     0
  0
CLASS
  1
VISUALSTYLE
  2
AcDbVisualStyle
  3
ObjectDBX Classes
 90
     4095
280
     0
281
     0
  0
CLASS
  1
MATERIAL
  2
AcDbMaterial
  3
ObjectDBX Classes
 90
     1153
280
     0
281
     0
  0
CLASS
  1
SCALE
  2
AcDbScale
  3
ObjectDBX Classes
 90
     1153
280
     0
281
     0
  0
CLASS
  1
SUN
  2
AcDbSun
  3
SCENEOE
 90
     1153
280
     0
281
     0
  0
CLASS
  1
XRECORD
  2
AcDbXrecord
  3
ObjectDBX Classes
 90
        0
280
     0
281
     0
  0
CLASS
  1
LWPOLYLINE
  2
AcDbPolyline
  3
ObjectDBX Classes
 90
        0
280
     0
281
     1
  0
CLASS
  1
HATCH
  2
AcDbHatch
  3
ObjectDBX Classes
 90
        0
280
     0
281
     1
  0
ENDSEC
  0
SECTION
  2
TABLES
  0
TABLE
  2
VPORT
  5
8
330
0
100
AcDbSymbolTable
 70
     1
  0
VPORT
  5
29
330
8
100
AcDbSymbolTableRecord
100
AcDbViewportTableRecord
  2
*ACTIVE
 70
     0
 10
0.0
 20
0.0
 11
1.0
 21
1.0
 12
105.0
 22
148.5
 13
0.0
 23
0.0
 14
10.0
 24
10.0
 15
10.0
 25
10.0
 16
0.0
 26
0.0
 36
1.0
 17
0.0
 27
0.0
 37
0.0
 40
297.0
 41
0.7070707071
 42
50.0
 43
0.0
 44
0.0
 50
0.0
 51
0.0
 71
     0
 72
  2000
 73
     1
 74
     3
 75
     0
 76
     0
 77
     0
 78
     0
  0
ENDTAB
  0
TABLE
  2
LTYPE
  5
5
330
0
100
AcDbSymbolTable
 70
     6
  0
LTYPE
  5
14
330
5
100
AcDbSymbolTableRecord
100
AcDbLinetypeTableRecord
  2
BYBLOCK
 70
     0
  3

 72
    65
 73
     0
 40
0.0
  0
LTYPE
  5
15
330
5
100
AcDbSymbolTableRecord
100
AcDbLinetypeTableRecord
  2
BYLAYER
 70
     0
  3

 72
    65
 73
     0
 40
0.0
  0
LTYPE
  5
16
330
5
100
AcDbSymbolTableRecord
100
AcDbLinetypeTableRecord
  2
CONTINUOUS
 70
     0
  3
Solid line
 72
    65
 73
     0
 40
0.0
  0
LTYPE
  5
6A
330
5
100
AcDbSymbolTableRecord
100
AcDbLinetypeTableRecord
  2
HIDDEN
 70
     0
  3
Hidden __ __ __ __ __ __ __ __ __ __ __ __ __ __
 72
    65
 73
     2
 40
1.905
 49
1.27
 74
     0
 49
-0.635
 74
     0
  0
LTYPE
  5
6B
330
5
100
AcDbSymbolTableRecord
100
AcDbLinetypeTableRecord
  2
PHANTOM
 70
     0
  3
Phantom ______  __  __  ______  __  __  ______
 72
    65
 73
     6
 40
12.7
 49
6.35
 74
     0
 49
-1.27
 74
     0
 49
1.27
 74
     0
 49
-1.27
 74
     0
 49
1.27
 74
     0
 49
-1.27
 74
     0
  0
LTYPE
  5
6C
330
5
100
AcDbSymbolTableRecord
100
AcDbLinetypeTableRecord
  2
CENTER
 70
     0
  3
Center ____ _ ____ _ ____ _ ____ _ ____ _ ____
 72
    65
 73
     4
 40
10.16
 49
6.35
 74
     0
 49
-1.27
 74
     0
 49
1.27
 74
     0
 49
-1.27
 74
     0
  0
LTYPE
  5
6D
330
5
100
AcDbSymbolTableRecord
100
AcDbLinetypeTableRecord
  2
CENTERX2
 70
     0
  3
Center (2x) ________  __  ________  __  _____
 72
    65
 73
     4
 40
20.32
 49
12.7
 74
     0
 49
-2.54
 74
     0
 49
2.54
 74
     0
 49
-2.54
 74
     0
  0
LTYPE
  5
6E
330
5
100
AcDbSymbolTableRecord
100
AcDbLinetypeTableRecord
  2
DOT2
 70
     0
  3
Dot (.5x) ........................................
 72
    65
 73
     2
 40
0.635
 49
0.0
 74
     0
 49
-0.635
 74
     0
  0
ENDTAB
  0
TABLE
  2
LAYER
  5
2
330
0
100
AcDbSymbolTable
 70
     7
  0
LAYER
  5
10
330
2
100
AcDbSymbolTableRecord
100
AcDbLayerTableRecord
  2
0
 70
     0
 62
     7
  6
CONTINUOUS
  0
LAYER
  5
6F
330
2
100
AcDbSymbolTableRecord
100
AcDbLayerTableRecord
  2
AUFNAHME
 70
     0
 62
     7
  6
CONTINUOUS
  0
LAYER
  5
70
330
2
100
AcDbSymbolTableRecord
100
AcDbLayerTableRecord
  2
MASS
 70
     0
 62
     4
  6
CONTINUOUS
  0
LAYER
  5
71
330
2
100
AcDbSymbolTableRecord
100
AcDbLayerTableRecord
  2
EW
 70
     0
 62
     1
  6
HIDDEN
  0
LAYER
  5
72
330
2
100
AcDbSymbolTableRecord
100
AcDbLayerTableRecord
  2
UNSICHT
 70
     0
 62
     4
  6
CENTER
  0
LAYER
  5
73
330
2
100
AcDbSymbolTableRecord
100
AcDbLayerTableRecord
  2
TEXT
 70
     0
 62
     7
  6
CONTINUOUS
  0
LAYER
  5
74
330
2
100
AcDbSymbolTableRecord
100
AcDbLayerTableRecord
  2
ZAPFEN
 70
     0
 62
     4
  6
CONTINUOUS
  0
ENDTAB
  0
TABLE
  2
STYLE
  5
3
330
0
100
AcDbSymbolTable
 70
     2
  0
STYLE
  5
11
330
3
100
AcDbSymbolTableRecord
100
AcDbTextStyleTableRecord
  2
STANDARD
 70
     0
 40
0.0
 41
1.0
 50
0.0
 71
     0
 42
3.5
  3
txt
  4

  0
STYLE
  5
165
330
3
100
AcDbSymbolTableRecord
100
AcDbTextStyleTableRecord
  2
SLDTEXTSTYLE0
 70
     0
 40
0.0
 41
0.605
 50
0.0
 71
     0
 42
3.5
  3
TXT
  4

  0
ENDTAB
  0
TABLE
  2
VIEW
  5
6
330
0
100
AcDbSymbolTable
 70
     0
  0
ENDTAB
  0
TABLE
  2
UCS
  5
7
330
0
100
AcDbSymbolTable
 70
     0
  0
ENDTAB
  0
TABLE
  2
APPID
  5
9
330
0
100
AcDbSymbolTable
 70
     1
  0
APPID
  5
12
330
9
100
AcDbSymbolTableRecord
100
AcDbRegAppTableRecord
  2
ACAD
 70
     0
  0
ENDTAB
  0
TABLE
  2
DIMSTYLE
  5
A
330
0
100
AcDbSymbolTable
 70
     4
  0
DIMSTYLE
105
27
330
A
100
AcDbSymbolTableRecord
100
AcDbDimStyleTableRecord
  2
ISO-25
 70
     0
  3

  4

  5

  6

  7

 40
1.0
 41
2.5
 42
0.625
 43
3.75
 44
1.25
 45
0.0
 46
0.0
 47
0.0
 48
0.0
140
2.5
141
2.5
142
0.0
143
0.0393700787
144
1.0
145
0.0
146
1.0
147
0.625
 71
     0
 72
     0
 73
     0
 74
     0
 75
     0
 76
     0
 77
     1
 78
     8
170
     0
171
     3
172
     1
173
     0
174
     0
175
     0
176
     0
177
     0
178
     0
270
     2
271
     2
272
     2
273
     2
274
     3
340
11
275
     0
280
     0
281
     0
282
     0
283
     0
284
     8
285
     0
286
     0
287
     3
288
     0
  0
DIMSTYLE
105
166
102
{ACAD_REACTORS
330
164
330
170
330
17B
330
186
102
}
330
A
100
AcDbSymbolTableRecord
100
AcDbDimStyleTableRecord
  2
SLDDIMSTYLE0
 70
     0
  3

  4

  5

  6

  7

 40
1.0
 41
3.5
 42
0.0625
 43
0.38
 44
0.0
 45
0.000000001
 46
0.0
 47
0.0
 48
0.0
140
3.5
141
0.09
142
0.0
143
25.4
144
1.0
145
0.0
146
1.0
147
0.875
 71
     0
 72
     0
 73
     0
 74
     0
 75
     0
 76
     0
 77
     1
 78
    12
170
     0
171
     2
172
     0
173
     1
174
     0
175
     0
176
     0
177
     0
178
     0
270
     2
271
     2
272
     3
273
     2
274
     2
340
165
275
     0
280
     0
281
     0
282
     0
283
     1
284
    12
285
     0
286
     0
287
     3
288
     0
  0
DIMSTYLE
105
191
102
{ACAD_REACTORS
330
190
102
}
330
A
100
AcDbSymbolTableRecord
100
AcDbDimStyleTableRecord
  2
SLDDIMSTYLE1
 70
     0
  3

  4

  5

  6

  7

 40
1.0
 41
3.5
 42
0.0625
 43
0.38
 44
0.0
 45
0.000000001
 46
0.0
 47
0.0
 48
0.0
140
3.5
141
0.09
142
0.0
143
25.4
144
1.0
145
0.0
146
1.0
147
0.875
 71
     0
 72
     0
 73
     0
 74
     0
 75
     0
 76
     0
 77
     1
 78
    12
170
     0
171
     2
172
     0
173
     1
174
     0
175
     0
176
     0
177
     0
178
     0
270
     2
271
     2
272
     3
273
     2
274
     2
340
165
275
     0
280
     0
281
     0
282
     0
283
     1
284
    12
285
     0
286
     0
287
     3
288
     0
  0
DIMSTYLE
105
19B
102
{ACAD_REACTORS
330
19A
102
}
330
A
100
AcDbSymbolTableRecord
100
AcDbDimStyleTableRecord
  2
SLDDIMSTYLE2
 70
     0
  3

  4

  5

  6

  7

 40
1.0
 41
3.5
 42
0.0625
 43
0.38
 44
0.0
 45
0.000000001
 46
0.0
 47
0.0
 48
0.0
140
3.5
141
0.09
142
0.0
143
25.4
144
1.0
145
0.0
146
1.0
147
0.875
 71
     0
 72
     0
 73
     0
 74
     0
 75
     0
 76
     0
 77
     1
 78
    12
170
     0
171
     2
172
     0
173
     1
174
     0
175
     0
176
     0
177
     0
178
     0
270
     2
271
     0
272
     3
273
     2
274
     2
340
165
275
     0
280
     0
281
     0
282
     0
283
     1
284
    12
285
     0
286
     0
287
     3
288
     0
  0
ENDTAB
  0
TABLE
  2
BLOCK_RECORD
  5
1
330
0
100
AcDbSymbolTable
 70
     7
  0
BLOCK_RECORD
  5
1F
330
1
100
AcDbSymbolTableRecord
100
AcDbBlockTableRecord
  2
*MODEL_SPACE
  0
BLOCK_RECORD
  5
1B
330
1
100
AcDbSymbolTableRecord
100
AcDbBlockTableRecord
  2
*PAPER_SPACE
  0
BLOCK_RECORD
  5
23
330
1
100
AcDbSymbolTableRecord
100
AcDbBlockTableRecord
  2
*PAPER_SPACE0
  0
BLOCK_RECORD
  5
167
330
1
100
AcDbSymbolTableRecord
100
AcDbBlockTableRecord
  2
_D
  0
BLOCK_RECORD
  5
171
330
1
100
AcDbSymbolTableRecord
100
AcDbBlockTableRecord
  2
_D_1
  0
BLOCK_RECORD
  5
17C
330
1
100
AcDbSymbolTableRecord
100
AcDbBlockTableRecord
  2
_D_2
  0
BLOCK_RECORD
  5
187
330
1
100
AcDbSymbolTableRecord
100
AcDbBlockTableRecord
  2
_D_3
  0
BLOCK_RECORD
  5
192
330
1
100
AcDbSymbolTableRecord
100
AcDbBlockTableRecord
  2
_D_4
  0
BLOCK_RECORD
  5
19C
330
1
100
AcDbSymbolTableRecord
100
AcDbBlockTableRecord
  2
_D_5
  0
ENDTAB
  0
ENDSEC
  0
SECTION
  2
BLOCKS
  0
BLOCK
  5
20
330
1F
100
AcDbEntity
  8
0
100
AcDbBlockBegin
  2
*MODEL_SPACE
 70
     0
 10
0.0
 20
0.0
 30
0.0
  3
*MODEL_SPACE
  1

  0
ENDBLK
  5
21
330
1F
100
AcDbEntity
  8
0
100
AcDbBlockEnd
  0
BLOCK
  5
1C
330
1B
100
AcDbEntity
 67
     1
  8
0
100
AcDbBlockBegin
  2
*PAPER_SPACE
 70
     0
 10
0.0
 20
0.0
 30
0.0
  3
*PAPER_SPACE
  1

  0
ENDBLK
  5
1D
330
1B
100
AcDbEntity
 67
     1
  8
0
100
AcDbBlockEnd
  0
BLOCK
  5
24
330
23
100
AcDbEntity
  8
0
100
AcDbBlockBegin
  2
*PAPER_SPACE0
 70
     0
 10
0.0
 20
0.0
 30
0.0
  3
*PAPER_SPACE0
  1
*PAPER_SPACE0
  0
ENDBLK
  5
25
330
23
100
AcDbEntity
  8
0
100
AcDbBlockEnd
  0
BLOCK
  5
168
330
167
100
AcDbEntity
  8
0
100
AcDbBlockBegin
  2
_D
 70
     0
 10
0.0
 20
0.0
 30
0.0
  3
_D
  1
_D
  0
SOLID
  5
16A
330
167
100
AcDbEntity
  8
MASS
100
AcDbTrace
 10
0.0
 20
19.3219872328
 30
0.0
 11
3.5
 21
18.8719872328
 31
0.0
 12
3.5
 22
19.7719872328
 32
0.0
 13
3.5
 23
19.7719872328
 33
0.0
  0
SOLID
  5
16B
330
167
100
AcDbEntity
  8
MASS
100
AcDbTrace
 10
30.0
 20
19.3219872328
 30
0.0
 11
26.5
 21
19.7719872328
 31
0.0
 12
26.5
 22
18.8719872328
 32
0.0
 13
26.5
 23
18.8719872328
 33
0.0
  0
LINE
  5
16C
330
167
100
AcDbEntity
  8
MASS
100
AcDbLine
 10
0.0
 20
12.329
 30
0.0
 11
0.0
 21
20.3219872328
 31
0.0
  0
LINE
  5
16D
330
167
100
AcDbEntity
  8
MASS
100
AcDbLine
 10
30.0
 20
11.25
 30
0.0
 11
30.0
 21
20.3219872328
 31
0.0
  0
LINE
  5
16E
330
167
100
AcDbEntity
  8
MASS
100
AcDbLine
 10
0.0
 20
19.3219872328
 30
0.0
 11
30.0
 21
19.3219872328
 31
0.0
  0
MTEXT
  5
16F
330
167
100
AcDbEntity
  8
MASS
100
AcDbMText
 10
12.8076389525
 20
23.8337240892
 30
0.0
 40
3.5
 41
0.0
 71
     1
 72
     1
  1
30
  7
SLDTEXTSTYLE0
  0
ENDBLK
  5
169
330
167
100
AcDbEntity
  8
0
100
AcDbBlockEnd
  0
BLOCK
  5
172
330
171
100
AcDbEntity
  8
0
100
AcDbBlockBegin
  2
_D_1
 70
     0
 10
0.0
 20
0.0
 30
0.0
  3
_D_1
  1
_D_1
  0
SOLID
  5
174
330
171
100
AcDbEntity
  8
MASS
100
AcDbTrace
 10
38.7008561026
 20
7.0
 30
0.0
 11
38.2508561026
 21
3.5
 31
0.0
 12
39.1508561026
 22
3.5
 32
0.0
 13
39.1508561026
 23
3.5
 33
0.0
  0
SOLID
  5
175
330
171
100
AcDbEntity
  8
MASS
100
AcDbTrace
 10
38.7008561026
 20
-7.0
 30
0.0
 11
39.1508561026
 21
-3.5
 31
0.0
 12
38.2508561026
 22
-3.5
 32
0.0
 13
38.2508561026
 23
-3.5
 33
0.0
  0
LINE
  5
176
330
171
100
AcDbEntity
  8
MASS
100
AcDbLine
 10
22.7287302543
 20
7.0
 30
0.0
 11
39.7008561026
 21
7.0
 31
0.0
  0
LINE
  5
177
330
171
100
AcDbEntity
  8
MASS
100
AcDbLine
 10
22.7287302543
 20
-7.0
 30
0.0
 11
39.7008561026
 21
-7.0
 31
0.0
  0
LINE
  5
178
330
171
100
AcDbEntity
  8
MASS
100
AcDbLine
 10
38.7008561026
 20
7.0
 30
0.0
 11
38.7008561026
 21
-7.0
 31
0.0
  0
MTEXT
  5
179
330
171
100
AcDbEntity
  8
MASS
100
AcDbMText
 10
34.1891187806
 20
-4.778472241
 30
0.0
 40
3.5
 41
0.0
 71
     1
 72
     1
  1
%%c
  7
SLDTEXTSTYLE0
 11
-7.044195017643634E-15
 21
1.0
 31
0.0
  0
MTEXT
  5
17A
330
171
100
AcDbEntity
  8
MASS
100
AcDbMText
 10
34.1891187806
 20
0.393750146
 30
0.0
 40
3.5
 41
0.0
 71
     1
 72
     1
  1
14
  7
SLDTEXTSTYLE0
 11
-7.044195017643634E-15
 21
1.0
 31
0.0
  0
ENDBLK
  5
173
330
171
100
AcDbEntity
  8
0
100
AcDbBlockEnd
  0
BLOCK
  5
17D
330
17C
100
AcDbEntity
  8
0
100
AcDbBlockBegin
  2
_D_2
 70
     0
 10
0.0
 20
0.0
 30
0.0
  3
_D_2
  1
_D_2
  0
SOLID
  5
17F
330
17C
100
AcDbEntity
  8
MASS
100
AcDbTrace
 10
46.4381509114
 20
12.0
 30
0.0
 11
45.9881509114
 21
8.5
 31
0.0
 12
46.8881509114
 22
8.5
 32
0.0
 13
46.8881509114
 23
8.5
 33
0.0
  0
SOLID
  5
180
330
17C
100
AcDbEntity
  8
MASS
100
AcDbTrace
 10
46.4381509114
 20
-12.0
 30
0.0
 11
46.8881509114
 21
-8.5
 31
0.0
 12
45.9881509114
 22
-8.5
 32
0.0
 13
45.9881509114
 23
-8.5
 33
0.0
  0
LINE
  5
181
330
17C
100
AcDbEntity
  8
MASS
100
AcDbLine
 10
29.25
 20
12.0
 30
0.0
 11
47.4381509114
 21
12.0
 31
0.0
  0
LINE
  5
182
330
17C
100
AcDbEntity
  8
MASS
100
AcDbLine
 10
29.25
 20
-12.0
 30
0.0
 11
47.4381509114
 21
-12.0
 31
0.0
  0
LINE
  5
183
330
17C
100
AcDbEntity
  8
MASS
100
AcDbLine
 10
46.4381509114
 20
12.0
 30
0.0
 11
46.4381509114
 21
-12.0
 31
0.0
  0
MTEXT
  5
184
330
17C
100
AcDbEntity
  8
MASS
100
AcDbMText
 10
41.9264135894
 20
-4.778472241
 30
0.0
 40
3.5
 41
0.0
 71
     1
 72
     1
  1
%%c
  7
SLDTEXTSTYLE0
 11
-7.044195017643634E-15
 21
1.0
 31
0.0
  0
MTEXT
  5
185
330
17C
100
AcDbEntity
  8
MASS
100
AcDbMText
 10
41.9264135894
 20
0.393750146
 30
0.0
 40
3.5
 41
0.0
 71
     1
 72
     1
  1
24
  7
SLDTEXTSTYLE0
 11
-7.044195017643634E-15
 21
1.0
 31
0.0
  0
ENDBLK
  5
17E
330
17C
100
AcDbEntity
  8
0
100
AcDbBlockEnd
  0
BLOCK
  5
188
330
187
100
AcDbEntity
  8
0
100
AcDbBlockBegin
  2
_D_3
 70
     0
 10
0.0
 20
0.0
 30
0.0
  3
_D_3
  1
_D_3
  0
SOLID
  5
18A
330
187
100
AcDbEntity
  8
MASS
100
AcDbTrace
 10
15.5
 20
-21.9206375365
 30
0.0
 11
12.0
 21
-21.4706375365
 31
0.0
 12
12.0
 22
-22.3706375365
 32
0.0
 13
12.0
 23
-22.3706375365
 33
0.0
  0
SOLID
  5
18B
330
187
100
AcDbEntity
  8
MASS
100
AcDbTrace
 10
0.0
 20
-21.9206375365
 30
0.0
 11
3.5
 21
-22.3706375365
 31
0.0
 12
3.5
 22
-21.4706375365
 32
0.0
 13
3.5
 23
-21.4706375365
 33
0.0
  0
LINE
  5
18C
330
187
100
AcDbEntity
  8
MASS
100
AcDbLine
 10
15.5
 20
-14.379763914
 30
0.0
 11
15.5
 21
-22.9206375365
 31
0.0
  0
LINE
  5
18D
330
187
100
AcDbEntity
  8
MASS
100
AcDbLine
 10
0.0
 20
-12.329
 30
0.0
 11
0.0
 21
-22.9206375365
 31
0.0
  0
LINE
  5
18E
330
187
100
AcDbEntity
  8
MASS
100
AcDbLine
 10
15.5
 20
-21.9206375365
 30
0.0
 11
0.0
 21
-21.9206375365
 31
0.0
  0
MTEXT
  5
18F
330
187
100
AcDbEntity
  8
MASS
100
AcDbMText
 10
3.9121528491
 20
-17.4089006801
 30
0.0
 40
3.5
 41
0.0
 71
     1
 72
     1
  1
15.5
  7
SLDTEXTSTYLE0
  0
ENDBLK
  5
189
330
187
100
AcDbEntity
  8
0
100
AcDbBlockEnd
  0
BLOCK
  5
193
330
192
100
AcDbEntity
  8
0
100
AcDbBlockBegin
  2
_D_4
 70
     0
 10
0.0
 20
0.0
 30
0.0
  3
_D_4
  1
_D_4
  0
SOLID
  5
195
330
192
100
AcDbEntity
  8
MASS
100
AcDbTrace
 10
15.5
 20
-21.9206375365
 30
0.0
 11
19.0
 21
-22.3706375365
 31
0.0
 12
19.0
 22
-21.4706375365
 32
0.0
 13
19.0
 23
-21.4706375365
 33
0.0
  0
LINE
  5
196
330
192
100
AcDbEntity
  8
MASS
100
AcDbLine
 10
15.5
 20
-14.379763914
 30
0.0
 11
15.5
 21
-22.9206375365
 31
0.0
  0
LINE
  5
197
330
192
100
AcDbEntity
  8
MASS
100
AcDbLine
 10
30.0
 20
-21.9206375365
 30
0.0
 11
15.5
 21
-21.9206375365
 31
0.0
  0
LINE
  5
198
330
192
100
AcDbEntity
  8
MASS
100
AcDbLine
 10
15.5
 20
-21.9206375365
 30
0.0
 11
48.211463518
 21
-21.9206375365
 31
0.0
  0
MTEXT
  5
199
330
192
100
AcDbEntity
  8
MASS
100
AcDbMText
 10
20.5857705097
 20
-17.4089006801
 30
0.0
 40
3.5
 41
0.0
 71
     1
 72
     1
  1
Ausdrehtiefe 50
  7
SLDTEXTSTYLE0
  0
ENDBLK
  5
194
330
192
100
AcDbEntity
  8
0
100
AcDbBlockEnd
  0
BLOCK
  5
19D
330
19C
100
AcDbEntity
  8
0
100
AcDbBlockBegin
  2
_D_5
 70
     0
 10
0.0
 20
0.0
 30
0.0
  3
_D_5
  1
_D_5
  0
SOLID
  5
19F
330
19C
100
AcDbEntity
  8
MASS
100
AcDbTrace
 10
-19.7537810029
 20
9.5298263782
 30
0.0
 11
-20.2037810029
 21
6.0298263782
 31
0.0
 12
-19.3037810029
 22
6.0298263782
 32
0.0
 13
-19.3037810029
 23
6.0298263782
 33
0.0
  0
SOLID
  5
1A0
330
19C
100
AcDbEntity
  8
MASS
100
AcDbTrace
 10
-19.7537810029
 20
-9.5298263782
 30
0.0
 11
-19.3037810029
 21
-6.0298263782
 31
0.0
 12
-20.2037810029
 22
-6.0298263782
 32
0.0
 13
-20.2037810029
 23
-6.0298263782
 33
0.0
  0
LINE
  5
1A1
330
19C
100
AcDbEntity
  8
MASS
100
AcDbLine
 10
-1.9645454917
 20
9.5298263782
 30
0.0
 11
-20.7537810029
 21
9.5298263782
 31
0.0
  0
LINE
  5
1A2
330
19C
100
AcDbEntity
  8
MASS
100
AcDbLine
 10
-1.9645454917
 20
-9.5298263782
 30
0.0
 11
-20.7537810029
 21
-9.5298263782
 31
0.0
  0
LINE
  5
1A3
330
19C
100
AcDbEntity
  8
MASS
100
AcDbLine
 10
-19.7537810029
 20
9.5298263782
 30
0.0
 11
-19.7537810029
 21
-9.5298263782
 31
0.0
  0
MTEXT
  5
1A4
330
19C
100
AcDbEntity
  8
MASS
100
AcDbMText
 10
-24.2655183249
 20
-4.778472241
 30
0.0
 40
3.5
 41
0.0
 71
     1
 72
     1
  1
%%c
  7
SLDTEXTSTYLE0
 11
-7.044195017643634E-15
 21
1.0
 31
0.0
  0
MTEXT
  5
1A5
330
19C
100
AcDbEntity
  8
MASS
100
AcDbMText
 10
-24.2655183249
 20
0.393750146
 30
0.0
 40
3.5
 41
0.0
 71
     1
 72
     1
  1
19
  7
SLDTEXTSTYLE0
 11
-7.044195017643634E-15
 21
1.0
 31
0.0
  0
ENDBLK
  5
19E
330
19C
100
AcDbEntity
  8
0
100
AcDbBlockEnd
  0
ENDSEC
  0
SECTION
  2
ENTITIES
  0
LINE
  5
75
330
1F
100
AcDbEntity
  8
AUFNAHME
  6
CONTINUOUS
100
AcDbLine
 10
9.8
 20
12.479
 30
0.0
 11
6.153420101
 21
12.479
 31
0.0
  0
LINE
  5
76
330
1F
100
AcDbEntity
  8
AUFNAHME
  6
CONTINUOUS
100
AcDbLine
 10
6.153420101
 20
-12.479
 30
0.0
 11
9.8
 21
-12.479
 31
0.0
  0
LINE
  5
77
330
1F
100
AcDbEntity
  8
AUFNAHME
  6
CONTINUOUS
100
AcDbLine
 10
9.8
 20
-12.479
 30
0.0
 11
9.95
 21
-12.329
 31
0.0
  0
LINE
  5
78
330
1F
100
AcDbEntity
  8
AUFNAHME
  6
CONTINUOUS
100
AcDbLine
 10
9.95
 20
12.329
 30
0.0
 11
9.8
 21
12.479
 31
0.0
  0
LINE
  5
79
330
1F
100
AcDbEntity
  8
AUFNAHME
  6
CONTINUOUS
100
AcDbLine
 10
0.15
 20
12.479
 30
0.0
 11
0.0
 21
12.329
 31
0.0
  0
LINE
  5
7A
330
1F
100
AcDbEntity
  8
AUFNAHME
  6
CONTINUOUS
100
AcDbLine
 10
0.0
 20
-12.329
 30
0.0
 11
0.15
 21
-12.479
 31
0.0
  0
LINE
  5
7B
330
1F
100
AcDbEntity
  8
AUFNAHME
  6
CONTINUOUS
100
AcDbLine
 10
2.8465798991
 20
-12.479
 30
0.0
 11
2.9965798991
 21
-12.329
 31
0.0
  0
LINE
  5
7C
330
1F
100
AcDbEntity
  8
AUFNAHME
  6
CONTINUOUS
100
AcDbLine
 10
2.9965798991
 20
12.329
 30
0.0
 11
2.8465798991
 21
12.479
 31
0.0
  0
LINE
  5
7D
330
1F
100
AcDbEntity
  8
AUFNAHME
  6
CONTINUOUS
100
AcDbLine
 10
6.153420101
 20
12.479
 30
0.0
 11
6.0034201009
 21
12.329
 31
0.0
  0
LINE
  5
7E
330
1F
100
AcDbEntity
  8
AUFNAHME
  6
CONTINUOUS
100
AcDbLine
 10
6.003420101
 20
-12.329
 30
0.0
 11
6.153420101
 21
-12.479
 31
0.0
  0
LINE
  5
7F
330
1F
100
AcDbEntity
  8
AUFNAHME
  6
CONTINUOUS
100
AcDbLine
 10
2.8465798991
 20
12.479
 30
0.0
 11
0.15
 21
12.479
 31
0.0
  0
LINE
  5
80
330
1F
100
AcDbEntity
  8
AUFNAHME
  6
CONTINUOUS
100
AcDbLine
 10
0.15
 20
-12.479
 30
0.0
 11
2.8465798991
 21
-12.479
 31
0.0
  0
LINE
  5
81
330
1F
100
AcDbEntity
  8
AUFNAHME
  6
CONTINUOUS
100
AcDbLine
 10
2.9965798991
 20
-12.329
 30
0.0
 11
3.4625
 21
-11.5220027129
 31
0.0
  0
LINE
  5
82
330
1F
100
AcDbEntity
  8
AUFNAHME
  6
CONTINUOUS
100
AcDbLine
 10
3.4625
 20
11.5220027129
 30
0.0
 11
2.9965798991
 21
12.329
 31
0.0
  0
LINE
  5
83
330
1F
100
AcDbEntity
  8
AUFNAHME
  6
CONTINUOUS
100
AcDbLine
 10
6.0034201009
 20
12.329
 30
0.0
 11
5.5375
 21
11.5220027129
 31
0.0
  0
LINE
  5
84
330
1F
100
AcDbEntity
  8
AUFNAHME
  6
CONTINUOUS
100
AcDbLine
 10
5.5375
 20
-11.5220027129
 30
0.0
 11
6.003420101
 21
-12.329
 31
0.0
  0
LINE
  5
85
330
1F
100
AcDbEntity
  8
AUFNAHME
  6
CONTINUOUS
100
AcDbLine
 10
20.2
 20
-12.0
 30
0.0
 11
29.25
 21
-12.0
 31
0.0
  0
LINE
  5
86
330
1F
100
AcDbEntity
  8
AUFNAHME
  6
CONTINUOUS
100
AcDbLine
 10
29.25
 20
12.0
 30
0.0
 11
20.2
 21
12.0
 31
0.0
  0
LINE
  5
87
330
1F
100
AcDbEntity
  8
AUFNAHME
  6
CONTINUOUS
100
AcDbLine
 10
29.25
 20
-12.0
 30
0.0
 11
30.0
 21
-11.25
 31
0.0
  0
LINE
  5
88
330
1F
100
AcDbEntity
  8
AUFNAHME
  6
CONTINUOUS
100
AcDbLine
 10
30.0
 20
11.25
 30
0.0
 11
29.25
 21
12.0
 31
0.0
  0
LINE
  5
89
330
1F
100
AcDbEntity
  8
AUFNAHME
  6
CONTINUOUS
100
AcDbLine
 10
20.2
 20
12.0
 30
0.0
 11
20.0
 21
11.8
 31
0.0
  0
LINE
  5
8A
330
1F
100
AcDbEntity
  8
AUFNAHME
  6
CONTINUOUS
100
AcDbLine
 10
20.0
 20
-11.8
 30
0.0
 11
20.2
 21
-12.0
 31
0.0
  0
LINE
  5
8B
330
1F
100
AcDbEntity
  8
AUFNAHME
  6
CONTINUOUS
100
AcDbLine
 10
3.9625
 20
-10.975
 30
0.0
 11
5.0375
 21
-10.975
 31
0.0
  0
LINE
  5
8C
330
1F
100
AcDbEntity
  8
AUFNAHME
  6
CONTINUOUS
100
AcDbLine
 10
5.0375
 20
10.975
 30
0.0
 11
3.9625
 21
10.975
 31
0.0
  0
LINE
  5
8D
330
1F
100
AcDbEntity
  8
AUFNAHME
  6
CONTINUOUS
100
AcDbLine
 10
10.45
 20
-9.9
 30
0.0
 11
19.5
 21
-9.9
 31
0.0
  0
LINE
  5
8E
330
1F
100
AcDbEntity
  8
AUFNAHME
  6
CONTINUOUS
100
AcDbLine
 10
19.5
 20
9.9
 30
0.0
 11
10.45
 21
9.9
 31
0.0
  0
LINE
  5
8F
330
1F
100
AcDbEntity
  8
AUFNAHME
  6
CONTINUOUS
100
AcDbLine
 10
-0.7733101121
 20
-9.5895075094
 30
0.0
 11
-0.303527618
 21
-9.4636296695
 31
0.0
  0
LINE
  5
90
330
1F
100
AcDbEntity
  8
AUFNAHME
  6
CONTINUOUS
100
AcDbLine
 10
-0.303527618
 20
9.4636296695
 30
0.0
 11
-0.7733101121
 21
9.5895075094
 31
0.0
  0
LINE
  5
91
330
1F
100
AcDbEntity
  8
AUFNAHME
  6
CONTINUOUS
100
AcDbLine
 10
-0.7733101121
 20
9.5895075094
 30
0.0
 11
-12.5979671854
 21
8.9970898204
 31
0.0
  0
LINE
  5
92
330
1F
100
AcDbEntity
  8
AUFNAHME
  6
CONTINUOUS
100
AcDbLine
 10
-12.5979671854
 20
-8.9970898204
 30
0.0
 11
-0.7733101121
 21
-9.5895075094
 31
0.0
  0
LINE
  5
93
330
1F
100
AcDbEntity
  8
AUFNAHME
  6
CONTINUOUS
100
AcDbLine
 10
24.7
 20
-0.7216878365
 30
0.0
 11
23.45
 21
-1.443375673
 31
0.0
  0
LINE
  5
94
330
1F
100
AcDbEntity
  8
AUFNAHME
  6
CONTINUOUS
100
AcDbLine
 10
24.7
 20
0.7216878365
 30
0.0
 11
24.7
 21
-0.7216878365
 31
0.0
  0
LINE
  5
95
330
1F
100
AcDbEntity
  8
AUFNAHME
  6
CONTINUOUS
100
AcDbLine
 10
23.45
 20
1.443375673
 30
0.0
 11
24.7
 21
0.7216878365
 31
0.0
  0
LINE
  5
96
330
1F
100
AcDbEntity
  8
AUFNAHME
  6
CONTINUOUS
100
AcDbLine
 10
22.2
 20
0.7216878365
 30
0.0
 11
23.45
 21
1.443375673
 31
0.0
  0
LINE
  5
97
330
1F
100
AcDbEntity
  8
AUFNAHME
  6
CONTINUOUS
100
AcDbLine
 10
22.2
 20
-0.7216878365
 30
0.0
 11
22.2
 21
0.7216878365
 31
0.0
  0
LINE
  5
98
330
1F
100
AcDbEntity
  8
AUFNAHME
  6
CONTINUOUS
100
AcDbLine
 10
23.45
 20
-1.443375673
 30
0.0
 11
22.2
 21
-0.7216878365
 31
0.0
  0
LINE
  5
99
330
1F
100
AcDbEntity
  8
AUFNAHME
  6
CONTINUOUS
100
AcDbLine
 10
9.8
 20
12.479
 30
0.0
 11
9.8
 21
10.0862149282
 31
0.0
  0
LINE
  5
9A
330
1F
100
AcDbEntity
  8
AUFNAHME
  6
CONTINUOUS
100
AcDbLine
 10
6.153420101
 20
0.0
 30
0.0
 11
6.153420101
 21
7.4063091677
 31
0.0
  0
LINE
  5
9B
330
1F
100
AcDbEntity
  8
AUFNAHME
  6
CONTINUOUS
100
AcDbLine
 10
6.153420101
 20
-12.479
 30
0.0
 11
6.153420101
 21
0.0
 31
0.0
  0
LINE
  5
9C
330
1F
100
AcDbEntity
  8
AUFNAHME
  6
CONTINUOUS
100
AcDbLine
 10
9.95
 20
-12.329
 30
0.0
 11
9.95
 21
12.329
 31
0.0
  0
LINE
  5
9D
330
1F
100
AcDbEntity
  8
AUFNAHME
  6
CONTINUOUS
100
AcDbLine
 10
0.15
 20
0.0
 30
0.0
 11
0.15
 21
12.479
 31
0.0
  0
LINE
  5
9E
330
1F
100
AcDbEntity
  8
AUFNAHME
  6
CONTINUOUS
100
AcDbLine
 10
0.15
 20
-12.479
 30
0.0
 11
0.15
 21
0.0
 31
0.0
  0
LINE
  5
9F
330
1F
100
AcDbEntity
  8
AUFNAHME
  6
CONTINUOUS
100
AcDbLine
 10
0.0
 20
-12.329
 30
0.0
 11
0.0
 21
12.329
 31
0.0
  0
LINE
  5
A0
330
1F
100
AcDbEntity
  8
AUFNAHME
  6
CONTINUOUS
100
AcDbLine
 10
2.8465798991
 20
12.479
 30
0.0
 11
2.8465798991
 21
9.443077849
 31
0.0
  0
LINE
  5
A1
330
1F
100
AcDbEntity
  8
UNSICHT
  6
CENTER
100
AcDbLine
 10
-13.5373863185
 20
0.0
 30
0.0
 11
30.8757787043
 21
0.0
 31
0.0
  0
LINE
  5
A2
330
1F
100
AcDbEntity
  8
UNSICHT
  6
CENTER
100
AcDbLine
 10
15.5
 20
-12.329
 30
0.0
 11
15.5
 21
-14.379763914
 31
0.0
  0
LINE
  5
A3
330
1F
100
AcDbEntity
  8
AUFNAHME
  6
CONTINUOUS
100
AcDbLine
 10
-1.9645454917
 20
9.5298263782
 30
0.0
 11
-1.9645454917
 21
-9.5298263782
 31
0.0
  0
LINE
  5
A4
330
1F
100
AcDbEntity
  8
AUFNAHME
  6
CONTINUOUS
100
AcDbLine
 10
3.4625
 20
-11.5220027129
 30
0.0
 11
3.4625
 21
7.4063091677
 31
0.0
  0
LINE
  5
A5
330
1F
100
AcDbEntity
  8
AUFNAHME
  6
CONTINUOUS
100
AcDbLine
 10
5.5375
 20
-11.5220027129
 30
0.0
 11
5.5375
 21
7.4063091677
 31
0.0
  0
LINE
  5
A6
330
1F
100
AcDbEntity
  8
AUFNAHME
  6
CONTINUOUS
100
AcDbLine
 10
20.2
 20
12.0
 30
0.0
 11
20.2
 21
-12.0
 31
0.0
  0
LINE
  5
A7
330
1F
100
AcDbEntity
  8
AUFNAHME
  6
CONTINUOUS
100
AcDbLine
 10
29.25
 20
0.0
 30
0.0
 11
29.25
 21
-12.0
 31
0.0
  0
LINE
  5
A8
330
1F
100
AcDbEntity
  8
AUFNAHME
  6
CONTINUOUS
100
AcDbLine
 10
29.25
 20
12.0
 30
0.0
 11
29.25
 21
0.0
 31
0.0
  0
LINE
  5
A9
330
1F
100
AcDbEntity
  8
AUFNAHME
  6
CONTINUOUS
100
AcDbLine
 10
30.0
 20
-11.25
 30
0.0
 11
30.0
 21
11.25
 31
0.0
  0
LINE
  5
AA
330
1F
100
AcDbEntity
  8
AUFNAHME
  6
CONTINUOUS
100
AcDbLine
 10
20.0
 20
-11.8
 30
0.0
 11
20.0
 21
11.8
 31
0.0
  0
LINE
  5
AB
330
1F
100
AcDbEntity
  8
AUFNAHME
  6
CONTINUOUS
100
AcDbLine
 10
-0.7733101121
 20
9.5895075094
 30
0.0
 11
-0.7733101121
 21
-9.5895075094
 31
0.0
  0
LINE
  5
AC
330
1F
100
AcDbEntity
  8
AUFNAHME
  6
CONTINUOUS
100
AcDbLine
 10
-12.5979671854
 20
-8.9970898204
 30
0.0
 11
-12.5979671854
 21
8.9970898204
 31
0.0
  0
LINE
  5
AD
330
1F
100
AcDbEntity
  8
AUFNAHME
  6
CONTINUOUS
100
AcDbLine
 10
-12.9
 20
8.5414285487
 30
0.0
 11
-12.9
 21
-8.5414285487
 31
0.0
  0
LINE
  5
AE
330
1F
100
AcDbEntity
  8
AUFNAHME
  6
CONTINUOUS
100
AcDbLine
 10
-28.342861788
 20
-14.3393064361
 30
0.0
 11
-28.342861788
 21
-16.4092985061
 31
0.0
  0
LINE
  5
AF
330
1F
100
AcDbEntity
  8
AUFNAHME
  6
CONTINUOUS
100
AcDbLine
 10
-31.222847598
 20
-16.4093290161
 30
0.0
 11
-28.342850338
 21
-16.4093290161
 31
0.0
  0
LINE
  5
B0
330
1F
100
AcDbEntity
  8
AUFNAHME
  6
CONTINUOUS
100
AcDbLine
 10
10.45
 20
-9.9
 30
0.0
 11
10.45
 21
9.9
 31
0.0
  0
LINE
  5
B1
330
1F
100
AcDbEntity
  8
AUFNAHME
  6
CONTINUOUS
100
AcDbLine
 10
19.5
 20
-9.9
 30
0.0
 11
19.5
 21
9.9
 31
0.0
  0
LINE
  5
B2
330
1F
100
AcDbEntity
  8
AUFNAHME
  6
CONTINUOUS
100
AcDbLine
 10
-31.672840728
 20
-28.0193125761
 30
0.0
 11
-35.092838898
 21
-28.0193143761
 31
0.0
  0
LINE
  5
B3
330
1F
100
AcDbEntity
  8
EW
  6
HIDDEN
100
AcDbLine
 10
-7.4857714696
 20
7.0174999999
 30
0.0
 11
-7.4857714696
 21
-7.0175
 31
0.0
  0
LINE
  5
B4
330
1F
100
AcDbEntity
  8
EW
  6
HIDDEN
100
AcDbLine
 10
14.3504809472
 20
0.0
 30
0.0
 11
14.3504809472
 21
7.25
 31
0.0
  0
LINE
  5
B5
330
1F
100
AcDbEntity
  8
EW
  6
HIDDEN
100
AcDbLine
 10
14.3504809472
 20
-7.25
 30
0.0
 11
14.3504809472
 21
0.0
 31
0.0
  0
LINE
  5
B6
330
1F
100
AcDbEntity
  8
EW
  6
HIDDEN
100
AcDbLine
 10
14.7834936491
 20
0.0
 30
0.0
 11
14.7834936491
 21
7.0
 31
0.0
  0
LINE
  5
B7
330
1F
100
AcDbEntity
  8
EW
  6
HIDDEN
100
AcDbLine
 10
14.7834936491
 20
-7.0
 30
0.0
 11
14.7834936491
 21
0.0
 31
0.0
  0
LINE
  5
B8
330
1F
100
AcDbEntity
  8
EW
  6
HIDDEN
100
AcDbLine
 10
12.5
 20
-7.25
 30
0.0
 11
12.5
 21
7.25
 31
0.0
  0
LINE
  5
B9
330
1F
100
AcDbEntity
  8
EW
  6
HIDDEN
100
AcDbLine
 10
5.95
 20
6.675
 30
0.0
 11
5.95
 21
-6.6749999977
 31
0.0
  0
LINE
  5
BA
330
1F
100
AcDbEntity
  8
EW
  6
HIDDEN
100
AcDbLine
 10
5.0013928287
 20
7.0174999999
 30
0.0
 11
5.0013928287
 21
-7.0175
 31
0.0
  0
LINE
  5
BB
330
1F
100
AcDbEntity
  8
EW
  6
HIDDEN
100
AcDbLine
 10
23.1
 20
-6.2229279172
 30
0.0
 11
30.0
 21
-6.2229279172
 31
0.0
  0
LINE
  5
BC
330
1F
100
AcDbEntity
  8
EW
  6
HIDDEN
100
AcDbLine
 10
30.0
 20
6.2229279172
 30
0.0
 11
23.1
 21
6.2229279172
 31
0.0
  0
LINE
  5
BD
330
1F
100
AcDbEntity
  8
EW
  6
HIDDEN
100
AcDbLine
 10
22.7287302543
 20
6.9956310282
 30
0.0
 11
22.7274425147
 21
6.9971400075
 31
0.0
  0
LINE
  5
BE
330
1F
100
AcDbEntity
  8
EW
  6
HIDDEN
100
AcDbLine
 10
22.7274425147
 20
6.9971400075
 30
0.0
 11
22.7564154583
 21
6.9630738541
 31
0.0
  0
LINE
  5
BF
330
1F
100
AcDbEntity
  8
EW
  6
HIDDEN
100
AcDbLine
 10
22.7564154583
 20
6.9630738541
 30
0.0
 11
22.817541682
 21
6.8903482695
 31
0.0
  0
LINE
  5
C0
330
1F
100
AcDbEntity
  8
EW
  6
HIDDEN
100
AcDbLine
 10
22.817541682
 20
6.8903482695
 30
0.0
 11
22.9374015003
 21
6.7443805078
 31
0.0
  0
LINE
  5
C1
330
1F
100
AcDbEntity
  8
EW
  6
HIDDEN
100
AcDbLine
 10
22.9374015003
 20
6.7443805078
 30
0.0
 11
23.1
 21
6.539244186
 31
0.0
  0
LINE
  5
C2
330
1F
100
AcDbEntity
  8
AUFNAHME
  6
CONTINUOUS
100
AcDbLine
 10
-34.8082607684
 20
-18.2458794966
 30
0.0
 11
-30.706692348
 21
-26.4566694161
 31
0.0
  0
LINE
  5
C3
330
1F
100
AcDbEntity
  8
EW
  6
HIDDEN
100
AcDbLine
 10
9.05
 20
0.0
 30
0.0
 11
9.05
 21
-3.5
 31
0.0
  0
LINE
  5
C4
330
1F
100
AcDbEntity
  8
EW
  6
HIDDEN
100
AcDbLine
 10
9.05
 20
3.5
 30
0.0
 11
9.05
 21
0.0
 31
0.0
  0
LINE
  5
C5
330
1F
100
AcDbEntity
  8
EW
  6
HIDDEN
100
AcDbLine
 10
10.8
 20
0.0
 30
0.0
 11
10.8
 21
-4.25
 31
0.0
  0
LINE
  5
C6
330
1F
100
AcDbEntity
  8
EW
  6
HIDDEN
100
AcDbLine
 10
10.8
 20
4.25
 30
0.0
 11
10.8
 21
0.0
 31
0.0
  0
LINE
  5
C7
330
1F
100
AcDbEntity
  8
EW
  6
HIDDEN
100
AcDbLine
 10
6.7
 20
0.0
 30
0.0
 11
6.7
 21
-3.5
 31
0.0
  0
LINE
  5
C8
330
1F
100
AcDbEntity
  8
EW
  6
HIDDEN
100
AcDbLine
 10
6.7
 20
3.5
 30
0.0
 11
6.7
 21
0.0
 31
0.0
  0
LINE
  5
C9
330
1F
100
AcDbEntity
  8
AUFNAHME
  6
CONTINUOUS
100
AcDbLine
 10
-32.1890098
 20
-17.9719368979
 30
0.0
 11
-28.0874485477
 21
-26.182744809
 31
0.0
  0
LINE
  5
CA
330
1F
100
AcDbEntity
  8
AUFNAHME
  6
CONTINUOUS
100
AcDbLine
 10
-35.092861788
 20
-28.0193143761
 30
0.0
 11
-35.092861788
 21
-30.0893216961
 31
0.0
  0
LINE
  5
CB
330
1F
100
AcDbEntity
  8
EW
  6
HIDDEN
100
AcDbLine
 10
23.1
 20
8.775
 30
0.0
 11
23.1
 21
6.2229279172
 31
0.0
  0
LINE
  5
CC
330
1F
100
AcDbEntity
  8
AUFNAHME
  6
CONTINUOUS
100
AcDbLine
 10
-35.092861788
 20
-30.0893216961
 30
0.0
 11
-30.502854008
 21
-30.0893171661
 31
0.0
  0
LINE
  5
CD
330
1F
100
AcDbEntity
  8
AUFNAHME
  6
CONTINUOUS
100
AcDbLine
 10
-25.642857208
 20
-30.0893216961
 30
0.0
 11
-25.642857208
 21
-14.3393216961
 31
0.0
  0
LINE
  5
CE
330
1F
100
AcDbEntity
  8
EW
  6
HIDDEN
100
AcDbLine
 10
23.1
 20
-6.2229279172
 30
0.0
 11
23.1
 21
-8.775
 31
0.0
  0
LINE
  5
CF
330
1F
100
AcDbEntity
  8
AUFNAHME
  6
CONTINUOUS
100
AcDbLine
 10
-17.362850798
 20
-30.0893216961
 30
0.0
 11
-17.362850798
 21
-14.3393216961
 31
0.0
  0
LINE
  5
D0
330
1F
100
AcDbEntity
  8
AUFNAHME
  6
CONTINUOUS
100
AcDbLine
 10
-17.362850798
 20
-30.0893216961
 30
0.0
 11
-14.662857668
 21
-30.0893216961
 31
0.0
  0
LINE
  5
D1
330
1F
100
AcDbEntity
  8
EW
  6
HIDDEN
100
AcDbLine
 10
23.1
 20
9.775
 30
0.0
 11
23.1
 21
8.775
 31
0.0
  0
LINE
  5
D2
330
1F
100
AcDbEntity
  8
EW
  6
HIDDEN
100
AcDbLine
 10
23.1
 20
-8.775
 30
0.0
 11
23.1
 21
-9.775
 31
0.0
  0
LINE
  5
D3
330
1F
100
AcDbEntity
  8
AUFNAHME
  6
CONTINUOUS
100
AcDbLine
 10
-14.662857668
 20
-30.0893216961
 30
0.0
 11
-14.662857668
 21
-23.2493253561
 31
0.0
  0
LINE
  5
D4
330
1F
100
AcDbEntity
  8
AUFNAHME
  6
CONTINUOUS
100
AcDbLine
 10
-13.312842506
 20
-23.2493118861
 30
0.0
 11
-14.662846218
 21
-23.2493100961
 31
0.0
  0
LINE
  5
D5
330
1F
100
AcDbEntity
  8
AUFNAHME
  6
CONTINUOUS
100
AcDbLine
 10
-9.195259708
 20
-30.0893216961
 30
0.0
 11
-11.715260158
 21
-30.0893216961
 31
0.0
  0
LINE
  5
D6
330
1F
100
AcDbEntity
  8
AUFNAHME
  6
CONTINUOUS
100
AcDbLine
 10
-12.232864988
 20
-24.3293271861
 30
0.0
 11
-12.232864988
 21
-28.5593152861
 31
0.0
  0
LINE
  5
D7
330
1F
100
AcDbEntity
  8
EW
  6
HIDDEN
100
AcDbLine
 10
-2.4074675491
 20
8.2274999999
 30
0.0
 11
-6.6201206465
 21
8.2274999999
 31
0.0
  0
LINE
  5
D8
330
1F
100
AcDbEntity
  8
EW
  6
HIDDEN
100
AcDbLine
 10
-6.6201206465
 20
-8.2275
 30
0.0
 11
-2.4074675491
 21
-8.2275
 31
0.0
  0
LINE
  5
D9
330
1F
100
AcDbEntity
  8
EW
  6
HIDDEN
100
AcDbLine
 10
-6.8805802908
 20
8.076364951
 30
0.0
 11
-7.4857714696
 21
7.0174999999
 31
0.0
  0
LINE
  5
DA
330
1F
100
AcDbEntity
  8
EW
  6
HIDDEN
100
AcDbLine
 10
-7.4857714696
 20
-7.0175
 30
0.0
 11
-6.8805802908
 21
-8.0763649511
 31
0.0
  0
LINE
  5
DB
330
1F
100
AcDbEntity
  8
EW
  6
HIDDEN
100
AcDbLine
 10
14.3504809472
 20
-7.25
 30
0.0
 11
14.7834936491
 21
-7.0
 31
0.0
  0
LINE
  5
DC
330
1F
100
AcDbEntity
  8
EW
  6
HIDDEN
100
AcDbLine
 10
14.7834936491
 20
7.0
 30
0.0
 11
14.3504809472
 21
7.25
 31
0.0
  0
LINE
  5
DD
330
1F
100
AcDbEntity
  8
EW
  6
HIDDEN
100
AcDbLine
 10
12.5
 20
-7.25
 30
0.0
 11
14.3504809472
 21
-7.25
 31
0.0
  0
LINE
  5
DE
330
1F
100
AcDbEntity
  8
EW
  6
HIDDEN
100
AcDbLine
 10
14.3504809472
 20
7.25
 30
0.0
 11
12.5
 21
7.25
 31
0.0
  0
LINE
  5
DF
330
1F
100
AcDbEntity
  8
EW
  6
HIDDEN
100
AcDbLine
 10
-12.525
 20
-7.2429809472
 30
0.0
 11
-12.308493649
 21
-7.1179809471
 31
0.0
  0
LINE
  5
E0
330
1F
100
AcDbEntity
  8
EW
  6
HIDDEN
100
AcDbLine
 10
-12.3084936491
 20
7.1179809472
 30
0.0
 11
-12.525
 21
7.2429809472
 31
0.0
  0
LINE
  5
E1
330
1F
100
AcDbEntity
  8
EW
  6
HIDDEN
100
AcDbLine
 10
5.2386908691
 20
7.1281538934
 30
0.0
 11
5.0013928287
 21
7.0174999999
 31
0.0
  0
LINE
  5
E2
330
1F
100
AcDbEntity
  8
EW
  6
HIDDEN
100
AcDbLine
 10
5.0013928287
 20
-7.0175
 30
0.0
 11
5.2386908691
 21
-7.1281538935
 31
0.0
  0
LINE
  5
E3
330
1F
100
AcDbEntity
  8
EW
  6
HIDDEN
100
AcDbLine
 10
5.0013928287
 20
7.0174999999
 30
0.0
 11
0.0
 21
7.0174999999
 31
0.0
  0
LINE
  5
E4
330
1F
100
AcDbEntity
  8
EW
  6
HIDDEN
100
AcDbLine
 10
0.0
 20
-7.0175
 30
0.0
 11
5.0013928287
 21
-7.0175
 31
0.0
  0
LINE
  5
E5
330
1F
100
AcDbEntity
  8
EW
  6
HIDDEN
100
AcDbLine
 10
-7.4857714696
 20
7.0174999999
 30
0.0
 11
-11.933493649
 21
7.0174999999
 31
0.0
  0
LINE
  5
E6
330
1F
100
AcDbEntity
  8
EW
  6
HIDDEN
100
AcDbLine
 10
-11.933493649
 20
-7.0175
 30
0.0
 11
-7.4857714696
 21
-7.0175
 31
0.0
  0
LINE
  5
E7
330
1F
100
AcDbEntity
  8
EW
  6
HIDDEN
100
AcDbLine
 10
14.7834936491
 20
-7.0
 30
0.0
 11
22.7287302543
 21
-7.0
 31
0.0
  0
LINE
  5
E8
330
1F
100
AcDbEntity
  8
EW
  6
HIDDEN
100
AcDbLine
 10
22.7287302543
 20
7.0
 30
0.0
 11
14.7834936491
 21
7.0
 31
0.0
  0
LINE
  5
E9
330
1F
100
AcDbEntity
  8
EW
  6
HIDDEN
100
AcDbLine
 10
9.8
 20
4.25
 30
0.0
 11
9.05
 21
3.5
 31
0.0
  0
LINE
  5
EA
330
1F
100
AcDbEntity
  8
EW
  6
HIDDEN
100
AcDbLine
 10
9.05
 20
-3.5
 30
0.0
 11
9.8
 21
-4.25
 31
0.0
  0
LINE
  5
EB
330
1F
100
AcDbEntity
  8
EW
  6
HIDDEN
100
AcDbLine
 10
10.8
 20
4.25
 30
0.0
 11
9.8
 21
4.25
 31
0.0
  0
LINE
  5
EC
330
1F
100
AcDbEntity
  8
EW
  6
HIDDEN
100
AcDbLine
 10
9.8
 20
-4.25
 30
0.0
 11
10.8
 21
-4.25
 31
0.0
  0
LINE
  5
ED
330
1F
100
AcDbEntity
  8
EW
  6
HIDDEN
100
AcDbLine
 10
5.95
 20
-4.25
 30
0.0
 11
6.7
 21
-3.5
 31
0.0
  0
LINE
  5
EE
330
1F
100
AcDbEntity
  8
EW
  6
HIDDEN
100
AcDbLine
 10
6.7
 20
3.5
 30
0.0
 11
5.95
 21
4.25
 31
0.0
  0
LINE
  5
EF
330
1F
100
AcDbEntity
  8
EW
  6
HIDDEN
100
AcDbLine
 10
9.05
 20
3.5
 30
0.0
 11
6.7
 21
3.5
 31
0.0
  0
LINE
  5
F0
330
1F
100
AcDbEntity
  8
EW
  6
HIDDEN
100
AcDbLine
 10
6.7
 20
-3.5
 30
0.0
 11
9.05
 21
-3.5
 31
0.0
  0
LINE
  5
F1
330
1F
100
AcDbEntity
  8
EW
  6
HIDDEN
100
AcDbLine
 10
23.1
 20
7.375
 30
0.0
 11
22.725
 21
7.0
 31
0.0
  0
LINE
  5
F2
330
1F
100
AcDbEntity
  8
EW
  6
HIDDEN
100
AcDbLine
 10
22.725
 20
-7.0
 30
0.0
 11
23.1
 21
-7.375
 31
0.0
  0
LINE
  5
F3
330
1F
100
AcDbEntity
  8
AUFNAHME
  6
CONTINUOUS
100
AcDbLine
 10
-9.892845768
 20
-16.8593259661
 30
0.0
 11
-9.892845768
 21
-19.4693265761
 31
0.0
  0
LINE
  5
F4
330
1F
100
AcDbEntity
  8
AUFNAHME
  6
CONTINUOUS
100
AcDbLine
 10
-13.0428583291
 20
-16.4093228761
 30
0.0
 11
-14.662857668
 21
-16.4093290161
 31
0.0
  0
LINE
  5
F5
330
1F
100
AcDbEntity
  8
EW
  6
HIDDEN
100
AcDbLine
 10
30.0
 20
9.775
 30
0.0
 11
23.1
 21
9.775
 31
0.0
  0
LINE
  5
F6
330
1F
100
AcDbEntity
  8
EW
  6
HIDDEN
100
AcDbLine
 10
23.1
 20
-9.775
 30
0.0
 11
30.0
 21
-9.775
 31
0.0
  0
LINE
  5
F7
330
1F
100
AcDbEntity
  8
EW
  6
HIDDEN
100
AcDbLine
 10
12.5
 20
1.5
 30
0.0
 11
10.8
 21
1.5
 31
0.0
  0
LINE
  5
F8
330
1F
100
AcDbEntity
  8
EW
  6
HIDDEN
100
AcDbLine
 10
10.8
 20
-1.5
 30
0.0
 11
12.5
 21
-1.5
 31
0.0
  0
LINE
  5
F9
330
1F
100
AcDbEntity
  8
AUFNAHME
  6
CONTINUOUS
100
AcDbLine
 10
-12.142854878
 20
-17.3093229161
 30
0.0
 11
-12.142854878
 21
-20.1893125361
 31
0.0
  0
LINE
  5
FA
330
1F
100
AcDbEntity
  8
AUFNAHME
  6
CONTINUOUS
100
AcDbLine
 10
-14.662857668
 20
-16.4093290161
 30
0.0
 11
-14.662857668
 21
-21.0893216961
 31
0.0
  0
LINE
  5
FB
330
1F
100
AcDbEntity
  8
AUFNAHME
  6
CONTINUOUS
100
AcDbLine
 10
-13.042854918
 20
-21.0893125761
 30
0.0
 11
-14.662857668
 21
-21.0893216961
 31
0.0
  0
LINE
  5
FC
330
1F
100
AcDbEntity
  8
AUFNAHME
  6
CONTINUOUS
100
AcDbLine
 10
-9.623497618
 20
-24.5661054461
 30
0.0
 11
-9.622868198
 21
-28.5597196461
 31
0.0
  0
LINE
  5
FD
330
1F
100
AcDbEntity
  8
AUFNAHME
  6
CONTINUOUS
100
AcDbLine
 10
-9.195259708
 20
-30.0893216961
 30
0.0
 11
-9.105263368
 21
-30.0893216961
 31
0.0
  0
LINE
  5
FE
330
1F
100
AcDbEntity
  8
AUFNAHME
  6
CONTINUOUS
100
AcDbLine
 10
-32.3928575676
 20
-14.3393033361
 30
0.0
 11
-28.342861788
 21
-14.3393064361
 31
0.0
  0
LINE
  5
FF
330
1F
100
AcDbEntity
  8
AUFNAHME
  6
CONTINUOUS
100
AcDbLine
 10
-12.412857668
 20
-14.3393064361
 30
0.0
 11
-17.362862248
 21
-14.3393064361
 31
0.0
  0
LINE
  5
100
330
1F
100
AcDbEntity
  8
AUFNAHME
  6
CONTINUOUS
100
AcDbLine
 10
-59.392857208
 20
-30.0893216961
 30
0.0
 11
-62.182858128
 21
-30.0893216961
 31
0.0
  0
LINE
  5
101
330
1F
100
AcDbEntity
  8
AUFNAHME
  6
CONTINUOUS
100
AcDbLine
 10
-59.392857208
 20
-26.6693235261
 30
0.0
 11
-59.392857208
 21
-30.0893216961
 31
0.0
  0
LINE
  5
102
330
1F
100
AcDbEntity
  8
AUFNAHME
  6
CONTINUOUS
100
AcDbLine
 10
-58.312855378
 20
-24.5993162061
 30
0.0
 11
-59.392857208
 21
-26.6693235261
 31
0.0
  0
LINE
  5
103
330
1F
100
AcDbEntity
  8
AUFNAHME
  6
CONTINUOUS
100
AcDbLine
 10
-55.882862698
 20
-30.0893216961
 30
0.0
 11
-58.312855378
 21
-24.5993162061
 31
0.0
  0
LINE
  5
104
330
1F
100
AcDbEntity
  8
AUFNAHME
  6
CONTINUOUS
100
AcDbLine
 10
1.9725723249
 20
7.4063091677
 30
0.0
 11
9.95
 21
7.4063091677
 31
0.0
  0
LINE
  5
105
330
1F
100
AcDbEntity
  8
AUFNAHME
  6
CONTINUOUS
100
AcDbLine
 10
-53.092861788
 20
-30.0893216961
 30
0.0
 11
-55.882862698
 21
-30.0893216961
 31
0.0
  0
LINE
  5
106
330
1F
100
AcDbEntity
  8
AUFNAHME
  6
CONTINUOUS
100
AcDbLine
 10
-56.692867888
 20
-21.0893216961
 30
0.0
 11
-53.092861788
 21
-30.0893216961
 31
0.0
  0
LINE
  5
107
330
1F
100
AcDbEntity
  8
AUFNAHME
  6
CONTINUOUS
100
AcDbLine
 10
-53.632862698
 20
-14.3393216961
 30
0.0
 11
-56.692852628
 21
-21.0893216961
 31
0.0
  0
LINE
  5
108
330
1F
100
AcDbEntity
  8
AUFNAHME
  6
CONTINUOUS
100
AcDbLine
 10
-59.392857208
 20
-21.4493299361
 30
0.0
 11
-56.422863618
 21
-14.3393369561
 31
0.0
  0
LINE
  5
109
330
1F
100
AcDbEntity
  8
AUFNAHME
  6
CONTINUOUS
100
AcDbLine
 10
-59.392857208
 20
-14.3393216961
 30
0.0
 11
-59.392857208
 21
-21.4493299361
 31
0.0
  0
LINE
  5
10A
330
1F
100
AcDbEntity
  8
AUFNAHME
  6
CONTINUOUS
100
AcDbLine
 10
-62.182858128
 20
-30.0893216961
 30
0.0
 11
-62.182858128
 21
-14.3393216961
 31
0.0
  0
LINE
  5
10B
330
1F
100
AcDbEntity
  8
AUFNAHME
  6
CONTINUOUS
100
AcDbLine
 10
-56.422863618
 20
-14.3393216961
 30
0.0
 11
-53.632862698
 21
-14.3393216961
 31
0.0
  0
LINE
  5
10C
330
1F
100
AcDbEntity
  8
AUFNAHME
  6
CONTINUOUS
100
AcDbLine
 10
-62.182858128
 20
-14.3393216961
 30
0.0
 11
-59.392857208
 21
-14.3393216961
 31
0.0
  0
LINE
  5
10D
330
1F
100
AcDbEntity
  8
AUFNAHME
  6
CONTINUOUS
100
AcDbLine
 10
-40.132851258
 20
-14.3393216961
 30
0.0
 11
-40.132851258
 21
-30.0893216961
 31
0.0
  0
LINE
  5
10E
330
1F
100
AcDbEntity
  8
AUFNAHME
  6
CONTINUOUS
100
AcDbLine
 10
-37.252854008
 20
-30.0893216961
 30
0.0
 11
-37.252854008
 21
-14.3393216961
 31
0.0
  0
LINE
  5
10F
330
1F
100
AcDbEntity
  8
AUFNAHME
  6
CONTINUOUS
100
AcDbLine
 10
-40.132851258
 20
-30.0893216961
 30
0.0
 11
-37.252854008
 21
-30.0893216961
 31
0.0
  0
LINE
  5
110
330
1F
100
AcDbEntity
  8
AUFNAHME
  6
CONTINUOUS
100
AcDbLine
 10
-37.252854008
 20
-14.3393216961
 30
0.0
 11
-40.132862698
 21
-14.3393216961
 31
0.0
  0
LINE
  5
111
330
1F
100
AcDbEntity
  8
AUFNAHME
  6
CONTINUOUS
100
AcDbLine
 10
-19.792854918
 20
-30.0893216961
 30
0.0
 11
-19.792854918
 21
-28.0193143761
 31
0.0
  0
LINE
  5
112
330
1F
100
AcDbEntity
  8
AUFNAHME
  6
CONTINUOUS
100
AcDbLine
 10
-25.642857208
 20
-30.0893216961
 30
0.0
 11
-19.792854918
 21
-30.0893216961
 31
0.0
  0
LINE
  5
113
330
1F
100
AcDbEntity
  8
AUFNAHME
  6
CONTINUOUS
100
AcDbLine
 10
-19.792866368
 20
-16.4093137661
 30
0.0
 11
-19.792866368
 21
-14.3393216961
 31
0.0
  0
LINE
  5
114
330
1F
100
AcDbEntity
  8
AUFNAHME
  6
CONTINUOUS
100
AcDbLine
 10
-22.762882848
 20
-16.4093137661
 30
0.0
 11
-19.792877808
 21
-16.4093137661
 31
0.0
  0
LINE
  5
115
330
1F
100
AcDbEntity
  8
AUFNAHME
  6
CONTINUOUS
100
AcDbLine
 10
-22.762882848
 20
-21.0893216961
 30
0.0
 11
-22.762882848
 21
-16.4093290161
 31
0.0
  0
LINE
  5
116
330
1F
100
AcDbEntity
  8
AUFNAHME
  6
CONTINUOUS
100
AcDbLine
 10
-19.792866368
 20
-21.0893216961
 30
0.0
 11
-22.762871398
 21
-21.0893216961
 31
0.0
  0
LINE
  5
117
330
1F
100
AcDbEntity
  8
AUFNAHME
  6
CONTINUOUS
100
AcDbLine
 10
-19.792866368
 20
-23.2493024661
 30
0.0
 11
-19.792866368
 21
-21.0892988061
 31
0.0
  0
LINE
  5
118
330
1F
100
AcDbEntity
  8
AUFNAHME
  6
CONTINUOUS
100
AcDbLine
 10
-22.762882848
 20
-23.2493024661
 30
0.0
 11
-19.792877808
 21
-23.2493024661
 31
0.0
  0
LINE
  5
119
330
1F
100
AcDbEntity
  8
AUFNAHME
  6
CONTINUOUS
100
AcDbLine
 10
-22.762882848
 20
-28.0193143761
 30
0.0
 11
-22.762882848
 21
-23.2493024661
 31
0.0
  0
LINE
  5
11A
330
1F
100
AcDbEntity
  8
AUFNAHME
  6
CONTINUOUS
100
AcDbLine
 10
-19.792866368
 20
-28.0193143761
 30
0.0
 11
-22.762871398
 21
-28.0193143761
 31
0.0
  0
LINE
  5
11B
330
1F
100
AcDbEntity
  8
AUFNAHME
  6
CONTINUOUS
100
AcDbLine
 10
-19.792866368
 20
-14.3393216961
 30
0.0
 11
-25.642868648
 21
-14.3393216961
 31
0.0
  0
LINE
  5
11C
330
1F
100
AcDbEntity
  8
AUFNAHME
  6
CONTINUOUS
100
AcDbLine
 10
-45.712856908
 20
-30.0893216961
 30
0.0
 11
-52.012859958
 21
-30.0893216961
 31
0.0
  0
LINE
  5
11D
330
1F
100
AcDbEntity
  8
AUFNAHME
  6
CONTINUOUS
100
AcDbLine
 10
-46.162846218
 20
-27.5693097961
 30
0.0
 11
-45.712856908
 21
-30.0893064361
 31
0.0
  0
LINE
  5
11E
330
1F
100
AcDbEntity
  8
AUFNAHME
  6
CONTINUOUS
100
AcDbLine
 10
-49.042866368
 20
-27.5693097961
 30
0.0
 11
-46.162869108
 21
-27.5693097961
 31
0.0
  0
LINE
  5
11F
330
1F
100
AcDbEntity
  8
AUFNAHME
  6
CONTINUOUS
100
AcDbLine
 10
-47.512859958
 20
-18.2093244461
 30
0.0
 11
-49.042858738
 21
-27.5693326861
 31
0.0
  0
LINE
  5
120
330
1F
100
AcDbEntity
  8
AUFNAHME
  6
CONTINUOUS
100
AcDbLine
 10
-44.452862398
 20
-30.0893216961
 30
0.0
 11
-47.512859958
 21
-18.2093244461
 31
0.0
  0
LINE
  5
121
330
1F
100
AcDbEntity
  8
AUFNAHME
  6
CONTINUOUS
100
AcDbLine
 10
-41.482853548
 20
-30.0893216961
 30
0.0
 11
-44.452847138
 21
-30.0893216961
 31
0.0
  0
LINE
  5
122
330
1F
100
AcDbEntity
  8
AUFNAHME
  6
CONTINUOUS
100
AcDbLine
 10
-45.892857208
 20
-13.8893171161
 30
0.0
 11
-41.482864988
 21
-30.0893216961
 31
0.0
  0
LINE
  5
123
330
1F
100
AcDbEntity
  8
AUFNAHME
  6
CONTINUOUS
100
AcDbLine
 10
-48.952862398
 20
-13.8893171161
 30
0.0
 11
-45.892857208
 21
-13.8893171161
 31
0.0
  0
LINE
  5
124
330
1F
100
AcDbEntity
  8
AUFNAHME
  6
CONTINUOUS
100
AcDbLine
 10
-52.012859958
 20
-30.0893216961
 30
0.0
 11
-48.952862398
 21
-13.8893171161
 31
0.0
  0
LINE
  5
125
330
1F
100
AcDbEntity
  8
AUFNAHME
  6
CONTINUOUS
100
AcDbLine
 10
10.45
 20
9.9
 30
0.0
 11
9.95
 21
9.9
 31
0.0
  0
LINE
  5
126
330
1F
100
AcDbEntity
  8
AUFNAHME
  6
CONTINUOUS
100
AcDbLine
 10
6.003420101
 20
9.9
 30
0.0
 11
5.6668720806
 21
9.1637379504
 31
0.0
  0
LINE
  5
127
330
1F
100
AcDbEntity
  8
AUFNAHME
  6
CONTINUOUS
100
AcDbLine
 10
5.6668720806
 20
9.1637379504
 30
0.0
 11
5.5375000001
 21
8.8746480772
 31
0.0
  0
LINE
  5
128
330
1F
100
AcDbEntity
  8
AUFNAHME
  6
CONTINUOUS
100
AcDbLine
 10
6.153420101
 20
10.0862149282
 30
0.0
 11
6.003420101
 21
9.9
 31
0.0
  0
LINE
  5
129
330
1F
100
AcDbEntity
  8
AUFNAHME
  6
CONTINUOUS
100
AcDbLine
 10
6.153420101
 20
10.0862149282
 30
0.0
 11
9.8
 21
10.0862149282
 31
0.0
  0
LINE
  5
12A
330
1F
100
AcDbEntity
  8
AUFNAHME
  6
CONTINUOUS
100
AcDbLine
 10
9.95
 20
9.9
 30
0.0
 11
9.8
 21
10.0862149282
 31
0.0
  0
LINE
  5
12B
330
1F
100
AcDbEntity
  8
AUFNAHME
  6
CONTINUOUS
100
AcDbLine
 10
3.4625
 20
8.5933993874
 30
0.0
 11
3.4625
 21
8.5298087143
 31
0.0
  0
LINE
  5
12C
330
1F
100
AcDbEntity
  8
AUFNAHME
  6
CONTINUOUS
100
AcDbLine
 10
3.4625
 20
8.5298087143
 30
0.0
 11
3.4655038734
 21
8.4570749435
 31
0.0
  0
LINE
  5
12D
330
1F
100
AcDbEntity
  8
AUFNAHME
  6
CONTINUOUS
100
AcDbLine
 10
3.4655038734
 20
8.4570749435
 30
0.0
 11
3.500982344
 21
8.2875694243
 31
0.0
  0
LINE
  5
12E
330
1F
100
AcDbEntity
  8
AUFNAHME
  6
CONTINUOUS
100
AcDbLine
 10
3.500982344
 20
8.2875694243
 30
0.0
 11
3.5672259105
 21
8.1644996746
 31
0.0
  0
LINE
  5
12F
330
1F
100
AcDbEntity
  8
AUFNAHME
  6
CONTINUOUS
100
AcDbLine
 10
3.5672259105
 20
8.1644996746
 30
0.0
 11
3.670154255
 21
8.0757740172
 31
0.0
  0
LINE
  5
130
330
1F
100
AcDbEntity
  8
AUFNAHME
  6
CONTINUOUS
100
AcDbLine
 10
3.670154255
 20
8.0757740172
 30
0.0
 11
3.7790727656
 21
8.0400200271
 31
0.0
  0
LINE
  5
131
330
1F
100
AcDbEntity
  8
AUFNAHME
  6
CONTINUOUS
100
AcDbLine
 10
3.7790727656
 20
8.0400200271
 30
0.0
 11
3.8962465632
 21
8.0424207525
 31
0.0
  0
LINE
  5
132
330
1F
100
AcDbEntity
  8
AUFNAHME
  6
CONTINUOUS
100
AcDbLine
 10
3.8962465632
 20
8.0424207525
 30
0.0
 11
3.9625
 21
8.0589563691
 31
0.0
  0
LINE
  5
133
330
1F
100
AcDbEntity
  8
AUFNAHME
  6
CONTINUOUS
100
AcDbLine
 10
3.4625
 20
8.5933993874
 30
0.0
 11
3.2338204175
 21
8.9955608561
 31
0.0
  0
LINE
  5
134
330
1F
100
AcDbEntity
  8
AUFNAHME
  6
CONTINUOUS
100
AcDbLine
 10
3.2338204175
 20
8.9955608561
 30
0.0
 11
2.996579899
 21
9.3807474273
 31
0.0
  0
LINE
  5
135
330
1F
100
AcDbEntity
  8
AUFNAHME
  6
CONTINUOUS
100
AcDbLine
 10
4.9499999999
 20
8.2128921072
 30
0.0
 11
5.0375
 21
8.2128921072
 31
0.0
  0
LINE
  5
136
330
1F
100
AcDbEntity
  8
AUFNAHME
  6
CONTINUOUS
100
AcDbLine
 10
5.5374999999
 20
8.8746480772
 30
0.0
 11
5.5374999999
 21
8.9357677746
 31
0.0
  0
LINE
  5
137
330
1F
100
AcDbEntity
  8
AUFNAHME
  6
CONTINUOUS
100
AcDbLine
 10
2.996579899
 20
9.3807474273
 30
0.0
 11
2.8574062936
 21
9.4534407854
 31
0.0
  0
LINE
  5
138
330
1F
100
AcDbEntity
  8
AUFNAHME
  6
CONTINUOUS
100
AcDbLine
 10
9.8
 20
7.4063091677
 30
0.0
 11
9.8
 21
-12.479
 31
0.0
  0
LINE
  5
139
330
1F
100
AcDbEntity
  8
AUFNAHME
  6
CONTINUOUS
100
AcDbLine
 10
6.153420101
 20
10.0862149282
 30
0.0
 11
6.153420101
 21
12.479
 31
0.0
  0
LINE
  5
13A
330
1F
100
AcDbEntity
  8
AUFNAHME
  6
CONTINUOUS
100
AcDbLine
 10
5.5375
 20
8.7396520986
 30
0.0
 11
5.5375
 21
11.5220027129
 31
0.0
  0
LINE
  5
13B
330
1F
100
AcDbEntity
  8
AUFNAHME
  6
CONTINUOUS
100
AcDbLine
 10
3.4625
 20
8.5298087143
 30
0.0
 11
3.4625
 21
11.5220027129
 31
0.0
  0
LINE
  5
13C
330
1F
100
AcDbEntity
  8
AUFNAHME
  6
CONTINUOUS
100
AcDbLine
 10
2.8465798991
 20
7.4063091677
 30
0.0
 11
2.8465798991
 21
-12.479
 31
0.0
  0
ARC
  5
13D
330
1F
100
AcDbEntity
  8
AUFNAHME
  6
CONTINUOUS
100
AcDbCircle
 10
5.0375
 20
-11.475
 30
0.0
 40
0.5000000000000009
100
AcDbArc
 50
0.0
 51
90.0
  0
ARC
  5
13E
330
1F
100
AcDbEntity
  8
AUFNAHME
  6
CONTINUOUS
100
AcDbCircle
 10
5.0375
 20
11.475
 30
0.0
 40
0.5000000000000009
100
AcDbArc
 50
270.0
 51
0.0
  0
ARC
  5
13F
330
1F
100
AcDbEntity
  8
AUFNAHME
  6
CONTINUOUS
100
AcDbCircle
 10
3.9625
 20
-11.475
 30
0.0
 40
0.5
100
AcDbArc
 50
90.0
 51
180.0
  0
ARC
  5
140
330
1F
100
AcDbEntity
  8
AUFNAHME
  6
CONTINUOUS
100
AcDbCircle
 10
3.9625
 20
11.475
 30
0.0
 40
0.5
100
AcDbArc
 50
180.0
 51
270.0
  0
ARC
  5
141
330
1F
100
AcDbEntity
  8
AUFNAHME
  6
CONTINUOUS
100
AcDbCircle
 10
10.45
 20
-10.4
 30
0.0
 40
0.5
100
AcDbArc
 50
90.0
 51
180.0
  0
ARC
  5
142
330
1F
100
AcDbEntity
  8
AUFNAHME
  6
CONTINUOUS
100
AcDbCircle
 10
19.5
 20
-10.4
 30
0.0
 40
0.5
100
AcDbArc
 50
0.0
 51
90.0
  0
ARC
  5
143
330
1F
100
AcDbEntity
  8
AUFNAHME
  6
CONTINUOUS
100
AcDbCircle
 10
19.5
 20
10.4
 30
0.0
 40
0.5
100
AcDbArc
 50
270.0
 51
0.0
  0
ARC
  5
144
330
1F
100
AcDbEntity
  8
AUFNAHME
  6
CONTINUOUS
100
AcDbCircle
 10
-0.2
 20
-9.85
 30
0.0
 40
0.4000000000000145
100
AcDbArc
 50
60.0
 51
105.0
  0
ARC
  5
145
330
1F
100
AcDbEntity
  8
AUFNAHME
  6
CONTINUOUS
100
AcDbCircle
 10
-0.2
 20
9.85
 30
0.0
 40
0.4000000000000288
100
AcDbArc
 50
255.0
 51
300.0
  0
ARC
  5
146
330
1F
100
AcDbEntity
  8
AUFNAHME
  6
CONTINUOUS
100
AcDbCircle
 10
-12.4052673067
 20
8.5414285487
 30
0.0
 40
0.4947326932535333
100
AcDbArc
 50
112.9235794653
 51
180.0000000009
  0
ARC
  5
147
330
1F
100
AcDbEntity
  8
AUFNAHME
  6
CONTINUOUS
100
AcDbCircle
 10
-12.4052673067
 20
-8.5414285487
 30
0.0
 40
0.494732693253523
100
AcDbArc
 50
180.0
 51
247.0764205347
  0
ARC
  5
148
330
1F
100
AcDbEntity
  8
AUFNAHME
  6
CONTINUOUS
100
AcDbCircle
 10
-31.222847598
 20
-17.4893079661
 30
0.0
 40
1.08000004000004
100
AcDbArc
 50
90.00000763
 51
206.5435953698
  0
CIRCLE
  5
149
330
1F
100
AcDbEntity
  8
AUFNAHME
  6
CONTINUOUS
100
AcDbCircle
 10
23.45
 20
0.0
 30
0.0
 40
2.200000000000021
  0
CIRCLE
  5
14A
330
1F
100
AcDbEntity
  8
AUFNAHME
  6
CONTINUOUS
100
AcDbCircle
 10
23.45
 20
0.0
 30
0.0
 40
2.500000000000014
  0
ARC
  5
14B
330
1F
100
AcDbEntity
  8
AUFNAHME
  6
CONTINUOUS
100
AcDbCircle
 10
-32.392857208
 20
-17.0393033861
 30
0.0
 40
2.700000050000008
100
AcDbArc
 50
90.00000763
 51
206.543685591
  0
ARC
  5
14C
330
1F
100
AcDbEntity
  8
AUFNAHME
  6
CONTINUOUS
100
AcDbCircle
 10
-31.672840728
 20
-26.9393125361
 30
0.0
 40
1.080000039999973
100
AcDbArc
 50
270.0
 51
26.54360962
  0
ARC
  5
14D
330
1F
100
AcDbEntity
  8
AUFNAHME
  6
CONTINUOUS
100
AcDbCircle
 10
-30.502854008
 20
-27.3893171161
 30
0.0
 40
2.700000050000039
100
AcDbArc
 50
270.0
 51
26.5435953698
  0
ARC
  5
14E
330
1F
100
AcDbEntity
  8
AUFNAHME
  6
CONTINUOUS
100
AcDbCircle
 10
-13.312843938
 20
-24.3293119261
 30
0.0
 40
1.080000040000002
100
AcDbArc
 50
0.0
 51
89.9999240302
  0
ARC
  5
14F
330
1F
100
AcDbEntity
  8
AUFNAHME
  6
CONTINUOUS
100
AcDbCircle
 10
-7.102867738
 20
-28.5593152861
 30
0.0
 40
2.519999980000021
100
AcDbArc
 50
180.0
 51
217.38319397
  0
ARC
  5
150
330
1F
100
AcDbEntity
  8
AUFNAHME
  6
CONTINUOUS
100
AcDbCircle
 10
-9.712875978
 20
-28.5593152861
 30
0.0
 40
2.519999979999993
100
AcDbArc
 50
180.0
 51
217.38319397
  0
ARC
  5
151
330
1F
100
AcDbEntity
  8
AUFNAHME
  6
CONTINUOUS
100
AcDbCircle
 10
-12.142845768
 20
-24.5093198661
 30
0.0
 40
2.519999979999993
100
AcDbArc
 50
358.70883179
 51
93.06652832
  0
ARC
  5
152
330
1F
100
AcDbEntity
  8
AUFNAHME
  6
CONTINUOUS
100
AcDbCircle
 10
-12.412857668
 20
-19.4693189461
 30
0.0
 40
2.519999979999993
100
AcDbArc
 50
273.06652832
 51
0.0
  0
ARC
  5
153
330
1F
100
AcDbEntity
  8
AUFNAHME
  6
CONTINUOUS
100
AcDbCircle
 10
-12.412857668
 20
-16.8593259661
 30
0.0
 40
2.519999979999993
100
AcDbArc
 50
0.0
 51
90.00000763
  0
ARC
  5
154
330
1F
100
AcDbEntity
  8
EW
  6
HIDDEN
100
AcDbCircle
 10
13.1505818013
 20
1.1753797969
 30
0.0
 40
12.58993032908907
100
AcDbArc
 50
319.532877872
 51
322.2105571587
  0
ARC
  5
155
330
1F
100
AcDbEntity
  8
AUFNAHME
  6
CONTINUOUS
100
AcDbCircle
 10
-13.042854918
 20
-17.3093229161
 30
0.0
 40
0.9000000400000429
100
AcDbArc
 50
0.0
 51
90.0002171577
  0
ARC
  5
156
330
1F
100
AcDbEntity
  8
AUFNAHME
  6
CONTINUOUS
100
AcDbCircle
 10
-13.042854918
 20
-20.1893125361
 30
0.0
 40
0.9000000400000161
100
AcDbArc
 50
270.0
 51
0.0
  0
ARC
  5
157
330
1F
100
AcDbEntity
  8
AUFNAHME
  6
CONTINUOUS
100
AcDbCircle
 10
4.9419172108
 20
5.020362012
 30
0.0
 40
3.192540327019481
100
AcDbArc
 50
89.8549399068
 51
107.8654677679
  0
ARC
  5
158
330
1F
100
AcDbEntity
  8
AUFNAHME
  6
CONTINUOUS
100
AcDbCircle
 10
4.9389134311
 20
8.8071500877
 30
0.0
 40
0.6023801614756755
100
AcDbArc
 50
279.4194994503
 51
6.4336263312
  0
ARC
  5
159
330
1F
100
AcDbEntity
  8
EW
  6
HIDDEN
100
AcDbCircle
 10
-6.6201206465
 20
7.9274999999
 30
0.0
 40
0.300000000000022
100
AcDbArc
 50
90.0
 51
150.25
  0
ARC
  5
15A
330
1F
100
AcDbEntity
  8
EW
  6
HIDDEN
100
AcDbCircle
 10
-6.6201206465
 20
-7.9275
 30
0.0
 40
0.300000000000029
100
AcDbArc
 50
209.75
 51
270.0
  0
ARC
  5
15B
330
1F
100
AcDbEntity
  8
EW
  6
HIDDEN
100
AcDbCircle
 10
-2.4074675491
 20
5.2274999999
 30
0.0
 40
3.000000000000059
100
AcDbArc
 50
36.6315364035
 51
90.0
  0
ARC
  5
15C
330
1F
100
AcDbEntity
  8
EW
  6
HIDDEN
100
AcDbCircle
 10
-2.4074675491
 20
-5.2275
 30
0.0
 40
3.000000000000004
100
AcDbArc
 50
270.0
 51
323.3684635965
  0
ARC
  5
15D
330
1F
100
AcDbEntity
  8
EW
  6
HIDDEN
100
AcDbCircle
 10
-12.15
 20
7.8925
 30
0.0
 40
0.750000000000016
100
AcDbArc
 50
180.0
 51
240.0
  0
ARC
  5
15E
330
1F
100
AcDbEntity
  8
EW
  6
HIDDEN
100
AcDbCircle
 10
-12.15
 20
-7.8925
 30
0.0
 40
0.7500000000000516
100
AcDbArc
 50
120.0
 51
180.0
  0
ARC
  5
15F
330
1F
100
AcDbEntity
  8
EW
  6
HIDDEN
100
AcDbCircle
 10
5.45
 20
6.6749999999
 30
0.0
 40
0.5000000000001812
100
AcDbArc
 50
0.0000000089
 51
115.0
  0
ARC
  5
160
330
1F
100
AcDbEntity
  8
EW
  6
HIDDEN
100
AcDbCircle
 10
5.45
 20
-6.675
 30
0.0
 40
0.500000000000167
100
AcDbArc
 50
245.0
 51
0.0000002635
  0
ARC
  5
161
330
1F
100
AcDbEntity
  8
EW
  6
HIDDEN
100
AcDbCircle
 10
-11.9334936489
 20
7.7674999999
 30
0.0
 40
0.7499999999833871
100
AcDbArc
 50
239.9999999858
 51
269.9999999941
  0
ARC
  5
162
330
1F
100
AcDbEntity
  8
EW
  6
HIDDEN
100
AcDbCircle
 10
-11.9334936491
 20
-7.7675
 30
0.0
 40
0.7499999999834023
100
AcDbArc
 50
89.9999999955
 51
119.9999999982
  0
ARC
  5
163
330
1F
100
AcDbEntity
  8
AUFNAHME
  6
CONTINUOUS
100
AcDbCircle
 10
4.8230749488
 20
7.3890254508
 30
0.0
 40
2.850555022447895
100
AcDbArc
 50
133.5963974595
 51
179.6525974445
  0
DIMENSION
  5
164
330
1F
100
AcDbEntity
  8
MASS
100
AcDbDimension
  2
_D
 10
30.0
 20
19.3219872328
 30
0.0
 11
15.0
 21
19.3219872328
 31
0.0
 70
   160
  1
<>
  3
SLDDIMSTYLE0
100
AcDbAlignedDimension
 13
0.0
 23
12.329
 33
0.0
 14
30.0
 24
11.25
 34
0.0
100
AcDbRotatedDimension
  0
DIMENSION
  5
170
330
1F
100
AcDbEntity
  8
MASS
100
AcDbDimension
  2
_D_1
 10
38.7008561026
 20
-7.0
 30
0.0
 11
38.7008561026
 21
0.0
 31
0.0
 70
   160
  1
%%c<>
  3
SLDDIMSTYLE0
100
AcDbAlignedDimension
 13
22.7287302543
 23
7.0
 33
0.0
 14
22.7287302543
 24
-7.0
 34
0.0
 50
90.0
100
AcDbRotatedDimension
  0
DIMENSION
  5
17B
330
1F
100
AcDbEntity
  8
MASS
100
AcDbDimension
  2
_D_2
 10
46.4381509114
 20
-12.0
 30
0.0
 11
46.4381509114
 21
0.0
 31
0.0
 70
   160
  1
%%c<>
  3
SLDDIMSTYLE0
100
AcDbAlignedDimension
 13
29.25
 23
12.0
 33
0.0
 14
29.25
 24
-12.0
 34
0.0
 50
90.0
100
AcDbRotatedDimension
  0
DIMENSION
  5
186
330
1F
100
AcDbEntity
  8
MASS
100
AcDbDimension
  2
_D_3
 10
0.0
 20
-21.9206375365
 30
0.0
 11
7.75
 21
-21.9206375365
 31
0.0
 70
   160
  1
<>
  3
SLDDIMSTYLE0
100
AcDbAlignedDimension
 13
15.5
 23
-14.379763914
 33
0.0
 14
0.0
 24
-12.329
 34
0.0
100
AcDbRotatedDimension
  0
DIMENSION
  5
190
330
1F
100
AcDbEntity
  8
MASS
100
AcDbDimension
  2
_D_4
 10
30.0
 20
-21.9206375365
 30
0.0
 11
34.3986170138
 21
-21.9206375365
 31
0.0
 70
   160
  1
Ausdrehtiefe 50
  3
SLDDIMSTYLE1
100
AcDbAlignedDimension
 13
15.5
 23
-14.379763914
 33
0.0
 14
30.0
 24
-11.25
 34
0.0
100
AcDbRotatedDimension
  0
DIMENSION
  5
19A
330
1F
100
AcDbEntity
  8
MASS
100
AcDbDimension
  2
_D_5
 10
-19.7537810029
 20
-9.5298263782
 30
0.0
 11
-19.7537810029
 21
0.0
 31
0.0
 70
   160
  1
%%c<>
  3
SLDDIMSTYLE2
100
AcDbAlignedDimension
 13
-1.9645454917
 23
9.5298263782
 33
0.0
 14
-1.9645454917
 24
-9.5298263782
 34
0.0
 50
90.0
100
AcDbRotatedDimension
  0
MTEXT
  5
1A6
330
1F
100
AcDbEntity
  8
TEXT
100
AcDbMText
 10
-18.9225515278
 20
16.7858873745
 30
0.0
 40
3.5
 41
0.0
 71
     1
 72
     1
  1
328.279F
  7
SLDTEXTSTYLE0
  0
ENDSEC
  0
SECTION
  2
OBJECTS
  0
DICTIONARY
  5
C
330
0
100
AcDbDictionary
  3
ACAD_GROUP
350
D
  3
ACAD_MLINESTYLE
350
17
  3
ACAD_SCALELIST
350
47
  0
DICTIONARY
  5
D
102
{ACAD_REACTORS
330
C
102
}
330
C
100
AcDbDictionary
  0
DICTIONARY
  5
17
102
{ACAD_REACTORS
330
C
102
}
330
C
100
AcDbDictionary
  3
STANDARD
350
18
  0
DICTIONARY
  5
47
102
{ACAD_REACTORS
330
C
102
}
330
C
100
AcDbDictionary
  0
MLINESTYLE
  5
18
102
{ACAD_REACTORS
330
17
102
}
330
17
100
AcDbMlineStyle
  2
Standard
 70
     0
  3

 62
   256
 51
90.0
 52
90.0
 71
     2
 49
0.5
 62
   256
  6
BYLAYER
 49
-0.5
 62
   256
  6
BYLAYER
  0
ENDSEC
  0
EOF
