  0
SECTION
  2
HEADER
  9
$ACADVER
  1
AC1014
  9
$ACADMAINTVER
 70
     9
  9
$DWGCODEPAGE
  3
ANSI_1252
  9
$INSBASE
 10
0.0
 20
0.0
 30
0.0
  9
$EXTMIN
 10
0.0
 20
0.0
 30
0.0
  9
$EXTMAX
 10
210.0
 20
297.0
 30
0.0
  9
$LIMMIN
 10
0.0
 20
0.0
  9
$LIMMAX
 10
210.0
 20
297.0
  9
$ORTHOMODE
 70
     0
  9
$REGENMODE
 70
     1
  9
$FILLMODE
 70
     1
  9
$QTEXTMODE
 70
     0
  9
$MIRRTEXT
 70
     1
  9
$DRAGMODE
 70
     2
  9
$LTSCALE
 40
1.0
  9
$OSMODE
 70
    37
  9
$ATTMODE
 70
     1
  9
$TEXTSIZE
 40
3.5
  9
$TRACEWID
 40
1.0
  9
$TEXTSTYLE
  7
STANDARD
  9
$CLAYER
  8
0
  9
$CELTYPE
  6
BYLAYER
  9
$CECOLOR
 62
   256
  9
$CELTSCALE
 40
1.0
  9
$DELOBJ
 70
     1
  9
$DISPSILH
 70
     0
  9
$DIMSCALE
 40
1.0
  9
$DIMASZ
 40
3.5
  9
$DIMEXO
 40
0.0
  9
$DIMDLI
 40
3.75
  9
$DIMRND
 40
0.0
  9
$DIMDLE
 40
0.0
  9
$DIMEXE
 40
1.0
  9
$DIMTP
 40
0.0
  9
$DIMTM
 40
0.0
  9
$DIMTXT
 40
3.5
  9
$DIMCEN
 40
2.5
  9
$DIMTSZ
 40
0.0
  9
$DIMTOL
 70
     0
  9
$DIMLIM
 70
     0
  9
$DIMTIH
 70
     1
  9
$DIMTOH
 70
     1
  9
$DIMSE1
 70
     0
  9
$DIMSE2
 70
     0
  9
$DIMTAD
 70
     1
  9
$DIMZIN
 70
     0
  9
$DIMBLK
  1

  9
$DIMASO
 70
     1
  9
$DIMSHO
 70
     1
  9
$DIMPOST
  1

  9
$DIMAPOST
  1

  9
$DIMALT
 70
     0
  9
$DIMALTD
 70
     3
  9
$DIMALTF
 40
0.0393700787
  9
$DIMLFAC
 40
1.0
  9
$DIMTOFL
 70
     1
  9
$DIMTVP
 40
0.0
  9
$DIMTIX
 70
     0
  9
$DIMSOXD
 70
     0
  9
$DIMSAH
 70
     0
  9
$DIMBLK1
  1

  9
$DIMBLK2
  1

  9
$DIMSTYLE
  2
ISO-25
  9
$DIMCLRD
 70
     0
  9
$DIMCLRE
 70
     0
  9
$DIMCLRT
 70
     0
  9
$DIMTFAC
 40
1.0
  9
$DIMGAP
 40
1.5
  9
$DIMJUST
 70
     0
  9
$DIMSD1
 70
     0
  9
$DIMSD2
 70
     0
  9
$DIMTOLJ
 70
     0
  9
$DIMTZIN
 70
     0
  9
$DIMALTZ
 70
     0
  9
$DIMALTTZ
 70
     0
  9
$DIMFIT
 70
     3
  9
$DIMUPT
 70
     0
  9
$DIMUNIT
 70
     2
  9
$DIMDEC
 70
     2
  9
$DIMTDEC
 70
     3
  9
$DIMALTU
 70
     2
  9
$DIMALTTD
 70
     3
  9
$DIMTXSTY
  7
STANDARD
  9
$DIMAUNIT
 70
     0
  9
$LUNITS
 70
     2
  9
$LUPREC
 70
     2
  9
$SKETCHINC
 40
1.0
  9
$FILLETRAD
 40
10.0
  9
$AUNITS
 70
     0
  9
$AUPREC
 70
     2
  9
$MENU
  1
.
  9
$ELEVATION
 40
0.0
  9
$PELEVATION
 40
0.0
  9
$THICKNESS
 40
0.0
  9
$LIMCHECK
 70
     0
  9
$CHAMFERA
 40
0.0
  9
$CHAMFERB
 40
0.0
  9
$CHAMFERC
 40
0.0
  9
$CHAMFERD
 40
0.0
  9
$SKPOLY
 70
     0
  9
$TDCREATE
 40
2456819.520875996
  9
$TDUPDATE
 40
2456819.520876956
  9
$TDINDWG
 40
0.0000000116
  9
$TDUSRTIMER
 40
0.0000000116
  9
$USRTIMER
 70
     1
  9
$ANGBASE
 50
0.0
  9
$ANGDIR
 70
     0
  9
$PDMODE
 70
     0
  9
$PDSIZE
 40
-1.0
  9
$PLINEWID
 40
0.0
  9
$COORDS
 70
     1
  9
$SPLFRAME
 70
     0
  9
$SPLINETYPE
 70
     6
  9
$SPLINESEGS
 70
     8
  9
$ATTDIA
 70
     0
  9
$ATTREQ
 70
     1
  9
$HANDLING
 70
     1
  9
$HANDSEED
  5
19B
  9
$SURFTAB1
 70
     6
  9
$SURFTAB2
 70
     6
  9
$SURFTYPE
 70
     6
  9
$SURFU
 70
     6
  9
$SURFV
 70
     6
  9
$UCSNAME
  2

  9
$UCSORG
 10
0.0
 20
0.0
 30
0.0
  9
$UCSXDIR
 10
1.0
 20
0.0
 30
0.0
  9
$UCSYDIR
 10
0.0
 20
1.0
 30
0.0
  9
$PUCSNAME
  2

  9
$PUCSORG
 10
0.0
 20
0.0
 30
0.0
  9
$PUCSXDIR
 10
1.0
 20
0.0
 30
0.0
  9
$PUCSYDIR
 10
0.0
 20
1.0
 30
0.0
  9
$USERI1
 70
     0
  9
$USERI2
 70
     0
  9
$USERI3
 70
     0
  9
$USERI4
 70
     0
  9
$USERI5
 70
     0
  9
$USERR1
 40
0.0
  9
$USERR2
 40
0.0
  9
$USERR3
 40
0.0
  9
$USERR4
 40
0.0
  9
$USERR5
 40
0.0
  9
$WORLDVIEW
 70
     1
  9
$SHADEDGE
 70
     3
  9
$SHADEDIF
 70
    70
  9
$TILEMODE
 70
     1
  9
$MAXACTVP
 70
    64
  9
$PINSBASE
 10
0.0
 20
0.0
 30
0.0
  9
$PLIMCHECK
 70
     0
  9
$PEXTMIN
 10
1.0000000000E+20
 20
1.0000000000E+20
 30
1.0000000000E+20
  9
$PEXTMAX
 10
-1.0000000000E+20
 20
-1.0000000000E+20
 30
-1.0000000000E+20
  9
$PLIMMIN
 10
0.0
 20
0.0
  9
$PLIMMAX
 10
420.0
 20
297.0
  9
$UNITMODE
 70
     0
  9
$VISRETAIN
 70
     1
  9
$PLINEGEN
 70
     0
  9
$PSLTSCALE
 70
     1
  9
$TREEDEPTH
 70
  3020
  9
$PICKSTYLE
 70
     1
  9
$CMLSTYLE
  2
STANDARD
  9
$CMLJUST
 70
     0
  9
$CMLSCALE
 40
20.0
  9
$PROXYGRAPHICS
 70
     1
  9
$MEASUREMENT
 70
     1
  0
ENDSEC
  0
SECTION
  2
CLASSES
  0
CLASS
  1
ACDBDICTIONARYWDFLT
  2
AcDbDictionaryWithDefault
  3
ObjectDBX Classes
 90
        0
280
     0
281
     0
  0
CLASS
  1
VISUALSTYLE
  2
AcDbVisualStyle
  3
ObjectDBX Classes
 90
     4095
280
     0
281
     0
  0
CLASS
  1
MATERIAL
  2
AcDbMaterial
  3
ObjectDBX Classes
 90
     1153
280
     0
281
     0
  0
CLASS
  1
SCALE
  2
AcDbScale
  3
ObjectDBX Classes
 90
     1153
280
     0
281
     0
  0
CLASS
  1
SUN
  2
AcDbSun
  3
SCENEOE
 90
     1153
280
     0
281
     0
  0
CLASS
  1
XRECORD
  2
AcDbXrecord
  3
ObjectDBX Classes
 90
        0
280
     0
281
     0
  0
CLASS
  1
LWPOLYLINE
  2
AcDbPolyline
  3
ObjectDBX Classes
 90
        0
280
     0
281
     1
  0
CLASS
  1
HATCH
  2
AcDbHatch
  3
ObjectDBX Classes
 90
        0
280
     0
281
     1
  0
ENDSEC
  0
SECTION
  2
TABLES
  0
TABLE
  2
VPORT
  5
8
330
0
100
AcDbSymbolTable
 70
     1
  0
VPORT
  5
29
330
8
100
AcDbSymbolTableRecord
100
AcDbViewportTableRecord
  2
*ACTIVE
 70
     0
 10
0.0
 20
0.0
 11
1.0
 21
1.0
 12
105.0
 22
148.5
 13
0.0
 23
0.0
 14
10.0
 24
10.0
 15
10.0
 25
10.0
 16
0.0
 26
0.0
 36
1.0
 17
0.0
 27
0.0
 37
0.0
 40
297.0
 41
0.7070707071
 42
50.0
 43
0.0
 44
0.0
 50
0.0
 51
0.0
 71
     0
 72
  2000
 73
     1
 74
     3
 75
     0
 76
     0
 77
     0
 78
     0
  0
ENDTAB
  0
TABLE
  2
LTYPE
  5
5
330
0
100
AcDbSymbolTable
 70
     6
  0
LTYPE
  5
14
330
5
100
AcDbSymbolTableRecord
100
AcDbLinetypeTableRecord
  2
BYBLOCK
 70
     0
  3

 72
    65
 73
     0
 40
0.0
  0
LTYPE
  5
15
330
5
100
AcDbSymbolTableRecord
100
AcDbLinetypeTableRecord
  2
BYLAYER
 70
     0
  3

 72
    65
 73
     0
 40
0.0
  0
LTYPE
  5
16
330
5
100
AcDbSymbolTableRecord
100
AcDbLinetypeTableRecord
  2
CONTINUOUS
 70
     0
  3
Solid line
 72
    65
 73
     0
 40
0.0
  0
LTYPE
  5
6A
330
5
100
AcDbSymbolTableRecord
100
AcDbLinetypeTableRecord
  2
HIDDEN
 70
     0
  3
Hidden __ __ __ __ __ __ __ __ __ __ __ __ __ __
 72
    65
 73
     2
 40
1.905
 49
1.27
 74
     0
 49
-0.635
 74
     0
  0
LTYPE
  5
6B
330
5
100
AcDbSymbolTableRecord
100
AcDbLinetypeTableRecord
  2
PHANTOM
 70
     0
  3
Phantom ______  __  __  ______  __  __  ______
 72
    65
 73
     6
 40
12.7
 49
6.35
 74
     0
 49
-1.27
 74
     0
 49
1.27
 74
     0
 49
-1.27
 74
     0
 49
1.27
 74
     0
 49
-1.27
 74
     0
  0
LTYPE
  5
6C
330
5
100
AcDbSymbolTableRecord
100
AcDbLinetypeTableRecord
  2
CENTER
 70
     0
  3
Center ____ _ ____ _ ____ _ ____ _ ____ _ ____
 72
    65
 73
     4
 40
10.16
 49
6.35
 74
     0
 49
-1.27
 74
     0
 49
1.27
 74
     0
 49
-1.27
 74
     0
  0
LTYPE
  5
6D
330
5
100
AcDbSymbolTableRecord
100
AcDbLinetypeTableRecord
  2
CENTERX2
 70
     0
  3
Center (2x) ________  __  ________  __  _____
 72
    65
 73
     4
 40
20.32
 49
12.7
 74
     0
 49
-2.54
 74
     0
 49
2.54
 74
     0
 49
-2.54
 74
     0
  0
LTYPE
  5
6E
330
5
100
AcDbSymbolTableRecord
100
AcDbLinetypeTableRecord
  2
DOT2
 70
     0
  3
Dot (.5x) ........................................
 72
    65
 73
     2
 40
0.635
 49
0.0
 74
     0
 49
-0.635
 74
     0
  0
ENDTAB
  0
TABLE
  2
LAYER
  5
2
330
0
100
AcDbSymbolTable
 70
     7
  0
LAYER
  5
10
330
2
100
AcDbSymbolTableRecord
100
AcDbLayerTableRecord
  2
0
 70
     0
 62
     7
  6
CONTINUOUS
  0
LAYER
  5
6F
330
2
100
AcDbSymbolTableRecord
100
AcDbLayerTableRecord
  2
AUFNAHME
 70
     0
 62
     7
  6
CONTINUOUS
  0
LAYER
  5
70
330
2
100
AcDbSymbolTableRecord
100
AcDbLayerTableRecord
  2
MASS
 70
     0
 62
     4
  6
CONTINUOUS
  0
LAYER
  5
71
330
2
100
AcDbSymbolTableRecord
100
AcDbLayerTableRecord
  2
EW
 70
     0
 62
     1
  6
HIDDEN
  0
LAYER
  5
72
330
2
100
AcDbSymbolTableRecord
100
AcDbLayerTableRecord
  2
UNSICHT
 70
     0
 62
     4
  6
CENTER
  0
LAYER
  5
73
330
2
100
AcDbSymbolTableRecord
100
AcDbLayerTableRecord
  2
TEXT
 70
     0
 62
     7
  6
CONTINUOUS
  0
LAYER
  5
74
330
2
100
AcDbSymbolTableRecord
100
AcDbLayerTableRecord
  2
ZAPFEN
 70
     0
 62
     4
  6
CONTINUOUS
  0
ENDTAB
  0
TABLE
  2
STYLE
  5
3
330
0
100
AcDbSymbolTable
 70
     2
  0
STYLE
  5
11
330
3
100
AcDbSymbolTableRecord
100
AcDbTextStyleTableRecord
  2
STANDARD
 70
     0
 40
0.0
 41
1.0
 50
0.0
 71
     0
 42
3.5
  3
txt
  4

  0
STYLE
  5
159
330
3
100
AcDbSymbolTableRecord
100
AcDbTextStyleTableRecord
  2
SLDTEXTSTYLE0
 70
     0
 40
0.0
 41
0.605
 50
0.0
 71
     0
 42
3.5
  3
TXT
  4

  0
ENDTAB
  0
TABLE
  2
VIEW
  5
6
330
0
100
AcDbSymbolTable
 70
     0
  0
ENDTAB
  0
TABLE
  2
UCS
  5
7
330
0
100
AcDbSymbolTable
 70
     0
  0
ENDTAB
  0
TABLE
  2
APPID
  5
9
330
0
100
AcDbSymbolTable
 70
     1
  0
APPID
  5
12
330
9
100
AcDbSymbolTableRecord
100
AcDbRegAppTableRecord
  2
ACAD
 70
     0
  0
ENDTAB
  0
TABLE
  2
DIMSTYLE
  5
A
330
0
100
AcDbSymbolTable
 70
     4
  0
DIMSTYLE
105
27
330
A
100
AcDbSymbolTableRecord
100
AcDbDimStyleTableRecord
  2
ISO-25
 70
     0
  3

  4

  5

  6

  7

 40
1.0
 41
2.5
 42
0.625
 43
3.75
 44
1.25
 45
0.0
 46
0.0
 47
0.0
 48
0.0
140
2.5
141
2.5
142
0.0
143
0.0393700787
144
1.0
145
0.0
146
1.0
147
0.625
 71
     0
 72
     0
 73
     0
 74
     0
 75
     0
 76
     0
 77
     1
 78
     8
170
     0
171
     3
172
     1
173
     0
174
     0
175
     0
176
     0
177
     0
178
     0
270
     2
271
     2
272
     2
273
     2
274
     3
340
11
275
     0
280
     0
281
     0
282
     0
283
     0
284
     8
285
     0
286
     0
287
     3
288
     0
  0
DIMSTYLE
105
15A
102
{ACAD_REACTORS
330
158
330
17A
330
184
330
18F
102
}
330
A
100
AcDbSymbolTableRecord
100
AcDbDimStyleTableRecord
  2
SLDDIMSTYLE0
 70
     0
  3

  4

  5

  6

  7

 40
1.0
 41
3.5
 42
0.0625
 43
0.38
 44
0.0
 45
0.000000001
 46
0.0
 47
0.0
 48
0.0
140
3.5
141
0.09
142
0.0
143
25.4
144
1.0
145
0.0
146
1.0
147
0.875
 71
     0
 72
     0
 73
     0
 74
     0
 75
     0
 76
     0
 77
     1
 78
    12
170
     0
171
     2
172
     0
173
     1
174
     0
175
     0
176
     0
177
     0
178
     0
270
     2
271
     2
272
     3
273
     2
274
     2
340
159
275
     0
280
     0
281
     0
282
     0
283
     1
284
    12
285
     0
286
     0
287
     3
288
     0
  0
DIMSTYLE
105
165
102
{ACAD_REACTORS
330
164
102
}
330
A
100
AcDbSymbolTableRecord
100
AcDbDimStyleTableRecord
  2
SLDDIMSTYLE1
 70
     0
  3

  4

  5

  6

  7

 40
1.0
 41
3.5
 42
0.0625
 43
0.38
 44
0.0
 45
0.000000001
 46
0.0
 47
0.0
 48
0.0
140
3.5
141
0.09
142
0.0
143
25.4
144
1.0
145
0.0
146
1.0
147
0.875
 71
     0
 72
     0
 73
     0
 74
     0
 75
     0
 76
     0
 77
     1
 78
    12
170
     0
171
     2
172
     0
173
     1
174
     0
175
     0
176
     0
177
     0
178
     0
270
     2
271
     2
272
     3
273
     2
274
     2
340
159
275
     0
280
     0
281
     0
282
     0
283
     1
284
    12
285
     0
286
     0
287
     3
288
     0
  0
DIMSTYLE
105
16F
102
{ACAD_REACTORS
330
16E
102
}
330
A
100
AcDbSymbolTableRecord
100
AcDbDimStyleTableRecord
  2
SLDDIMSTYLE2
 70
     0
  3

  4

  5

  6

  7

 40
1.0
 41
3.5
 42
0.0625
 43
0.38
 44
0.0
 45
0.000000001
 46
0.0
 47
0.0
 48
0.0
140
3.5
141
0.09
142
0.0
143
25.4
144
1.0
145
0.0
146
1.0
147
0.875
 71
     0
 72
     0
 73
     0
 74
     0
 75
     0
 76
     0
 77
     1
 78
    12
170
     0
171
     2
172
     0
173
     1
174
     0
175
     0
176
     0
177
     0
178
     0
270
     2
271
     0
272
     3
273
     2
274
     2
340
159
275
     0
280
     0
281
     0
282
     0
283
     1
284
    12
285
     0
286
     0
287
     3
288
     0
  0
ENDTAB
  0
TABLE
  2
BLOCK_RECORD
  5
1
330
0
100
AcDbSymbolTable
 70
     7
  0
BLOCK_RECORD
  5
1F
330
1
100
AcDbSymbolTableRecord
100
AcDbBlockTableRecord
  2
*MODEL_SPACE
  0
BLOCK_RECORD
  5
1B
330
1
100
AcDbSymbolTableRecord
100
AcDbBlockTableRecord
  2
*PAPER_SPACE
  0
BLOCK_RECORD
  5
23
330
1
100
AcDbSymbolTableRecord
100
AcDbBlockTableRecord
  2
*PAPER_SPACE0
  0
BLOCK_RECORD
  5
15B
330
1
100
AcDbSymbolTableRecord
100
AcDbBlockTableRecord
  2
_D
  0
BLOCK_RECORD
  5
166
330
1
100
AcDbSymbolTableRecord
100
AcDbBlockTableRecord
  2
_D_1
  0
BLOCK_RECORD
  5
170
330
1
100
AcDbSymbolTableRecord
100
AcDbBlockTableRecord
  2
_D_2
  0
BLOCK_RECORD
  5
17B
330
1
100
AcDbSymbolTableRecord
100
AcDbBlockTableRecord
  2
_D_3
  0
BLOCK_RECORD
  5
185
330
1
100
AcDbSymbolTableRecord
100
AcDbBlockTableRecord
  2
_D_4
  0
BLOCK_RECORD
  5
190
330
1
100
AcDbSymbolTableRecord
100
AcDbBlockTableRecord
  2
_D_5
  0
ENDTAB
  0
ENDSEC
  0
SECTION
  2
BLOCKS
  0
BLOCK
  5
20
330
1F
100
AcDbEntity
  8
0
100
AcDbBlockBegin
  2
*MODEL_SPACE
 70
     0
 10
0.0
 20
0.0
 30
0.0
  3
*MODEL_SPACE
  1

  0
ENDBLK
  5
21
330
1F
100
AcDbEntity
  8
0
100
AcDbBlockEnd
  0
BLOCK
  5
1C
330
1B
100
AcDbEntity
 67
     1
  8
0
100
AcDbBlockBegin
  2
*PAPER_SPACE
 70
     0
 10
0.0
 20
0.0
 30
0.0
  3
*PAPER_SPACE
  1

  0
ENDBLK
  5
1D
330
1B
100
AcDbEntity
 67
     1
  8
0
100
AcDbBlockEnd
  0
BLOCK
  5
24
330
23
100
AcDbEntity
  8
0
100
AcDbBlockBegin
  2
*PAPER_SPACE0
 70
     0
 10
0.0
 20
0.0
 30
0.0
  3
*PAPER_SPACE0
  1
*PAPER_SPACE0
  0
ENDBLK
  5
25
330
23
100
AcDbEntity
  8
0
100
AcDbBlockEnd
  0
BLOCK
  5
15C
330
15B
100
AcDbEntity
  8
0
100
AcDbBlockBegin
  2
_D
 70
     0
 10
0.0
 20
0.0
 30
0.0
  3
_D
  1
_D
  0
SOLID
  5
15E
330
15B
100
AcDbEntity
  8
MASS
100
AcDbTrace
 10
0.0
 20
-24.0451292709
 30
0.0
 11
3.5
 21
-24.4951292709
 31
0.0
 12
3.5
 22
-23.5951292709
 32
0.0
 13
3.5
 23
-23.5951292709
 33
0.0
  0
SOLID
  5
15F
330
15B
100
AcDbEntity
  8
MASS
100
AcDbTrace
 10
25.5
 20
-24.0451292709
 30
0.0
 11
22.0
 21
-23.5951292709
 31
0.0
 12
22.0
 22
-24.4951292709
 32
0.0
 13
22.0
 23
-24.4951292709
 33
0.0
  0
LINE
  5
160
330
15B
100
AcDbEntity
  8
MASS
100
AcDbLine
 10
0.0
 20
-15.82
 30
0.0
 11
0.0
 21
-25.0451292709
 31
0.0
  0
LINE
  5
161
330
15B
100
AcDbEntity
  8
MASS
100
AcDbLine
 10
25.5
 20
-15.5205591451
 30
0.0
 11
25.5
 21
-25.0451292709
 31
0.0
  0
LINE
  5
162
330
15B
100
AcDbEntity
  8
MASS
100
AcDbLine
 10
0.0
 20
-24.0451292709
 30
0.0
 11
25.5
 21
-24.0451292709
 31
0.0
  0
MTEXT
  5
163
330
15B
100
AcDbEntity
  8
MASS
100
AcDbMText
 10
8.9121528491
 20
-19.5333924145
 30
0.0
 40
3.5
 41
0.0
 71
     1
 72
     1
  1
25.5
  7
SLDTEXTSTYLE0
  0
ENDBLK
  5
15D
330
15B
100
AcDbEntity
  8
0
100
AcDbBlockEnd
  0
BLOCK
  5
167
330
166
100
AcDbEntity
  8
0
100
AcDbBlockBegin
  2
_D_1
 70
     0
 10
0.0
 20
0.0
 30
0.0
  3
_D_1
  1
_D_1
  0
SOLID
  5
169
330
166
100
AcDbEntity
  8
MASS
100
AcDbTrace
 10
25.5
 20
-24.0451292709
 30
0.0
 11
29.0
 21
-24.4951292709
 31
0.0
 12
29.0
 22
-23.5951292709
 32
0.0
 13
29.0
 23
-23.5951292709
 33
0.0
  0
LINE
  5
16A
330
166
100
AcDbEntity
  8
MASS
100
AcDbLine
 10
25.5
 20
-15.5205591451
 30
0.0
 11
25.5
 21
-25.0451292709
 31
0.0
  0
LINE
  5
16B
330
166
100
AcDbEntity
  8
MASS
100
AcDbLine
 10
33.0
 20
-24.0451292709
 30
0.0
 11
25.5
 21
-24.0451292709
 31
0.0
  0
LINE
  5
16C
330
166
100
AcDbEntity
  8
MASS
100
AcDbLine
 10
25.5
 20
-24.0451292709
 30
0.0
 11
60.7878481562
 21
-24.0451292709
 31
0.0
  0
MTEXT
  5
16D
330
166
100
AcDbEntity
  8
MASS
100
AcDbMText
 10
33.1621551479
 20
-19.5333924145
 30
0.0
 40
3.5
 41
0.0
 71
     1
 72
     1
  1
Ausdrehtiefe 43
  7
SLDTEXTSTYLE0
  0
ENDBLK
  5
168
330
166
100
AcDbEntity
  8
0
100
AcDbBlockEnd
  0
BLOCK
  5
171
330
170
100
AcDbEntity
  8
0
100
AcDbBlockBegin
  2
_D_2
 70
     0
 10
0.0
 20
0.0
 30
0.0
  3
_D_2
  1
_D_2
  0
SOLID
  5
173
330
170
100
AcDbEntity
  8
MASS
100
AcDbTrace
 10
-21.0541825015
 20
12.029684279
 30
0.0
 11
-21.5041825015
 21
8.529684279
 31
0.0
 12
-20.6041825015
 22
8.529684279
 32
0.0
 13
-20.6041825015
 23
8.529684279
 33
0.0
  0
SOLID
  5
174
330
170
100
AcDbEntity
  8
MASS
100
AcDbTrace
 10
-21.0541825015
 20
-12.0296842789
 30
0.0
 11
-20.6041825015
 21
-8.5296842789
 31
0.0
 12
-21.5041825015
 22
-8.5296842789
 32
0.0
 13
-21.5041825015
 23
-8.5296842789
 33
0.0
  0
LINE
  5
175
330
170
100
AcDbEntity
  8
MASS
100
AcDbLine
 10
-2.6773617919
 20
12.029684279
 30
0.0
 11
-22.0541825015
 21
12.029684279
 31
0.0
  0
LINE
  5
176
330
170
100
AcDbEntity
  8
MASS
100
AcDbLine
 10
-2.6773617919
 20
-12.0296842789
 30
0.0
 11
-22.0541825015
 21
-12.0296842789
 31
0.0
  0
LINE
  5
177
330
170
100
AcDbEntity
  8
MASS
100
AcDbLine
 10
-21.0541825015
 20
12.029684279
 30
0.0
 11
-21.0541825015
 21
-12.0296842789
 31
0.0
  0
MTEXT
  5
178
330
170
100
AcDbEntity
  8
MASS
100
AcDbMText
 10
-25.5659198236
 20
-4.778472241
 30
0.0
 40
3.5
 41
0.0
 71
     1
 72
     1
  1
%%c
  7
SLDTEXTSTYLE0
 11
-7.044195017643634E-15
 21
1.0
 31
0.0
  0
MTEXT
  5
179
330
170
100
AcDbEntity
  8
MASS
100
AcDbMText
 10
-25.5659198236
 20
0.3937501461
 30
0.0
 40
3.5
 41
0.0
 71
     1
 72
     1
  1
24
  7
SLDTEXTSTYLE0
 11
-7.044195017643634E-15
 21
1.0
 31
0.0
  0
ENDBLK
  5
172
330
170
100
AcDbEntity
  8
0
100
AcDbBlockEnd
  0
BLOCK
  5
17C
330
17B
100
AcDbEntity
  8
0
100
AcDbBlockBegin
  2
_D_3
 70
     0
 10
0.0
 20
0.0
 30
0.0
  3
_D_3
  1
_D_3
  0
SOLID
  5
17E
330
17B
100
AcDbEntity
  8
MASS
100
AcDbTrace
 10
0.0
 20
22.940093433
 30
0.0
 11
3.5
 21
22.490093433
 31
0.0
 12
3.5
 22
23.390093433
 32
0.0
 13
3.5
 23
23.390093433
 33
0.0
  0
SOLID
  5
17F
330
17B
100
AcDbEntity
  8
MASS
100
AcDbTrace
 10
33.0
 20
22.940093433
 30
0.0
 11
29.5
 21
23.390093433
 31
0.0
 12
29.5
 22
22.490093433
 32
0.0
 13
29.5
 23
22.490093433
 33
0.0
  0
LINE
  5
180
330
17B
100
AcDbEntity
  8
MASS
100
AcDbLine
 10
0.0
 20
15.82
 30
0.0
 11
0.0
 21
23.940093433
 31
0.0
  0
LINE
  5
181
330
17B
100
AcDbEntity
  8
MASS
100
AcDbLine
 10
33.0
 20
11.25
 30
0.0
 11
33.0
 21
23.940093433
 31
0.0
  0
LINE
  5
182
330
17B
100
AcDbEntity
  8
MASS
100
AcDbLine
 10
0.0
 20
22.940093433
 30
0.0
 11
33.0
 21
22.940093433
 31
0.0
  0
MTEXT
  5
183
330
17B
100
AcDbEntity
  8
MASS
100
AcDbMText
 10
14.3076389525
 20
27.4518302894
 30
0.0
 40
3.5
 41
0.0
 71
     1
 72
     1
  1
33
  7
SLDTEXTSTYLE0
  0
ENDBLK
  5
17D
330
17B
100
AcDbEntity
  8
0
100
AcDbBlockEnd
  0
BLOCK
  5
186
330
185
100
AcDbEntity
  8
0
100
AcDbBlockBegin
  2
_D_4
 70
     0
 10
0.0
 20
0.0
 30
0.0
  3
_D_4
  1
_D_4
  0
SOLID
  5
188
330
185
100
AcDbEntity
  8
MASS
100
AcDbTrace
 10
47.1914577552
 20
12.0
 30
0.0
 11
46.7414577552
 21
8.5
 31
0.0
 12
47.6414577552
 22
8.5
 32
0.0
 13
47.6414577552
 23
8.5
 33
0.0
  0
SOLID
  5
189
330
185
100
AcDbEntity
  8
MASS
100
AcDbTrace
 10
47.1914577552
 20
-12.0
 30
0.0
 11
47.6414577552
 21
-8.5
 31
0.0
 12
46.7414577552
 22
-8.5
 32
0.0
 13
46.7414577552
 23
-8.5
 33
0.0
  0
LINE
  5
18A
330
185
100
AcDbEntity
  8
MASS
100
AcDbLine
 10
32.25
 20
12.0
 30
0.0
 11
48.1914577552
 21
12.0
 31
0.0
  0
LINE
  5
18B
330
185
100
AcDbEntity
  8
MASS
100
AcDbLine
 10
32.25
 20
-12.0
 30
0.0
 11
48.1914577552
 21
-12.0
 31
0.0
  0
LINE
  5
18C
330
185
100
AcDbEntity
  8
MASS
100
AcDbLine
 10
47.1914577552
 20
12.0
 30
0.0
 11
47.1914577552
 21
-12.0
 31
0.0
  0
MTEXT
  5
18D
330
185
100
AcDbEntity
  8
MASS
100
AcDbMText
 10
42.6797204331
 20
-4.778472241
 30
0.0
 40
3.5
 41
0.0
 71
     1
 72
     1
  1
%%c
  7
SLDTEXTSTYLE0
 11
-7.044195017643634E-15
 21
1.0
 31
0.0
  0
MTEXT
  5
18E
330
185
100
AcDbEntity
  8
MASS
100
AcDbMText
 10
42.6797204331
 20
0.393750146
 30
0.0
 40
3.5
 41
0.0
 71
     1
 72
     1
  1
24
  7
SLDTEXTSTYLE0
 11
-7.044195017643634E-15
 21
1.0
 31
0.0
  0
ENDBLK
  5
187
330
185
100
AcDbEntity
  8
0
100
AcDbBlockEnd
  0
BLOCK
  5
191
330
190
100
AcDbEntity
  8
0
100
AcDbBlockBegin
  2
_D_5
 70
     0
 10
0.0
 20
0.0
 30
0.0
  3
_D_5
  1
_D_5
  0
SOLID
  5
193
330
190
100
AcDbEntity
  8
MASS
100
AcDbTrace
 10
40.8658123012
 20
-7.0
 30
0.0
 11
41.3158123012
 21
-3.5
 31
0.0
 12
40.4158123012
 22
-3.5
 32
0.0
 13
40.4158123012
 23
-3.5
 33
0.0
  0
SOLID
  5
194
330
190
100
AcDbEntity
  8
MASS
100
AcDbTrace
 10
40.8658123012
 20
7.0
 30
0.0
 11
40.4158123012
 21
3.5
 31
0.0
 12
41.3158123012
 22
3.5
 32
0.0
 13
41.3158123012
 23
3.5
 33
0.0
  0
LINE
  5
195
330
190
100
AcDbEntity
  8
MASS
100
AcDbLine
 10
25.7287302543
 20
-7.0
 30
0.0
 11
41.8658123012
 21
-7.0
 31
0.0
  0
LINE
  5
196
330
190
100
AcDbEntity
  8
MASS
100
AcDbLine
 10
25.7287302543
 20
7.0
 30
0.0
 11
41.8658123012
 21
7.0
 31
0.0
  0
LINE
  5
197
330
190
100
AcDbEntity
  8
MASS
100
AcDbLine
 10
40.8658123012
 20
-7.0
 30
0.0
 11
40.8658123012
 21
7.0
 31
0.0
  0
MTEXT
  5
198
330
190
100
AcDbEntity
  8
MASS
100
AcDbMText
 10
36.3540749792
 20
-4.778472241
 30
0.0
 40
3.5
 41
0.0
 71
     1
 72
     1
  1
%%c
  7
SLDTEXTSTYLE0
 11
6.123233995736766E-17
 21
1.0
 31
0.0
  0
MTEXT
  5
199
330
190
100
AcDbEntity
  8
MASS
100
AcDbMText
 10
36.3540749792
 20
0.393750146
 30
0.0
 40
3.5
 41
0.0
 71
     1
 72
     1
  1
14
  7
SLDTEXTSTYLE0
 11
6.123233995736766E-17
 21
1.0
 31
0.0
  0
ENDBLK
  5
192
330
190
100
AcDbEntity
  8
0
100
AcDbBlockEnd
  0
ENDSEC
  0
SECTION
  2
ENTITIES
  0
LINE
  5
75
330
1F
100
AcDbEntity
  8
AUFNAHME
  6
CONTINUOUS
100
AcDbLine
 10
13.9187633496
 20
-15.97
 30
0.0
 11
14.0687633496
 21
-15.82
 31
0.0
  0
LINE
  5
76
330
1F
100
AcDbEntity
  8
AUFNAHME
  6
CONTINUOUS
100
AcDbLine
 10
14.0687633496
 20
15.82
 30
0.0
 11
13.9187633496
 21
15.97
 31
0.0
  0
LINE
  5
77
330
1F
100
AcDbEntity
  8
AUFNAHME
  6
CONTINUOUS
100
AcDbLine
 10
13.9187633496
 20
15.97
 30
0.0
 11
0.15
 21
15.97
 31
0.0
  0
LINE
  5
78
330
1F
100
AcDbEntity
  8
AUFNAHME
  6
CONTINUOUS
100
AcDbLine
 10
0.15
 20
-15.97
 30
0.0
 11
13.9187633496
 21
-15.97
 31
0.0
  0
LINE
  5
79
330
1F
100
AcDbEntity
  8
AUFNAHME
  6
CONTINUOUS
100
AcDbLine
 10
19.8000000001
 20
15.97
 30
0.0
 11
18.0812366505
 21
15.97
 31
0.0
  0
LINE
  5
7A
330
1F
100
AcDbEntity
  8
AUFNAHME
  6
CONTINUOUS
100
AcDbLine
 10
18.0812366505
 20
-15.97
 30
0.0
 11
19.8000000001
 21
-15.97
 31
0.0
  0
LINE
  5
7B
330
1F
100
AcDbEntity
  8
AUFNAHME
  6
CONTINUOUS
100
AcDbLine
 10
19.8000000001
 20
-15.97
 30
0.0
 11
19.9500000001
 21
-15.82
 31
0.0
  0
LINE
  5
7C
330
1F
100
AcDbEntity
  8
AUFNAHME
  6
CONTINUOUS
100
AcDbLine
 10
19.9500000001
 20
15.82
 30
0.0
 11
19.8000000001
 21
15.97
 31
0.0
  0
LINE
  5
7D
330
1F
100
AcDbEntity
  8
AUFNAHME
  6
CONTINUOUS
100
AcDbLine
 10
0.15
 20
15.97
 30
0.0
 11
0.0
 21
15.82
 31
0.0
  0
LINE
  5
7E
330
1F
100
AcDbEntity
  8
AUFNAHME
  6
CONTINUOUS
100
AcDbLine
 10
0.0
 20
-15.82
 30
0.0
 11
0.15
 21
-15.97
 31
0.0
  0
LINE
  5
7F
330
1F
100
AcDbEntity
  8
AUFNAHME
  6
CONTINUOUS
100
AcDbLine
 10
18.0812366505
 20
15.97
 30
0.0
 11
17.9312363061
 21
15.8200001988
 31
0.0
  0
LINE
  5
80
330
1F
100
AcDbEntity
  8
AUFNAHME
  6
CONTINUOUS
100
AcDbLine
 10
17.9312366505
 20
-15.82
 30
0.0
 11
18.0812366505
 21
-15.97
 31
0.0
  0
LINE
  5
81
330
1F
100
AcDbEntity
  8
AUFNAHME
  6
CONTINUOUS
100
AcDbLine
 10
17.9312363061
 20
15.8200001988
 30
0.0
 11
17.0375
 21
14.2720027129
 31
0.0
  0
LINE
  5
82
330
1F
100
AcDbEntity
  8
AUFNAHME
  6
CONTINUOUS
100
AcDbLine
 10
17.0375
 20
-14.2720027128
 30
0.0
 11
17.9312366505
 21
-15.82
 31
0.0
  0
LINE
  5
83
330
1F
100
AcDbEntity
  8
AUFNAHME
  6
CONTINUOUS
100
AcDbLine
 10
14.0687633496
 20
-15.82
 30
0.0
 11
14.9740007881
 21
-14.2520827636
 31
0.0
  0
LINE
  5
84
330
1F
100
AcDbEntity
  8
AUFNAHME
  6
CONTINUOUS
100
AcDbLine
 10
14.9625
 20
14.2720027129
 30
0.0
 11
14.0687633496
 21
15.82
 31
0.0
  0
LINE
  5
85
330
1F
100
AcDbEntity
  8
AUFNAHME
  6
CONTINUOUS
100
AcDbLine
 10
15.7125
 20
-13.225
 30
0.0
 11
16.2875
 21
-13.225
 31
0.0
  0
LINE
  5
86
330
1F
100
AcDbEntity
  8
AUFNAHME
  6
CONTINUOUS
100
AcDbLine
 10
16.2875
 20
13.225
 30
0.0
 11
15.7125
 21
13.225
 31
0.0
  0
LINE
  5
87
330
1F
100
AcDbEntity
  8
AUFNAHME
  6
CONTINUOUS
100
AcDbLine
 10
-0.9637526712
 20
12.1155364394
 30
0.0
 11
-15.5197960485
 21
11.3862757491
 31
0.0
  0
LINE
  5
88
330
1F
100
AcDbEntity
  8
AUFNAHME
  6
CONTINUOUS
100
AcDbLine
 10
-15.5197960485
 20
-11.386275749
 30
0.0
 11
-0.9637526712
 21
-12.1155364393
 31
0.0
  0
LINE
  5
89
330
1F
100
AcDbEntity
  8
AUFNAHME
  6
CONTINUOUS
100
AcDbLine
 10
-0.9637526712
 20
-12.1155364393
 30
0.0
 11
-0.303527618
 21
-11.9386296695
 31
0.0
  0
LINE
  5
8A
330
1F
100
AcDbEntity
  8
AUFNAHME
  6
CONTINUOUS
100
AcDbLine
 10
-0.303527618
 20
11.9386296695
 30
0.0
 11
-0.9637526712
 21
12.1155364394
 31
0.0
  0
LINE
  5
8B
330
1F
100
AcDbEntity
  8
AUFNAHME
  6
CONTINUOUS
100
AcDbLine
 10
32.25
 20
-12.0
 30
0.0
 11
33.0
 21
-11.25
 31
0.0
  0
LINE
  5
8C
330
1F
100
AcDbEntity
  8
AUFNAHME
  6
CONTINUOUS
100
AcDbLine
 10
33.0
 20
11.25
 30
0.0
 11
32.25
 21
12.0
 31
0.0
  0
LINE
  5
8D
330
1F
100
AcDbEntity
  8
AUFNAHME
  6
CONTINUOUS
100
AcDbLine
 10
21.6
 20
-12.0
 30
0.0
 11
32.25
 21
-12.0
 31
0.0
  0
LINE
  5
8E
330
1F
100
AcDbEntity
  8
AUFNAHME
  6
CONTINUOUS
100
AcDbLine
 10
32.25
 20
12.0
 30
0.0
 11
21.6
 21
12.0
 31
0.0
  0
LINE
  5
8F
330
1F
100
AcDbEntity
  8
AUFNAHME
  6
CONTINUOUS
100
AcDbLine
 10
21.6
 20
12.0
 30
0.0
 11
21.45
 21
11.85
 31
0.0
  0
LINE
  5
90
330
1F
100
AcDbEntity
  8
AUFNAHME
  6
CONTINUOUS
100
AcDbLine
 10
21.45
 20
-11.85
 30
0.0
 11
21.6
 21
-12.0
 31
0.0
  0
LINE
  5
91
330
1F
100
AcDbEntity
  8
AUFNAHME
  6
CONTINUOUS
100
AcDbLine
 10
20.95
 20
-11.85
 30
0.0
 11
21.45
 21
-11.85
 31
0.0
  0
LINE
  5
92
330
1F
100
AcDbEntity
  8
AUFNAHME
  6
CONTINUOUS
100
AcDbLine
 10
21.45
 20
11.85
 30
0.0
 11
20.95
 21
11.85
 31
0.0
  0
LINE
  5
93
330
1F
100
AcDbEntity
  8
AUFNAHME
  6
CONTINUOUS
100
AcDbLine
 10
25.7283121635
 20
-1.25
 30
0.0
 11
25.006624327
 21
0.0
 31
0.0
  0
LINE
  5
94
330
1F
100
AcDbEntity
  8
AUFNAHME
  6
CONTINUOUS
100
AcDbLine
 10
27.1716878365
 20
-1.25
 30
0.0
 11
25.7283121635
 21
-1.25
 31
0.0
  0
LINE
  5
95
330
1F
100
AcDbEntity
  8
AUFNAHME
  6
CONTINUOUS
100
AcDbLine
 10
27.893375673
 20
0.0
 30
0.0
 11
27.1716878365
 21
-1.25
 31
0.0
  0
LINE
  5
96
330
1F
100
AcDbEntity
  8
AUFNAHME
  6
CONTINUOUS
100
AcDbLine
 10
27.1716878365
 20
1.25
 30
0.0
 11
27.893375673
 21
0.0
 31
0.0
  0
LINE
  5
97
330
1F
100
AcDbEntity
  8
AUFNAHME
  6
CONTINUOUS
100
AcDbLine
 10
25.7283121635
 20
1.25
 30
0.0
 11
27.1716878365
 21
1.25
 31
0.0
  0
LINE
  5
98
330
1F
100
AcDbEntity
  8
AUFNAHME
  6
CONTINUOUS
100
AcDbLine
 10
25.006624327
 20
0.0
 30
0.0
 11
25.7283121635
 21
1.25
 31
0.0
  0
LINE
  5
99
330
1F
100
AcDbEntity
  8
AUFNAHME
  6
CONTINUOUS
100
AcDbLine
 10
32.249997741
 20
12.0
 30
0.0
 11
21.6
 21
12.0
 31
0.0
  0
LINE
  5
9A
330
1F
100
AcDbEntity
  8
AUFNAHME
  6
CONTINUOUS
100
AcDbLine
 10
13.9187633496
 20
15.97
 30
0.0
 11
13.9187633496
 21
12.9493495492
 31
0.0
  0
LINE
  5
9B
330
1F
100
AcDbEntity
  8
UNSICHT
  6
CENTER
100
AcDbLine
 10
25.5
 20
-14.2720027128
 30
0.0
 11
25.5
 21
-15.5205591451
 31
0.0
  0
LINE
  5
9C
330
1F
100
AcDbEntity
  8
AUFNAHME
  6
CONTINUOUS
100
AcDbLine
 10
0.15
 20
-15.97
 30
0.0
 11
0.15
 21
15.97
 31
0.0
  0
LINE
  5
9D
330
1F
100
AcDbEntity
  8
AUFNAHME
  6
CONTINUOUS
100
AcDbLine
 10
-23.551042197
 20
-18.9017285856
 30
0.0
 11
-23.551042197
 21
-20.9717206556
 31
0.0
  0
LINE
  5
9E
330
1F
100
AcDbEntity
  8
AUFNAHME
  6
CONTINUOUS
100
AcDbLine
 10
-26.431028007
 20
-20.9717511656
 30
0.0
 11
-23.551030747
 21
-20.9717511656
 31
0.0
  0
LINE
  5
9F
330
1F
100
AcDbEntity
  8
AUFNAHME
  6
CONTINUOUS
100
AcDbLine
 10
18.0812366505
 20
-15.97
 30
0.0
 11
18.0812366505
 21
9.3525104609
 31
0.0
  0
LINE
  5
A0
330
1F
100
AcDbEntity
  8
AUFNAHME
  6
CONTINUOUS
100
AcDbLine
 10
19.9500000001
 20
-15.82
 30
0.0
 11
19.9500000001
 21
15.82
 31
0.0
  0
LINE
  5
A1
330
1F
100
AcDbEntity
  8
AUFNAHME
  6
CONTINUOUS
100
AcDbLine
 10
0.0
 20
-15.82
 30
0.0
 11
0.0
 21
15.82
 31
0.0
  0
LINE
  5
A2
330
1F
100
AcDbEntity
  8
AUFNAHME
  6
CONTINUOUS
100
AcDbLine
 10
-26.881021137
 20
-32.5817347256
 30
0.0
 11
-30.301019307
 21
-32.5817365256
 31
0.0
  0
LINE
  5
A3
330
1F
100
AcDbEntity
  8
UNSICHT
  6
CENTER
100
AcDbLine
 10
-17.2899678141
 20
0.0
 30
0.0
 11
34.8021633658
 21
0.0
 31
0.0
  0
LINE
  5
A4
330
1F
100
AcDbEntity
  8
AUFNAHME
  6
CONTINUOUS
100
AcDbLine
 10
17.0375
 20
0.0
 30
0.0
 11
17.0375
 21
9.3522518131
 31
0.0
  0
LINE
  5
A5
330
1F
100
AcDbEntity
  8
AUFNAHME
  6
CONTINUOUS
100
AcDbLine
 10
17.0375
 20
-14.2720027128
 30
0.0
 11
17.0375
 21
0.0
 31
0.0
  0
LINE
  5
A6
330
1F
100
AcDbEntity
  8
AUFNAHME
  6
CONTINUOUS
100
AcDbLine
 10
14.9740007881
 20
0.0
 30
0.0
 11
14.9664648896
 21
9.3517385911
 31
0.0
  0
LINE
  5
A7
330
1F
100
AcDbEntity
  8
AUFNAHME
  6
CONTINUOUS
100
AcDbLine
 10
14.9740007881
 20
-14.2520827636
 30
0.0
 11
14.9740007881
 21
-13.1373282749
 31
0.0
  0
LINE
  5
A8
330
1F
100
AcDbEntity
  8
AUFNAHME
  6
CONTINUOUS
100
AcDbLine
 10
-15.5197960485
 20
-11.386275749
 30
0.0
 11
-15.5197960485
 21
11.3862757491
 31
0.0
  0
LINE
  5
A9
330
1F
100
AcDbEntity
  8
AUFNAHME
  6
CONTINUOUS
100
AcDbLine
 10
-0.9637526712
 20
12.1155364394
 30
0.0
 11
-0.9637526712
 21
-12.1155364393
 31
0.0
  0
LINE
  5
AA
330
1F
100
AcDbEntity
  8
AUFNAHME
  6
CONTINUOUS
100
AcDbLine
 10
33.0
 20
-11.25
 30
0.0
 11
33.0
 21
11.25
 31
0.0
  0
LINE
  5
AB
330
1F
100
AcDbEntity
  8
AUFNAHME
  6
CONTINUOUS
100
AcDbLine
 10
32.25
 20
0.0
 30
0.0
 11
32.25
 21
-12.0
 31
0.0
  0
LINE
  5
AC
330
1F
100
AcDbEntity
  8
AUFNAHME
  6
CONTINUOUS
100
AcDbLine
 10
32.25
 20
12.0
 30
0.0
 11
32.25
 21
0.0
 31
0.0
  0
LINE
  5
AD
330
1F
100
AcDbEntity
  8
AUFNAHME
  6
CONTINUOUS
100
AcDbLine
 10
21.6
 20
12.0
 30
0.0
 11
21.6
 21
-12.0
 31
0.0
  0
LINE
  5
AE
330
1F
100
AcDbEntity
  8
AUFNAHME
  6
CONTINUOUS
100
AcDbLine
 10
21.45
 20
-11.85
 30
0.0
 11
21.45
 21
11.85
 31
0.0
  0
LINE
  5
AF
330
1F
100
AcDbEntity
  8
AUFNAHME
  6
CONTINUOUS
100
AcDbLine
 10
-15.8999999999
 20
-10.8315826849
 30
0.0
 11
-15.8999999999
 21
10.831582685
 31
0.0
  0
LINE
  5
B0
330
1F
100
AcDbEntity
  8
AUFNAHME
  6
CONTINUOUS
100
AcDbLine
 10
-30.0164411774
 20
-22.8083016462
 30
0.0
 11
-25.914872757
 21
-31.0190915656
 31
0.0
  0
LINE
  5
B1
330
1F
100
AcDbEntity
  8
AUFNAHME
  6
CONTINUOUS
100
AcDbLine
 10
-27.397190209
 20
-22.5343590474
 30
0.0
 11
-23.2956289567
 21
-30.7451669585
 31
0.0
  0
LINE
  5
B2
330
1F
100
AcDbEntity
  8
AUFNAHME
  6
CONTINUOUS
100
AcDbLine
 10
-30.301042197
 20
-32.5817365256
 30
0.0
 11
-30.301042197
 21
-34.6517438456
 31
0.0
  0
LINE
  5
B3
330
1F
100
AcDbEntity
  8
AUFNAHME
  6
CONTINUOUS
100
AcDbLine
 10
-30.301042197
 20
-34.6517438456
 30
0.0
 11
-25.711034417
 21
-34.6517393156
 31
0.0
  0
LINE
  5
B4
330
1F
100
AcDbEntity
  8
AUFNAHME
  6
CONTINUOUS
100
AcDbLine
 10
-20.851037617
 20
-34.6517438456
 30
0.0
 11
-20.851037617
 21
-18.9017438456
 31
0.0
  0
LINE
  5
B5
330
1F
100
AcDbEntity
  8
EW
  6
HIDDEN
100
AcDbLine
 10
-9.4815450133
 20
8.5175
 30
0.0
 11
-9.4815450133
 21
-8.5175
 31
0.0
  0
LINE
  5
B6
330
1F
100
AcDbEntity
  8
EW
  6
HIDDEN
100
AcDbLine
 10
7.95
 20
-8.175
 30
0.0
 11
7.95
 21
8.175
 31
0.0
  0
LINE
  5
B7
330
1F
100
AcDbEntity
  8
EW
  6
HIDDEN
100
AcDbLine
 10
7.0013928287
 20
8.5175
 30
0.0
 11
7.0013928287
 21
-8.5175
 31
0.0
  0
LINE
  5
B8
330
1F
100
AcDbEntity
  8
EW
  6
HIDDEN
100
AcDbLine
 10
17.3504809472
 20
0.0
 30
0.0
 11
17.3504809472
 21
7.25
 31
0.0
  0
LINE
  5
B9
330
1F
100
AcDbEntity
  8
EW
  6
HIDDEN
100
AcDbLine
 10
17.3504809472
 20
-7.25
 30
0.0
 11
17.3504809472
 21
0.0
 31
0.0
  0
LINE
  5
BA
330
1F
100
AcDbEntity
  8
EW
  6
HIDDEN
100
AcDbLine
 10
15.5
 20
-7.25
 30
0.0
 11
15.5
 21
7.25
 31
0.0
  0
LINE
  5
BB
330
1F
100
AcDbEntity
  8
EW
  6
HIDDEN
100
AcDbLine
 10
17.7834936491
 20
0.0
 30
0.0
 11
17.7834936491
 21
7.0
 31
0.0
  0
LINE
  5
BC
330
1F
100
AcDbEntity
  8
EW
  6
HIDDEN
100
AcDbLine
 10
17.7834936491
 20
-7.0
 30
0.0
 11
17.7834936491
 21
0.0
 31
0.0
  0
LINE
  5
BD
330
1F
100
AcDbEntity
  8
EW
  6
HIDDEN
100
AcDbLine
 10
26.1
 20
-6.2229279171
 30
0.0
 11
33.0
 21
-6.2229279171
 31
0.0
  0
LINE
  5
BE
330
1F
100
AcDbEntity
  8
EW
  6
HIDDEN
100
AcDbLine
 10
33.0
 20
6.2229279172
 30
0.0
 11
26.1
 21
6.2229279172
 31
0.0
  0
LINE
  5
BF
330
1F
100
AcDbEntity
  8
EW
  6
HIDDEN
100
AcDbLine
 10
25.7287302543
 20
6.9956310282
 30
0.0
 11
25.7274425146
 21
6.9971400076
 31
0.0
  0
LINE
  5
C0
330
1F
100
AcDbEntity
  8
EW
  6
HIDDEN
100
AcDbLine
 10
25.7274425146
 20
6.9971400076
 30
0.0
 11
25.7564154583
 21
6.9630738542
 31
0.0
  0
LINE
  5
C1
330
1F
100
AcDbEntity
  8
EW
  6
HIDDEN
100
AcDbLine
 10
25.7564154583
 20
6.9630738542
 30
0.0
 11
25.817541682
 21
6.8903482695
 31
0.0
  0
LINE
  5
C2
330
1F
100
AcDbEntity
  8
EW
  6
HIDDEN
100
AcDbLine
 10
25.817541682
 20
6.8903482695
 30
0.0
 11
25.9374015003
 21
6.7443805079
 31
0.0
  0
LINE
  5
C3
330
1F
100
AcDbEntity
  8
EW
  6
HIDDEN
100
AcDbLine
 10
25.9374015003
 20
6.7443805079
 30
0.0
 11
26.1
 21
6.5392441861
 31
0.0
  0
LINE
  5
C4
330
1F
100
AcDbEntity
  8
AUFNAHME
  6
CONTINUOUS
100
AcDbLine
 10
-12.571031207
 20
-34.6517438456
 30
0.0
 11
-12.571031207
 21
-18.9017438456
 31
0.0
  0
LINE
  5
C5
330
1F
100
AcDbEntity
  8
EW
  6
HIDDEN
100
AcDbLine
 10
8.95
 20
4.25
 30
0.0
 11
8.95
 21
-4.25
 31
0.0
  0
LINE
  5
C6
330
1F
100
AcDbEntity
  8
EW
  6
HIDDEN
100
AcDbLine
 10
13.8
 20
5.25
 30
0.0
 11
13.8
 21
-5.25
 31
0.0
  0
LINE
  5
C7
330
1F
100
AcDbEntity
  8
EW
  6
HIDDEN
100
AcDbLine
 10
12.8
 20
5.25
 30
0.0
 11
12.8
 21
-5.25
 31
0.0
  0
LINE
  5
C8
330
1F
100
AcDbEntity
  8
EW
  6
HIDDEN
100
AcDbLine
 10
11.8
 20
4.25
 30
0.0
 11
11.8
 21
-4.25
 31
0.0
  0
LINE
  5
C9
330
1F
100
AcDbEntity
  8
AUFNAHME
  6
CONTINUOUS
100
AcDbLine
 10
-12.571031207
 20
-34.6517438456
 30
0.0
 11
-9.871038077
 21
-34.6517438456
 31
0.0
  0
LINE
  5
CA
330
1F
100
AcDbEntity
  8
AUFNAHME
  6
CONTINUOUS
100
AcDbLine
 10
-9.871038077
 20
-34.6517438456
 30
0.0
 11
-9.871038077
 21
-27.8117475056
 31
0.0
  0
LINE
  5
CB
330
1F
100
AcDbEntity
  8
EW
  6
HIDDEN
100
AcDbLine
 10
26.1
 20
8.775
 30
0.0
 11
26.1
 21
6.2229279172
 31
0.0
  0
LINE
  5
CC
330
1F
100
AcDbEntity
  8
AUFNAHME
  6
CONTINUOUS
100
AcDbLine
 10
-8.521022915
 20
-27.8117340357
 30
0.0
 11
-9.871026627
 21
-27.8117322456
 31
0.0
  0
LINE
  5
CD
330
1F
100
AcDbEntity
  8
AUFNAHME
  6
CONTINUOUS
100
AcDbLine
 10
-4.403440117
 20
-34.6517438456
 30
0.0
 11
-6.923440567
 21
-34.6517438456
 31
0.0
  0
LINE
  5
CE
330
1F
100
AcDbEntity
  8
EW
  6
HIDDEN
100
AcDbLine
 10
26.1
 20
-6.2229279171
 30
0.0
 11
26.1
 21
-8.775
 31
0.0
  0
LINE
  5
CF
330
1F
100
AcDbEntity
  8
AUFNAHME
  6
CONTINUOUS
100
AcDbLine
 10
-7.441045397
 20
-28.8917493356
 30
0.0
 11
-7.441045397
 21
-33.1217374356
 31
0.0
  0
LINE
  5
D0
330
1F
100
AcDbEntity
  8
AUFNAHME
  6
CONTINUOUS
100
AcDbLine
 10
-5.101026177
 20
-21.4217481156
 30
0.0
 11
-5.101026177
 21
-24.0317487256
 31
0.0
  0
LINE
  5
D1
330
1F
100
AcDbEntity
  8
EW
  6
HIDDEN
100
AcDbLine
 10
26.1
 20
9.775
 30
0.0
 11
26.1
 21
8.775
 31
0.0
  0
LINE
  5
D2
330
1F
100
AcDbEntity
  8
EW
  6
HIDDEN
100
AcDbLine
 10
26.1
 20
-8.775
 30
0.0
 11
26.1
 21
-9.775
 31
0.0
  0
LINE
  5
D3
330
1F
100
AcDbEntity
  8
AUFNAHME
  6
CONTINUOUS
100
AcDbLine
 10
-8.2510387381
 20
-20.9717450257
 30
0.0
 11
-9.871038077
 21
-20.9717511656
 31
0.0
  0
LINE
  5
D4
330
1F
100
AcDbEntity
  8
AUFNAHME
  6
CONTINUOUS
100
AcDbLine
 10
-7.351035287
 20
-21.8717450656
 30
0.0
 11
-7.351035287
 21
-24.7517346856
 31
0.0
  0
LINE
  5
D5
330
1F
100
AcDbEntity
  8
AUFNAHME
  6
CONTINUOUS
100
AcDbLine
 10
-9.871038077
 20
-20.9717511656
 30
0.0
 11
-9.871038077
 21
-25.6517438456
 31
0.0
  0
LINE
  5
D6
330
1F
100
AcDbEntity
  8
AUFNAHME
  6
CONTINUOUS
100
AcDbLine
 10
-8.251035327
 20
-25.6517347256
 30
0.0
 11
-9.871038077
 21
-25.6517438456
 31
0.0
  0
LINE
  5
D7
330
1F
100
AcDbEntity
  8
EW
  6
HIDDEN
100
AcDbLine
 10
-3.3156588712
 20
10.28
 30
0.0
 11
-8.242088142
 21
10.28
 31
0.0
  0
LINE
  5
D8
330
1F
100
AcDbEntity
  8
EW
  6
HIDDEN
100
AcDbLine
 10
-8.242088142
 20
-10.28
 30
0.0
 11
-3.3156588712
 21
-10.28
 31
0.0
  0
LINE
  5
D9
330
1F
100
AcDbEntity
  8
EW
  6
HIDDEN
100
AcDbLine
 10
-8.5893676678
 20
10.0784866015
 30
0.0
 11
-9.4815450133
 21
8.5175
 31
0.0
  0
LINE
  5
DA
330
1F
100
AcDbEntity
  8
EW
  6
HIDDEN
100
AcDbLine
 10
-9.4815450133
 20
-8.5175
 30
0.0
 11
-8.5893676678
 21
-10.0784866015
 31
0.0
  0
LINE
  5
DB
330
1F
100
AcDbEntity
  8
EW
  6
HIDDEN
100
AcDbLine
 10
-15.525
 20
-8.7628738644
 30
0.0
 11
-15.2740381057
 21
-8.6179809471
 31
0.0
  0
LINE
  5
DC
330
1F
100
AcDbEntity
  8
EW
  6
HIDDEN
100
AcDbLine
 10
-15.2740381057
 20
8.6179809472
 30
0.0
 11
-15.525
 21
8.7628738645
 31
0.0
  0
LINE
  5
DD
330
1F
100
AcDbEntity
  8
EW
  6
HIDDEN
100
AcDbLine
 10
7.2386908691
 20
8.6281538935
 30
0.0
 11
7.0013928287
 21
8.5175
 31
0.0
  0
LINE
  5
DE
330
1F
100
AcDbEntity
  8
EW
  6
HIDDEN
100
AcDbLine
 10
7.0013928287
 20
-8.5175
 30
0.0
 11
7.2386908691
 21
-8.6281538935
 31
0.0
  0
LINE
  5
DF
330
1F
100
AcDbEntity
  8
EW
  6
HIDDEN
100
AcDbLine
 10
-9.4815450133
 20
8.5175
 30
0.0
 11
-14.8990381057
 21
8.5175
 31
0.0
  0
LINE
  5
E0
330
1F
100
AcDbEntity
  8
EW
  6
HIDDEN
100
AcDbLine
 10
-14.8990381057
 20
-8.5175
 30
0.0
 11
-9.4815450133
 21
-8.5175
 31
0.0
  0
LINE
  5
E1
330
1F
100
AcDbEntity
  8
EW
  6
HIDDEN
100
AcDbLine
 10
7.0013928287
 20
8.5175
 30
0.0
 11
0.0
 21
8.5175
 31
0.0
  0
LINE
  5
E2
330
1F
100
AcDbEntity
  8
EW
  6
HIDDEN
100
AcDbLine
 10
0.0
 20
-8.5175
 30
0.0
 11
7.0013928287
 21
-8.5175
 31
0.0
  0
LINE
  5
E3
330
1F
100
AcDbEntity
  8
EW
  6
HIDDEN
100
AcDbLine
 10
15.5
 20
-7.25
 30
0.0
 11
17.3504809472
 21
-7.25
 31
0.0
  0
LINE
  5
E4
330
1F
100
AcDbEntity
  8
EW
  6
HIDDEN
100
AcDbLine
 10
17.3504809472
 20
7.25
 30
0.0
 11
15.5
 21
7.25
 31
0.0
  0
LINE
  5
E5
330
1F
100
AcDbEntity
  8
EW
  6
HIDDEN
100
AcDbLine
 10
17.3504809472
 20
-7.25
 30
0.0
 11
17.7834936491
 21
-7.0
 31
0.0
  0
LINE
  5
E6
330
1F
100
AcDbEntity
  8
EW
  6
HIDDEN
100
AcDbLine
 10
17.7834936491
 20
7.0
 30
0.0
 11
17.3504809472
 21
7.25
 31
0.0
  0
LINE
  5
E7
330
1F
100
AcDbEntity
  8
EW
  6
HIDDEN
100
AcDbLine
 10
17.7834936491
 20
-7.0
 30
0.0
 11
25.7287302543
 21
-7.0
 31
0.0
  0
LINE
  5
E8
330
1F
100
AcDbEntity
  8
EW
  6
HIDDEN
100
AcDbLine
 10
25.7287302543
 20
7.0
 30
0.0
 11
17.7834936491
 21
7.0
 31
0.0
  0
LINE
  5
E9
330
1F
100
AcDbEntity
  8
EW
  6
HIDDEN
100
AcDbLine
 10
7.95
 20
-5.25
 30
0.0
 11
8.95
 21
-4.25
 31
0.0
  0
LINE
  5
EA
330
1F
100
AcDbEntity
  8
EW
  6
HIDDEN
100
AcDbLine
 10
8.95
 20
4.25
 30
0.0
 11
7.95
 21
5.25
 31
0.0
  0
LINE
  5
EB
330
1F
100
AcDbEntity
  8
EW
  6
HIDDEN
100
AcDbLine
 10
13.8
 20
5.25
 30
0.0
 11
12.8
 21
5.25
 31
0.0
  0
LINE
  5
EC
330
1F
100
AcDbEntity
  8
EW
  6
HIDDEN
100
AcDbLine
 10
12.8
 20
-5.25
 30
0.0
 11
13.8
 21
-5.25
 31
0.0
  0
LINE
  5
ED
330
1F
100
AcDbEntity
  8
EW
  6
HIDDEN
100
AcDbLine
 10
12.8
 20
5.25
 30
0.0
 11
11.8
 21
4.25
 31
0.0
  0
LINE
  5
EE
330
1F
100
AcDbEntity
  8
EW
  6
HIDDEN
100
AcDbLine
 10
11.8
 20
-4.25
 30
0.0
 11
12.8
 21
-5.25
 31
0.0
  0
LINE
  5
EF
330
1F
100
AcDbEntity
  8
EW
  6
HIDDEN
100
AcDbLine
 10
11.8
 20
4.25
 30
0.0
 11
8.95
 21
4.25
 31
0.0
  0
LINE
  5
F0
330
1F
100
AcDbEntity
  8
EW
  6
HIDDEN
100
AcDbLine
 10
8.95
 20
-4.25
 30
0.0
 11
11.8
 21
-4.25
 31
0.0
  0
LINE
  5
F1
330
1F
100
AcDbEntity
  8
EW
  6
HIDDEN
100
AcDbLine
 10
26.1
 20
7.375
 30
0.0
 11
25.725
 21
7.0
 31
0.0
  0
LINE
  5
F2
330
1F
100
AcDbEntity
  8
EW
  6
HIDDEN
100
AcDbLine
 10
25.725
 20
-7.0
 30
0.0
 11
26.1
 21
-7.375
 31
0.0
  0
LINE
  5
F3
330
1F
100
AcDbEntity
  8
EW
  6
HIDDEN
100
AcDbLine
 10
15.5
 20
2.1
 30
0.0
 11
13.8
 21
2.1
 31
0.0
  0
LINE
  5
F4
330
1F
100
AcDbEntity
  8
EW
  6
HIDDEN
100
AcDbLine
 10
13.8
 20
-2.1
 30
0.0
 11
15.5
 21
-2.1
 31
0.0
  0
LINE
  5
F5
330
1F
100
AcDbEntity
  8
AUFNAHME
  6
CONTINUOUS
100
AcDbLine
 10
-4.831678027
 20
-29.1285275956
 30
0.0
 11
-4.831048607
 21
-33.1221417956
 31
0.0
  0
LINE
  5
F6
330
1F
100
AcDbEntity
  8
AUFNAHME
  6
CONTINUOUS
100
AcDbLine
 10
-4.403440117
 20
-34.6517438456
 30
0.0
 11
-4.313443777
 21
-34.6517438456
 31
0.0
  0
LINE
  5
F7
330
1F
100
AcDbEntity
  8
EW
  6
HIDDEN
100
AcDbLine
 10
33.0
 20
9.775
 30
0.0
 11
26.1
 21
9.775
 31
0.0
  0
LINE
  5
F8
330
1F
100
AcDbEntity
  8
EW
  6
HIDDEN
100
AcDbLine
 10
26.1
 20
-9.775
 30
0.0
 11
33.0
 21
-9.775
 31
0.0
  0
LINE
  5
F9
330
1F
100
AcDbEntity
  8
AUFNAHME
  6
CONTINUOUS
100
AcDbLine
 10
-27.6010379766
 20
-18.9017254856
 30
0.0
 11
-23.551042197
 21
-18.9017285856
 31
0.0
  0
LINE
  5
FA
330
1F
100
AcDbEntity
  8
AUFNAHME
  6
CONTINUOUS
100
AcDbLine
 10
-7.621038077
 20
-18.9017285856
 30
0.0
 11
-12.571042657
 21
-18.9017285856
 31
0.0
  0
LINE
  5
FB
330
1F
100
AcDbEntity
  8
AUFNAHME
  6
CONTINUOUS
100
AcDbLine
 10
-54.601037617
 20
-34.6517438456
 30
0.0
 11
-57.391038537
 21
-34.6517438456
 31
0.0
  0
LINE
  5
FC
330
1F
100
AcDbEntity
  8
AUFNAHME
  6
CONTINUOUS
100
AcDbLine
 10
-54.601037617
 20
-31.2317456756
 30
0.0
 11
-54.601037617
 21
-34.6517438456
 31
0.0
  0
LINE
  5
FD
330
1F
100
AcDbEntity
  8
AUFNAHME
  6
CONTINUOUS
100
AcDbLine
 10
-53.521035787
 20
-29.1617383556
 30
0.0
 11
-54.601037617
 21
-31.2317456756
 31
0.0
  0
LINE
  5
FE
330
1F
100
AcDbEntity
  8
AUFNAHME
  6
CONTINUOUS
100
AcDbLine
 10
-51.091043107
 20
-34.6517438456
 30
0.0
 11
-53.521035787
 21
-29.1617383556
 31
0.0
  0
LINE
  5
FF
330
1F
100
AcDbEntity
  8
AUFNAHME
  6
CONTINUOUS
100
AcDbLine
 10
11.4499995471
 20
12.9529190138
 30
0.0
 11
13.9158762977
 21
12.9529190138
 31
0.0
  0
LINE
  5
100
330
1F
100
AcDbEntity
  8
AUFNAHME
  6
CONTINUOUS
100
AcDbLine
 10
19.9500000001
 20
9.352973558
 30
0.0
 11
7.9499999047
 21
9.349999845
 31
0.0
  0
LINE
  5
101
330
1F
100
AcDbEntity
  8
AUFNAHME
  6
CONTINUOUS
100
AcDbLine
 10
-2.6773617919
 20
12.029684279
 30
0.0
 11
-2.6773617919
 21
-12.0296842789
 31
0.0
  0
LINE
  5
102
330
1F
100
AcDbEntity
  8
AUFNAHME
  6
CONTINUOUS
100
AcDbLine
 10
-15.525
 20
-8.7628738644
 30
0.0
 11
-15.525
 21
8.7628738645
 31
0.0
  0
LINE
  5
103
330
1F
100
AcDbEntity
  8
AUFNAHME
  6
CONTINUOUS
100
AcDbLine
 10
-48.301042197
 20
-34.6517438456
 30
0.0
 11
-51.091043107
 21
-34.6517438456
 31
0.0
  0
LINE
  5
104
330
1F
100
AcDbEntity
  8
AUFNAHME
  6
CONTINUOUS
100
AcDbLine
 10
16.2874994785
 20
9.349999845
 30
0.0
 11
15.7124990583
 21
9.349999845
 31
0.0
  0
LINE
  5
105
330
1F
100
AcDbEntity
  8
AUFNAHME
  6
CONTINUOUS
100
AcDbLine
 10
14.9740007881
 20
-13.1373282749
 30
0.0
 11
14.9740007881
 21
0.0
 31
0.0
  0
LINE
  5
106
330
1F
100
AcDbEntity
  8
AUFNAHME
  6
CONTINUOUS
100
AcDbLine
 10
-51.901048297
 20
-25.6517438456
 30
0.0
 11
-48.301042197
 21
-34.6517438456
 31
0.0
  0
LINE
  5
107
330
1F
100
AcDbEntity
  8
AUFNAHME
  6
CONTINUOUS
100
AcDbLine
 10
-48.841043107
 20
-18.9017438456
 30
0.0
 11
-51.901033037
 21
-25.6517438456
 31
0.0
  0
LINE
  5
108
330
1F
100
AcDbEntity
  8
AUFNAHME
  6
CONTINUOUS
100
AcDbLine
 10
-54.601037617
 20
-26.0117520856
 30
0.0
 11
-51.631044027
 21
-18.9017591056
 31
0.0
  0
LINE
  5
109
330
1F
100
AcDbEntity
  8
AUFNAHME
  6
CONTINUOUS
100
AcDbLine
 10
-54.601037617
 20
-18.9017438456
 30
0.0
 11
-54.601037617
 21
-26.0117520856
 31
0.0
  0
LINE
  5
10A
330
1F
100
AcDbEntity
  8
AUFNAHME
  6
CONTINUOUS
100
AcDbLine
 10
14.0658760429
 20
12.7674638182
 30
0.0
 11
13.9158762977
 21
12.9529190138
 31
0.0
  0
LINE
  5
10B
330
1F
100
AcDbEntity
  8
AUFNAHME
  6
CONTINUOUS
100
AcDbLine
 10
-57.391038537
 20
-34.6517438456
 30
0.0
 11
-57.391038537
 21
-18.9017438456
 31
0.0
  0
LINE
  5
10C
330
1F
100
AcDbEntity
  8
AUFNAHME
  6
CONTINUOUS
100
AcDbLine
 10
-51.631044027
 20
-18.9017438456
 30
0.0
 11
-48.841043107
 21
-18.9017438456
 31
0.0
  0
LINE
  5
10D
330
1F
100
AcDbEntity
  8
AUFNAHME
  6
CONTINUOUS
100
AcDbLine
 10
-57.391038537
 20
-18.9017438456
 30
0.0
 11
-54.601037617
 21
-18.9017438456
 31
0.0
  0
LINE
  5
10E
330
1F
100
AcDbEntity
  8
AUFNAHME
  6
CONTINUOUS
100
AcDbLine
 10
-35.341031667
 20
-18.9017438456
 30
0.0
 11
-35.341031667
 21
-34.6517438456
 31
0.0
  0
LINE
  5
10F
330
1F
100
AcDbEntity
  8
AUFNAHME
  6
CONTINUOUS
100
AcDbLine
 10
-32.461034417
 20
-34.6517438456
 30
0.0
 11
-32.461034417
 21
-18.9017438456
 31
0.0
  0
LINE
  5
110
330
1F
100
AcDbEntity
  8
AUFNAHME
  6
CONTINUOUS
100
AcDbLine
 10
-35.341031667
 20
-34.6517438456
 30
0.0
 11
-32.461034417
 21
-34.6517438456
 31
0.0
  0
LINE
  5
111
330
1F
100
AcDbEntity
  8
AUFNAHME
  6
CONTINUOUS
100
AcDbLine
 10
-32.461034417
 20
-18.9017438456
 30
0.0
 11
-35.341043107
 21
-18.9017438456
 31
0.0
  0
LINE
  5
112
330
1F
100
AcDbEntity
  8
AUFNAHME
  6
CONTINUOUS
100
AcDbLine
 10
-15.001035327
 20
-34.6517438456
 30
0.0
 11
-15.001035327
 21
-32.5817365256
 31
0.0
  0
LINE
  5
113
330
1F
100
AcDbEntity
  8
AUFNAHME
  6
CONTINUOUS
100
AcDbLine
 10
-20.851037617
 20
-34.6517438456
 30
0.0
 11
-15.001035327
 21
-34.6517438456
 31
0.0
  0
LINE
  5
114
330
1F
100
AcDbEntity
  8
AUFNAHME
  6
CONTINUOUS
100
AcDbLine
 10
-15.001046777
 20
-20.9717359156
 30
0.0
 11
-15.001046777
 21
-18.9017438456
 31
0.0
  0
LINE
  5
115
330
1F
100
AcDbEntity
  8
AUFNAHME
  6
CONTINUOUS
100
AcDbLine
 10
-17.971063257
 20
-20.9717359156
 30
0.0
 11
-15.001058217
 21
-20.9717359156
 31
0.0
  0
LINE
  5
116
330
1F
100
AcDbEntity
  8
AUFNAHME
  6
CONTINUOUS
100
AcDbLine
 10
-17.971063257
 20
-25.6517438456
 30
0.0
 11
-17.971063257
 21
-20.9717511656
 31
0.0
  0
LINE
  5
117
330
1F
100
AcDbEntity
  8
AUFNAHME
  6
CONTINUOUS
100
AcDbLine
 10
-15.001046777
 20
-25.6517438456
 30
0.0
 11
-17.971051807
 21
-25.6517438456
 31
0.0
  0
LINE
  5
118
330
1F
100
AcDbEntity
  8
AUFNAHME
  6
CONTINUOUS
100
AcDbLine
 10
-15.001046777
 20
-27.8117246156
 30
0.0
 11
-15.001046777
 21
-25.6517209556
 31
0.0
  0
LINE
  5
119
330
1F
100
AcDbEntity
  8
AUFNAHME
  6
CONTINUOUS
100
AcDbLine
 10
-17.971063257
 20
-27.8117246156
 30
0.0
 11
-15.001058217
 21
-27.8117246156
 31
0.0
  0
LINE
  5
11A
330
1F
100
AcDbEntity
  8
AUFNAHME
  6
CONTINUOUS
100
AcDbLine
 10
-17.971063257
 20
-32.5817365256
 30
0.0
 11
-17.971063257
 21
-27.8117246156
 31
0.0
  0
LINE
  5
11B
330
1F
100
AcDbEntity
  8
AUFNAHME
  6
CONTINUOUS
100
AcDbLine
 10
-15.001046777
 20
-32.5817365256
 30
0.0
 11
-17.971051807
 21
-32.5817365256
 31
0.0
  0
LINE
  5
11C
330
1F
100
AcDbEntity
  8
AUFNAHME
  6
CONTINUOUS
100
AcDbLine
 10
-15.001046777
 20
-18.9017438456
 30
0.0
 11
-20.851049057
 21
-18.9017438456
 31
0.0
  0
LINE
  5
11D
330
1F
100
AcDbEntity
  8
AUFNAHME
  6
CONTINUOUS
100
AcDbLine
 10
-40.921037317
 20
-34.6517438456
 30
0.0
 11
-47.221040367
 21
-34.6517438456
 31
0.0
  0
LINE
  5
11E
330
1F
100
AcDbEntity
  8
AUFNAHME
  6
CONTINUOUS
100
AcDbLine
 10
-41.371026627
 20
-32.1317319456
 30
0.0
 11
-40.921037317
 21
-34.6517285856
 31
0.0
  0
LINE
  5
11F
330
1F
100
AcDbEntity
  8
AUFNAHME
  6
CONTINUOUS
100
AcDbLine
 10
-44.251046777
 20
-32.1317319456
 30
0.0
 11
-41.371049517
 21
-32.1317319456
 31
0.0
  0
LINE
  5
120
330
1F
100
AcDbEntity
  8
AUFNAHME
  6
CONTINUOUS
100
AcDbLine
 10
-42.721040367
 20
-22.7717465956
 30
0.0
 11
-44.251039147
 21
-32.1317548356
 31
0.0
  0
LINE
  5
121
330
1F
100
AcDbEntity
  8
AUFNAHME
  6
CONTINUOUS
100
AcDbLine
 10
-39.661042807
 20
-34.6517438456
 30
0.0
 11
-42.721040367
 21
-22.7717465956
 31
0.0
  0
LINE
  5
122
330
1F
100
AcDbEntity
  8
AUFNAHME
  6
CONTINUOUS
100
AcDbLine
 10
-36.691033957
 20
-34.6517438456
 30
0.0
 11
-39.661027547
 21
-34.6517438456
 31
0.0
  0
LINE
  5
123
330
1F
100
AcDbEntity
  8
AUFNAHME
  6
CONTINUOUS
100
AcDbLine
 10
-41.101037617
 20
-18.4517392656
 30
0.0
 11
-36.691045397
 21
-34.6517438456
 31
0.0
  0
LINE
  5
124
330
1F
100
AcDbEntity
  8
AUFNAHME
  6
CONTINUOUS
100
AcDbLine
 10
-44.161042807
 20
-18.4517392656
 30
0.0
 11
-41.101037617
 21
-18.4517392656
 31
0.0
  0
LINE
  5
125
330
1F
100
AcDbEntity
  8
AUFNAHME
  6
CONTINUOUS
100
AcDbLine
 10
-47.221040367
 20
-34.6517438456
 30
0.0
 11
-44.161042807
 21
-18.4517392656
 31
0.0
  0
LINE
  5
126
330
1F
100
AcDbEntity
  8
AUFNAHME
  6
CONTINUOUS
100
AcDbLine
 10
14.9651777041
 20
10.9490825683
 30
0.0
 11
14.0658760429
 21
12.7674638182
 31
0.0
  0
LINE
  5
127
330
1F
100
AcDbEntity
  8
AUFNAHME
  6
CONTINUOUS
100
AcDbLine
 10
14.9651777041
 20
10.9490825683
 30
0.0
 11
14.962499401
 21
10.386438936
 31
0.0
  0
LINE
  5
128
330
1F
100
AcDbEntity
  8
AUFNAHME
  6
CONTINUOUS
100
AcDbLine
 10
17.0375
 20
10.386438936
 30
0.0
 11
17.0374999119
 21
10.7827436999
 31
0.0
  0
LINE
  5
129
330
1F
100
AcDbEntity
  8
AUFNAHME
  6
CONTINUOUS
100
AcDbLine
 10
17.9341224939
 20
12.7674638182
 30
0.0
 11
17.0375
 21
10.9490825683
 31
0.0
  0
LINE
  5
12A
330
1F
100
AcDbEntity
  8
AUFNAHME
  6
CONTINUOUS
100
AcDbLine
 10
18.0841231704
 20
12.9529190138
 30
0.0
 11
17.9341224939
 21
12.7674638182
 31
0.0
  0
LINE
  5
12B
330
1F
100
AcDbEntity
  8
AUFNAHME
  6
CONTINUOUS
100
AcDbLine
 10
18.0841231704
 20
12.9529190138
 30
0.0
 11
19.7999993325
 21
12.9529190138
 31
0.0
  0
LINE
  5
12C
330
1F
100
AcDbEntity
  8
AUFNAHME
  6
CONTINUOUS
100
AcDbLine
 10
19.950000009
 20
12.7674638182
 30
0.0
 11
19.7999993325
 21
12.9529190138
 31
0.0
  0
LINE
  5
12D
330
1F
100
AcDbEntity
  8
AUFNAHME
  6
CONTINUOUS
100
AcDbLine
 10
11.4499995471
 20
12.9529190138
 30
0.0
 11
11.4499995471
 21
9.349999845
 31
0.0
  0
LINE
  5
12E
330
1F
100
AcDbEntity
  8
AUFNAHME
  6
CONTINUOUS
100
AcDbLine
 10
18.0812366505
 20
12.9493502291
 30
0.0
 11
18.0812366505
 21
15.97
 31
0.0
  0
LINE
  5
12F
330
1F
100
AcDbEntity
  8
AUFNAHME
  6
CONTINUOUS
100
AcDbLine
 10
17.0375
 20
10.386438936
 30
0.0
 11
17.0375
 21
14.2720027129
 31
0.0
  0
LINE
  5
130
330
1F
100
AcDbEntity
  8
AUFNAHME
  6
CONTINUOUS
100
AcDbLine
 10
14.9651777041
 20
10.9490825683
 30
0.0
 11
14.9625
 21
14.2720027129
 31
0.0
  0
LINE
  5
131
330
1F
100
AcDbEntity
  8
AUFNAHME
  6
CONTINUOUS
100
AcDbLine
 10
13.9187633496
 20
9.3514789608
 30
0.0
 11
13.9187633496
 21
-15.97
 31
0.0
  0
ARC
  5
132
330
1F
100
AcDbEntity
  8
AUFNAHME
  6
CONTINUOUS
100
AcDbCircle
 10
16.2875
 20
-13.975
 30
0.0
 40
0.7500000000000018
100
AcDbArc
 50
0.0
 51
90.0
  0
ARC
  5
133
330
1F
100
AcDbEntity
  8
AUFNAHME
  6
CONTINUOUS
100
AcDbCircle
 10
16.2875
 20
13.975
 30
0.0
 40
0.7500000000000284
100
AcDbArc
 50
270.0
 51
0.0
  0
ARC
  5
134
330
1F
100
AcDbEntity
  8
AUFNAHME
  6
CONTINUOUS
100
AcDbCircle
 10
15.7125
 20
-13.975
 30
0.0
 40
0.7500000000000018
100
AcDbArc
 50
90.0
 51
180.0
  0
ARC
  5
135
330
1F
100
AcDbEntity
  8
AUFNAHME
  6
CONTINUOUS
100
AcDbCircle
 10
15.7125
 20
13.975
 30
0.0
 40
0.7500000000000284
100
AcDbArc
 50
180.0
 51
270.0
  0
ARC
  5
136
330
1F
100
AcDbEntity
  8
AUFNAHME
  6
CONTINUOUS
100
AcDbCircle
 10
20.95
 20
-12.85
 30
0.0
 40
1.000000000000014
100
AcDbArc
 50
90.0
 51
180.0
  0
ARC
  5
137
330
1F
100
AcDbEntity
  8
AUFNAHME
  6
CONTINUOUS
100
AcDbCircle
 10
20.95
 20
12.85
 30
0.0
 40
1.000000000000014
100
AcDbArc
 50
180.0
 51
270.0
  0
ARC
  5
138
330
1F
100
AcDbEntity
  8
AUFNAHME
  6
CONTINUOUS
100
AcDbCircle
 10
-0.2
 20
-12.325
 30
0.0
 40
0.3999999999999906
100
AcDbArc
 50
60.0
 51
105.0
  0
ARC
  5
139
330
1F
100
AcDbEntity
  8
AUFNAHME
  6
CONTINUOUS
100
AcDbCircle
 10
-0.2
 20
12.325
 30
0.0
 40
0.4000000000000402
100
AcDbArc
 50
255.0
 51
300.0
  0
ARC
  5
13A
330
1F
100
AcDbEntity
  8
AUFNAHME
  6
CONTINUOUS
100
AcDbCircle
 10
-15.3052673067
 20
10.831582685
 30
0.0
 40
0.5947326932472805
100
AcDbArc
 50
111.144086083
 51
180.0000000003
  0
ARC
  5
13B
330
1F
100
AcDbEntity
  8
AUFNAHME
  6
CONTINUOUS
100
AcDbCircle
 10
-15.3052673067
 20
-10.8315826849
 30
0.0
 40
0.5947326932472805
100
AcDbArc
 50
180.0
 51
248.855913917
  0
ARC
  5
13C
330
1F
100
AcDbEntity
  8
AUFNAHME
  6
CONTINUOUS
100
AcDbCircle
 10
-26.431028007
 20
-22.0517301156
 30
0.0
 40
1.080000040000035
100
AcDbArc
 50
90.00000763
 51
206.5435953698
  0
CIRCLE
  5
13D
330
1F
100
AcDbEntity
  8
AUFNAHME
  6
CONTINUOUS
100
AcDbCircle
 10
26.45
 20
0.0
 30
0.0
 40
2.199999999999992
  0
CIRCLE
  5
13E
330
1F
100
AcDbEntity
  8
AUFNAHME
  6
CONTINUOUS
100
AcDbCircle
 10
26.45
 20
0.0
 30
0.0
 40
2.5
  0
ARC
  5
13F
330
1F
100
AcDbEntity
  8
AUFNAHME
  6
CONTINUOUS
100
AcDbCircle
 10
-27.601037617
 20
-21.6017255356
 30
0.0
 40
2.700000049999924
100
AcDbArc
 50
90.00000763
 51
206.543685591
  0
ARC
  5
140
330
1F
100
AcDbEntity
  8
AUFNAHME
  6
CONTINUOUS
100
AcDbCircle
 10
-26.881021137
 20
-31.5017346856
 30
0.0
 40
1.080000040000008
100
AcDbArc
 50
270.0
 51
26.54360962
  0
ARC
  5
141
330
1F
100
AcDbEntity
  8
AUFNAHME
  6
CONTINUOUS
100
AcDbCircle
 10
-25.711034417
 20
-31.9517392656
 30
0.0
 40
2.700000050000039
100
AcDbArc
 50
270.0
 51
26.5435953698
  0
ARC
  5
142
330
1F
100
AcDbEntity
  8
AUFNAHME
  6
CONTINUOUS
100
AcDbCircle
 10
-8.521024347
 20
-28.8917340756
 30
0.0
 40
1.080000039999987
100
AcDbArc
 50
0.0
 51
89.9999240302
  0
ARC
  5
143
330
1F
100
AcDbEntity
  8
AUFNAHME
  6
CONTINUOUS
100
AcDbCircle
 10
-2.311048147
 20
-33.1217374356
 30
0.0
 40
2.519999980000018
100
AcDbArc
 50
180.0
 51
217.38319397
  0
ARC
  5
144
330
1F
100
AcDbEntity
  8
AUFNAHME
  6
CONTINUOUS
100
AcDbCircle
 10
-4.921056387
 20
-33.1217374356
 30
0.0
 40
2.519999980000007
100
AcDbArc
 50
180.0
 51
217.38319397
  0
ARC
  5
145
330
1F
100
AcDbEntity
  8
AUFNAHME
  6
CONTINUOUS
100
AcDbCircle
 10
-7.351026177
 20
-29.0717420156
 30
0.0
 40
2.51999997999999
100
AcDbArc
 50
358.70883179
 51
93.06652832
  0
ARC
  5
146
330
1F
100
AcDbEntity
  8
AUFNAHME
  6
CONTINUOUS
100
AcDbCircle
 10
-7.621038077
 20
-24.0317410956
 30
0.0
 40
2.519999979999993
100
AcDbArc
 50
273.06652832
 51
0.0
  0
ARC
  5
147
330
1F
100
AcDbEntity
  8
AUFNAHME
  6
CONTINUOUS
100
AcDbCircle
 10
-7.621038077
 20
-21.4217481156
 30
0.0
 40
2.519999979999993
100
AcDbArc
 50
0.0
 51
90.00000763
  0
ARC
  5
148
330
1F
100
AcDbEntity
  8
EW
  6
HIDDEN
100
AcDbCircle
 10
16.1505818004
 20
1.1753797976
 30
0.0
 40
12.58993033016277
100
AcDbArc
 50
319.5328778721
 51
322.2105571586
  0
ARC
  5
149
330
1F
100
AcDbEntity
  8
AUFNAHME
  6
CONTINUOUS
100
AcDbCircle
 10
-8.251035327
 20
-21.8717450656
 30
0.0
 40
0.9000000400000109
100
AcDbArc
 50
0.0
 51
90.0002171577
  0
ARC
  5
14A
330
1F
100
AcDbEntity
  8
AUFNAHME
  6
CONTINUOUS
100
AcDbCircle
 10
-8.251035327
 20
-24.7517346856
 30
0.0
 40
0.9000000399999877
100
AcDbArc
 50
270.0
 51
0.0
  0
ARC
  5
14B
330
1F
100
AcDbEntity
  8
AUFNAHME
  6
CONTINUOUS
100
AcDbCircle
 10
11.1735775649
 20
9.7199752167
 30
0.0
 40
3.244739543836614
100
AcDbArc
 50
85.1130028624
 51
186.5472841305
  0
ARC
  5
14C
330
1F
100
AcDbEntity
  8
AUFNAHME
  6
CONTINUOUS
100
AcDbCircle
 10
16.1290634956
 20
10.2568282012
 30
0.0
 40
0.9176359981005584
100
AcDbArc
 50
279.9423893397
 51
8.1198473821
  0
ARC
  5
14D
330
1F
100
AcDbEntity
  8
EW
  6
HIDDEN
100
AcDbCircle
 10
-8.242088142
 20
9.88
 30
0.0
 40
0.3999999999999986
100
AcDbArc
 50
90.0
 51
150.25
  0
ARC
  5
14E
330
1F
100
AcDbEntity
  8
EW
  6
HIDDEN
100
AcDbCircle
 10
-8.242088142
 20
-9.88
 30
0.0
 40
0.4000000000000128
100
AcDbArc
 50
209.75
 51
270.0
  0
ARC
  5
14F
330
1F
100
AcDbEntity
  8
EW
  6
HIDDEN
100
AcDbCircle
 10
-3.3156588712
 20
6.28
 30
0.0
 40
4.000000000000004
100
AcDbArc
 50
34.0125858417
 51
90.0
  0
ARC
  5
150
330
1F
100
AcDbEntity
  8
EW
  6
HIDDEN
100
AcDbCircle
 10
-3.3156588712
 20
-6.28
 30
0.0
 40
4.000000000000004
100
AcDbArc
 50
270.0
 51
325.9874141583
  0
ARC
  5
151
330
1F
100
AcDbEntity
  8
EW
  6
HIDDEN
100
AcDbCircle
 10
-15.15
 20
9.4123929173
 30
0.0
 40
0.7499999999999734
100
AcDbArc
 50
180.0
 51
240.0
  0
ARC
  5
152
330
1F
100
AcDbEntity
  8
EW
  6
HIDDEN
100
AcDbCircle
 10
-15.15
 20
-9.4123929172
 30
0.0
 40
0.7500000000000058
100
AcDbArc
 50
120.0
 51
180.0
  0
ARC
  5
153
330
1F
100
AcDbEntity
  8
EW
  6
HIDDEN
100
AcDbCircle
 10
7.45
 20
8.175
 30
0.0
 40
0.5000000000000208
100
AcDbArc
 50
0.0000000002
 51
115.0
  0
ARC
  5
154
330
1F
100
AcDbEntity
  8
EW
  6
HIDDEN
100
AcDbCircle
 10
7.45
 20
-8.175
 30
0.0
 40
0.5
100
AcDbArc
 50
245.0
 51
0.0
  0
ARC
  5
155
330
1F
100
AcDbEntity
  8
EW
  6
HIDDEN
100
AcDbCircle
 10
-14.8990381056
 20
9.2675
 30
0.0
 40
0.7499999999834586
100
AcDbArc
 50
239.999999992
 51
269.9999999911
  0
ARC
  5
156
330
1F
100
AcDbEntity
  8
EW
  6
HIDDEN
100
AcDbCircle
 10
-14.8990381057
 20
-9.2675
 30
0.0
 40
0.7500000000267288
100
AcDbArc
 50
89.9999999965
 51
119.9999999936
  0
ARC
  5
157
330
1F
100
AcDbEntity
  8
AUFNAHME
  6
CONTINUOUS
100
AcDbCircle
 10
15.8661744248
 20
10.2533729122
 30
0.0
 40
0.9134194629478364
100
AcDbArc
 50
171.6234000989
 51
260.3143886679
  0
DIMENSION
  5
158
330
1F
100
AcDbEntity
  8
MASS
100
AcDbDimension
  2
_D
 10
25.5
 20
-24.0451292709
 30
0.0
 11
12.75
 21
-24.0451292709
 31
0.0
 70
   160
  1
<>
  3
SLDDIMSTYLE0
100
AcDbAlignedDimension
 13
0.0
 23
-15.82
 33
0.0
 14
25.5
 24
-15.5205591451
 34
0.0
100
AcDbRotatedDimension
  0
DIMENSION
  5
164
330
1F
100
AcDbEntity
  8
MASS
100
AcDbDimension
  2
_D_1
 10
25.5
 20
-24.0451292709
 30
0.0
 11
46.9750016521
 21
-24.0451292709
 31
0.0
 70
   160
  1
Ausdrehtiefe 43
  3
SLDDIMSTYLE1
100
AcDbAlignedDimension
 13
33.0
 23
-11.25
 33
0.0
 14
25.5
 24
-15.5205591451
 34
0.0
 50
0.0
100
AcDbRotatedDimension
  0
DIMENSION
  5
16E
330
1F
100
AcDbEntity
  8
MASS
100
AcDbDimension
  2
_D_2
 10
-21.0541825015
 20
-12.0296842789
 30
0.0
 11
-21.0541825015
 21
0.0
 31
0.0
 70
   160
  1
%%c<>
  3
SLDDIMSTYLE2
100
AcDbAlignedDimension
 13
-2.6773617919
 23
12.029684279
 33
0.0
 14
-2.6773617919
 24
-12.0296842789
 34
0.0
 50
90.0
100
AcDbRotatedDimension
  0
DIMENSION
  5
17A
330
1F
100
AcDbEntity
  8
MASS
100
AcDbDimension
  2
_D_3
 10
33.0
 20
22.940093433
 30
0.0
 11
16.5
 21
22.940093433
 31
0.0
 70
   160
  1
<>
  3
SLDDIMSTYLE0
100
AcDbAlignedDimension
 13
0.0
 23
15.82
 33
0.0
 14
33.0
 24
11.25
 34
0.0
 50
0.0
100
AcDbRotatedDimension
  0
DIMENSION
  5
184
330
1F
100
AcDbEntity
  8
MASS
100
AcDbDimension
  2
_D_4
 10
47.1914577552
 20
-12.0
 30
0.0
 11
47.1914577552
 21
0.0
 31
0.0
 70
   160
  1
%%c<>
  3
SLDDIMSTYLE0
100
AcDbAlignedDimension
 13
32.25
 23
12.0
 33
0.0
 14
32.25
 24
-12.0
 34
0.0
 50
90.0
100
AcDbRotatedDimension
  0
DIMENSION
  5
18F
330
1F
100
AcDbEntity
  8
MASS
100
AcDbDimension
  2
_D_5
 10
40.8658123012
 20
7.0
 30
0.0
 11
40.8658123012
 21
0.0
 31
0.0
 70
   160
  1
%%c<>
  3
SLDDIMSTYLE0
100
AcDbAlignedDimension
 13
25.7287302543
 23
-7.0
 33
0.0
 14
25.7287302543
 24
7.0
 34
0.0
 50
90.0
100
AcDbRotatedDimension
  0
MTEXT
  5
19A
330
1F
100
AcDbEntity
  8
TEXT
100
AcDbMText
 10
-18.565903184
 20
18.7495907297
 30
0.0
 40
3.5
 41
0.0
 71
     1
 72
     1
  1
328.278F
  7
SLDTEXTSTYLE0
  0
ENDSEC
  0
SECTION
  2
OBJECTS
  0
DICTIONARY
  5
C
330
0
100
AcDbDictionary
  3
ACAD_GROUP
350
D
  3
ACAD_MLINESTYLE
350
17
  3
ACAD_SCALELIST
350
47
  0
DICTIONARY
  5
D
102
{ACAD_REACTORS
330
C
102
}
330
C
100
AcDbDictionary
  0
DICTIONARY
  5
17
102
{ACAD_REACTORS
330
C
102
}
330
C
100
AcDbDictionary
  3
STANDARD
350
18
  0
DICTIONARY
  5
47
102
{ACAD_REACTORS
330
C
102
}
330
C
100
AcDbDictionary
  0
MLINESTYLE
  5
18
102
{ACAD_REACTORS
330
17
102
}
330
17
100
AcDbMlineStyle
  2
Standard
 70
     0
  3

 62
   256
 51
90.0
 52
90.0
 71
     2
 49
0.5
 62
   256
  6
BYLAYER
 49
-0.5
 62
   256
  6
BYLAYER
  0
ENDSEC
  0
EOF
