  0
SECTION
  2
HEADER
  9
$ACADVER
  1
AC1014
  9
$ACADMAINTVER
 70
     9
  9
$DWGCODEPAGE
  3
ANSI_1252
  9
$INSBASE
 10
0.0
 20
0.0
 30
0.0
  9
$EXTMIN
 10
0.0
 20
0.0
 30
0.0
  9
$EXTMAX
 10
210.0
 20
297.0
 30
0.0
  9
$LIMMIN
 10
0.0
 20
0.0
  9
$LIMMAX
 10
210.0
 20
297.0
  9
$ORTHOMODE
 70
     0
  9
$REGENMODE
 70
     1
  9
$FILLMODE
 70
     1
  9
$QTEXTMODE
 70
     0
  9
$MIRRTEXT
 70
     1
  9
$DRAGMODE
 70
     2
  9
$LTSCALE
 40
1.0
  9
$OSMODE
 70
    37
  9
$ATTMODE
 70
     1
  9
$TEXTSIZE
 40
3.5
  9
$TRACEWID
 40
1.0
  9
$TEXTSTYLE
  7
STANDARD
  9
$CLAYER
  8
0
  9
$CELTYPE
  6
BYLAYER
  9
$CECOLOR
 62
   256
  9
$CELTSCALE
 40
1.0
  9
$DELOBJ
 70
     1
  9
$DISPSILH
 70
     0
  9
$DIMSCALE
 40
1.0
  9
$DIMASZ
 40
3.5
  9
$DIMEXO
 40
0.0
  9
$DIMDLI
 40
3.75
  9
$DIMRND
 40
0.0
  9
$DIMDLE
 40
0.0
  9
$DIMEXE
 40
1.0
  9
$DIMTP
 40
0.0
  9
$DIMTM
 40
0.0
  9
$DIMTXT
 40
3.5
  9
$DIMCEN
 40
2.5
  9
$DIMTSZ
 40
0.0
  9
$DIMTOL
 70
     0
  9
$DIMLIM
 70
     0
  9
$DIMTIH
 70
     1
  9
$DIMTOH
 70
     1
  9
$DIMSE1
 70
     0
  9
$DIMSE2
 70
     0
  9
$DIMTAD
 70
     1
  9
$DIMZIN
 70
     0
  9
$DIMBLK
  1

  9
$DIMASO
 70
     1
  9
$DIMSHO
 70
     1
  9
$DIMPOST
  1

  9
$DIMAPOST
  1

  9
$DIMALT
 70
     0
  9
$DIMALTD
 70
     3
  9
$DIMALTF
 40
0.0393700787
  9
$DIMLFAC
 40
1.0
  9
$DIMTOFL
 70
     1
  9
$DIMTVP
 40
0.0
  9
$DIMTIX
 70
     0
  9
$DIMSOXD
 70
     0
  9
$DIMSAH
 70
     0
  9
$DIMBLK1
  1

  9
$DIMBLK2
  1

  9
$DIMSTYLE
  2
ISO-25
  9
$DIMCLRD
 70
     0
  9
$DIMCLRE
 70
     0
  9
$DIMCLRT
 70
     0
  9
$DIMTFAC
 40
1.0
  9
$DIMGAP
 40
1.5
  9
$DIMJUST
 70
     0
  9
$DIMSD1
 70
     0
  9
$DIMSD2
 70
     0
  9
$DIMTOLJ
 70
     0
  9
$DIMTZIN
 70
     0
  9
$DIMALTZ
 70
     0
  9
$DIMALTTZ
 70
     0
  9
$DIMFIT
 70
     3
  9
$DIMUPT
 70
     0
  9
$DIMUNIT
 70
     2
  9
$DIMDEC
 70
     2
  9
$DIMTDEC
 70
     3
  9
$DIMALTU
 70
     2
  9
$DIMALTTD
 70
     3
  9
$DIMTXSTY
  7
STANDARD
  9
$DIMAUNIT
 70
     0
  9
$LUNITS
 70
     2
  9
$LUPREC
 70
     2
  9
$SKETCHINC
 40
1.0
  9
$FILLETRAD
 40
10.0
  9
$AUNITS
 70
     0
  9
$AUPREC
 70
     2
  9
$MENU
  1
.
  9
$ELEVATION
 40
0.0
  9
$PELEVATION
 40
0.0
  9
$THICKNESS
 40
0.0
  9
$LIMCHECK
 70
     0
  9
$CHAMFERA
 40
0.0
  9
$CHAMFERB
 40
0.0
  9
$CHAMFERC
 40
0.0
  9
$CHAMFERD
 40
0.0
  9
$SKPOLY
 70
     0
  9
$TDCREATE
 40
2456819.506441933
  9
$TDUPDATE
 40
2456819.506442592
  9
$TDINDWG
 40
0.0000000116
  9
$TDUSRTIMER
 40
0.0000000116
  9
$USRTIMER
 70
     1
  9
$ANGBASE
 50
0.0
  9
$ANGDIR
 70
     0
  9
$PDMODE
 70
     0
  9
$PDSIZE
 40
-1.0
  9
$PLINEWID
 40
0.0
  9
$COORDS
 70
     1
  9
$SPLFRAME
 70
     0
  9
$SPLINETYPE
 70
     6
  9
$SPLINESEGS
 70
     8
  9
$ATTDIA
 70
     0
  9
$ATTREQ
 70
     1
  9
$HANDLING
 70
     1
  9
$HANDSEED
  5
1C3
  9
$SURFTAB1
 70
     6
  9
$SURFTAB2
 70
     6
  9
$SURFTYPE
 70
     6
  9
$SURFU
 70
     6
  9
$SURFV
 70
     6
  9
$UCSNAME
  2

  9
$UCSORG
 10
0.0
 20
0.0
 30
0.0
  9
$UCSXDIR
 10
1.0
 20
0.0
 30
0.0
  9
$UCSYDIR
 10
0.0
 20
1.0
 30
0.0
  9
$PUCSNAME
  2

  9
$PUCSORG
 10
0.0
 20
0.0
 30
0.0
  9
$PUCSXDIR
 10
1.0
 20
0.0
 30
0.0
  9
$PUCSYDIR
 10
0.0
 20
1.0
 30
0.0
  9
$USERI1
 70
     0
  9
$USERI2
 70
     0
  9
$USERI3
 70
     0
  9
$USERI4
 70
     0
  9
$USERI5
 70
     0
  9
$USERR1
 40
0.0
  9
$USERR2
 40
0.0
  9
$USERR3
 40
0.0
  9
$USERR4
 40
0.0
  9
$USERR5
 40
0.0
  9
$WORLDVIEW
 70
     1
  9
$SHADEDGE
 70
     3
  9
$SHADEDIF
 70
    70
  9
$TILEMODE
 70
     1
  9
$MAXACTVP
 70
    64
  9
$PINSBASE
 10
0.0
 20
0.0
 30
0.0
  9
$PLIMCHECK
 70
     0
  9
$PEXTMIN
 10
1.0000000000E+20
 20
1.0000000000E+20
 30
1.0000000000E+20
  9
$PEXTMAX
 10
-1.0000000000E+20
 20
-1.0000000000E+20
 30
-1.0000000000E+20
  9
$PLIMMIN
 10
0.0
 20
0.0
  9
$PLIMMAX
 10
420.0
 20
297.0
  9
$UNITMODE
 70
     0
  9
$VISRETAIN
 70
     1
  9
$PLINEGEN
 70
     0
  9
$PSLTSCALE
 70
     1
  9
$TREEDEPTH
 70
  3020
  9
$PICKSTYLE
 70
     1
  9
$CMLSTYLE
  2
STANDARD
  9
$CMLJUST
 70
     0
  9
$CMLSCALE
 40
20.0
  9
$PROXYGRAPHICS
 70
     1
  9
$MEASUREMENT
 70
     1
  0
ENDSEC
  0
SECTION
  2
CLASSES
  0
CLASS
  1
ACDBDICTIONARYWDFLT
  2
AcDbDictionaryWithDefault
  3
ObjectDBX Classes
 90
        0
280
     0
281
     0
  0
CLASS
  1
VISUALSTYLE
  2
AcDbVisualStyle
  3
ObjectDBX Classes
 90
     4095
280
     0
281
     0
  0
CLASS
  1
MATERIAL
  2
AcDbMaterial
  3
ObjectDBX Classes
 90
     1153
280
     0
281
     0
  0
CLASS
  1
SCALE
  2
AcDbScale
  3
ObjectDBX Classes
 90
     1153
280
     0
281
     0
  0
CLASS
  1
SUN
  2
AcDbSun
  3
SCENEOE
 90
     1153
280
     0
281
     0
  0
CLASS
  1
XRECORD
  2
AcDbXrecord
  3
ObjectDBX Classes
 90
        0
280
     0
281
     0
  0
CLASS
  1
LWPOLYLINE
  2
AcDbPolyline
  3
ObjectDBX Classes
 90
        0
280
     0
281
     1
  0
CLASS
  1
HATCH
  2
AcDbHatch
  3
ObjectDBX Classes
 90
        0
280
     0
281
     1
  0
ENDSEC
  0
SECTION
  2
TABLES
  0
TABLE
  2
VPORT
  5
8
330
0
100
AcDbSymbolTable
 70
     1
  0
VPORT
  5
29
330
8
100
AcDbSymbolTableRecord
100
AcDbViewportTableRecord
  2
*ACTIVE
 70
     0
 10
0.0
 20
0.0
 11
1.0
 21
1.0
 12
105.0
 22
148.5
 13
0.0
 23
0.0
 14
10.0
 24
10.0
 15
10.0
 25
10.0
 16
0.0
 26
0.0
 36
1.0
 17
0.0
 27
0.0
 37
0.0
 40
297.0
 41
0.7070707071
 42
50.0
 43
0.0
 44
0.0
 50
0.0
 51
0.0
 71
     0
 72
  2000
 73
     1
 74
     3
 75
     0
 76
     0
 77
     0
 78
     0
  0
ENDTAB
  0
TABLE
  2
LTYPE
  5
5
330
0
100
AcDbSymbolTable
 70
     6
  0
LTYPE
  5
14
330
5
100
AcDbSymbolTableRecord
100
AcDbLinetypeTableRecord
  2
BYBLOCK
 70
     0
  3

 72
    65
 73
     0
 40
0.0
  0
LTYPE
  5
15
330
5
100
AcDbSymbolTableRecord
100
AcDbLinetypeTableRecord
  2
BYLAYER
 70
     0
  3

 72
    65
 73
     0
 40
0.0
  0
LTYPE
  5
16
330
5
100
AcDbSymbolTableRecord
100
AcDbLinetypeTableRecord
  2
CONTINUOUS
 70
     0
  3
Solid line
 72
    65
 73
     0
 40
0.0
  0
LTYPE
  5
6A
330
5
100
AcDbSymbolTableRecord
100
AcDbLinetypeTableRecord
  2
HIDDEN
 70
     0
  3
Hidden __ __ __ __ __ __ __ __ __ __ __ __ __ __
 72
    65
 73
     2
 40
1.905
 49
1.27
 74
     0
 49
-0.635
 74
     0
  0
LTYPE
  5
6B
330
5
100
AcDbSymbolTableRecord
100
AcDbLinetypeTableRecord
  2
PHANTOM
 70
     0
  3
Phantom ______  __  __  ______  __  __  ______
 72
    65
 73
     6
 40
12.7
 49
6.35
 74
     0
 49
-1.27
 74
     0
 49
1.27
 74
     0
 49
-1.27
 74
     0
 49
1.27
 74
     0
 49
-1.27
 74
     0
  0
LTYPE
  5
6C
330
5
100
AcDbSymbolTableRecord
100
AcDbLinetypeTableRecord
  2
CENTER
 70
     0
  3
Center ____ _ ____ _ ____ _ ____ _ ____ _ ____
 72
    65
 73
     4
 40
10.16
 49
6.35
 74
     0
 49
-1.27
 74
     0
 49
1.27
 74
     0
 49
-1.27
 74
     0
  0
LTYPE
  5
6D
330
5
100
AcDbSymbolTableRecord
100
AcDbLinetypeTableRecord
  2
CENTERX2
 70
     0
  3
Center (2x) ________  __  ________  __  _____
 72
    65
 73
     4
 40
20.32
 49
12.7
 74
     0
 49
-2.54
 74
     0
 49
2.54
 74
     0
 49
-2.54
 74
     0
  0
LTYPE
  5
6E
330
5
100
AcDbSymbolTableRecord
100
AcDbLinetypeTableRecord
  2
DOT2
 70
     0
  3
Dot (.5x) ........................................
 72
    65
 73
     2
 40
0.635
 49
0.0
 74
     0
 49
-0.635
 74
     0
  0
ENDTAB
  0
TABLE
  2
LAYER
  5
2
330
0
100
AcDbSymbolTable
 70
     7
  0
LAYER
  5
10
330
2
100
AcDbSymbolTableRecord
100
AcDbLayerTableRecord
  2
0
 70
     0
 62
     7
  6
CONTINUOUS
  0
LAYER
  5
6F
330
2
100
AcDbSymbolTableRecord
100
AcDbLayerTableRecord
  2
AUFNAHME
 70
     0
 62
     7
  6
CONTINUOUS
  0
LAYER
  5
70
330
2
100
AcDbSymbolTableRecord
100
AcDbLayerTableRecord
  2
MASS
 70
     0
 62
     4
  6
CONTINUOUS
  0
LAYER
  5
71
330
2
100
AcDbSymbolTableRecord
100
AcDbLayerTableRecord
  2
EW
 70
     0
 62
     1
  6
HIDDEN
  0
LAYER
  5
72
330
2
100
AcDbSymbolTableRecord
100
AcDbLayerTableRecord
  2
UNSICHT
 70
     0
 62
     4
  6
CENTER
  0
LAYER
  5
73
330
2
100
AcDbSymbolTableRecord
100
AcDbLayerTableRecord
  2
TEXT
 70
     0
 62
     7
  6
CONTINUOUS
  0
LAYER
  5
74
330
2
100
AcDbSymbolTableRecord
100
AcDbLayerTableRecord
  2
ZAPFEN
 70
     0
 62
     4
  6
CONTINUOUS
  0
ENDTAB
  0
TABLE
  2
STYLE
  5
3
330
0
100
AcDbSymbolTable
 70
     2
  0
STYLE
  5
11
330
3
100
AcDbSymbolTableRecord
100
AcDbTextStyleTableRecord
  2
STANDARD
 70
     0
 40
0.0
 41
1.0
 50
0.0
 71
     0
 42
3.5
  3
txt
  4

  0
STYLE
  5
181
330
3
100
AcDbSymbolTableRecord
100
AcDbTextStyleTableRecord
  2
SLDTEXTSTYLE0
 70
     0
 40
0.0
 41
0.605
 50
0.0
 71
     0
 42
3.5
  3
TXT
  4

  0
ENDTAB
  0
TABLE
  2
VIEW
  5
6
330
0
100
AcDbSymbolTable
 70
     0
  0
ENDTAB
  0
TABLE
  2
UCS
  5
7
330
0
100
AcDbSymbolTable
 70
     0
  0
ENDTAB
  0
TABLE
  2
APPID
  5
9
330
0
100
AcDbSymbolTable
 70
     1
  0
APPID
  5
12
330
9
100
AcDbSymbolTableRecord
100
AcDbRegAppTableRecord
  2
ACAD
 70
     0
  0
ENDTAB
  0
TABLE
  2
DIMSTYLE
  5
A
330
0
100
AcDbSymbolTable
 70
     4
  0
DIMSTYLE
105
27
330
A
100
AcDbSymbolTableRecord
100
AcDbDimStyleTableRecord
  2
ISO-25
 70
     0
  3

  4

  5

  6

  7

 40
1.0
 41
2.5
 42
0.625
 43
3.75
 44
1.25
 45
0.0
 46
0.0
 47
0.0
 48
0.0
140
2.5
141
2.5
142
0.0
143
0.0393700787
144
1.0
145
0.0
146
1.0
147
0.625
 71
     0
 72
     0
 73
     0
 74
     0
 75
     0
 76
     0
 77
     1
 78
     8
170
     0
171
     3
172
     1
173
     0
174
     0
175
     0
176
     0
177
     0
178
     0
270
     2
271
     2
272
     2
273
     2
274
     3
340
11
275
     0
280
     0
281
     0
282
     0
283
     0
284
     8
285
     0
286
     0
287
     3
288
     0
  0
DIMSTYLE
105
182
102
{ACAD_REACTORS
330
180
330
18C
330
197
330
1A2
102
}
330
A
100
AcDbSymbolTableRecord
100
AcDbDimStyleTableRecord
  2
SLDDIMSTYLE0
 70
     0
  3

  4

  5

  6

  7

 40
1.0
 41
3.5
 42
0.0625
 43
0.38
 44
0.0
 45
0.000000001
 46
0.0
 47
0.0
 48
0.0
140
3.5
141
0.09
142
0.0
143
25.4
144
1.0
145
0.0
146
1.0
147
0.875
 71
     0
 72
     0
 73
     0
 74
     0
 75
     0
 76
     0
 77
     1
 78
    12
170
     0
171
     2
172
     0
173
     1
174
     0
175
     0
176
     0
177
     0
178
     0
270
     2
271
     2
272
     3
273
     2
274
     2
340
181
275
     0
280
     0
281
     0
282
     0
283
     1
284
    12
285
     0
286
     0
287
     3
288
     0
  0
DIMSTYLE
105
1AD
102
{ACAD_REACTORS
330
1AC
102
}
330
A
100
AcDbSymbolTableRecord
100
AcDbDimStyleTableRecord
  2
SLDDIMSTYLE1
 70
     0
  3

  4

  5

  6

  7

 40
1.0
 41
3.5
 42
0.0625
 43
0.38
 44
0.0
 45
0.000000001
 46
0.0
 47
0.0
 48
0.0
140
3.5
141
0.09
142
0.0
143
25.4
144
1.0
145
0.0
146
1.0
147
0.875
 71
     0
 72
     0
 73
     0
 74
     0
 75
     0
 76
     0
 77
     1
 78
    12
170
     0
171
     2
172
     0
173
     1
174
     0
175
     0
176
     0
177
     0
178
     0
270
     2
271
     2
272
     3
273
     2
274
     2
340
181
275
     0
280
     0
281
     0
282
     0
283
     1
284
    12
285
     0
286
     0
287
     3
288
     0
  0
DIMSTYLE
105
1B7
102
{ACAD_REACTORS
330
1B6
102
}
330
A
100
AcDbSymbolTableRecord
100
AcDbDimStyleTableRecord
  2
SLDDIMSTYLE2
 70
     0
  3

  4

  5

  6

  7

 40
1.0
 41
3.5
 42
0.0625
 43
0.38
 44
0.0
 45
0.000000001
 46
0.0
 47
0.0
 48
0.0
140
3.5
141
0.09
142
0.0
143
25.4
144
1.0
145
0.0
146
1.0
147
0.875
 71
     0
 72
     0
 73
     0
 74
     0
 75
     0
 76
     0
 77
     1
 78
    12
170
     0
171
     2
172
     0
173
     1
174
     0
175
     0
176
     0
177
     0
178
     0
270
     2
271
     0
272
     3
273
     2
274
     2
340
181
275
     0
280
     0
281
     0
282
     0
283
     1
284
    12
285
     0
286
     0
287
     3
288
     0
  0
ENDTAB
  0
TABLE
  2
BLOCK_RECORD
  5
1
330
0
100
AcDbSymbolTable
 70
     7
  0
BLOCK_RECORD
  5
1F
330
1
100
AcDbSymbolTableRecord
100
AcDbBlockTableRecord
  2
*MODEL_SPACE
  0
BLOCK_RECORD
  5
1B
330
1
100
AcDbSymbolTableRecord
100
AcDbBlockTableRecord
  2
*PAPER_SPACE
  0
BLOCK_RECORD
  5
23
330
1
100
AcDbSymbolTableRecord
100
AcDbBlockTableRecord
  2
*PAPER_SPACE0
  0
BLOCK_RECORD
  5
183
330
1
100
AcDbSymbolTableRecord
100
AcDbBlockTableRecord
  2
_D
  0
BLOCK_RECORD
  5
18D
330
1
100
AcDbSymbolTableRecord
100
AcDbBlockTableRecord
  2
_D_1
  0
BLOCK_RECORD
  5
198
330
1
100
AcDbSymbolTableRecord
100
AcDbBlockTableRecord
  2
_D_2
  0
BLOCK_RECORD
  5
1A3
330
1
100
AcDbSymbolTableRecord
100
AcDbBlockTableRecord
  2
_D_3
  0
BLOCK_RECORD
  5
1AE
330
1
100
AcDbSymbolTableRecord
100
AcDbBlockTableRecord
  2
_D_4
  0
BLOCK_RECORD
  5
1B8
330
1
100
AcDbSymbolTableRecord
100
AcDbBlockTableRecord
  2
_D_5
  0
ENDTAB
  0
ENDSEC
  0
SECTION
  2
BLOCKS
  0
BLOCK
  5
20
330
1F
100
AcDbEntity
  8
0
100
AcDbBlockBegin
  2
*MODEL_SPACE
 70
     0
 10
0.0
 20
0.0
 30
0.0
  3
*MODEL_SPACE
  1

  0
ENDBLK
  5
21
330
1F
100
AcDbEntity
  8
0
100
AcDbBlockEnd
  0
BLOCK
  5
1C
330
1B
100
AcDbEntity
 67
     1
  8
0
100
AcDbBlockBegin
  2
*PAPER_SPACE
 70
     0
 10
0.0
 20
0.0
 30
0.0
  3
*PAPER_SPACE
  1

  0
ENDBLK
  5
1D
330
1B
100
AcDbEntity
 67
     1
  8
0
100
AcDbBlockEnd
  0
BLOCK
  5
24
330
23
100
AcDbEntity
  8
0
100
AcDbBlockBegin
  2
*PAPER_SPACE0
 70
     0
 10
0.0
 20
0.0
 30
0.0
  3
*PAPER_SPACE0
  1
*PAPER_SPACE0
  0
ENDBLK
  5
25
330
23
100
AcDbEntity
  8
0
100
AcDbBlockEnd
  0
BLOCK
  5
184
330
183
100
AcDbEntity
  8
0
100
AcDbBlockBegin
  2
_D
 70
     0
 10
0.0
 20
0.0
 30
0.0
  3
_D
  1
_D
  0
SOLID
  5
186
330
183
100
AcDbEntity
  8
MASS
100
AcDbTrace
 10
0.0
 20
27.8112158623
 30
0.0
 11
3.5
 21
27.3612158623
 31
0.0
 12
3.5
 22
28.2612158623
 32
0.0
 13
3.5
 23
28.2612158623
 33
0.0
  0
SOLID
  5
187
330
183
100
AcDbEntity
  8
MASS
100
AcDbTrace
 10
35.000000149
 20
27.8112158623
 30
0.0
 11
31.500000149
 21
28.2612158623
 31
0.0
 12
31.500000149
 22
27.3612158623
 32
0.0
 13
31.500000149
 23
27.3612158623
 33
0.0
  0
LINE
  5
188
330
183
100
AcDbEntity
  8
MASS
100
AcDbLine
 10
0.0
 20
19.4949992001
 30
0.0
 11
0.0
 21
28.8112158623
 31
0.0
  0
LINE
  5
189
330
183
100
AcDbEntity
  8
MASS
100
AcDbLine
 10
35.000000149
 20
11.250000447
 30
0.0
 11
35.000000149
 21
28.8112158623
 31
0.0
  0
LINE
  5
18A
330
183
100
AcDbEntity
  8
MASS
100
AcDbLine
 10
0.0
 20
27.8112158623
 30
0.0
 11
35.000000149
 21
27.8112158623
 31
0.0
  0
MTEXT
  5
18B
330
183
100
AcDbEntity
  8
MASS
100
AcDbMText
 10
15.307639027
 20
32.3229527187
 30
0.0
 40
3.5
 41
0.0
 71
     1
 72
     1
  1
35
  7
SLDTEXTSTYLE0
  0
ENDBLK
  5
185
330
183
100
AcDbEntity
  8
0
100
AcDbBlockEnd
  0
BLOCK
  5
18E
330
18D
100
AcDbEntity
  8
0
100
AcDbBlockBegin
  2
_D_1
 70
     0
 10
0.0
 20
0.0
 30
0.0
  3
_D_1
  1
_D_1
  0
SOLID
  5
190
330
18D
100
AcDbEntity
  8
MASS
100
AcDbTrace
 10
43.95318584
 20
7.000000447
 30
0.0
 11
43.50318584
 21
3.500000447
 31
0.0
 12
44.40318584
 22
3.500000447
 32
0.0
 13
44.40318584
 23
3.500000447
 33
0.0
  0
SOLID
  5
191
330
18D
100
AcDbEntity
  8
MASS
100
AcDbTrace
 10
43.95318584
 20
-6.999999553
 30
0.0
 11
44.40318584
 21
-3.499999553
 31
0.0
 12
43.50318584
 22
-3.499999553
 32
0.0
 13
43.50318584
 23
-3.499999553
 33
0.0
  0
LINE
  5
192
330
18D
100
AcDbEntity
  8
MASS
100
AcDbLine
 10
35.0000001488
 20
7.000000447
 30
0.0
 11
44.95318584
 21
7.000000447
 31
0.0
  0
LINE
  5
193
330
18D
100
AcDbEntity
  8
MASS
100
AcDbLine
 10
35.0000001488
 20
-6.999999553
 30
0.0
 11
44.95318584
 21
-6.999999553
 31
0.0
  0
LINE
  5
194
330
18D
100
AcDbEntity
  8
MASS
100
AcDbLine
 10
43.95318584
 20
7.000000447
 30
0.0
 11
43.95318584
 21
-6.999999553
 31
0.0
  0
MTEXT
  5
195
330
18D
100
AcDbEntity
  8
MASS
100
AcDbMText
 10
39.441448518
 20
-4.7784717941
 30
0.0
 40
3.5
 41
0.0
 71
     1
 72
     1
  1
%%c
  7
SLDTEXTSTYLE0
 11
-7.044195017643634E-15
 21
1.0
 31
0.0
  0
MTEXT
  5
196
330
18D
100
AcDbEntity
  8
MASS
100
AcDbMText
 10
39.441448518
 20
0.393750593
 30
0.0
 40
3.5
 41
0.0
 71
     1
 72
     1
  1
14
  7
SLDTEXTSTYLE0
 11
-7.044195017643634E-15
 21
1.0
 31
0.0
  0
ENDBLK
  5
18F
330
18D
100
AcDbEntity
  8
0
100
AcDbBlockEnd
  0
BLOCK
  5
199
330
198
100
AcDbEntity
  8
0
100
AcDbBlockBegin
  2
_D_2
 70
     0
 10
0.0
 20
0.0
 30
0.0
  3
_D_2
  1
_D_2
  0
SOLID
  5
19B
330
198
100
AcDbEntity
  8
MASS
100
AcDbTrace
 10
51.6668771366
 20
12.0000001043
 30
0.0
 11
51.2168771366
 21
8.5000001043
 31
0.0
 12
52.1168771366
 22
8.5000001043
 32
0.0
 13
52.1168771366
 23
8.5000001043
 33
0.0
  0
SOLID
  5
19C
330
198
100
AcDbEntity
  8
MASS
100
AcDbTrace
 10
51.6668771366
 20
-12.0000001043
 30
0.0
 11
52.1168771366
 21
-8.5000001043
 31
0.0
 12
51.2168771366
 22
-8.5000001043
 32
0.0
 13
51.2168771366
 23
-8.5000001043
 33
0.0
  0
LINE
  5
19D
330
198
100
AcDbEntity
  8
MASS
100
AcDbLine
 10
34.2499986291
 20
12.0000001043
 30
0.0
 11
52.6668771366
 21
12.0000001043
 31
0.0
  0
LINE
  5
19E
330
198
100
AcDbEntity
  8
MASS
100
AcDbLine
 10
34.2499986291
 20
-12.0000001043
 30
0.0
 11
52.6668771366
 21
-12.0000001043
 31
0.0
  0
LINE
  5
19F
330
198
100
AcDbEntity
  8
MASS
100
AcDbLine
 10
51.6668771366
 20
12.0000001043
 30
0.0
 11
51.6668771366
 21
-12.0000001043
 31
0.0
  0
MTEXT
  5
1A0
330
198
100
AcDbEntity
  8
MASS
100
AcDbMText
 10
47.1551398146
 20
-4.778472241
 30
0.0
 40
3.5
 41
0.0
 71
     1
 72
     1
  1
%%c
  7
SLDTEXTSTYLE0
 11
-7.044195017643634E-15
 21
1.0
 31
0.0
  0
MTEXT
  5
1A1
330
198
100
AcDbEntity
  8
MASS
100
AcDbMText
 10
47.1551398146
 20
0.393750146
 30
0.0
 40
3.5
 41
0.0
 71
     1
 72
     1
  1
24
  7
SLDTEXTSTYLE0
 11
-7.044195017643634E-15
 21
1.0
 31
0.0
  0
ENDBLK
  5
19A
330
198
100
AcDbEntity
  8
0
100
AcDbBlockEnd
  0
BLOCK
  5
1A4
330
1A3
100
AcDbEntity
  8
0
100
AcDbBlockBegin
  2
_D_3
 70
     0
 10
0.0
 20
0.0
 30
0.0
  3
_D_3
  1
_D_3
  0
SOLID
  5
1A6
330
1A3
100
AcDbEntity
  8
MASS
100
AcDbTrace
 10
25.5
 20
-28.4027833526
 30
0.0
 11
22.0
 21
-27.9527833526
 31
0.0
 12
22.0
 22
-28.8527833526
 32
0.0
 13
22.0
 23
-28.8527833526
 33
0.0
  0
SOLID
  5
1A7
330
1A3
100
AcDbEntity
  8
MASS
100
AcDbTrace
 10
0.0
 20
-28.4027833526
 30
0.0
 11
3.5
 21
-28.8527833526
 31
0.0
 12
3.5
 22
-27.9527833526
 32
0.0
 13
3.5
 23
-27.9527833526
 33
0.0
  0
LINE
  5
1A8
330
1A3
100
AcDbEntity
  8
MASS
100
AcDbLine
 10
25.5
 20
-18.7773536891
 30
0.0
 11
25.5
 21
-29.4027833526
 31
0.0
  0
LINE
  5
1A9
330
1A3
100
AcDbEntity
  8
MASS
100
AcDbLine
 10
0.0
 20
-19.4949992001
 30
0.0
 11
0.0
 21
-29.4027833526
 31
0.0
  0
LINE
  5
1AA
330
1A3
100
AcDbEntity
  8
MASS
100
AcDbLine
 10
25.5
 20
-28.4027833526
 30
0.0
 11
0.0
 21
-28.4027833526
 31
0.0
  0
MTEXT
  5
1AB
330
1A3
100
AcDbEntity
  8
MASS
100
AcDbMText
 10
8.9121528491
 20
-23.8910464963
 30
0.0
 40
3.5
 41
0.0
 71
     1
 72
     1
  1
25.5
  7
SLDTEXTSTYLE0
  0
ENDBLK
  5
1A5
330
1A3
100
AcDbEntity
  8
0
100
AcDbBlockEnd
  0
BLOCK
  5
1AF
330
1AE
100
AcDbEntity
  8
0
100
AcDbBlockBegin
  2
_D_4
 70
     0
 10
0.0
 20
0.0
 30
0.0
  3
_D_4
  1
_D_4
  0
SOLID
  5
1B1
330
1AE
100
AcDbEntity
  8
MASS
100
AcDbTrace
 10
25.5
 20
-28.4027833526
 30
0.0
 11
29.0
 21
-28.8527833526
 31
0.0
 12
29.0
 22
-27.9527833526
 32
0.0
 13
29.0
 23
-27.9527833526
 33
0.0
  0
LINE
  5
1B2
330
1AE
100
AcDbEntity
  8
MASS
100
AcDbLine
 10
25.5
 20
-18.7773536891
 30
0.0
 11
25.5
 21
-29.4027833526
 31
0.0
  0
LINE
  5
1B3
330
1AE
100
AcDbEntity
  8
MASS
100
AcDbLine
 10
35.000000149
 20
-28.4027833526
 30
0.0
 11
25.5
 21
-28.4027833526
 31
0.0
  0
LINE
  5
1B4
330
1AE
100
AcDbEntity
  8
MASS
100
AcDbLine
 10
25.5
 20
-28.4027833526
 30
0.0
 11
57.7660323442
 21
-28.4027833526
 31
0.0
  0
MTEXT
  5
1B5
330
1AE
100
AcDbEntity
  8
MASS
100
AcDbMText
 10
30.1403393359
 20
-23.8910464963
 30
0.0
 40
3.5
 41
0.0
 71
     1
 72
     1
  1
Ausdrehtiefe 45
  7
SLDTEXTSTYLE0
  0
ENDBLK
  5
1B0
330
1AE
100
AcDbEntity
  8
0
100
AcDbBlockEnd
  0
BLOCK
  5
1B9
330
1B8
100
AcDbEntity
  8
0
100
AcDbBlockBegin
  2
_D_5
 70
     0
 10
0.0
 20
0.0
 30
0.0
  3
_D_5
  1
_D_5
  0
SOLID
  5
1BB
330
1B8
100
AcDbEntity
  8
MASS
100
AcDbTrace
 10
-28.6697023004
 20
15.0572587764
 30
0.0
 11
-29.1197023004
 21
11.5572587764
 31
0.0
 12
-28.2197023004
 22
11.5572587764
 32
0.0
 13
-28.2197023004
 23
11.5572587764
 33
0.0
  0
SOLID
  5
1BC
330
1B8
100
AcDbEntity
  8
MASS
100
AcDbTrace
 10
-28.6697023004
 20
-15.0833650797
 30
0.0
 11
-28.2197023004
 21
-11.5833650797
 31
0.0
 12
-29.1197023004
 22
-11.5833650797
 32
0.0
 13
-29.1197023004
 23
-11.5833650797
 33
0.0
  0
LINE
  5
1BD
330
1B8
100
AcDbEntity
  8
MASS
100
AcDbLine
 10
-2.9867199469
 20
15.0572587764
 30
0.0
 11
-29.6697023004
 21
15.0572587764
 31
0.0
  0
LINE
  5
1BE
330
1B8
100
AcDbEntity
  8
MASS
100
AcDbLine
 10
-2.9867199469
 20
-15.0833650797
 30
0.0
 11
-29.6697023004
 21
-15.0833650797
 31
0.0
  0
LINE
  5
1BF
330
1B8
100
AcDbEntity
  8
MASS
100
AcDbLine
 10
-28.6697023004
 20
15.0572587764
 30
0.0
 11
-28.6697023004
 21
-15.0833650797
 31
0.0
  0
MTEXT
  5
1C0
330
1B8
100
AcDbEntity
  8
MASS
100
AcDbMText
 10
-33.1814396225
 20
-4.7915253927
 30
0.0
 40
3.5
 41
0.0
 71
     1
 72
     1
  1
%%c
  7
SLDTEXTSTYLE0
 11
-7.044195017643634E-15
 21
1.0
 31
0.0
  0
MTEXT
  5
1C1
330
1B8
100
AcDbEntity
  8
MASS
100
AcDbMText
 10
-33.1814396225
 20
0.3806969944
 30
0.0
 40
3.5
 41
0.0
 71
     1
 72
     1
  1
30
  7
SLDTEXTSTYLE0
 11
-7.044195017643634E-15
 21
1.0
 31
0.0
  0
ENDBLK
  5
1BA
330
1B8
100
AcDbEntity
  8
0
100
AcDbBlockEnd
  0
ENDSEC
  0
SECTION
  2
ENTITIES
  0
LINE
  5
75
330
1F
100
AcDbEntity
  8
AUFNAHME
  6
CONTINUOUS
100
AcDbLine
 10
0.4799999878
 20
19.9749991298
 30
0.0
 11
0.0
 21
19.4949992001
 31
0.0
  0
LINE
  5
76
330
1F
100
AcDbEntity
  8
AUFNAHME
  6
CONTINUOUS
100
AcDbLine
 10
0.0
 20
-19.4949992001
 30
0.0
 11
0.4799999878
 21
-19.9749991298
 31
0.0
  0
LINE
  5
77
330
1F
100
AcDbEntity
  8
AUFNAHME
  6
CONTINUOUS
100
AcDbLine
 10
0.4799999878
 20
-19.9749991298
 30
0.0
 11
7.7354032546
 21
-19.9749991298
 31
0.0
  0
LINE
  5
78
330
1F
100
AcDbEntity
  8
AUFNAHME
  6
CONTINUOUS
100
AcDbLine
 10
7.7644046396
 20
19.9749991298
 30
0.0
 11
0.4799999878
 21
19.9749991298
 31
0.0
  0
LINE
  5
79
330
1F
100
AcDbEntity
  8
UNSICHT
  6
CENTER
100
AcDbLine
 10
25.5
 20
-17.4190495163
 30
0.0
 11
25.5
 21
-18.7773536891
 31
0.0
  0
LINE
  5
7A
330
1F
100
AcDbEntity
  8
AUFNAHME
  6
CONTINUOUS
100
AcDbLine
 10
-0.3794095226
 20
14.9439801016
 30
0.0
 11
-1.1368774576
 21
15.1469428092
 31
0.0
  0
LINE
  5
7B
330
1F
100
AcDbEntity
  8
UNSICHT
  6
CENTER
100
AcDbLine
 10
37.0609768928
 20
0.0000004468
 30
0.0
 11
-21.3451285157
 21
0.0000004468
 31
0.0
  0
LINE
  5
7C
330
1F
100
AcDbEntity
  8
AUFNAHME
  6
CONTINUOUS
100
AcDbLine
 10
-2.9867199469
 20
15.0572587764
 30
0.0
 11
-2.9867199469
 21
-15.0833650797
 31
0.0
  0
LINE
  5
7D
330
1F
100
AcDbEntity
  8
AUFNAHME
  6
CONTINUOUS
100
AcDbLine
 10
21.6000005603
 20
12.0000001043
 30
0.0
 11
21.4499998837
 21
11.8500003591
 31
0.0
  0
LINE
  5
7E
330
1F
100
AcDbEntity
  8
AUFNAHME
  6
CONTINUOUS
100
AcDbLine
 10
21.4499998837
 20
-11.8500003591
 30
0.0
 11
21.6000005603
 21
-12.0000001043
 31
0.0
  0
LINE
  5
7F
330
1F
100
AcDbEntity
  8
AUFNAHME
  6
CONTINUOUS
100
AcDbLine
 10
34.2499986291
 20
-12.0000001043
 30
0.0
 11
35.000000149
 21
-11.2500004471
 31
0.0
  0
LINE
  5
80
330
1F
100
AcDbEntity
  8
AUFNAHME
  6
CONTINUOUS
100
AcDbLine
 10
35.000000149
 20
11.250000447
 30
0.0
 11
34.2499986291
 21
12.0000001043
 31
0.0
  0
LINE
  5
81
330
1F
100
AcDbEntity
  8
AUFNAHME
  6
CONTINUOUS
100
AcDbLine
 10
21.6000005603
 20
-12.0000001043
 30
0.0
 11
34.2499986291
 21
-12.0000001043
 31
0.0
  0
LINE
  5
82
330
1F
100
AcDbEntity
  8
AUFNAHME
  6
CONTINUOUS
100
AcDbLine
 10
34.2499986291
 20
12.0000001043
 30
0.0
 11
21.6000005603
 21
12.0000001043
 31
0.0
  0
LINE
  5
83
330
1F
100
AcDbEntity
  8
AUFNAHME
  6
CONTINUOUS
100
AcDbLine
 10
20.95
 20
-11.85
 30
0.0
 11
21.4499998837
 21
-11.8500003591
 31
0.0
  0
LINE
  5
84
330
1F
100
AcDbEntity
  8
AUFNAHME
  6
CONTINUOUS
100
AcDbLine
 10
21.4499998837
 20
11.8500003591
 30
0.0
 11
20.95
 21
11.85
 31
0.0
  0
LINE
  5
85
330
1F
100
AcDbEntity
  8
AUFNAHME
  6
CONTINUOUS
100
AcDbLine
 10
7.7354032546
 20
-19.9749991298
 30
0.0
 11
7.7749229967
 21
-19.9149586261
 31
0.0
  0
LINE
  5
86
330
1F
100
AcDbEntity
  8
AUFNAHME
  6
CONTINUOUS
100
AcDbLine
 10
0.4799999878
 20
-19.9749991298
 30
0.0
 11
0.4799999878
 21
19.9749991298
 31
0.0
  0
LINE
  5
87
330
1F
100
AcDbEntity
  8
AUFNAHME
  6
CONTINUOUS
100
AcDbLine
 10
0.0
 20
-19.4949992001
 30
0.0
 11
0.0
 21
19.4949992001
 31
0.0
  0
LINE
  5
88
330
1F
100
AcDbEntity
  8
AUFNAHME
  6
CONTINUOUS
100
AcDbLine
 10
7.9499986022
 20
11.8500003591
 30
0.0
 11
13.9158768579
 21
11.8500003591
 31
0.0
  0
LINE
  5
89
330
1F
100
AcDbEntity
  8
AUFNAHME
  6
CONTINUOUS
100
AcDbLine
 10
13.9158768579
 20
-19.0985128284
 30
0.0
 11
13.9158768579
 21
11.8500003591
 31
0.0
  0
LINE
  5
8A
330
1F
100
AcDbEntity
  8
AUFNAHME
  6
CONTINUOUS
100
AcDbLine
 10
13.9158768579
 20
-19.0985128284
 30
0.0
 11
12.4500002712
 21
-19.0985128284
 31
0.0
  0
LINE
  5
8B
330
1F
100
AcDbEntity
  8
AUFNAHME
  6
CONTINUOUS
100
AcDbLine
 10
7.7354032546
 20
-19.9481993914
 30
0.0
 11
7.7354032546
 21
-19.9749991298
 31
0.0
  0
LINE
  5
8C
330
1F
100
AcDbEntity
  8
AUFNAHME
  6
CONTINUOUS
100
AcDbLine
 10
12.4500002712
 20
19.3922575563
 30
0.0
 11
13.9158768579
 21
19.3922575563
 31
0.0
  0
LINE
  5
8D
330
1F
100
AcDbEntity
  8
AUFNAHME
  6
CONTINUOUS
100
AcDbLine
 10
13.9158768579
 20
16.0803645849
 30
0.0
 11
13.9158768579
 21
19.3922575563
 31
0.0
  0
LINE
  5
8E
330
1F
100
AcDbEntity
  8
AUFNAHME
  6
CONTINUOUS
100
AcDbLine
 10
13.9158768579
 20
16.0803645849
 30
0.0
 11
12.4419135972
 21
16.0803645849
 31
0.0
  0
LINE
  5
8F
330
1F
100
AcDbEntity
  8
AUFNAHME
  6
CONTINUOUS
100
AcDbLine
 10
19.549999386
 20
11.8500003591
 30
0.0
 11
19.549999386
 21
-19.0985128284
 31
0.0
  0
LINE
  5
90
330
1F
100
AcDbEntity
  8
AUFNAHME
  6
CONTINUOUS
100
AcDbLine
 10
19.549999386
 20
-19.0985128284
 30
0.0
 11
18.0841237306
 21
-19.0985128284
 31
0.0
  0
LINE
  5
91
330
1F
100
AcDbEntity
  8
AUFNAHME
  6
CONTINUOUS
100
AcDbLine
 10
18.0841237306
 20
11.8500003591
 30
0.0
 11
18.0841237306
 21
-19.0985128284
 31
0.0
  0
LINE
  5
92
330
1F
100
AcDbEntity
  8
AUFNAHME
  6
CONTINUOUS
100
AcDbLine
 10
18.0841237306
 20
11.8500003591
 30
0.0
 11
19.549999386
 21
11.8500003591
 31
0.0
  0
LINE
  5
93
330
1F
100
AcDbEntity
  8
AUFNAHME
  6
CONTINUOUS
100
AcDbLine
 10
13.9158768579
 20
11.8500003591
 30
0.0
 11
14.0658766031
 21
11.8500003591
 31
0.0
  0
LINE
  5
94
330
1F
100
AcDbEntity
  8
AUFNAHME
  6
CONTINUOUS
100
AcDbLine
 10
14.0658766031
 20
-18.9782977104
 30
0.0
 11
13.9158768579
 21
-19.0985128284
 31
0.0
  0
LINE
  5
95
330
1F
100
AcDbEntity
  8
AUFNAHME
  6
CONTINUOUS
100
AcDbLine
 10
19.9500005692
 20
11.8500003591
 30
0.0
 11
19.9500005692
 21
-18.7773536891
 31
0.0
  0
LINE
  5
96
330
1F
100
AcDbEntity
  8
AUFNAHME
  6
CONTINUOUS
100
AcDbLine
 10
19.9500005692
 20
-18.7773536891
 30
0.0
 11
19.549999386
 21
-19.0985128284
 31
0.0
  0
LINE
  5
97
330
1F
100
AcDbEntity
  8
AUFNAHME
  6
CONTINUOUS
100
AcDbLine
 10
19.549999386
 20
11.8500003591
 30
0.0
 11
19.9500005692
 21
11.8500003591
 31
0.0
  0
LINE
  5
98
330
1F
100
AcDbEntity
  8
AUFNAHME
  6
CONTINUOUS
100
AcDbLine
 10
18.0841237306
 20
-19.0985128284
 30
0.0
 11
17.9341230541
 21
-18.9782977104
 31
0.0
  0
LINE
  5
99
330
1F
100
AcDbEntity
  8
AUFNAHME
  6
CONTINUOUS
100
AcDbLine
 10
17.9341230541
 20
11.8500003591
 30
0.0
 11
18.0841237306
 21
11.8500003591
 31
0.0
  0
LINE
  5
9A
330
1F
100
AcDbEntity
  8
AUFNAHME
  6
CONTINUOUS
100
AcDbLine
 10
17.037499696
 20
-17.4190495163
 30
0.0
 11
17.4670964479
 21
-18.198043108
 31
0.0
  0
LINE
  5
9B
330
1F
100
AcDbEntity
  8
AUFNAHME
  6
CONTINUOUS
100
AcDbLine
 10
17.4670964479
 20
-18.198043108
 30
0.0
 11
17.780130729
 21
-18.7638830394
 31
0.0
  0
LINE
  5
9C
330
1F
100
AcDbEntity
  8
AUFNAHME
  6
CONTINUOUS
100
AcDbLine
 10
17.037499696
 20
-17.4190495163
 30
0.0
 11
17.037499696
 21
11.8500003591
 31
0.0
  0
LINE
  5
9D
330
1F
100
AcDbEntity
  8
AUFNAHME
  6
CONTINUOUS
100
AcDbLine
 10
17.037499696
 20
11.8500003591
 30
0.0
 11
17.9341230541
 21
11.8500003591
 31
0.0
  0
LINE
  5
9E
330
1F
100
AcDbEntity
  8
AUFNAHME
  6
CONTINUOUS
100
AcDbLine
 10
17.9341230541
 20
-18.9782977104
 30
0.0
 11
17.780130729
 21
-18.7638830394
 31
0.0
  0
LINE
  5
9F
330
1F
100
AcDbEntity
  8
AUFNAHME
  6
CONTINUOUS
100
AcDbLine
 10
14.9624999612
 20
11.8500003591
 30
0.0
 11
14.9624999612
 21
-17.4190495163
 31
0.0
  0
LINE
  5
A0
330
1F
100
AcDbEntity
  8
AUFNAHME
  6
CONTINUOUS
100
AcDbLine
 10
14.2198698595
 20
-18.7638830394
 30
0.0
 11
14.9624999612
 21
-17.4190495163
 31
0.0
  0
LINE
  5
A1
330
1F
100
AcDbEntity
  8
AUFNAHME
  6
CONTINUOUS
100
AcDbLine
 10
14.2198698595
 20
-18.7638830394
 30
0.0
 11
14.0658766031
 21
-18.9782977104
 31
0.0
  0
LINE
  5
A2
330
1F
100
AcDbEntity
  8
AUFNAHME
  6
CONTINUOUS
100
AcDbLine
 10
14.0658766031
 20
11.8500003591
 30
0.0
 11
14.9624999612
 21
11.8500003591
 31
0.0
  0
LINE
  5
A3
330
1F
100
AcDbEntity
  8
AUFNAHME
  6
CONTINUOUS
100
AcDbLine
 10
15.7124996185
 20
-16.8999992311
 30
0.0
 11
15.0476666167
 21
-16.8999992311
 31
0.0
  0
LINE
  5
A4
330
1F
100
AcDbEntity
  8
AUFNAHME
  6
CONTINUOUS
100
AcDbLine
 10
15.7124996185
 20
11.8500003591
 30
0.0
 11
14.9624999612
 21
11.8500003591
 31
0.0
  0
LINE
  5
A5
330
1F
100
AcDbEntity
  8
AUFNAHME
  6
CONTINUOUS
100
AcDbLine
 10
16.9523339718
 20
-16.8999992311
 30
0.0
 11
16.2875000387
 21
-16.8999992311
 31
0.0
  0
LINE
  5
A6
330
1F
100
AcDbEntity
  8
AUFNAHME
  6
CONTINUOUS
100
AcDbLine
 10
17.037499696
 20
11.8500003591
 30
0.0
 11
16.2875000387
 21
11.8500003591
 31
0.0
  0
LINE
  5
A7
330
1F
100
AcDbEntity
  8
AUFNAHME
  6
CONTINUOUS
100
AcDbLine
 10
16.2875000387
 20
-16.8999992311
 30
0.0
 11
15.7124996185
 21
-16.8999992311
 31
0.0
  0
LINE
  5
A8
330
1F
100
AcDbEntity
  8
AUFNAHME
  6
CONTINUOUS
100
AcDbLine
 10
16.2875000387
 20
11.8500003591
 30
0.0
 11
15.7124996185
 21
11.8500003591
 31
0.0
  0
LINE
  5
A9
330
1F
100
AcDbEntity
  8
AUFNAHME
  6
CONTINUOUS
100
AcDbLine
 10
-1.1368774576
 20
15.1469428092
 30
0.0
 11
-1.1368774576
 21
-15.1523016001
 31
0.0
  0
LINE
  5
AA
330
1F
100
AcDbEntity
  8
AUFNAHME
  6
CONTINUOUS
100
AcDbLine
 10
21.4499998837
 20
-11.8500003591
 30
0.0
 11
21.4499998837
 21
11.8500003591
 31
0.0
  0
LINE
  5
AB
330
1F
100
AcDbEntity
  8
AUFNAHME
  6
CONTINUOUS
100
AcDbLine
 10
21.6000005603
 20
12.0000001043
 30
0.0
 11
21.6000005603
 21
-12.0000001043
 31
0.0
  0
LINE
  5
AC
330
1F
100
AcDbEntity
  8
AUFNAHME
  6
CONTINUOUS
100
AcDbLine
 10
35.000000149
 20
-11.2500004471
 30
0.0
 11
35.000000149
 21
11.250000447
 31
0.0
  0
LINE
  5
AD
330
1F
100
AcDbEntity
  8
AUFNAHME
  6
CONTINUOUS
100
AcDbLine
 10
34.2499986291
 20
0.0
 30
0.0
 11
34.2499986291
 21
-12.0000001043
 31
0.0
  0
LINE
  5
AE
330
1F
100
AcDbEntity
  8
AUFNAHME
  6
CONTINUOUS
100
AcDbLine
 10
34.2499986291
 20
12.0000001043
 30
0.0
 11
34.2499986291
 21
0.0
 31
0.0
  0
LINE
  5
AF
330
1F
100
AcDbEntity
  8
AUFNAHME
  6
CONTINUOUS
100
AcDbLine
 10
19.7818595916
 20
19.2200653255
 30
0.0
 11
19.9500005692
 21
19.0473068505
 31
0.0
  0
LINE
  5
B0
330
1F
100
AcDbEntity
  8
AUFNAHME
  6
CONTINUOUS
100
AcDbLine
 10
19.9500005692
 20
15.5806969851
 30
0.0
 11
19.549999386
 21
16.0803645849
 31
0.0
  0
LINE
  5
B1
330
1F
100
AcDbEntity
  8
AUFNAHME
  6
CONTINUOUS
100
AcDbLine
 10
19.549999386
 20
19.3922575563
 30
0.0
 11
19.549999386
 21
16.0803645849
 31
0.0
  0
LINE
  5
B2
330
1F
100
AcDbEntity
  8
AUFNAHME
  6
CONTINUOUS
100
AcDbLine
 10
19.549999386
 20
19.3922575563
 30
0.0
 11
19.7818595916
 21
19.2200653255
 31
0.0
  0
LINE
  5
B3
330
1F
100
AcDbEntity
  8
AUFNAHME
  6
CONTINUOUS
100
AcDbLine
 10
19.9500005692
 20
19.0473068505
 30
0.0
 11
19.9500005692
 21
15.5806969851
 31
0.0
  0
LINE
  5
B4
330
1F
100
AcDbEntity
  8
AUFNAHME
  6
CONTINUOUS
100
AcDbLine
 10
17.037499696
 20
13.908399269
 30
0.0
 11
17.037499696
 21
17.7055187523
 31
0.0
  0
LINE
  5
B5
330
1F
100
AcDbEntity
  8
AUFNAHME
  6
CONTINUOUS
100
AcDbLine
 10
17.037499696
 20
17.7055187523
 30
0.0
 11
17.8868621587
 21
19.2200653255
 31
0.0
  0
LINE
  5
B6
330
1F
100
AcDbEntity
  8
AUFNAHME
  6
CONTINUOUS
100
AcDbLine
 10
17.8868621587
 20
19.2200653255
 30
0.0
 11
17.9341230541
 21
19.2810799926
 31
0.0
  0
LINE
  5
B7
330
1F
100
AcDbEntity
  8
AUFNAHME
  6
CONTINUOUS
100
AcDbLine
 10
17.9341230541
 20
15.8936511725
 30
0.0
 11
17.037499696
 21
13.908399269
 31
0.0
  0
LINE
  5
B8
330
1F
100
AcDbEntity
  8
AUFNAHME
  6
CONTINUOUS
100
AcDbLine
 10
14.1131384298
 20
19.2200653255
 30
0.0
 11
14.9624999612
 21
17.7055187523
 31
0.0
  0
LINE
  5
B9
330
1F
100
AcDbEntity
  8
AUFNAHME
  6
CONTINUOUS
100
AcDbLine
 10
14.9624999612
 20
17.7055187523
 30
0.0
 11
14.9624999612
 21
13.908399269
 31
0.0
  0
LINE
  5
BA
330
1F
100
AcDbEntity
  8
AUFNAHME
  6
CONTINUOUS
100
AcDbLine
 10
14.9624999612
 20
13.908399269
 30
0.0
 11
14.0658766031
 21
15.8936511725
 31
0.0
  0
LINE
  5
BB
330
1F
100
AcDbEntity
  8
AUFNAHME
  6
CONTINUOUS
100
AcDbLine
 10
14.0658766031
 20
19.2810799926
 30
0.0
 11
14.1131384298
 21
19.2200653255
 31
0.0
  0
LINE
  5
BC
330
1F
100
AcDbEntity
  8
AUFNAHME
  6
CONTINUOUS
100
AcDbLine
 10
15.7124996185
 20
16.8999992311
 30
0.0
 11
16.2875000387
 21
16.8999992311
 31
0.0
  0
LINE
  5
BD
330
1F
100
AcDbEntity
  8
AUFNAHME
  6
CONTINUOUS
100
AcDbLine
 10
15.7124996185
 20
12.7070108428
 30
0.0
 11
16.2875000387
 21
12.7070108428
 31
0.0
  0
LINE
  5
BE
330
1F
100
AcDbEntity
  8
AUFNAHME
  6
CONTINUOUS
100
AcDbLine
 10
16.2875000387
 20
16.8999992311
 30
0.0
 11
16.6906844824
 21
16.8999992311
 31
0.0
  0
LINE
  5
BF
330
1F
100
AcDbEntity
  8
AUFNAHME
  6
CONTINUOUS
100
AcDbLine
 10
18.0841237306
 20
19.3922575563
 30
0.0
 11
18.0841237306
 21
16.0803645849
 31
0.0
  0
LINE
  5
C0
330
1F
100
AcDbEntity
  8
AUFNAHME
  6
CONTINUOUS
100
AcDbLine
 10
18.0841237306
 20
16.0803645849
 30
0.0
 11
17.9341230541
 21
15.8936511725
 31
0.0
  0
LINE
  5
C1
330
1F
100
AcDbEntity
  8
AUFNAHME
  6
CONTINUOUS
100
AcDbLine
 10
17.9341230541
 20
19.2810799926
 30
0.0
 11
18.0841237306
 21
19.3922575563
 31
0.0
  0
LINE
  5
C2
330
1F
100
AcDbEntity
  8
AUFNAHME
  6
CONTINUOUS
100
AcDbLine
 10
14.0658766031
 20
15.8936511725
 30
0.0
 11
13.9158768579
 21
16.0803645849
 31
0.0
  0
LINE
  5
C3
330
1F
100
AcDbEntity
  8
AUFNAHME
  6
CONTINUOUS
100
AcDbLine
 10
14.9624999612
 20
13.908399269
 30
0.0
 11
14.9624999612
 21
13.7147046625
 31
0.0
  0
LINE
  5
C4
330
1F
100
AcDbEntity
  8
AUFNAHME
  6
CONTINUOUS
100
AcDbLine
 10
14.9624999612
 20
13.7147046625
 30
0.0
 11
15.0107191875
 21
13.3630847558
 31
0.0
  0
LINE
  5
C5
330
1F
100
AcDbEntity
  8
AUFNAHME
  6
CONTINUOUS
100
AcDbLine
 10
15.0107191875
 20
13.3630847558
 30
0.0
 11
15.1628358289
 21
13.0328983068
 31
0.0
  0
LINE
  5
C6
330
1F
100
AcDbEntity
  8
AUFNAHME
  6
CONTINUOUS
100
AcDbLine
 10
15.1628358289
 20
13.0328983068
 30
0.0
 11
15.3462234884
 21
12.8373140469
 31
0.0
  0
LINE
  5
C7
330
1F
100
AcDbEntity
  8
AUFNAHME
  6
CONTINUOUS
100
AcDbLine
 10
15.3462234884
 20
12.8373140469
 30
0.0
 11
15.5670912936
 21
12.7264624461
 31
0.0
  0
LINE
  5
C8
330
1F
100
AcDbEntity
  8
AUFNAHME
  6
CONTINUOUS
100
AcDbLine
 10
15.5670912936
 20
12.7264624461
 30
0.0
 11
15.7124996185
 21
12.7070108428
 31
0.0
  0
LINE
  5
C9
330
1F
100
AcDbEntity
  8
AUFNAHME
  6
CONTINUOUS
100
AcDbLine
 10
19.549999386
 20
16.0803645849
 30
0.0
 11
18.0841237306
 21
16.0803645849
 31
0.0
  0
LINE
  5
CA
330
1F
100
AcDbEntity
  8
AUFNAHME
  6
CONTINUOUS
100
AcDbLine
 10
17.037499696
 20
13.7147046625
 30
0.0
 11
17.037499696
 21
13.908399269
 31
0.0
  0
LINE
  5
CB
330
1F
100
AcDbEntity
  8
AUFNAHME
  6
CONTINUOUS
100
AcDbLine
 10
19.9500005692
 20
15.5806969851
 30
0.0
 11
19.9500005692
 21
11.8500003591
 31
0.0
  0
LINE
  5
CC
330
1F
100
AcDbEntity
  8
AUFNAHME
  6
CONTINUOUS
100
AcDbLine
 10
18.0841237306
 20
19.3922575563
 30
0.0
 11
19.549999386
 21
19.3922575563
 31
0.0
  0
LINE
  5
CD
330
1F
100
AcDbEntity
  8
AUFNAHME
  6
CONTINUOUS
100
AcDbLine
 10
15.3093151748
 20
16.8999992311
 30
0.0
 11
15.7124996185
 21
16.8999992311
 31
0.0
  0
LINE
  5
CE
330
1F
100
AcDbEntity
  8
AUFNAHME
  6
CONTINUOUS
100
AcDbLine
 10
13.9158768579
 20
19.3922575563
 30
0.0
 11
14.0658766031
 21
19.2810799926
 31
0.0
  0
LINE
  5
CF
330
1F
100
AcDbEntity
  8
AUFNAHME
  6
CONTINUOUS
100
AcDbLine
 10
27.0066245244
 20
0.0000004468
 30
0.0
 11
27.1570347249
 21
0.2605193003
 31
0.0
  0
LINE
  5
D0
330
1F
100
AcDbEntity
  8
AUFNAHME
  6
CONTINUOUS
100
AcDbLine
 10
27.1570347249
 20
0.2605193003
 30
0.0
 11
27.3221358657
 21
0.5464824498
 31
0.0
  0
LINE
  5
D1
330
1F
100
AcDbEntity
  8
AUFNAHME
  6
CONTINUOUS
100
AcDbLine
 10
27.3221358657
 20
0.5464824498
 30
0.0
 11
27.555020526
 21
0.9498487925
 31
0.0
  0
LINE
  5
D2
330
1F
100
AcDbEntity
  8
AUFNAHME
  6
CONTINUOUS
100
AcDbLine
 10
27.555020526
 20
0.9498487925
 30
0.0
 11
27.7283117175
 21
1.249999972
 31
0.0
  0
LINE
  5
D3
330
1F
100
AcDbEntity
  8
AUFNAHME
  6
CONTINUOUS
100
AcDbLine
 10
27.7283117175
 20
-1.2499999721
 30
0.0
 11
27.6403035968
 21
-1.0975654004
 31
0.0
  0
LINE
  5
D4
330
1F
100
AcDbEntity
  8
AUFNAHME
  6
CONTINUOUS
100
AcDbLine
 10
27.6403035968
 20
-1.0975654004
 30
0.0
 11
27.5136977434
 21
-0.8782785153
 31
0.0
  0
LINE
  5
D5
330
1F
100
AcDbEntity
  8
AUFNAHME
  6
CONTINUOUS
100
AcDbLine
 10
27.5136977434
 20
-0.8782785153
 30
0.0
 11
27.3823887109
 21
-0.6508421502
 31
0.0
  0
LINE
  5
D6
330
1F
100
AcDbEntity
  8
AUFNAHME
  6
CONTINUOUS
100
AcDbLine
 10
27.3823887109
 20
-0.6508421502
 30
0.0
 11
27.2566117346
 21
-0.432990666
 31
0.0
  0
LINE
  5
D7
330
1F
100
AcDbEntity
  8
AUFNAHME
  6
CONTINUOUS
100
AcDbLine
 10
27.2566117346
 20
-0.432990666
 30
0.0
 11
27.1343383938
 21
-0.2212071559
 31
0.0
  0
LINE
  5
D8
330
1F
100
AcDbEntity
  8
AUFNAHME
  6
CONTINUOUS
100
AcDbLine
 10
27.1343383938
 20
-0.2212071559
 30
0.0
 11
27.0066245244
 21
0.0000004468
 31
0.0
  0
LINE
  5
D9
330
1F
100
AcDbEntity
  8
AUFNAHME
  6
CONTINUOUS
100
AcDbLine
 10
29.1716884821
 20
-1.2499999721
 30
0.0
 11
27.7283117175
 21
-1.2499999721
 31
0.0
  0
LINE
  5
DA
330
1F
100
AcDbEntity
  8
AUFNAHME
  6
CONTINUOUS
100
AcDbLine
 10
29.8933759331
 20
0.0
 30
0.0
 11
29.7429654747
 21
-0.2605193004
 31
0.0
  0
LINE
  5
DB
330
1F
100
AcDbEntity
  8
AUFNAHME
  6
CONTINUOUS
100
AcDbLine
 10
29.7429654747
 20
-0.2605193004
 30
0.0
 11
29.577864334
 21
-0.5464824499
 31
0.0
  0
LINE
  5
DC
330
1F
100
AcDbEntity
  8
AUFNAHME
  6
CONTINUOUS
100
AcDbLine
 10
29.577864334
 20
-0.5464824499
 30
0.0
 11
29.3449796736
 21
-0.9498487925
 31
0.0
  0
LINE
  5
DD
330
1F
100
AcDbEntity
  8
AUFNAHME
  6
CONTINUOUS
100
AcDbLine
 10
29.3449796736
 20
-0.9498487925
 30
0.0
 11
29.1716884821
 21
-1.2499999721
 31
0.0
  0
LINE
  5
DE
330
1F
100
AcDbEntity
  8
AUFNAHME
  6
CONTINUOUS
100
AcDbLine
 10
29.1716884821
 20
1.249999972
 30
0.0
 11
29.2994026094
 21
1.0287928162
 31
0.0
  0
LINE
  5
DF
330
1F
100
AcDbEntity
  8
AUFNAHME
  6
CONTINUOUS
100
AcDbLine
 10
29.2994026094
 20
1.0287928162
 30
0.0
 11
29.4216759503
 21
0.8170093642
 31
0.0
  0
LINE
  5
E0
330
1F
100
AcDbEntity
  8
AUFNAHME
  6
CONTINUOUS
100
AcDbLine
 10
29.4216759503
 20
0.8170093642
 30
0.0
 11
29.547451064
 21
0.5991578218
 31
0.0
  0
LINE
  5
E1
330
1F
100
AcDbEntity
  8
AUFNAHME
  6
CONTINUOUS
100
AcDbLine
 10
29.547451064
 20
0.5991578218
 30
0.0
 11
29.678761959
 21
0.3717215149
 31
0.0
  0
LINE
  5
E2
330
1F
100
AcDbEntity
  8
AUFNAHME
  6
CONTINUOUS
100
AcDbLine
 10
29.678761959
 20
0.3717215149
 30
0.0
 11
29.8053678125
 21
0.1524345425
 31
0.0
  0
LINE
  5
E3
330
1F
100
AcDbEntity
  8
AUFNAHME
  6
CONTINUOUS
100
AcDbLine
 10
29.8053678125
 20
0.1524345425
 30
0.0
 11
29.8933759331
 21
0.0
 31
0.0
  0
LINE
  5
E4
330
1F
100
AcDbEntity
  8
AUFNAHME
  6
CONTINUOUS
100
AcDbLine
 10
27.7283117175
 20
1.249999972
 30
0.0
 11
29.1716884821
 21
1.249999972
 31
0.0
  0
LINE
  5
E5
330
1F
100
AcDbEntity
  8
AUFNAHME
  6
CONTINUOUS
100
AcDbLine
 10
12.4419135972
 20
16.0803645849
 30
0.0
 11
12.4419135972
 21
11.8500003591
 31
0.0
  0
LINE
  5
E6
330
1F
100
AcDbEntity
  8
AUFNAHME
  6
CONTINUOUS
100
AcDbLine
 10
-36.6451352658
 20
-23.82013732
 30
0.0
 11
-36.6451352658
 21
-25.89012939
 31
0.0
  0
LINE
  5
E7
330
1F
100
AcDbEntity
  8
AUFNAHME
  6
CONTINUOUS
100
AcDbLine
 10
-39.5251210758
 20
-25.8901599
 30
0.0
 11
-36.6451238158
 21
-25.8901599
 31
0.0
  0
LINE
  5
E8
330
1F
100
AcDbEntity
  8
AUFNAHME
  6
CONTINUOUS
100
AcDbLine
 10
-39.9751142058
 20
-37.50014346
 30
0.0
 11
-43.3951123758
 21
-37.50014526
 31
0.0
  0
LINE
  5
E9
330
1F
100
AcDbEntity
  8
AUFNAHME
  6
CONTINUOUS
100
AcDbLine
 10
-43.110534882
 20
-27.7267091078
 30
0.0
 11
-39.0089658258
 21
-35.9375003
 31
0.0
  0
LINE
  5
EA
330
1F
100
AcDbEntity
  8
AUFNAHME
  6
CONTINUOUS
100
AcDbLine
 10
-40.4912831578
 20
-27.4527680221
 30
0.0
 11
-36.3897229683
 21
-35.6635738055
 31
0.0
  0
LINE
  5
EB
330
1F
100
AcDbEntity
  8
AUFNAHME
  6
CONTINUOUS
100
AcDbLine
 10
-43.3951352658
 20
-37.50014526
 30
0.0
 11
-43.3951352658
 21
-39.57015258
 31
0.0
  0
LINE
  5
EC
330
1F
100
AcDbEntity
  8
AUFNAHME
  6
CONTINUOUS
100
AcDbLine
 10
-43.3951352658
 20
-39.57015258
 30
0.0
 11
-38.8051274858
 21
-39.57014805
 31
0.0
  0
LINE
  5
ED
330
1F
100
AcDbEntity
  8
AUFNAHME
  6
CONTINUOUS
100
AcDbLine
 10
-33.9451306858
 20
-39.57015258
 30
0.0
 11
-33.9451306858
 21
-23.82015258
 31
0.0
  0
LINE
  5
EE
330
1F
100
AcDbEntity
  8
AUFNAHME
  6
CONTINUOUS
100
AcDbLine
 10
-25.6651242758
 20
-39.57015258
 30
0.0
 11
-25.6651242758
 21
-23.82015258
 31
0.0
  0
LINE
  5
EF
330
1F
100
AcDbEntity
  8
AUFNAHME
  6
CONTINUOUS
100
AcDbLine
 10
-25.6651242758
 20
-39.57015258
 30
0.0
 11
-22.9651311458
 21
-39.57015258
 31
0.0
  0
LINE
  5
F0
330
1F
100
AcDbEntity
  8
AUFNAHME
  6
CONTINUOUS
100
AcDbLine
 10
-22.9651311458
 20
-39.57015258
 30
0.0
 11
-22.9651311458
 21
-32.73015624
 31
0.0
  0
LINE
  5
F1
330
1F
100
AcDbEntity
  8
AUFNAHME
  6
CONTINUOUS
100
AcDbLine
 10
-21.6151175596
 20
-32.73014277
 30
0.0
 11
-22.9651196958
 21
-32.73014098
 31
0.0
  0
LINE
  5
F2
330
1F
100
AcDbEntity
  8
AUFNAHME
  6
CONTINUOUS
100
AcDbLine
 10
-17.4975331858
 20
-39.57015258
 30
0.0
 11
-20.0175336358
 21
-39.57015258
 31
0.0
  0
LINE
  5
F3
330
1F
100
AcDbEntity
  8
AUFNAHME
  6
CONTINUOUS
100
AcDbLine
 10
-20.5351384658
 20
-33.81015807
 30
0.0
 11
-20.5351384658
 21
-38.04014617
 31
0.0
  0
LINE
  5
F4
330
1F
100
AcDbEntity
  8
AUFNAHME
  6
CONTINUOUS
100
AcDbLine
 10
-18.1951192458
 20
-26.34015685
 30
0.0
 11
-18.1951192458
 21
-28.95015746
 31
0.0
  0
LINE
  5
F5
330
1F
100
AcDbEntity
  8
AUFNAHME
  6
CONTINUOUS
100
AcDbLine
 10
-21.3451285157
 20
-25.89015376
 30
0.0
 11
-22.9651311458
 21
-25.8901599
 31
0.0
  0
LINE
  5
F6
330
1F
100
AcDbEntity
  8
AUFNAHME
  6
CONTINUOUS
100
AcDbLine
 10
-20.4451283558
 20
-26.7901538
 30
0.0
 11
-20.4451283558
 21
-29.67014342
 31
0.0
  0
LINE
  5
F7
330
1F
100
AcDbEntity
  8
AUFNAHME
  6
CONTINUOUS
100
AcDbLine
 10
-22.9651311458
 20
-25.8901599
 30
0.0
 11
-22.9651311458
 21
-30.57015258
 31
0.0
  0
LINE
  5
F8
330
1F
100
AcDbEntity
  8
AUFNAHME
  6
CONTINUOUS
100
AcDbLine
 10
-21.3451283958
 20
-30.57014346
 30
0.0
 11
-22.9651311458
 21
-30.57015258
 31
0.0
  0
LINE
  5
F9
330
1F
100
AcDbEntity
  8
AUFNAHME
  6
CONTINUOUS
100
AcDbLine
 10
-17.9257710958
 20
-34.04693633
 30
0.0
 11
-17.9251416758
 21
-38.04055053
 31
0.0
  0
LINE
  5
FA
330
1F
100
AcDbEntity
  8
AUFNAHME
  6
CONTINUOUS
100
AcDbLine
 10
-17.4975331858
 20
-39.57015258
 30
0.0
 11
-17.4075368458
 21
-39.57015258
 31
0.0
  0
LINE
  5
FB
330
1F
100
AcDbEntity
  8
AUFNAHME
  6
CONTINUOUS
100
AcDbLine
 10
-40.6951310454
 20
-23.82013422
 30
0.0
 11
-36.6451352658
 21
-23.82013732
 31
0.0
  0
LINE
  5
FC
330
1F
100
AcDbEntity
  8
AUFNAHME
  6
CONTINUOUS
100
AcDbLine
 10
-20.7151311458
 20
-23.82013732
 30
0.0
 11
-25.6651357258
 21
-23.82013732
 31
0.0
  0
LINE
  5
FD
330
1F
100
AcDbEntity
  8
AUFNAHME
  6
CONTINUOUS
100
AcDbLine
 10
-67.6951306858
 20
-39.57015258
 30
0.0
 11
-70.4851316058
 21
-39.57015258
 31
0.0
  0
LINE
  5
FE
330
1F
100
AcDbEntity
  8
AUFNAHME
  6
CONTINUOUS
100
AcDbLine
 10
-67.6951306858
 20
-36.15015441
 30
0.0
 11
-67.6951306858
 21
-39.57015258
 31
0.0
  0
LINE
  5
FF
330
1F
100
AcDbEntity
  8
AUFNAHME
  6
CONTINUOUS
100
AcDbLine
 10
-66.6151288558
 20
-34.08014709
 30
0.0
 11
-67.6951306858
 21
-36.15015441
 31
0.0
  0
LINE
  5
100
330
1F
100
AcDbEntity
  8
AUFNAHME
  6
CONTINUOUS
100
AcDbLine
 10
-64.1851361758
 20
-39.57015258
 30
0.0
 11
-66.6151288558
 21
-34.08014709
 31
0.0
  0
LINE
  5
101
330
1F
100
AcDbEntity
  8
AUFNAHME
  6
CONTINUOUS
100
AcDbLine
 10
-61.3951352658
 20
-39.57015258
 30
0.0
 11
-64.1851361758
 21
-39.57015258
 31
0.0
  0
LINE
  5
102
330
1F
100
AcDbEntity
  8
AUFNAHME
  6
CONTINUOUS
100
AcDbLine
 10
-64.9951413658
 20
-30.57015258
 30
0.0
 11
-61.3951352658
 21
-39.57015258
 31
0.0
  0
LINE
  5
103
330
1F
100
AcDbEntity
  8
AUFNAHME
  6
CONTINUOUS
100
AcDbLine
 10
-61.9351361758
 20
-23.82015258
 30
0.0
 11
-64.9951261058
 21
-30.57015258
 31
0.0
  0
LINE
  5
104
330
1F
100
AcDbEntity
  8
AUFNAHME
  6
CONTINUOUS
100
AcDbLine
 10
-67.6951306858
 20
-30.93016082
 30
0.0
 11
-64.7251370958
 21
-23.82016784
 31
0.0
  0
LINE
  5
105
330
1F
100
AcDbEntity
  8
AUFNAHME
  6
CONTINUOUS
100
AcDbLine
 10
-67.6951306858
 20
-23.82015258
 30
0.0
 11
-67.6951306858
 21
-30.93016082
 31
0.0
  0
LINE
  5
106
330
1F
100
AcDbEntity
  8
AUFNAHME
  6
CONTINUOUS
100
AcDbLine
 10
-70.4851316058
 20
-39.57015258
 30
0.0
 11
-70.4851316058
 21
-23.82015258
 31
0.0
  0
LINE
  5
107
330
1F
100
AcDbEntity
  8
AUFNAHME
  6
CONTINUOUS
100
AcDbLine
 10
-64.7251370958
 20
-23.82015258
 30
0.0
 11
-61.9351361758
 21
-23.82015258
 31
0.0
  0
LINE
  5
108
330
1F
100
AcDbEntity
  8
AUFNAHME
  6
CONTINUOUS
100
AcDbLine
 10
-70.4851316058
 20
-23.82015258
 30
0.0
 11
-67.6951306858
 21
-23.82015258
 31
0.0
  0
LINE
  5
109
330
1F
100
AcDbEntity
  8
AUFNAHME
  6
CONTINUOUS
100
AcDbLine
 10
-48.4351247358
 20
-23.82015258
 30
0.0
 11
-48.4351247358
 21
-39.57015258
 31
0.0
  0
LINE
  5
10A
330
1F
100
AcDbEntity
  8
AUFNAHME
  6
CONTINUOUS
100
AcDbLine
 10
-45.5551274858
 20
-39.57015258
 30
0.0
 11
-45.5551274858
 21
-23.82015258
 31
0.0
  0
LINE
  5
10B
330
1F
100
AcDbEntity
  8
AUFNAHME
  6
CONTINUOUS
100
AcDbLine
 10
-48.4351247358
 20
-39.57015258
 30
0.0
 11
-45.5551274858
 21
-39.57015258
 31
0.0
  0
LINE
  5
10C
330
1F
100
AcDbEntity
  8
AUFNAHME
  6
CONTINUOUS
100
AcDbLine
 10
-45.5551274858
 20
-23.82015258
 30
0.0
 11
-48.4351361758
 21
-23.82015258
 31
0.0
  0
LINE
  5
10D
330
1F
100
AcDbEntity
  8
AUFNAHME
  6
CONTINUOUS
100
AcDbLine
 10
-28.0951283958
 20
-39.57015258
 30
0.0
 11
-28.0951283958
 21
-37.50014526
 31
0.0
  0
LINE
  5
10E
330
1F
100
AcDbEntity
  8
AUFNAHME
  6
CONTINUOUS
100
AcDbLine
 10
-33.9451306858
 20
-39.57015258
 30
0.0
 11
-28.0951283958
 21
-39.57015258
 31
0.0
  0
LINE
  5
10F
330
1F
100
AcDbEntity
  8
AUFNAHME
  6
CONTINUOUS
100
AcDbLine
 10
-28.0951398458
 20
-25.89014465
 30
0.0
 11
-28.0951398458
 21
-23.82015258
 31
0.0
  0
LINE
  5
110
330
1F
100
AcDbEntity
  8
AUFNAHME
  6
CONTINUOUS
100
AcDbLine
 10
-31.0651563258
 20
-25.89014465
 30
0.0
 11
-28.0951512858
 21
-25.89014465
 31
0.0
  0
LINE
  5
111
330
1F
100
AcDbEntity
  8
AUFNAHME
  6
CONTINUOUS
100
AcDbLine
 10
-31.0651563258
 20
-30.57015258
 30
0.0
 11
-31.0651563258
 21
-25.8901599
 31
0.0
  0
LINE
  5
112
330
1F
100
AcDbEntity
  8
AUFNAHME
  6
CONTINUOUS
100
AcDbLine
 10
-28.0951398458
 20
-30.57015258
 30
0.0
 11
-31.0651448758
 21
-30.57015258
 31
0.0
  0
LINE
  5
113
330
1F
100
AcDbEntity
  8
AUFNAHME
  6
CONTINUOUS
100
AcDbLine
 10
-28.0951398458
 20
-32.73013335
 30
0.0
 11
-28.0951398458
 21
-30.57012969
 31
0.0
  0
LINE
  5
114
330
1F
100
AcDbEntity
  8
AUFNAHME
  6
CONTINUOUS
100
AcDbLine
 10
-31.0651563258
 20
-32.73013335
 30
0.0
 11
-28.0951512858
 21
-32.73013335
 31
0.0
  0
LINE
  5
115
330
1F
100
AcDbEntity
  8
AUFNAHME
  6
CONTINUOUS
100
AcDbLine
 10
-31.0651563258
 20
-37.50014526
 30
0.0
 11
-31.0651563258
 21
-32.73013335
 31
0.0
  0
LINE
  5
116
330
1F
100
AcDbEntity
  8
AUFNAHME
  6
CONTINUOUS
100
AcDbLine
 10
-28.0951398458
 20
-37.50014526
 30
0.0
 11
-31.0651448758
 21
-37.50014526
 31
0.0
  0
LINE
  5
117
330
1F
100
AcDbEntity
  8
AUFNAHME
  6
CONTINUOUS
100
AcDbLine
 10
-28.0951398458
 20
-23.82015258
 30
0.0
 11
-33.9451421258
 21
-23.82015258
 31
0.0
  0
LINE
  5
118
330
1F
100
AcDbEntity
  8
AUFNAHME
  6
CONTINUOUS
100
AcDbLine
 10
-54.0151303858
 20
-39.57015258
 30
0.0
 11
-60.3151334358
 21
-39.57015258
 31
0.0
  0
LINE
  5
119
330
1F
100
AcDbEntity
  8
AUFNAHME
  6
CONTINUOUS
100
AcDbLine
 10
-54.4651196958
 20
-37.05014068
 30
0.0
 11
-54.0151303858
 21
-39.57013732
 31
0.0
  0
LINE
  5
11A
330
1F
100
AcDbEntity
  8
AUFNAHME
  6
CONTINUOUS
100
AcDbLine
 10
-57.3451398458
 20
-37.05014068
 30
0.0
 11
-54.4651425858
 21
-37.05014068
 31
0.0
  0
LINE
  5
11B
330
1F
100
AcDbEntity
  8
AUFNAHME
  6
CONTINUOUS
100
AcDbLine
 10
-55.8151334358
 20
-27.69015533
 30
0.0
 11
-57.3451322158
 21
-37.05016357
 31
0.0
  0
LINE
  5
11C
330
1F
100
AcDbEntity
  8
AUFNAHME
  6
CONTINUOUS
100
AcDbLine
 10
-52.7551358758
 20
-39.57015258
 30
0.0
 11
-55.8151334358
 21
-27.69015533
 31
0.0
  0
LINE
  5
11D
330
1F
100
AcDbEntity
  8
AUFNAHME
  6
CONTINUOUS
100
AcDbLine
 10
-49.7851270258
 20
-39.57015258
 30
0.0
 11
-52.7551206158
 21
-39.57015258
 31
0.0
  0
LINE
  5
11E
330
1F
100
AcDbEntity
  8
AUFNAHME
  6
CONTINUOUS
100
AcDbLine
 10
-54.1951306858
 20
-23.370148
 30
0.0
 11
-49.7851384658
 21
-39.57015258
 31
0.0
  0
LINE
  5
11F
330
1F
100
AcDbEntity
  8
AUFNAHME
  6
CONTINUOUS
100
AcDbLine
 10
-57.2551358758
 20
-23.370148
 30
0.0
 11
-54.1951306858
 21
-23.370148
 31
0.0
  0
LINE
  5
120
330
1F
100
AcDbEntity
  8
AUFNAHME
  6
CONTINUOUS
100
AcDbLine
 10
-60.3151334358
 20
-39.57015258
 30
0.0
 11
-57.2551358758
 21
-23.370148
 31
0.0
  0
LINE
  5
121
330
1F
100
AcDbEntity
  8
AUFNAHME
  6
CONTINUOUS
100
AcDbLine
 10
-1.1368774576
 20
15.1469428092
 30
0.0
 11
-19.1200298052
 21
14.2750839159
 31
0.0
  0
LINE
  5
122
330
1F
100
AcDbEntity
  8
AUFNAHME
  6
CONTINUOUS
100
AcDbLine
 10
-19.1200298052
 20
-14.2750830221
 30
0.0
 11
-1.2115229672
 21
-15.1723028041
 31
0.0
  0
LINE
  5
123
330
1F
100
AcDbEntity
  8
AUFNAHME
  6
CONTINUOUS
100
AcDbLine
 10
-1.2115229672
 20
-15.1723028041
 30
0.0
 11
-0.3594093738
 21
-14.943979655
 31
0.0
  0
LINE
  5
124
330
1F
100
AcDbEntity
  8
EW
  6
HIDDEN
100
AcDbLine
 10
-10.5550289198
 20
0.000000447
 30
0.0
 11
-10.5550289198
 21
-12.656845999
 31
0.0
  0
LINE
  5
125
330
1F
100
AcDbEntity
  8
EW
  6
HIDDEN
100
AcDbLine
 10
-10.5550289198
 20
12.656846893
 30
0.0
 11
-10.5550289198
 21
0.000000447
 31
0.0
  0
LINE
  5
126
330
1F
100
AcDbEntity
  8
EW
  6
HIDDEN
100
AcDbLine
 10
-11.95954445
 20
0.0000004468
 30
0.0
 11
-11.95954445
 21
10.5210004471
 31
0.0
  0
LINE
  5
127
330
1F
100
AcDbEntity
  8
EW
  6
HIDDEN
100
AcDbLine
 10
-11.95954445
 20
-10.5209995532
 30
0.0
 11
-11.95954445
 21
0.0000004468
 31
0.0
  0
LINE
  5
128
330
1F
100
AcDbEntity
  8
AUFNAHME
  6
CONTINUOUS
100
AcDbLine
 10
-19.8777627132
 20
-11.9391068901
 30
0.0
 11
-19.8777627132
 21
11.9391077839
 31
0.0
  0
LINE
  5
129
330
1F
100
AcDbEntity
  8
EW
  6
HIDDEN
100
AcDbLine
 10
7.9700001489
 20
0.0000004469
 30
0.0
 11
7.9700001489
 21
9.8750004469
 31
0.0
  0
LINE
  5
12A
330
1F
100
AcDbEntity
  8
EW
  6
HIDDEN
100
AcDbLine
 10
7.9700001489
 20
-9.8749995533
 30
0.0
 11
7.9700001489
 21
0.0000004469
 31
0.0
  0
LINE
  5
12B
330
1F
100
AcDbEntity
  8
EW
  6
HIDDEN
100
AcDbLine
 10
5.9891500359
 20
0.0000004467
 30
0.0
 11
5.9891500359
 21
10.5210004467
 31
0.0
  0
LINE
  5
12C
330
1F
100
AcDbEntity
  8
EW
  6
HIDDEN
100
AcDbLine
 10
5.9891500359
 20
-10.5209995533
 30
0.0
 11
5.9891500359
 21
0.0000004467
 31
0.0
  0
LINE
  5
12D
330
1F
100
AcDbEntity
  8
EW
  6
HIDDEN
100
AcDbLine
 10
14.3200001488
 20
6.2500004468
 30
0.0
 11
14.3200001488
 21
-6.2499995532
 31
0.0
  0
LINE
  5
12E
330
1F
100
AcDbEntity
  8
EW
  6
HIDDEN
100
AcDbLine
 10
13.0209620428
 20
5.5000004469
 30
0.0
 11
13.0209620428
 21
-5.4999995531
 31
0.0
  0
LINE
  5
12F
330
1F
100
AcDbEntity
  8
EW
  6
HIDDEN
100
AcDbLine
 10
15.8200001488
 20
6.2500004468
 30
0.0
 11
15.8200001488
 21
-6.2499995532
 31
0.0
  0
LINE
  5
130
330
1F
100
AcDbEntity
  8
EW
  6
HIDDEN
100
AcDbLine
 10
8.5200001488
 20
5.5000004469
 30
0.0
 11
8.5200001488
 21
-5.4999995531
 31
0.0
  0
LINE
  5
131
330
1F
100
AcDbEntity
  8
EW
  6
HIDDEN
100
AcDbLine
 10
-4.211736213
 20
12.7800004475
 30
0.0
 11
-10.266314449
 21
12.7800004475
 31
0.0
  0
LINE
  5
132
330
1F
100
AcDbEntity
  8
EW
  6
HIDDEN
100
AcDbLine
 10
-10.266314449
 20
-12.7799995534
 30
0.0
 11
-4.211736213
 21
-12.7799995534
 31
0.0
  0
LINE
  5
133
330
1F
100
AcDbEntity
  8
EW
  6
HIDDEN
100
AcDbLine
 10
-10.8521796258
 20
12.4584870485
 30
0.0
 11
-11.95954445
 21
10.5210004471
 31
0.0
  0
LINE
  5
134
330
1F
100
AcDbEntity
  8
EW
  6
HIDDEN
100
AcDbLine
 10
-11.95954445
 20
-10.5209995532
 30
0.0
 11
-10.8521796258
 21
-12.4584861547
 31
0.0
  0
LINE
  5
135
330
1F
100
AcDbEntity
  8
EW
  6
HIDDEN
100
AcDbLine
 10
-19.3360161747
 20
-10.8651307075
 30
0.0
 11
-18.9030034728
 21
-10.6151307074
 31
0.0
  0
LINE
  5
136
330
1F
100
AcDbEntity
  8
EW
  6
HIDDEN
100
AcDbLine
 10
-18.9030034728
 20
10.6151316013
 30
0.0
 11
-19.3360161747
 21
10.8651316013
 31
0.0
  0
LINE
  5
137
330
1F
100
AcDbEntity
  8
EW
  6
HIDDEN
100
AcDbLine
 10
6.5473818872
 20
10.7813082337
 30
0.0
 11
5.9891500359
 21
10.5210004467
 31
0.0
  0
LINE
  5
138
330
1F
100
AcDbEntity
  8
EW
  6
HIDDEN
100
AcDbLine
 10
5.9891500359
 20
-10.5209995533
 30
0.0
 11
6.5473818872
 21
-10.7813073404
 31
0.0
  0
LINE
  5
139
330
1F
100
AcDbEntity
  8
EW
  6
HIDDEN
100
AcDbLine
 10
-18.379999851
 20
-10.5209995532
 30
0.0
 11
-11.95954445
 21
-10.5209995532
 31
0.0
  0
LINE
  5
13A
330
1F
100
AcDbEntity
  8
EW
  6
HIDDEN
100
AcDbLine
 10
-11.95954445
 20
10.5210004471
 30
0.0
 11
-18.379999851
 21
10.5210004471
 31
0.0
  0
LINE
  5
13B
330
1F
100
AcDbEntity
  8
EW
  6
HIDDEN
100
AcDbLine
 10
-0.0299998511
 20
-10.5209995533
 30
0.0
 11
5.9891500359
 21
-10.5209995533
 31
0.0
  0
LINE
  5
13C
330
1F
100
AcDbEntity
  8
EW
  6
HIDDEN
100
AcDbLine
 10
5.9891500359
 20
10.5210004467
 30
0.0
 11
-0.0299998511
 21
10.5210004467
 31
0.0
  0
LINE
  5
13D
330
1F
100
AcDbEntity
  8
EW
  6
HIDDEN
100
AcDbLine
 10
14.3200001488
 20
6.2500004468
 30
0.0
 11
13.0209620428
 21
5.5000004469
 31
0.0
  0
LINE
  5
13E
330
1F
100
AcDbEntity
  8
EW
  6
HIDDEN
100
AcDbLine
 10
13.0209620428
 20
-5.4999995531
 30
0.0
 11
14.3200001488
 21
-6.2499995532
 31
0.0
  0
LINE
  5
13F
330
1F
100
AcDbEntity
  8
EW
  6
HIDDEN
100
AcDbLine
 10
15.8200001488
 20
6.2500004468
 30
0.0
 11
14.3200001488
 21
6.2500004468
 31
0.0
  0
LINE
  5
140
330
1F
100
AcDbEntity
  8
EW
  6
HIDDEN
100
AcDbLine
 10
14.3200001488
 20
-6.2499995532
 30
0.0
 11
15.8200001488
 21
-6.2499995532
 31
0.0
  0
LINE
  5
141
330
1F
100
AcDbEntity
  8
EW
  6
HIDDEN
100
AcDbLine
 10
7.9700001488
 20
-6.0499995531
 30
0.0
 11
8.5200001488
 21
-5.4999995531
 31
0.0
  0
LINE
  5
142
330
1F
100
AcDbEntity
  8
EW
  6
HIDDEN
100
AcDbLine
 10
8.5200001488
 20
5.5000004469
 30
0.0
 11
7.9700001488
 21
6.0500004469
 31
0.0
  0
LINE
  5
143
330
1F
100
AcDbEntity
  8
EW
  6
HIDDEN
100
AcDbLine
 10
13.0209620428
 20
5.5000004469
 30
0.0
 11
8.5200001488
 21
5.5000004469
 31
0.0
  0
LINE
  5
144
330
1F
100
AcDbEntity
  8
EW
  6
HIDDEN
100
AcDbLine
 10
8.5200001488
 20
-5.4999995531
 30
0.0
 11
13.0209620428
 21
-5.4999995531
 31
0.0
  0
LINE
  5
145
330
1F
100
AcDbEntity
  8
EW
  6
HIDDEN
100
AcDbLine
 10
17.5200001488
 20
2.5000004469
 30
0.0
 11
15.8200001488
 21
2.5000004469
 31
0.0
  0
LINE
  5
146
330
1F
100
AcDbEntity
  8
EW
  6
HIDDEN
100
AcDbLine
 10
15.8200001488
 20
-2.4999995531
 30
0.0
 11
17.5200001488
 21
-2.4999995531
 31
0.0
  0
LINE
  5
147
330
1F
100
AcDbEntity
  8
EW
  6
HIDDEN
100
AcDbLine
 10
34.9999997375
 20
11.2500007896
 30
0.0
 11
34.2499982176
 21
12.0000004469
 31
0.0
  0
LINE
  5
148
330
1F
100
AcDbEntity
  8
AUFNAHME
  6
CONTINUOUS
100
AcDbLine
 10
-19.8777627132
 20
11.9391077839
 30
0.0
 11
-19.8799998512
 21
13.4608229579
 31
0.0
  0
LINE
  5
149
330
1F
100
AcDbEntity
  8
AUFNAHME
  6
CONTINUOUS
100
AcDbLine
 10
-19.8799998512
 20
-13.4608220641
 30
0.0
 11
-19.8777627132
 21
-11.9391068901
 31
0.0
  0
LINE
  5
14A
330
1F
100
AcDbEntity
  8
EW
  6
HIDDEN
100
AcDbLine
 10
34.600000149
 20
11.650000447
 30
0.0
 11
35.000000149
 21
11.250000447
 31
0.0
  0
LINE
  5
14B
330
1F
100
AcDbEntity
  8
EW
  6
HIDDEN
100
AcDbLine
 10
19.3504810958
 20
7.2500004469
 30
0.0
 11
19.3504810958
 21
-7.2499995531
 31
0.0
  0
LINE
  5
14C
330
1F
100
AcDbEntity
  8
EW
  6
HIDDEN
100
AcDbLine
 10
19.3504810958
 20
-7.2499995531
 30
0.0
 11
19.7834937978
 21
-6.999999553
 31
0.0
  0
LINE
  5
14D
330
1F
100
AcDbEntity
  8
EW
  6
HIDDEN
100
AcDbLine
 10
19.7834937978
 20
-6.999999553
 30
0.0
 11
19.7834937978
 21
7.000000447
 31
0.0
  0
LINE
  5
14E
330
1F
100
AcDbEntity
  8
EW
  6
HIDDEN
100
AcDbLine
 10
19.7834937978
 20
7.000000447
 30
0.0
 11
19.3504810958
 21
7.2500004469
 31
0.0
  0
LINE
  5
14F
330
1F
100
AcDbEntity
  8
EW
  6
HIDDEN
100
AcDbLine
 10
19.3504810958
 20
-7.2499995531
 30
0.0
 11
17.5000001488
 21
-7.2499995531
 31
0.0
  0
LINE
  5
150
330
1F
100
AcDbEntity
  8
EW
  6
HIDDEN
100
AcDbLine
 10
17.5000001488
 20
-7.2499995531
 30
0.0
 11
17.5000001488
 21
7.2500004469
 31
0.0
  0
LINE
  5
151
330
1F
100
AcDbEntity
  8
EW
  6
HIDDEN
100
AcDbLine
 10
17.5000001488
 20
7.2500004469
 30
0.0
 11
19.3504810958
 21
7.2500004469
 31
0.0
  0
LINE
  5
152
330
1F
100
AcDbEntity
  8
EW
  6
HIDDEN
100
AcDbLine
 10
19.7834937978
 20
-6.999999553
 30
0.0
 11
35.0000001488
 21
-6.999999553
 31
0.0
  0
LINE
  5
153
330
1F
100
AcDbEntity
  8
EW
  6
HIDDEN
100
AcDbLine
 10
35.0000001488
 20
7.000000447
 30
0.0
 11
19.7834937978
 21
7.000000447
 31
0.0
  0
LINE
  5
154
330
1F
100
AcDbEntity
  8
EW
  6
HIDDEN
100
AcDbLine
 10
17.5000001488
 20
2.5000004469
 30
0.0
 11
15.8000001488
 21
2.5000004469
 31
0.0
  0
LINE
  5
155
330
1F
100
AcDbEntity
  8
EW
  6
HIDDEN
100
AcDbLine
 10
15.8000001488
 20
-2.4999995531
 30
0.0
 11
17.5000001488
 21
-2.4999995531
 31
0.0
  0
ARC
  5
156
330
1F
100
AcDbEntity
  8
AUFNAHME
  6
CONTINUOUS
100
AcDbCircle
 10
-0.25
 20
15.4269430147
 30
0.0
 40
0.5000000000000627
100
AcDbArc
 50
255.0
 51
300.0
  0
ARC
  5
157
330
1F
100
AcDbEntity
  8
AUFNAHME
  6
CONTINUOUS
100
AcDbCircle
 10
20.95
 20
-12.85
 30
0.0
 40
1.0
100
AcDbArc
 50
90.0
 51
180.0
  0
ARC
  5
158
330
1F
100
AcDbEntity
  8
AUFNAHME
  6
CONTINUOUS
100
AcDbCircle
 10
20.95
 20
12.85
 30
0.0
 40
1.0
100
AcDbArc
 50
180.0
 51
270.0
  0
ARC
  5
159
330
1F
100
AcDbEntity
  8
AUFNAHME
  6
CONTINUOUS
100
AcDbCircle
 10
12.113148401
 20
11.9294559041
 30
0.0
 40
4.163907951778726
100
AcDbArc
 50
85.4714453019
 51
181.0933824087
  0
ARC
  5
15A
330
1F
100
AcDbEntity
  8
AUFNAHME
  6
CONTINUOUS
100
AcDbCircle
 10
11.9457721384
 20
-29.8930800153
 30
0.0
 40
10.80633734260942
100
AcDbArc
 50
87.3255843743
 51
112.8280089591
  0
ARC
  5
15B
330
1F
100
AcDbEntity
  8
AUFNAHME
  6
CONTINUOUS
100
AcDbCircle
 10
12.498855908
 20
38.9040086423
 30
0.0
 40
19.51181225092321
100
AcDbArc
 50
255.9610316466
 51
269.856536918
  0
ARC
  5
15C
330
1F
100
AcDbEntity
  8
AUFNAHME
  6
CONTINUOUS
100
AcDbCircle
 10
15.7834048636
 20
-17.2641071144
 30
0.0
 40
0.8209051824842604
100
AcDbArc
 50
153.6697535887
 51
180.0473307167
  0
ARC
  5
15D
330
1F
100
AcDbEntity
  8
AUFNAHME
  6
CONTINUOUS
100
AcDbCircle
 10
16.2162535164
 20
-17.2641849132
 30
0.0
 40
0.8212463989917669
100
AcDbArc
 50
359.9581167268
 51
26.3245215288
  0
ARC
  5
15E
330
1F
100
AcDbEntity
  8
AUFNAHME
  6
CONTINUOUS
100
AcDbCircle
 10
16.2541903601
 20
17.5504280007
 30
0.0
 40
0.7833164770312975
100
AcDbArc
 50
303.8650380116
 51
0.2446548336
  0
ARC
  5
15F
330
1F
100
AcDbEntity
  8
AUFNAHME
  6
CONTINUOUS
100
AcDbCircle
 10
16.1459000809
 20
13.5953492075
 30
0.0
 40
0.8995529991268888
100
AcDbArc
 50
279.056680347
 51
7.6246644078
  0
ARC
  5
160
330
1F
100
AcDbEntity
  8
AUFNAHME
  6
CONTINUOUS
100
AcDbCircle
 10
15.7454602057
 20
17.550242814
 30
0.0
 40
0.782968201825633
100
AcDbArc
 50
179.7416846741
 51
236.1486224805
  0
CIRCLE
  5
161
330
1F
100
AcDbEntity
  8
AUFNAHME
  6
CONTINUOUS
100
AcDbCircle
 10
28.45
 20
0.0
 30
0.0
 40
2.199999999999967
  0
CIRCLE
  5
162
330
1F
100
AcDbEntity
  8
AUFNAHME
  6
CONTINUOUS
100
AcDbCircle
 10
28.45
 20
0.0
 30
0.0
 40
2.499999999999989
  0
ARC
  5
163
330
1F
100
AcDbEntity
  8
AUFNAHME
  6
CONTINUOUS
100
AcDbCircle
 10
-39.5251210758
 20
-26.97013885
 30
0.0
 40
1.080000040000011
100
AcDbArc
 50
90.00000763
 51
206.54360962
  0
ARC
  5
164
330
1F
100
AcDbEntity
  8
AUFNAHME
  6
CONTINUOUS
100
AcDbCircle
 10
-40.6951306858
 20
-26.52013427
 30
0.0
 40
2.700000050000006
100
AcDbArc
 50
90.00000763
 51
206.5436554
  0
ARC
  5
165
330
1F
100
AcDbEntity
  8
AUFNAHME
  6
CONTINUOUS
100
AcDbCircle
 10
-39.9751142058
 20
-36.42014342
 30
0.0
 40
1.080000040000008
100
AcDbArc
 50
270.0
 51
26.54360962
  0
ARC
  5
166
330
1F
100
AcDbEntity
  8
AUFNAHME
  6
CONTINUOUS
100
AcDbCircle
 10
-38.8051274858
 20
-36.870148
 30
0.0
 40
2.700000050000007
100
AcDbArc
 50
270.0
 51
26.54364014
  0
ARC
  5
167
330
1F
100
AcDbEntity
  8
AUFNAHME
  6
CONTINUOUS
100
AcDbCircle
 10
-21.6151174158
 20
-33.81014281
 30
0.0
 40
1.080000040000011
100
AcDbArc
 50
0.0
 51
90.00000763
  0
ARC
  5
168
330
1F
100
AcDbEntity
  8
AUFNAHME
  6
CONTINUOUS
100
AcDbCircle
 10
-15.4051412158
 20
-38.04014617
 30
0.0
 40
2.519999980000023
100
AcDbArc
 50
180.0
 51
217.38319397
  0
ARC
  5
169
330
1F
100
AcDbEntity
  8
AUFNAHME
  6
CONTINUOUS
100
AcDbCircle
 10
-18.0151494558
 20
-38.04014617
 30
0.0
 40
2.519999980000048
100
AcDbArc
 50
180.0
 51
217.38319397
  0
ARC
  5
16A
330
1F
100
AcDbEntity
  8
AUFNAHME
  6
CONTINUOUS
100
AcDbCircle
 10
-20.4451192458
 20
-33.99015075
 30
0.0
 40
2.519999980000015
100
AcDbArc
 50
358.70883179
 51
93.06652832
  0
ARC
  5
16B
330
1F
100
AcDbEntity
  8
AUFNAHME
  6
CONTINUOUS
100
AcDbCircle
 10
-20.7151311458
 20
-28.95014983
 30
0.0
 40
2.519999980000048
100
AcDbArc
 50
273.06652832
 51
0.0
  0
ARC
  5
16C
330
1F
100
AcDbEntity
  8
AUFNAHME
  6
CONTINUOUS
100
AcDbCircle
 10
-20.7151311458
 20
-26.34015685
 30
0.0
 40
2.519999980000048
100
AcDbArc
 50
0.0
 51
90.00000763
  0
ARC
  5
16D
330
1F
100
AcDbEntity
  8
AUFNAHME
  6
CONTINUOUS
100
AcDbCircle
 10
-21.3451283958
 20
-26.7901538
 30
0.0
 40
0.9000000400000241
100
AcDbArc
 50
0.0
 51
90.00000763
  0
ARC
  5
16E
330
1F
100
AcDbEntity
  8
AUFNAHME
  6
CONTINUOUS
100
AcDbCircle
 10
-21.3451283958
 20
-29.67014342
 30
0.0
 40
0.9000000400000161
100
AcDbArc
 50
270.0
 51
0.0
  0
ARC
  5
16F
330
1F
100
AcDbEntity
  8
AUFNAHME
  6
CONTINUOUS
100
AcDbCircle
 10
-0.2299998512
 20
-15.4269425681
 30
0.0
 40
0.5000000000000323
100
AcDbArc
 50
62.612892497
 51
105.0
  0
ARC
  5
170
330
1F
100
AcDbEntity
  8
AUFNAHME
  6
CONTINUOUS
100
AcDbCircle
 10
-19.0799998512
 20
13.4760860418
 30
0.0
 40
0.7999999999605342
100
AcDbArc
 50
92.8681319688
 51
167.856748693
  0
ARC
  5
171
330
1F
100
AcDbEntity
  8
AUFNAHME
  6
CONTINUOUS
100
AcDbCircle
 10
-19.0799998512
 20
-13.4760851481
 30
0.0
 40
0.7999999999605715
100
AcDbArc
 50
192.143251307
 51
267.1318680312
  0
ARC
  5
172
330
1F
100
AcDbEntity
  8
AUFNAHME
  6
CONTINUOUS
100
AcDbCircle
 10
-18.9299998512
 20
-13.4608220641
 30
0.0
 40
0.9499999999832038
100
AcDbArc
 50
180.0
 51
191.1401063667
  0
ARC
  5
173
330
1F
100
AcDbEntity
  8
AUFNAHME
  6
CONTINUOUS
100
AcDbCircle
 10
-18.9299998512
 20
13.4608229578
 30
0.0
 40
0.9499999999831985
100
AcDbArc
 50
168.8598936333
 51
179.9999999939
  0
ARC
  5
174
330
1F
100
AcDbEntity
  8
EW
  6
HIDDEN
100
AcDbCircle
 10
-10.266314449
 20
12.3800004472
 30
0.0
 40
0.4000000002672977
100
AcDbArc
 50
90.0
 51
136.2021480599
  0
ARC
  5
175
330
1F
100
AcDbEntity
  8
EW
  6
HIDDEN
100
AcDbCircle
 10
-10.266314449
 20
-12.3799995531
 30
0.0
 40
0.4000000002672977
100
AcDbArc
 50
223.7978519401
 51
270.0
  0
ARC
  5
176
330
1F
100
AcDbEntity
  8
EW
  6
HIDDEN
100
AcDbCircle
 10
-4.2117362135
 20
7.7800004474
 30
0.0
 40
5.000000000063659
100
AcDbArc
 50
33.243612866
 51
89.9999999947
  0
ARC
  5
177
330
1F
100
AcDbEntity
  8
EW
  6
HIDDEN
100
AcDbCircle
 10
-4.211736213
 20
-7.7799995534
 30
0.0
 40
5.000000000063647
100
AcDbArc
 50
270.0
 51
326.7563871243
  0
ARC
  5
178
330
1F
100
AcDbEntity
  8
EW
  6
HIDDEN
100
AcDbCircle
 10
-10.5049000998
 20
-12.2599995531
 30
0.0
 40
0.4000000001858976
100
AcDbArc
 50
209.75
 51
262.8006458701
  0
ARC
  5
179
330
1F
100
AcDbEntity
  8
EW
  6
HIDDEN
100
AcDbCircle
 10
-10.5049000997
 20
12.2600004472
 30
0.0
 40
0.400000000185902
100
AcDbArc
 50
97.1993541528
 51
150.2500000459
  0
ARC
  5
17A
330
1F
100
AcDbEntity
  8
EW
  6
HIDDEN
100
AcDbCircle
 10
-18.379999851
 20
-12.0209995531
 30
0.0
 40
1.499999999839998
100
AcDbArc
 50
129.594068227
 51
176.8703746686
  0
ARC
  5
17B
330
1F
100
AcDbEntity
  8
EW
  6
HIDDEN
100
AcDbCircle
 10
-18.379999851
 20
12.0210004469
 30
0.0
 40
1.499999999839996
100
AcDbArc
 50
183.1296253314
 51
230.405931773
  0
ARC
  5
17C
330
1F
100
AcDbEntity
  8
EW
  6
HIDDEN
100
AcDbCircle
 10
6.9700001489
 20
-9.8749995533
 30
0.0
 40
1.000000000000002
100
AcDbArc
 50
245.0
 51
0.0
  0
ARC
  5
17D
330
1F
100
AcDbEntity
  8
EW
  6
HIDDEN
100
AcDbCircle
 10
6.9700001489
 20
9.8750004467
 30
0.0
 40
0.9999999999999867
100
AcDbArc
 50
0.0000000129
 51
115.0
  0
ARC
  5
17E
330
1F
100
AcDbEntity
  8
EW
  6
HIDDEN
100
AcDbCircle
 10
-18.379999851
 20
-12.0209995531
 30
0.0
 40
1.499999999861043
100
AcDbArc
 50
90.0
 51
110.4059317682
  0
ARC
  5
17F
330
1F
100
AcDbEntity
  8
EW
  6
HIDDEN
100
AcDbCircle
 10
-18.379999851
 20
12.0210004469
 30
0.0
 40
1.499999999861043
100
AcDbArc
 50
249.5940682318
 51
270.0
  0
DIMENSION
  5
180
330
1F
100
AcDbEntity
  8
MASS
100
AcDbDimension
  2
_D
 10
35.000000149
 20
27.8112158623
 30
0.0
 11
17.5000000745
 21
27.8112158623
 31
0.0
 70
   160
  1
<>
  3
SLDDIMSTYLE0
100
AcDbAlignedDimension
 13
0.0
 23
19.4949992001
 33
0.0
 14
35.000000149
 24
11.250000447
 34
0.0
100
AcDbRotatedDimension
  0
DIMENSION
  5
18C
330
1F
100
AcDbEntity
  8
MASS
100
AcDbDimension
  2
_D_1
 10
43.95318584
 20
-6.999999553
 30
0.0
 11
43.95318584
 21
0.000000447
 31
0.0
 70
   160
  1
%%c<>
  3
SLDDIMSTYLE0
100
AcDbAlignedDimension
 13
35.0000001488
 23
7.000000447
 33
0.0
 14
35.0000001488
 24
-6.999999553
 34
0.0
 50
90.0
100
AcDbRotatedDimension
  0
DIMENSION
  5
197
330
1F
100
AcDbEntity
  8
MASS
100
AcDbDimension
  2
_D_2
 10
51.6668771366
 20
-12.0000001043
 30
0.0
 11
51.6668771366
 21
0.0
 31
0.0
 70
   160
  1
%%c<>
  3
SLDDIMSTYLE0
100
AcDbAlignedDimension
 13
34.2499986291
 23
12.0000001043
 33
0.0
 14
34.2499986291
 24
-12.0000001043
 34
0.0
 50
90.0
100
AcDbRotatedDimension
  0
DIMENSION
  5
1A2
330
1F
100
AcDbEntity
  8
MASS
100
AcDbDimension
  2
_D_3
 10
0.0
 20
-28.4027833526
 30
0.0
 11
12.75
 21
-28.4027833526
 31
0.0
 70
   160
  1
<>
  3
SLDDIMSTYLE0
100
AcDbAlignedDimension
 13
25.5
 23
-18.7773536891
 33
0.0
 14
0.0
 24
-19.4949992001
 34
0.0
100
AcDbRotatedDimension
  0
DIMENSION
  5
1AC
330
1F
100
AcDbEntity
  8
MASS
100
AcDbDimension
  2
_D_4
 10
35.000000149
 20
-28.4027833526
 30
0.0
 11
43.95318584
 21
-28.4027833526
 31
0.0
 70
   160
  1
Ausdrehtiefe 45
  3
SLDDIMSTYLE1
100
AcDbAlignedDimension
 13
25.5
 23
-18.7773536891
 33
0.0
 14
35.000000149
 24
-11.2500004471
 34
0.0
100
AcDbRotatedDimension
  0
DIMENSION
  5
1B6
330
1F
100
AcDbEntity
  8
MASS
100
AcDbDimension
  2
_D_5
 10
-28.6697023004
 20
-15.0833650797
 30
0.0
 11
-28.6697023004
 21
-0.0130531516
 31
0.0
 70
   160
  1
%%c<>
  3
SLDDIMSTYLE2
100
AcDbAlignedDimension
 13
-2.9867199469
 23
15.0572587764
 33
0.0
 14
-2.9867199469
 24
-15.0833650797
 34
0.0
 50
90.0
100
AcDbRotatedDimension
  0
MTEXT
  5
1C2
330
1F
100
AcDbEntity
  8
TEXT
100
AcDbMText
 10
20.6737603276
 20
-13.3267054386
 30
0.0
 40
3.5
 41
0.0
 71
     1
 72
     1
  1
328.277F
  7
SLDTEXTSTYLE0
  0
ENDSEC
  0
SECTION
  2
OBJECTS
  0
DICTIONARY
  5
C
330
0
100
AcDbDictionary
  3
ACAD_GROUP
350
D
  3
ACAD_MLINESTYLE
350
17
  3
ACAD_SCALELIST
350
47
  0
DICTIONARY
  5
D
102
{ACAD_REACTORS
330
C
102
}
330
C
100
AcDbDictionary
  0
DICTIONARY
  5
17
102
{ACAD_REACTORS
330
C
102
}
330
C
100
AcDbDictionary
  3
STANDARD
350
18
  0
DICTIONARY
  5
47
102
{ACAD_REACTORS
330
C
102
}
330
C
100
AcDbDictionary
  0
MLINESTYLE
  5
18
102
{ACAD_REACTORS
330
17
102
}
330
17
100
AcDbMlineStyle
  2
Standard
 70
     0
  3

 62
   256
 51
90.0
 52
90.0
 71
     2
 49
0.5
 62
   256
  6
BYLAYER
 49
-0.5
 62
   256
  6
BYLAYER
  0
ENDSEC
  0
EOF
