  0
SECTION
  2
HEADER
  9
$ACADVER
  1
AC1009
  9
$DWGCODEPAGE
  3
ansi_1252
  9
$INSBASE
 10
0.0
 20
0.0
 30
0.0
  9
$EXTMIN
 10
-39.11251079067443
 20
22.25014246604388
 30
0.0
  9
$EXTMAX
 10
160.9574892093256
 20
172.7901424660439
 30
0.0
  9
$LIMMIN
 10
0.0
 20
0.0
  9
$LIMMAX
 10
12.0
 20
9.0
  9
$ORTHOMODE
 70
     0
  9
$REGENMODE
 70
     1
  9
$FILLMODE
 70
     1
  9
$QTEXTMODE
 70
     0
  9
$MIRRTEXT
 70
     1
  9
$DRAGMODE
 70
     2
  9
$LTSCALE
 40
8.0
  9
$OSMODE
 70
   511
  9
$ATTMODE
 70
     1
  9
$TEXTSIZE
 40
3.2
  9
$TRACEWID
 40
0.05
  9
$TEXTSTYLE
  7
ROMANS
  9
$CLAYER
  8
DIM
  9
$CELTYPE
  6
BYLAYER
  9
$CECOLOR
 62
   256
  9
$DIMSCALE
 40
10.0
  9
$DIMASZ
 40
0.12
  9
$DIMEXO
 40
0.0625
  9
$DIMDLI
 40
0.38
  9
$DIMRND
 40
0.0
  9
$DIMDLE
 40
0.0
  9
$DIMEXE
 40
0.0625
  9
$DIMTP
 40
0.0
  9
$DIMTM
 40
0.0
  9
$DIMTXT
 40
0.125
  9
$DIMCEN
 40
0.0
  9
$DIMTSZ
 40
0.0
  9
$DIMTOL
 70
     0
  9
$DIMLIM
 70
     0
  9
$DIMTIH
 70
     0
  9
$DIMTOH
 70
     0
  9
$DIMSE1
 70
     0
  9
$DIMSE2
 70
     0
  9
$DIMTAD
 70
     1
  9
$DIMZIN
 70
     0
  9
$DIMBLK
  1

  9
$DIMASO
 70
     1
  9
$DIMSHO
 70
     1
  9
$DIMPOST
  1

  9
$DIMAPOST
  1

  9
$DIMALT
 70
     0
  9
$DIMALTD
 70
     2
  9
$DIMALTF
 40
25.4
  9
$DIMLFAC
 40
1.0
  9
$DIMTOFL
 70
     1
  9
$DIMTVP
 40
0.0
  9
$DIMTIX
 70
     0
  9
$DIMSOXD
 70
     0
  9
$DIMSAH
 70
     0
  9
$DIMBLK1
  1

  9
$DIMBLK2
  1

  9
$DIMSTYLE
  2
STANDARD
  9
$DIMCLRD
 70
     0
  9
$DIMCLRE
 70
     0
  9
$DIMCLRT
 70
     0
  9
$DIMTFAC
 40
1.0
  9
$DIMGAP
 40
0.05
  9
$LUNITS
 70
     2
  9
$LUPREC
 70
     4
  9
$SKETCHINC
 40
0.1
  9
$FILLETRAD
 40
0.4
  9
$AUNITS
 70
     0
  9
$AUPREC
 70
     0
  9
$MENU
  1
.
  9
$ELEVATION
 40
0.0
  9
$PELEVATION
 40
0.0
  9
$THICKNESS
 40
0.0
  9
$LIMCHECK
 70
     0
  9
$CHAMFERA
 40
1.0
  9
$CHAMFERB
 40
1.0
  9
$SKPOLY
 70
     0
  9
$TDCREATE
 40
2453353.508792488
  9
$TDUPDATE
 40
2457253.609292708
  9
$TDINDWG
 40
0.0772034491
  9
$TDUSRTIMER
 40
2457253.81734522
  9
$USRTIMER
 70
     1
  9
$ANGBASE
 50
0.0
  9
$ANGDIR
 70
     0
  9
$PDMODE
 70
    65
  9
$PDSIZE
 40
-2.0
  9
$PLINEWID
 40
0.0
  9
$COORDS
 70
     2
  9
$SPLFRAME
 70
     0
  9
$SPLINETYPE
 70
     6
  9
$SPLINESEGS
 70
     8
  9
$ATTDIA
 70
     0
  9
$ATTREQ
 70
     1
  9
$HANDLING
 70
     1
  9
$HANDSEED
  5
144D
  9
$SURFTAB1
 70
     6
  9
$SURFTAB2
 70
     6
  9
$SURFTYPE
 70
     6
  9
$SURFU
 70
     6
  9
$SURFV
 70
     6
  9
$UCSNAME
  2

  9
$UCSORG
 10
0.0
 20
0.0
 30
0.0
  9
$UCSXDIR
 10
1.0
 20
0.0
 30
0.0
  9
$UCSYDIR
 10
0.0
 20
1.0
 30
0.0
  9
$PUCSNAME
  2

  9
$PUCSORG
 10
0.0
 20
0.0
 30
0.0
  9
$PUCSXDIR
 10
1.0
 20
0.0
 30
0.0
  9
$PUCSYDIR
 10
0.0
 20
1.0
 30
0.0
  9
$USERI1
 70
     0
  9
$USERI2
 70
     0
  9
$USERI3
 70
     0
  9
$USERI4
 70
     0
  9
$USERI5
 70
     0
  9
$USERR1
 40
0.0
  9
$USERR2
 40
0.0
  9
$USERR3
 40
0.0
  9
$USERR4
 40
0.0
  9
$USERR5
 40
0.0
  9
$WORLDVIEW
 70
     1
  9
$SHADEDGE
 70
     3
  9
$SHADEDIF
 70
    70
  9
$TILEMODE
 70
     1
  9
$MAXACTVP
 70
    16
  9
$PLIMCHECK
 70
     0
  9
$PEXTMIN
 10
0.0
 20
0.0
 30
0.0
  9
$PEXTMAX
 10
0.0
 20
0.0
 30
0.0
  9
$PLIMMIN
 10
0.0
 20
0.0
  9
$PLIMMAX
 10
229.0
 20
162.0
  9
$UNITMODE
 70
     0
  9
$VISRETAIN
 70
     0
  9
$PLINEGEN
 70
     0
  9
$PSLTSCALE
 70
     1
  0
ENDSEC
  0
SECTION
  2
TABLES
  0
TABLE
  2
VPORT
 70
     1
  0
VPORT
  2
*ACTIVE
 70
     0
 10
0.0
 20
0.0
 11
1.0
 21
1.0
 12
60.92248920932556
 22
97.5201424660439
 13
0.0
 23
0.0
 14
1.0
 24
1.0
 15
0.0
 25
0.0
 16
0.0
 26
0.0
 36
1.0
 17
0.0
 27
0.0
 37
0.0
 40
153.5508
 41
1.342896174863388
 42
50.0
 43
0.0
 44
0.0
 50
0.0
 51
0.0
 71
    16
 72
  1000
 73
     1
 74
     0
 75
     0
 76
     0
 77
     0
 78
     0
  0
ENDTAB
  0
TABLE
  2
LTYPE
 70
     4
  0
LTYPE
  2
CONTINUOUS
 70
     0
  3
Solid line
 72
    65
 73
     0
 40
0.0
  0
LTYPE
  2
HIDDEN
 70
     0
  3
__ __ __ __ __ __ __ __ __ __ __ __ __ __ __ __
 72
    65
 73
     2
 40
0.375
 49
0.25
 49
-0.125
  0
LTYPE
  2
PHANTOM
 70
     0
  3
______  __  __  ______  __  __  ______  __  __ 
 72
    65
 73
     6
 40
2.5
 49
1.25
 49
-0.25
 49
0.25
 49
-0.25
 49
0.25
 49
-0.25
  0
LTYPE
  2
CENTER
 70
     0
  3
____ _ ____ _ ____ _ ____ _ ____ _ ____ _ ____
 72
    65
 73
     4
 40
2.0
 49
1.25
 49
-0.25
 49
0.25
 49
-0.25
  0
ENDTAB
  0
TABLE
  2
LAYER
 70
    11
  0
LAYER
  2
0
 70
     0
 62
     7
  6
CONTINUOUS
  0
LAYER
  2
LINE
 70
     0
 62
     3
  6
CONTINUOUS
  0
LAYER
  2
HIDDEN
 70
     0
 62
     2
  6
HIDDEN
  0
LAYER
  2
DIM
 70
     0
 62
     7
  6
CONTINUOUS
  0
LAYER
  2
HATCH
 70
     0
 62
     6
  6
CONTINUOUS
  0
LAYER
  2
PHAN
 70
     0
 62
     2
  6
PHANTOM
  0
LAYER
  2
CTRL
 70
     0
 62
     1
  6
CENTER
  0
LAYER
  2
INSERT
 70
     0
 62
     4
  6
CONTINUOUS
  0
LAYER
  2
DEFPOINTS
 70
     0
 62
     7
  6
CONTINUOUS
  0
LAYER
  2
BORDER
 70
     0
 62
     3
  6
CONTINUOUS
  0
LAYER
  2
FRAME
 70
     0
 62
     4
  6
CONTINUOUS
  0
ENDTAB
  0
TABLE
  2
STYLE
 70
     3
  0
STYLE
  2
STANDARD
 70
     0
 40
0.0
 41
1.0
 50
0.0
 71
     0
 42
0.2
  3
txt
  4

  0
STYLE
  2
ROMANS
 70
     0
 40
0.0
 41
1.0
 50
0.0
 71
     0
 42
3.2
  3
romans
  4

  0
STYLE
  2
STYLE1
 70
     0
 40
0.0
 41
1.0
 50
0.0
 71
     0
 42
0.2
  3
Italic.shx
  4

  0
ENDTAB
  0
TABLE
  2
VIEW
 70
     0
  0
ENDTAB
  0
TABLE
  2
UCS
 70
     0
  0
ENDTAB
  0
TABLE
  2
APPID
 70
     1
  0
APPID
  2
ACAD
 70
     0
  0
ENDTAB
  0
TABLE
  2
DIMSTYLE
 70
     1
  0
DIMSTYLE
  2
STANDARD
 70
     0
  3

  4

  5

  6

  7

 40
1.0
 41
0.18
 42
0.0625
 43
0.38
 44
0.18
 45
0.0
 46
0.0
 47
0.0
 48
0.0
140
0.18
141
0.09
142
0.0
143
25.4
144
1.0
145
0.0
146
1.0
147
0.09
 71
     0
 72
     0
 73
     1
 74
     1
 75
     0
 76
     0
 77
     0
 78
     0
170
     0
171
     2
172
     0
173
     0
174
     0
175
     0
176
     0
177
     0
178
     0
  0
ENDTAB
  0
ENDSEC
  0
SECTION
  2
BLOCKS
  0
BLOCK
  8
0
  2
$MODEL_SPACE
 70
     0
 10
0.0
 20
0.0
 30
0.0
  3
$MODEL_SPACE
  1

  0
ENDBLK
  5
21
  8
0
  0
BLOCK
 67
     1
  8
0
  2
$PAPER_SPACE
 70
     0
 10
0.0
 20
0.0
 30
0.0
  3
$PAPER_SPACE
  1

  0
ENDBLK
  5
76
 67
     1
  8
0
  0
BLOCK
  8
0
  2
KAISERC
 70
     2
 10
0.0
 20
0.0
 30
0.0
  3
KAISERC
  1

  0
LINE
  5
41E
  8
BORDER
 10
0.0
 20
0.0
 30
0.0
 11
21.0
 21
0.0
 31
0.0
  0
LINE
  5
41F
  8
BORDER
 10
21.0
 20
0.0
 30
0.0
 11
21.0
 21
16.0
 31
0.0
  0
LINE
  5
420
  8
BORDER
 10
21.0
 20
16.0
 30
0.0
 11
0.0
 21
16.0
 31
0.0
  0
LINE
  5
421
  8
BORDER
 10
0.0
 20
16.0
 30
0.0
 11
0.0
 21
0.0
 31
0.0
  0
LINE
  5
422
  8
BORDER
 10
15.5
 20
0.0
 30
0.0
 11
15.5
 21
2.0
 31
0.0
  0
LINE
  5
423
  8
BORDER
 10
15.5
 20
2.0
 30
0.0
 11
21.0
 21
2.0
 31
0.0
  0
LINE
  5
424
  8
BORDER
 10
15.5
 20
1.45
 30
0.0
 11
21.0
 21
1.45
 31
0.0
  0
LINE
  5
425
  8
BORDER
 10
15.5
 20
0.9500000000000002
 30
0.0
 11
21.0
 21
0.9500000000000002
 31
0.0
  0
LINE
  5
426
  8
BORDER
 10
15.5
 20
0.4500000000000002
 30
0.0
 11
21.0
 21
0.4500000000000002
 31
0.0
  0
LINE
  5
427
  8
BORDER
 10
19.54
 20
0.0
 30
0.0
 11
19.54
 21
0.4500000000000002
 31
0.0
  0
LINE
  5
428
  8
BORDER
 10
19.54
 20
0.9500000000000002
 30
0.0
 11
19.54
 21
1.45
 31
0.0
  0
LINE
  5
429
  8
BORDER
 10
15.5
 20
1.19
 30
0.0
 11
17.02
 21
1.19
 31
0.0
  0
LINE
  5
42A
  8
BORDER
 10
17.02
 20
0.9500000000000002
 30
0.0
 11
17.02
 21
1.45
 31
0.0
  0
LINE
  5
42B
  8
BORDER
 10
19.54
 20
1.19
 30
0.0
 11
21.0
 21
1.19
 31
0.0
  0
TEXT
  5
42C
  8
BORDER
 10
19.62
 20
0.3400000000000002
 30
0.0
 40
0.06
  1
DRAWING NUMBER
  0
TEXT
  5
42D
  8
BORDER
 10
19.62
 20
1.025
 30
0.0
 40
0.06
  1
REVISED
  0
TEXT
  5
42E
  8
BORDER
 10
19.6
 20
1.29
 30
0.0
 40
0.06
  1
DRAWN BY
  0
TEXT
  5
42F
  8
BORDER
 10
17.09
 20
1.33
 30
0.0
 40
0.06
  1
APPROVED BY
  0
TEXT
  5
430
  8
BORDER
 10
15.58
 20
1.29
 30
0.0
 40
0.06
  1
SCALE:
  0
TEXT
  5
431
  8
BORDER
 10
15.58
 20
1.03
 30
0.0
 40
0.06
  1
DATE:
  0
TEXT
  5
432
  8
DIM
 10
18.30854429236822
 20
1.804803234994252
 30
0.0
 40
0.1
  1
641 FARGO
  0
TEXT
  5
433
  8
DIM
 10
18.30854429236822
 20
1.638136568327585
 30
0.0
 40
0.1
  1
ELK GROVE VILLAGE, IL
  0
TEXT
  5
434
  8
DIM
 10
19.81956348698446
 20
1.487756832761487
 30
0.0
 40
0.1
  1
 60007
  0
ATTDEF
  5
435
  8
DIM
 10
15.91902556599834
 20
0.5882298310778304
 30
0.0
 40
0.2
  1

  3

  2
NAME
 70
     0
  0
ATTDEF
  5
436
  8
DIM
 10
15.97524953603057
 20
1.266561668413047
 30
0.0
 40
0.1
  1

  3

  2
SCALE
 70
     0
  0
ATTDEF
  5
437
  8
DIM
 10
15.95416554726849
 20
1.023246987629763
 30
0.0
 40
0.1
  1

  3

  2
DATE
 70
     0
  0
ATTDEF
  5
438
  8
DIM
 10
20.13582331841577
 20
1.281308012702943
 30
0.0
 40
0.1
  1
J.B.
  3

  2
NAME
 70
     0
  0
ATTDEF
  5
439
  8
DIM
 10
20.07959934838354
 20
1.023246987629763
 30
0.0
 40
0.1
  1

  3

  2
REVISED
 70
     0
  0
TEXT
  5
43A
  8
DIM
 10
15.59573773831301
 20
0.2785566009900141
 30
0.0
 40
0.1
  1
MATERIAL:
  0
TEXT
  5
43B
  8
DIM
 10
15.59573773831301
 20
0.1045167621783995
 30
0.0
 40
0.1
  1
HEAT TREAT:
  0
TEXT
  5
43C
  8
DIM
 10
17.92200449839662
 20
0.271183428845066
 30
0.0
 40
0.1
  1
FINISH:
  0
ATTDEF
  5
43D
  8
DIM
 10
16.43206929254246
 20
0.2785566009900141
 30
0.0
 40
0.1
  1

  3

  2
MATERIAL
 70
     0
  0
ATTDEF
  5
43E
  8
DIM
 10
16.64993717641736
 20
0.1016004695112617
 30
0.0
 40
0.1
  1

  3

  2
HEATTREAT
 70
     0
  0
ATTDEF
  5
43F
  8
DIM
 10
18.51235618373506
 20
0.2638102567001179
 30
0.0
 40
0.1
  1

  3

  2
FINISH
 70
     0
  0
ATTDEF
  5
440
  8
DIM
 10
19.58061161434747
 20
0.1089736416562099
 30
0.0
 40
0.15
  1

  3

  2
DRAWINGNO.
 70
     0
  0
LINE
  5
441
  8
LINE
 10
13.01778291634846
 20
0.4500000000000002
 30
0.0
 11
12.51778291634846
 21
0.4500000000000002
 31
0.0
  0
LINE
  5
442
  8
LINE
 10
12.51778291634846
 20
0.4500000000000002
 30
0.0
 11
12.51778291634846
 21
0.0
 31
0.0
  0
TEXT
  5
443
  8
DIM
 10
12.6145329206254
 20
0.3006761174248581
 30
0.0
 40
0.1
  1
REV.
  0
ATTDEF
  5
444
  8
DIM
 10
12.67778488691166
 20
0.1237199859461057
 30
0.0
 40
0.15
  1
A
  3

  2
REV.
 70
     0
  0
TEXT
  5
445
  8
DIM
 10
3.405103806228372
 20
15.46285554418847
 30
0.0
 40
0.06
  1
THIS DOCUMENT CONTAINS PROPRIETARY INFORMATION OF KAISER PRECION TOOLS, INC. AND IS SUBJECT TO BEING RETURNED UPON REQUEST.
  0
TEXT
  5
446
  8
DIM
 10
3.405103806228372
 20
15.36285554418847
 30
0.0
 40
0.06
  1
IT IS NOT TO BE REPRODUCED WITHOUT WRITTEN CONSENT OF KAISER PRECISION TOOLS, INC. ANY REPRODUCTION MUST INCLUDE THIS ENTIRE LEGEND.
  0
LINE
  5
447
  8
LINE
 10
13.01778291634846
 20
2.0
 30
0.0
 11
15.5
 21
2.0
 31
0.0
  0
LINE
  5
448
  8
LINE
 10
13.01778291634846
 20
2.0
 30
0.0
 11
13.01778291634846
 21
0.0
 31
0.0
  0
TEXT
  5
449
  8
FRAME
 10
13.2846517690308
 20
1.847932127646515
 30
0.0
 40
0.08
  1
UNLESS OTHERWISE SPECIFIED
  0
TEXT
  5
44A
  8
FRAME
 10
13.2846517690308
 20
1.714598794313182
 30
0.0
 40
0.08
  1
BREAK ALL EDGES .015x45%%D
  0
TEXT
  5
44B
  8
FRAME
 10
13.2846517690308
 20
1.581265460979848
 30
0.0
 40
0.08
  1
SURFACE FINISH=64 OR BETTER
  0
TEXT
  5
44C
  8
FRAME
 10
13.2846517690308
 20
1.447932127646515
 30
0.0
 40
0.08
  1
DECIMAL: .XX=%%P.015
  0
TEXT
  5
44D
  8
FRAME
 10
13.2846517690308
 20
1.314598794313182
 30
0.0
 40
0.08
  1
        .XXX=%%P.005
  0
TEXT
  5
44E
  8
FRAME
 10
13.2846517690308
 20
1.181265460979849
 30
0.0
 40
0.08
  1
        .XXXX=%%P.0005
  0
TEXT
  5
44F
  8
FRAME
 10
13.2846517690308
 20
1.047932127646515
 30
0.0
 40
0.08
  1
ANGULAR: DEGREE=%%P1%%D
  0
TEXT
  5
450
  8
FRAME
 10
13.2846517690308
 20
0.9145987943131819
 30
0.0
 40
0.08
  1
        MINUTES=%%P15'
  0
TEXT
  5
451
  8
LINE
 10
13.27289272387865
 20
0.560597969831885
 30
0.0
 40
0.1
  1
DO NOT SCALE DRAWING
  0
TEXT
  5
452
  8
LINE
 10
16.72730843827956
 20
1.553756424222531
 30
0.0
 40
0.072
  1
PRECISION TOOLING,INC.
 50
359.9394791519117
 41
1.034257277458628
  7
ROMANS
 72
     5
 11
18.06844978691984
 21
1.552339792095294
 31
0.0
  0
ARC
  5
453
  8
LINE
 10
18.07878305046467
 20
1.672226935313698
 30
0.0
 40
0.06
 50
180.0
 51
194.366235341689
  0
ARC
  5
454
  8
LINE
 10
18.09978305046467
 20
1.675066229854647
 30
0.0
 40
0.036
 50
180.0
 51
209.4985180895017
  0
ARC
  5
455
  8
LINE
 10
17.99178305046467
 20
1.752589792095294
 30
0.0
 40
0.027
 50
0.0
 51
90.0
  0
ARC
  5
456
  8
LINE
 10
18.02628305046467
 20
1.760839792095294
 30
0.0
 40
0.0375
 50
0.0
 51
89.99999999999861
  0
ARC
  5
457
  8
LINE
 10
18.02628305046467
 20
1.835839792095293
 30
0.0
 40
0.0375
 50
270.0
 51
0.0
  0
LINE
  5
458
  8
LINE
 10
18.02065927764503
 20
1.657339792095293
 30
0.0
 11
18.06844978691984
 21
1.657339792095293
 31
0.0
  0
LINE
  5
459
  8
LINE
 10
18.01878305046467
 20
1.752589792095294
 30
0.0
 11
18.01878305046467
 21
1.672226935313698
 31
0.0
  0
LINE
  5
45A
  8
LINE
 10
18.06378305046467
 20
1.892539792095294
 30
0.0
 11
18.06378305046467
 21
1.835839792095293
 31
0.0
  0
ARC
  5
45B
  8
LINE
 10
18.00078305046467
 20
1.835089792095295
 30
0.0
 40
0.018
 50
270.0
 51
0.0
  0
ARC
  5
45C
  8
LINE
 10
18.00078305046467
 20
1.883839792095293
 30
0.0
 40
0.018
 50
0.0
 51
90.0
  0
LINE
  5
45D
  8
LINE
 10
18.01878305046467
 20
1.835089792095295
 30
0.0
 11
18.01878305046467
 21
1.883839792095293
 31
0.0
  0
LINE
  5
45E
  8
LINE
 10
17.97078305046466
 20
1.817089792095294
 30
0.0
 11
17.97078305046467
 21
1.901839792095294
 31
0.0
  0
LINE
  5
45F
  8
LINE
 10
17.92578305046467
 20
1.657339792095293
 30
0.0
 11
17.97078305046467
 21
1.657339792095293
 31
0.0
  0
LINE
  5
460
  8
LINE
 10
17.99178305046467
 20
1.779589792095294
 30
0.0
 11
17.97078305046467
 21
1.779589792095294
 31
0.0
  0
LINE
  5
461
  8
LINE
 10
18.00078305046467
 20
1.817089792095295
 30
0.0
 11
17.97078305046467
 21
1.817089792095294
 31
0.0
  0
LINE
  5
462
  8
LINE
 10
17.97078305046467
 20
1.657339792095293
 30
0.0
 11
17.97078305046467
 21
1.779589792095294
 31
0.0
  0
LINE
  5
463
  8
LINE
 10
17.97078305046467
 20
1.901839792095294
 30
0.0
 11
18.00078305046467
 21
1.901839792095293
 31
0.0
  0
ARC
  5
464
  8
LINE
 10
18.01698305046467
 20
1.892539792095294
 30
0.0
 40
0.0468
 50
0.0
 51
90.0
  0
LINE
  5
465
  8
LINE
 10
18.06378305046467
 20
1.675066229854647
 30
0.0
 11
18.06378305046467
 21
1.760839792095294
 31
0.0
  0
LINE
  5
466
  8
LINE
 10
17.92578305046467
 20
1.939339792095294
 30
0.0
 11
18.01698305046467
 21
1.939339792095294
 31
0.0
  0
LINE
  5
467
  8
LINE
 10
17.92578305046467
 20
1.657339792095293
 30
0.0
 11
17.92578305046467
 21
1.939339792095294
 31
0.0
  0
LINE
  5
468
  8
LINE
 10
17.83578305046467
 20
1.817089792095294
 30
0.0
 11
17.83578305046467
 21
1.901839792095294
 31
0.0
  0
LINE
  5
469
  8
LINE
 10
17.89878305046467
 20
1.779589792095294
 30
0.0
 11
17.89878305046467
 21
1.817089792095294
 31
0.0
  0
LINE
  5
46A
  8
LINE
 10
17.89878305046467
 20
1.779589792095294
 30
0.0
 11
17.83578305046467
 21
1.779589792095294
 31
0.0
  0
LINE
  5
46B
  8
LINE
 10
17.89878305046467
 20
1.817089792095294
 30
0.0
 11
17.83578305046467
 21
1.817089792095294
 31
0.0
  0
LINE
  5
46C
  8
LINE
 10
17.89878305046467
 20
1.901839792095294
 30
0.0
 11
17.89878305046467
 21
1.939339792095294
 31
0.0
  0
LINE
  5
46D
  8
LINE
 10
17.83578305046467
 20
1.901839792095294
 30
0.0
 11
17.89878305046467
 21
1.901839792095294
 31
0.0
  0
LINE
  5
46E
  8
LINE
 10
17.83578305046467
 20
1.694839792095293
 30
0.0
 11
17.89878305046467
 21
1.694839792095293
 31
0.0
  0
LINE
  5
46F
  8
LINE
 10
17.83578305046467
 20
1.694839792095293
 30
0.0
 11
17.83578305046467
 21
1.779589792095294
 31
0.0
  0
LINE
  5
470
  8
LINE
 10
17.79078305046467
 20
1.939339792095294
 30
0.0
 11
17.89878305046467
 21
1.939339792095294
 31
0.0
  0
LINE
  5
471
  8
LINE
 10
17.79078305046467
 20
1.657339792095293
 30
0.0
 11
17.79078305046467
 21
1.939339792095294
 31
0.0
  0
LINE
  5
472
  8
LINE
 10
17.89878305046467
 20
1.657339792095293
 30
0.0
 11
17.89878305046467
 21
1.694839792095293
 31
0.0
  0
LINE
  5
473
  8
LINE
 10
17.79078305046467
 20
1.657339792095293
 30
0.0
 11
17.89878305046467
 21
1.657339792095293
 31
0.0
  0
ARC
  5
474
  8
LINE
 10
17.68906498828673
 20
1.892539792095293
 30
0.0
 40
0.0468
 50
90.0
 51
205.0000000000001
  0
LINE
  5
475
  8
LINE
 10
17.64078305046467
 20
1.694839792095293
 30
0.0
 11
17.64078305046467
 21
1.657339792095293
 31
0.0
  0
ARC
  5
476
  8
LINE
 10
17.70297739671163
 20
1.886839792095292
 30
0.0
 40
0.015
 50
90.00000000000082
 51
204.9999999999997
  0
LINE
  5
477
  8
LINE
 10
17.75478305046467
 20
1.939339792095293
 30
0.0
 11
17.68906498828673
 21
1.939339792095293
 31
0.0
  0
LINE
  5
478
  8
LINE
 10
17.75478305046467
 20
1.901839792095293
 30
0.0
 11
17.70297739671163
 21
1.901839792095292
 31
0.0
  0
LINE
  5
479
  8
LINE
 10
17.75478305046467
 20
1.939339792095293
 30
0.0
 11
17.75478305046467
 21
1.901839792095293
 31
0.0
  0
ARC
  5
47A
  8
LINE
 10
17.70607064203977
 20
1.709839792095294
 30
0.0
 40
0.015
 50
270.0
 51
25.00000000000002
  0
LINE
  5
47B
  8
LINE
 10
17.71966525884532
 20
1.716179066021404
 30
0.0
 11
17.64664978385342
 21
1.872761257445828
 31
0.0
  0
LINE
  5
47C
  8
LINE
 10
17.76239825489798
 20
1.723918326744761
 30
0.0
 11
17.68938277990609
 21
1.880500518169181
 31
0.0
  0
ARC
  5
47D
  8
LINE
 10
17.71998305046467
 20
1.704139792095296
 30
0.0
 40
0.0468
 50
270.0
 51
24.99999999999686
  0
LINE
  5
47E
  8
LINE
 10
17.64078305046467
 20
1.694839792095293
 30
0.0
 11
17.70607064203977
 21
1.694839792095293
 31
0.0
  0
LINE
  5
47F
  8
LINE
 10
17.64078305046467
 20
1.657339792095293
 30
0.0
 11
17.71998305046467
 21
1.657339792095293
 31
0.0
  0
LINE
  5
480
  8
LINE
 10
17.61078305046467
 20
1.939339792095293
 30
0.0
 11
17.61078305046467
 21
1.657339792095293
 31
0.0
  0
LINE
  5
481
  8
LINE
 10
17.56878305046467
 20
1.939339792095294
 30
0.0
 11
17.61078305046467
 21
1.939339792095293
 31
0.0
  0
LINE
  5
482
  8
LINE
 10
17.56878305046467
 20
1.657339792095293
 30
0.0
 11
17.56878305046467
 21
1.939339792095294
 31
0.0
  0
LINE
  5
483
  8
LINE
 10
17.56878305046467
 20
1.657339792095293
 30
0.0
 11
17.61078305046467
 21
1.657339792095293
 31
0.0
  0
LINE
  5
484
  8
LINE
 10
17.40872313781339
 20
1.694839792095291
 30
0.0
 11
17.44170198362512
 21
1.864501245758061
 31
0.0
  0
LINE
  5
485
  8
LINE
 10
17.40872313781339
 20
1.694839792095291
 30
0.0
 11
17.46118390544374
 21
1.694839792095291
 31
0.0
  0
LINE
  5
486
  8
LINE
 10
17.47123200015991
 20
1.657339792095292
 30
0.0
 11
17.46118390544374
 21
1.694839792095291
 31
0.0
  0
LINE
  5
487
  8
LINE
 10
17.36323200015991
 20
1.657339792095292
 30
0.0
 11
17.47123200015991
 21
1.657339792095292
 31
0.0
  0
LINE
  5
488
  8
LINE
 10
17.50718093525289
 20
1.657339792095292
 30
0.0
 11
17.44170198362512
 21
1.864501245758061
 31
0.0
  0
LINE
  5
489
  8
LINE
 10
17.5521809352529
 20
1.657339792095292
 30
0.0
 11
17.50718093525289
 21
1.657339792095292
 31
0.0
  0
LINE
  5
48A
  8
LINE
 10
17.47661926298732
 20
1.939339792095292
 30
0.0
 11
17.5521809352529
 21
1.657339792095292
 31
0.0
  0
LINE
  5
48B
  8
LINE
 10
17.41804724733675
 20
1.939339792095292
 30
0.0
 11
17.47661926298732
 21
1.939339792095292
 31
0.0
  0
LINE
  5
48C
  8
LINE
 10
17.36323200015991
 20
1.657339792095292
 30
0.0
 11
17.41804724733675
 21
1.939339792095292
 31
0.0
  0
LINE
  5
48D
  8
LINE
 10
17.28915260940612
 20
1.809285876785438
 30
0.0
 11
17.34979774608814
 21
1.939339792095293
 31
0.0
  0
LINE
  5
48E
  8
LINE
 10
17.23724513521168
 20
1.657339792095293
 30
0.0
 11
17.23724513521168
 21
1.697969939149305
 31
0.0
  0
LINE
  5
48F
  8
LINE
 10
17.18624513521168
 20
1.657339792095293
 30
0.0
 11
17.23724513521168
 21
1.657339792095293
 31
0.0
  0
LINE
  5
490
  8
LINE
 10
17.29879774608814
 20
1.657339792095293
 30
0.0
 11
17.26167299834513
 21
1.750355660692248
 31
0.0
  0
LINE
  5
491
  8
LINE
 10
17.29879774608814
 20
1.657339792095293
 30
0.0
 11
17.34979774608814
 21
1.657339792095293
 31
0.0
  0
LINE
  5
492
  8
LINE
 10
17.34979774608814
 20
1.657339792095292
 30
0.0
 11
17.28915260940612
 21
1.809285876785438
 31
0.0
  0
LINE
  5
493
  8
LINE
 10
17.23724513521168
 20
1.697969939149305
 30
0.0
 11
17.26167299834513
 21
1.750355660692248
 31
0.0
  0
LINE
  5
494
  8
LINE
 10
17.29879774608814
 20
1.939339792095293
 30
0.0
 11
17.34979774608814
 21
1.939339792095293
 31
0.0
  0
LINE
  5
495
  8
LINE
 10
17.23724513521168
 20
1.807339792095293
 30
0.0
 11
17.29879774608814
 21
1.939339792095294
 31
0.0
  0
LINE
  5
496
  8
LINE
 10
17.23724513521168
 20
1.939339792095294
 30
0.0
 11
17.23724513521168
 21
1.807339792095293
 31
0.0
  0
LINE
  5
497
  8
LINE
 10
17.18624513521168
 20
1.939339792095294
 30
0.0
 11
17.23724513521168
 21
1.939339792095294
 31
0.0
  0
LINE
  5
498
  8
LINE
 10
17.18624513521168
 20
1.939339792095294
 30
0.0
 11
17.18624513521168
 21
1.657339792095293
 31
0.0
  0
ARC
  5
499
  8
LINE
 10
16.95524513521168
 20
1.810339792095294
 30
0.0
 40
0.0075
 50
270.0000000000051
 51
0.0000000000005598
  0
LINE
  5
49A
  8
LINE
 10
17.04674513521168
 20
1.694839792095293
 30
0.0
 11
17.07674513521168
 21
1.694839792095293
 31
0.0
  0
LINE
  5
49B
  8
LINE
 10
17.03924513521168
 20
1.687339792095296
 30
0.0
 11
17.08424513521168
 21
1.687339792095295
 31
0.0
  0
LINE
  5
49C
  8
LINE
 10
17.07674513521168
 20
1.879339792095294
 30
0.0
 11
17.07674513521168
 21
1.694839792095293
 31
0.0
  0
LINE
  5
49D
  8
LINE
 10
17.08424513521168
 20
1.871839792095292
 30
0.0
 11
17.11124513521168
 21
1.871839792095293
 31
0.0
  0
LINE
  5
49E
  8
LINE
 10
17.10374513521168
 20
1.879339792095292
 30
0.0
 11
17.07674513521168
 21
1.879339792095294
 31
0.0
  0
LINE
  5
49F
  8
LINE
 10
17.04674513521168
 20
1.879339792095293
 30
0.0
 11
17.04674513521168
 21
1.694839792095293
 31
0.0
  0
LINE
  5
4A0
  8
LINE
 10
17.03924513521168
 20
1.871839792095292
 30
0.0
 11
17.03924513521168
 21
1.687339792095296
 31
0.0
  0
LINE
  5
4A1
  8
LINE
 10
17.08424513521168
 20
1.871839792095292
 30
0.0
 11
17.08424513521168
 21
1.687339792095295
 31
0.0
  0
LINE
  5
4A2
  8
LINE
 10
17.10374513521168
 20
1.901839792095295
 30
0.0
 11
17.10374513521168
 21
1.879339792095292
 31
0.0
  0
LINE
  5
4A3
  8
LINE
 10
17.11124513521168
 20
1.909339792095292
 30
0.0
 11
17.11124513521168
 21
1.871839792095293
 31
0.0
  0
LINE
  5
4A4
  8
LINE
 10
17.01974513521168
 20
1.901839792095295
 30
0.0
 11
17.10374513521168
 21
1.901839792095295
 31
0.0
  0
LINE
  5
4A5
  8
LINE
 10
17.01974513521168
 20
1.879339792095293
 30
0.0
 11
17.04674513521168
 21
1.879339792095293
 31
0.0
  0
LINE
  5
4A6
  8
LINE
 10
17.01224513521168
 20
1.871839792095293
 30
0.0
 11
17.03924513521168
 21
1.871839792095293
 31
0.0
  0
LINE
  5
4A7
  8
LINE
 10
17.01974513521168
 20
1.901839792095295
 30
0.0
 11
17.01974513521168
 21
1.879339792095293
 31
0.0
  0
LINE
  5
4A8
  8
LINE
 10
17.01224513521168
 20
1.909339792095292
 30
0.0
 11
17.01224513521168
 21
1.871839792095293
 31
0.0
  0
ARC
  5
4A9
  8
LINE
 10
16.97174513521168
 20
1.796839792095295
 30
0.0
 40
0.027
 50
270.0000000000023
 51
0.0
  0
ARC
  5
4AA
  8
LINE
 10
16.97174513521168
 20
1.796839792095297
 30
0.0
 40
0.0345
 50
270.0000000000013
 51
359.9999999999998
  0
LINE
  5
4AB
  8
LINE
 10
16.93574513521168
 20
1.769839792095294
 30
0.0
 11
16.97174513521168
 21
1.769839792095296
 31
0.0
  0
LINE
  5
4AC
  8
LINE
 10
16.94324513521168
 20
1.762339792095296
 30
0.0
 11
16.97174513521168
 21
1.762339792095297
 31
0.0
  0
LINE
  5
4AD
  8
LINE
 10
16.94324513521168
 20
1.687339792095296
 30
0.0
 11
16.94324513521168
 21
1.762339792095295
 31
0.0
  0
LINE
  5
4AE
  8
LINE
 10
16.93574513521168
 20
1.694839792095294
 30
0.0
 11
16.93574513521168
 21
1.769839792095294
 31
0.0
  0
ARC
  5
4AF
  8
LINE
 10
16.95674513521168
 20
1.808839792095294
 30
0.0
 40
0.0135
 50
270.0000000000036
 51
0.0000000000004326
  0
LINE
  5
4B0
  8
LINE
 10
16.94324513521168
 20
1.802839792095292
 30
0.0
 11
16.95524513521168
 21
1.802839792095294
 31
0.0
  0
LINE
  5
4B1
  8
LINE
 10
16.93574513521168
 20
1.795339792095293
 30
0.0
 11
16.95674513521168
 21
1.795339792095294
 31
0.0
  0
ARC
  5
4B2
  8
LINE
 10
16.95524513521168
 20
1.864339792095294
 30
0.0
 40
0.0075
 50
0.0000000000003053
 51
90.0
  0
LINE
  5
4B3
  8
LINE
 10
16.96274513521168
 20
1.864339792095294
 30
0.0
 11
16.96274513521168
 21
1.810339792095294
 31
0.0
  0
ARC
  5
4B4
  8
LINE
 10
16.95674513521168
 20
1.865839792095294
 30
0.0
 40
0.0135
 50
0.0000000000001527
 51
90.00000000000178
  0
LINE
  5
4B5
  8
LINE
 10
16.97024513521168
 20
1.865839792095294
 30
0.0
 11
16.97024513521168
 21
1.808839792095294
 31
0.0
  0
LINE
  5
4B6
  8
LINE
 10
16.94324513521168
 20
1.871839792095293
 30
0.0
 11
16.95524513521168
 21
1.871839792095293
 31
0.0
  0
LINE
  5
4B7
  8
LINE
 10
16.94324513521168
 20
1.871839792095293
 30
0.0
 11
16.94324513521168
 21
1.802839792095292
 31
0.0
  0
ARC
  5
4B8
  8
LINE
 10
16.97174513521168
 20
1.874839792095294
 30
0.0
 40
0.027
 50
0.0000000000001527
 51
89.99999999999804
  0
ARC
  5
4B9
  8
LINE
 10
16.97174513521168
 20
1.874839792095295
 30
0.0
 40
0.0345
 50
0.0
 51
90.0
  0
LINE
  5
4BA
  8
LINE
 10
17.01224513521168
 20
1.909339792095292
 30
0.0
 11
17.11124513521168
 21
1.909339792095291
 31
0.0
  0
LINE
  5
4BB
  8
LINE
 10
16.99874513521168
 20
1.874839792095294
 30
0.0
 11
16.99874513521168
 21
1.796839792095295
 31
0.0
  0
LINE
  5
4BC
  8
LINE
 10
16.93574513521168
 20
1.879339792095293
 30
0.0
 11
16.95674513521168
 21
1.879339792095294
 31
0.0
  0
LINE
  5
4BD
  8
LINE
 10
16.93574513521168
 20
1.879339792095293
 30
0.0
 11
16.93574513521168
 21
1.795339792095293
 31
0.0
  0
LINE
  5
4BE
  8
LINE
 10
17.00624513521168
 20
1.874839792095295
 30
0.0
 11
17.00624513521168
 21
1.796839792095297
 31
0.0
  0
LINE
  5
4BF
  8
LINE
 10
16.90574513521168
 20
1.694839792095294
 30
0.0
 11
16.93574513521168
 21
1.694839792095294
 31
0.0
  0
LINE
  5
4C0
  8
LINE
 10
16.90574513521168
 20
1.901839792095295
 30
0.0
 11
16.97174513521168
 21
1.901839792095294
 31
0.0
  0
LINE
  5
4C1
  8
LINE
 10
16.90574513521168
 20
1.901839792095295
 30
0.0
 11
16.90574513521168
 21
1.694839792095294
 31
0.0
  0
LINE
  5
4C2
  8
LINE
 10
16.89824513521168
 20
1.687339792095295
 30
0.0
 11
16.94324513521168
 21
1.687339792095296
 31
0.0
  0
LINE
  5
4C3
  8
LINE
 10
16.89824513521168
 20
1.909339792095293
 30
0.0
 11
16.97174513521168
 21
1.909339792095294
 31
0.0
  0
LINE
  5
4C4
  8
LINE
 10
16.89824513521168
 20
1.909339792095293
 30
0.0
 11
16.89824513521168
 21
1.687339792095295
 31
0.0
  0
LINE
  5
4C5
  8
LINE
 10
16.79774513521168
 20
1.724430399980784
 30
0.0
 11
16.79774513521168
 21
1.694839792095293
 31
0.0
  0
LINE
  5
4C6
  8
LINE
 10
16.82159149859804
 20
1.75782257941817
 30
0.0
 11
16.80524513521168
 21
1.722767690010963
 31
0.0
  0
LINE
  5
4C7
  8
LINE
 10
16.82244637073927
 20
1.777402370514837
 30
0.0
 11
16.79774513521168
 21
1.724430399980784
 31
0.0
  0
LINE
  5
4C8
  8
LINE
 10
16.80524513521168
 20
1.722767690010963
 30
0.0
 11
16.80524513521168
 21
1.687339792095294
 31
0.0
  0
LINE
  5
4C9
  8
LINE
 10
16.84724513521168
 20
1.687339792095295
 30
0.0
 11
16.89224513521168
 21
1.687339792095295
 31
0.0
  0
LINE
  5
4CA
  8
LINE
 10
16.85202316216774
 20
1.901839792095292
 30
0.0
 11
16.8804724933833
 21
1.901839792095293
 31
0.0
  0
LINE
  5
4CB
  8
LINE
 10
16.85202316216774
 20
1.901839792095292
 30
0.0
 11
16.79774513521168
 21
1.785440187656427
 31
0.0
  0
LINE
  5
4CC
  8
LINE
 10
16.84724513521168
 20
1.909339792095293
 30
0.0
 11
16.80524513521168
 21
1.819270501433893
 31
0.0
  0
LINE
  5
4CD
  8
LINE
 10
16.84724513521168
 20
1.909339792095293
 30
0.0
 11
16.89224513521168
 21
1.909339792095293
 31
0.0
  0
LINE
  5
4CE
  8
LINE
 10
16.8804724933833
 20
1.901839792095293
 30
0.0
 11
16.8387545623296
 21
1.812375400241287
 31
0.0
  0
LINE
  5
4CF
  8
LINE
 10
16.89224513521168
 20
1.909339792095293
 30
0.0
 11
16.84686477735027
 21
1.812021300606294
 31
0.0
  0
LINE
  5
4D0
  8
LINE
 10
16.85249669174825
 20
1.694839792095294
 30
0.0
 11
16.82244637073927
 21
1.777402370514838
 31
0.0
  0
LINE
  5
4D1
  8
LINE
 10
16.84724513521168
 20
1.687339792095295
 30
0.0
 11
16.82159149859804
 21
1.75782257941817
 31
0.0
  0
LINE
  5
4D2
  8
LINE
 10
16.88153402516112
 20
1.694839792095294
 30
0.0
 11
16.8387545623296
 21
1.812375400241288
 31
0.0
  0
LINE
  5
4D3
  8
LINE
 10
16.89224513521168
 20
1.687339792095295
 30
0.0
 11
16.84686477735027
 21
1.812021300606294
 31
0.0
  0
LINE
  5
4D4
  8
LINE
 10
16.88153402516112
 20
1.694839792095293
 30
0.0
 11
16.85249669174825
 21
1.694839792095294
 31
0.0
  0
LINE
  5
4D5
  8
LINE
 10
16.77074513521168
 20
1.694839792095293
 30
0.0
 11
16.79774513521168
 21
1.694839792095293
 31
0.0
  0
LINE
  5
4D6
  8
LINE
 10
16.77074513521168
 20
1.901839792095294
 30
0.0
 11
16.79774513521168
 21
1.901839792095293
 31
0.0
  0
LINE
  5
4D7
  8
LINE
 10
16.79774513521168
 20
1.901839792095294
 30
0.0
 11
16.79774513521168
 21
1.785440187656427
 31
0.0
  0
LINE
  5
4D8
  8
LINE
 10
16.80524513521168
 20
1.909339792095293
 30
0.0
 11
16.80524513521168
 21
1.819270501433893
 31
0.0
  0
LINE
  5
4D9
  8
LINE
 10
16.77074513521168
 20
1.901839792095294
 30
0.0
 11
16.77074513521168
 21
1.694839792095293
 31
0.0
  0
LINE
  5
4DA
  8
LINE
 10
16.76324513521168
 20
1.909339792095293
 30
0.0
 11
16.80524513521168
 21
1.909339792095293
 31
0.0
  0
LINE
  5
4DB
  8
LINE
 10
16.76324513521168
 20
1.687339792095294
 30
0.0
 11
16.80524513521168
 21
1.687339792095295
 31
0.0
  0
LINE
  5
4DC
  8
LINE
 10
16.76324513521168
 20
1.909339792095293
 30
0.0
 11
16.76324513521168
 21
1.687339792095294
 31
0.0
  0
LINE
  5
4DD
  8
LINE
 10
17.14124513521168
 20
1.939339792095294
 30
0.0
 11
17.14124513521168
 21
1.657339792095293
 31
0.0
  0
LINE
  5
4DE
  8
LINE
 10
16.72724513521168
 20
1.939339792095294
 30
0.0
 11
16.72724513521168
 21
1.657339792095293
 31
0.0
  0
LINE
  5
4DF
  8
LINE
 10
16.72724513521168
 20
1.939339792095294
 30
0.0
 11
17.14124513521168
 21
1.939339792095294
 31
0.0
  0
LINE
  5
4E0
  8
LINE
 10
16.72724513521168
 20
1.657339792095293
 30
0.0
 11
17.14124513521168
 21
1.657339792095293
 31
0.0
  0
ENDBLK
  5
12B4
  8
0
  0
BLOCK
  8
0
  2
KAISERA
 70
     2
 10
0.0
 20
0.0
 30
0.0
  3
KAISERA
  1

  0
LINE
  5
57F
  8
BORDER
 10
10.74
 20
0.0
 30
0.0
 11
21.0
 21
0.0
 31
0.0
  0
LINE
  5
580
  8
BORDER
 10
21.0
 20
0.0
 30
0.0
 11
21.0
 21
7.720000000000001
 31
0.0
  0
LINE
  5
581
  8
BORDER
 10
15.5
 20
0.0
 30
0.0
 11
15.5
 21
2.0
 31
0.0
  0
LINE
  5
582
  8
BORDER
 10
15.5
 20
2.0
 30
0.0
 11
21.0
 21
2.0
 31
0.0
  0
LINE
  5
583
  8
BORDER
 10
15.5
 20
1.45
 30
0.0
 11
21.0
 21
1.45
 31
0.0
  0
LINE
  5
584
  8
BORDER
 10
15.5
 20
0.9500000000000002
 30
0.0
 11
21.0
 21
0.9500000000000002
 31
0.0
  0
LINE
  5
585
  8
BORDER
 10
15.5
 20
0.4500000000000002
 30
0.0
 11
21.0
 21
0.4500000000000002
 31
0.0
  0
LINE
  5
586
  8
BORDER
 10
19.54
 20
0.0
 30
0.0
 11
19.54
 21
0.4500000000000002
 31
0.0
  0
LINE
  5
587
  8
BORDER
 10
19.54
 20
0.9500000000000002
 30
0.0
 11
19.54
 21
1.45
 31
0.0
  0
LINE
  5
588
  8
BORDER
 10
15.5
 20
1.19
 30
0.0
 11
17.02
 21
1.19
 31
0.0
  0
LINE
  5
589
  8
BORDER
 10
17.02
 20
0.9500000000000002
 30
0.0
 11
17.02
 21
1.45
 31
0.0
  0
LINE
  5
58A
  8
BORDER
 10
19.54
 20
1.19
 30
0.0
 11
21.0
 21
1.19
 31
0.0
  0
TEXT
  5
58B
  8
BORDER
 10
19.62
 20
0.3400000000000002
 30
0.0
 40
0.06
  1
DRAWING NUMBER
  0
TEXT
  5
58C
  8
BORDER
 10
19.62
 20
1.025
 30
0.0
 40
0.06
  1
REVISED
  0
TEXT
  5
58D
  8
BORDER
 10
19.6
 20
1.29
 30
0.0
 40
0.06
  1
DRAWN BY
  0
TEXT
  5
58E
  8
BORDER
 10
17.09
 20
1.33
 30
0.0
 40
0.06
  1
APPROVED BY
  0
TEXT
  5
58F
  8
BORDER
 10
15.58
 20
1.29
 30
0.0
 40
0.06
  1
SCALE:
  0
TEXT
  5
590
  8
BORDER
 10
15.58
 20
1.03
 30
0.0
 40
0.06
  1
DATE:
  0
TEXT
  5
591
  8
DIM
 10
18.30854429236822
 20
1.804803234994252
 30
0.0
 40
0.1
  1
641 FARGO
  0
TEXT
  5
592
  8
DIM
 10
18.30854429236822
 20
1.638136568327585
 30
0.0
 40
0.1
  1
ELK GROVE VILLAGE, IL
  0
TEXT
  5
593
  8
DIM
 10
19.81956348698446
 20
1.487756832761487
 30
0.0
 40
0.1
  1
 60007
  0
ATTDEF
  5
594
  8
DIM
 10
15.91902556599834
 20
0.5882298310778304
 30
0.0
 40
0.2
  1

  3

  2
NAME
 70
     0
  0
ATTDEF
  5
595
  8
DIM
 10
15.97524953603057
 20
1.266561668413047
 30
0.0
 40
0.1
  1

  3

  2
SCALE
 70
     0
  0
ATTDEF
  5
596
  8
DIM
 10
15.95416554726849
 20
1.023246987629763
 30
0.0
 40
0.1
  1

  3

  2
DATE
 70
     0
  0
ATTDEF
  5
597
  8
DIM
 10
20.13582331841577
 20
1.281308012702943
 30
0.0
 40
0.1
  1
J.B.
  3

  2
NAME
 70
     0
  0
ATTDEF
  5
598
  8
DIM
 10
20.07959934838354
 20
1.023246987629763
 30
0.0
 40
0.1
  1

  3

  2
REVISED
 70
     0
  0
TEXT
  5
599
  8
DIM
 10
15.59573773831301
 20
0.2785566009900141
 30
0.0
 40
0.1
  1
MATERIAL:
  0
TEXT
  5
59A
  8
DIM
 10
15.59573773831301
 20
0.1045167621783995
 30
0.0
 40
0.1
  1
HEAT TREAT:
  0
TEXT
  5
59B
  8
DIM
 10
17.92200449839662
 20
0.271183428845066
 30
0.0
 40
0.1
  1
FINISH:
  0
ATTDEF
  5
59C
  8
DIM
 10
16.43206929254246
 20
0.2785566009900141
 30
0.0
 40
0.1
  1

  3

  2
MATERIAL
 70
     0
  0
ATTDEF
  5
59D
  8
DIM
 10
16.64993717641736
 20
0.1016004695112617
 30
0.0
 40
0.1
  1

  3

  2
HEATTREAT
 70
     0
  0
ATTDEF
  5
59E
  8
DIM
 10
18.51235618373506
 20
0.2638102567001179
 30
0.0
 40
0.1
  1

  3

  2
FINISH
 70
     0
  0
ATTDEF
  5
59F
  8
DIM
 10
19.58061161434747
 20
0.1089736416562099
 30
0.0
 40
0.15
  1

  3

  2
DRAWINGNO.
 70
     0
  0
LINE
  5
5A0
  8
LINE
 10
13.01778291634846
 20
0.4500000000000002
 30
0.0
 11
12.51778291634846
 21
0.4500000000000002
 31
0.0
  0
LINE
  5
5A1
  8
LINE
 10
12.51778291634846
 20
0.4500000000000002
 30
0.0
 11
12.51778291634846
 21
0.0
 31
0.0
  0
TEXT
  5
5A2
  8
DIM
 10
12.6145329206254
 20
0.3006761174248581
 30
0.0
 40
0.1
  1
REV.
  0
ATTDEF
  5
5A3
  8
DIM
 10
12.67778488691166
 20
0.1237199859461057
 30
0.0
 40
0.15
  1
A
  3

  2
REV.
 70
     0
  0
TEXT
  5
5A4
  8
DIM
 10
11.9943702101711
 20
7.35567745037055
 30
0.0
 40
0.06
  1
THIS DOCUMENT CONTAINS PROPRIETARY INFORMATION OF KAISER PRECISION TOOLING, INC. AND IS SUBJECT TO BEING RETURNED UPON REQUEST.
  0
TEXT
  5
5A5
  8
DIM
 10
11.9943702101711
 20
7.25567745037055
 30
0.0
 40
0.06
  1
IT IS NOT TO BE REPRODUCED WITHOUT WRITTEN CONSENT OF KAISER PRECISION TOOLING, INC. ANY REPRODUCTION MUST INCLUDE THIS ENTIRE LEGEND.
  0
LINE
  5
5A6
  8
LINE
 10
13.01778291634846
 20
2.0
 30
0.0
 11
15.5
 21
2.0
 31
0.0
  0
LINE
  5
5A7
  8
LINE
 10
13.01778291634846
 20
2.0
 30
0.0
 11
13.01778291634846
 21
0.0
 31
0.0
  0
TEXT
  5
5A8
  8
DIM
 10
13.2846517690308
 20
1.847932127646515
 30
0.0
 40
0.08
  1
UNLESS OTHERWISE SPECIFIED
  0
TEXT
  5
5A9
  8
DIM
 10
13.2846517690308
 20
1.714598794313182
 30
0.0
 40
0.08
  1
BREAK ALL EDGES .015x45%%D
  0
TEXT
  5
5AA
  8
DIM
 10
13.2846517690308
 20
1.581265460979848
 30
0.0
 40
0.08
  1
SURFACE FINISH=64 OR BETTER
  0
TEXT
  5
5AB
  8
DIM
 10
13.2846517690308
 20
1.447932127646515
 30
0.0
 40
0.08
  1
DECIMAL: .XX=%%P.015
  0
TEXT
  5
5AC
  8
DIM
 10
13.2846517690308
 20
1.314598794313182
 30
0.0
 40
0.08
  1
        .XXX=%%P.005
  0
TEXT
  5
5AD
  8
DIM
 10
13.2846517690308
 20
1.181265460979849
 30
0.0
 40
0.08
  1
        .XXXX=%%P.0005
  0
TEXT
  5
5AE
  8
DIM
 10
13.2846517690308
 20
1.047932127646515
 30
0.0
 40
0.08
  1
ANGULAR: DEGREE=%%P1%%D
  0
TEXT
  5
5AF
  8
DIM
 10
13.2846517690308
 20
0.9145987943131819
 30
0.0
 40
0.08
  1
        MINUTES=%%P15'
  0
TEXT
  5
5B0
  8
DIM
 10
13.27289272387865
 20
0.560597969831885
 30
0.0
 40
0.1
  1
DO NOT SCALE DRAWING
  0
TEXT
  5
5B1
  8
DIM
 10
16.72730843827956
 20
1.553756424222531
 30
0.0
 40
0.072
  1
PRECISION TOOLING,INC.
 50
359.9394791519117
 41
1.034257277458628
  7
ROMANS
 72
     5
 11
18.06844978691984
 21
1.552339792095294
 31
0.0
  0
ARC
  5
5B2
  8
DIM
 10
18.07878305046467
 20
1.672226935313698
 30
0.0
 40
0.06
 50
180.0
 51
194.366235341689
  0
ARC
  5
5B3
  8
DIM
 10
18.09978305046467
 20
1.675066229854647
 30
0.0
 40
0.036
 50
180.0
 51
209.4985180895017
  0
ARC
  5
5B4
  8
DIM
 10
17.99178305046467
 20
1.752589792095294
 30
0.0
 40
0.027
 50
0.0
 51
90.0
  0
ARC
  5
5B5
  8
DIM
 10
18.02628305046467
 20
1.760839792095294
 30
0.0
 40
0.0375
 50
0.0
 51
89.99999999999861
  0
ARC
  5
5B6
  8
DIM
 10
18.02628305046467
 20
1.835839792095293
 30
0.0
 40
0.0375
 50
270.0
 51
0.0
  0
LINE
  5
5B7
  8
DIM
 10
18.02065927764503
 20
1.657339792095293
 30
0.0
 11
18.06844978691984
 21
1.657339792095293
 31
0.0
  0
LINE
  5
5B8
  8
DIM
 10
18.01878305046467
 20
1.752589792095294
 30
0.0
 11
18.01878305046467
 21
1.672226935313698
 31
0.0
  0
LINE
  5
5B9
  8
DIM
 10
18.06378305046467
 20
1.892539792095294
 30
0.0
 11
18.06378305046467
 21
1.835839792095293
 31
0.0
  0
ARC
  5
5BA
  8
DIM
 10
18.00078305046467
 20
1.835089792095295
 30
0.0
 40
0.018
 50
270.0
 51
0.0
  0
ARC
  5
5BB
  8
DIM
 10
18.00078305046467
 20
1.883839792095293
 30
0.0
 40
0.018
 50
0.0
 51
90.0
  0
LINE
  5
5BC
  8
DIM
 10
18.01878305046467
 20
1.835089792095295
 30
0.0
 11
18.01878305046467
 21
1.883839792095293
 31
0.0
  0
LINE
  5
5BD
  8
DIM
 10
17.97078305046466
 20
1.817089792095294
 30
0.0
 11
17.97078305046467
 21
1.901839792095294
 31
0.0
  0
LINE
  5
5BE
  8
DIM
 10
17.92578305046467
 20
1.657339792095293
 30
0.0
 11
17.97078305046467
 21
1.657339792095293
 31
0.0
  0
LINE
  5
5BF
  8
DIM
 10
17.99178305046467
 20
1.779589792095294
 30
0.0
 11
17.97078305046467
 21
1.779589792095294
 31
0.0
  0
LINE
  5
5C0
  8
DIM
 10
18.00078305046467
 20
1.817089792095295
 30
0.0
 11
17.97078305046467
 21
1.817089792095294
 31
0.0
  0
LINE
  5
5C1
  8
DIM
 10
17.97078305046467
 20
1.657339792095293
 30
0.0
 11
17.97078305046467
 21
1.779589792095294
 31
0.0
  0
LINE
  5
5C2
  8
DIM
 10
17.97078305046467
 20
1.901839792095294
 30
0.0
 11
18.00078305046467
 21
1.901839792095293
 31
0.0
  0
ARC
  5
5C3
  8
DIM
 10
18.01698305046467
 20
1.892539792095294
 30
0.0
 40
0.0468
 50
0.0
 51
90.0
  0
LINE
  5
5C4
  8
DIM
 10
18.06378305046467
 20
1.675066229854647
 30
0.0
 11
18.06378305046467
 21
1.760839792095294
 31
0.0
  0
LINE
  5
5C5
  8
DIM
 10
17.92578305046467
 20
1.939339792095294
 30
0.0
 11
18.01698305046467
 21
1.939339792095294
 31
0.0
  0
LINE
  5
5C6
  8
DIM
 10
17.92578305046467
 20
1.657339792095293
 30
0.0
 11
17.92578305046467
 21
1.939339792095294
 31
0.0
  0
LINE
  5
5C7
  8
DIM
 10
17.83578305046467
 20
1.817089792095294
 30
0.0
 11
17.83578305046467
 21
1.901839792095294
 31
0.0
  0
LINE
  5
5C8
  8
DIM
 10
17.89878305046467
 20
1.779589792095294
 30
0.0
 11
17.89878305046467
 21
1.817089792095294
 31
0.0
  0
LINE
  5
5C9
  8
DIM
 10
17.89878305046467
 20
1.779589792095294
 30
0.0
 11
17.83578305046467
 21
1.779589792095294
 31
0.0
  0
LINE
  5
5CA
  8
DIM
 10
17.89878305046467
 20
1.817089792095294
 30
0.0
 11
17.83578305046467
 21
1.817089792095294
 31
0.0
  0
LINE
  5
5CB
  8
DIM
 10
17.89878305046467
 20
1.901839792095294
 30
0.0
 11
17.89878305046467
 21
1.939339792095294
 31
0.0
  0
LINE
  5
5CC
  8
DIM
 10
17.83578305046467
 20
1.901839792095294
 30
0.0
 11
17.89878305046467
 21
1.901839792095294
 31
0.0
  0
LINE
  5
5CD
  8
DIM
 10
17.83578305046467
 20
1.694839792095293
 30
0.0
 11
17.89878305046467
 21
1.694839792095293
 31
0.0
  0
LINE
  5
5CE
  8
DIM
 10
17.83578305046467
 20
1.694839792095293
 30
0.0
 11
17.83578305046467
 21
1.779589792095294
 31
0.0
  0
LINE
  5
5CF
  8
DIM
 10
17.79078305046467
 20
1.939339792095294
 30
0.0
 11
17.89878305046467
 21
1.939339792095294
 31
0.0
  0
LINE
  5
5D0
  8
DIM
 10
17.79078305046467
 20
1.657339792095293
 30
0.0
 11
17.79078305046467
 21
1.939339792095294
 31
0.0
  0
LINE
  5
5D1
  8
DIM
 10
17.89878305046467
 20
1.657339792095293
 30
0.0
 11
17.89878305046467
 21
1.694839792095293
 31
0.0
  0
LINE
  5
5D2
  8
DIM
 10
17.79078305046467
 20
1.657339792095293
 30
0.0
 11
17.89878305046467
 21
1.657339792095293
 31
0.0
  0
ARC
  5
5D3
  8
DIM
 10
17.68906498828673
 20
1.892539792095293
 30
0.0
 40
0.0468
 50
90.0
 51
205.0000000000001
  0
LINE
  5
5D4
  8
DIM
 10
17.64078305046467
 20
1.694839792095293
 30
0.0
 11
17.64078305046467
 21
1.657339792095293
 31
0.0
  0
ARC
  5
5D5
  8
DIM
 10
17.70297739671163
 20
1.886839792095292
 30
0.0
 40
0.015
 50
90.00000000000082
 51
204.9999999999997
  0
LINE
  5
5D6
  8
DIM
 10
17.75478305046467
 20
1.939339792095293
 30
0.0
 11
17.68906498828673
 21
1.939339792095293
 31
0.0
  0
LINE
  5
5D7
  8
DIM
 10
17.75478305046467
 20
1.901839792095293
 30
0.0
 11
17.70297739671163
 21
1.901839792095292
 31
0.0
  0
LINE
  5
5D8
  8
DIM
 10
17.75478305046467
 20
1.939339792095293
 30
0.0
 11
17.75478305046467
 21
1.901839792095293
 31
0.0
  0
ARC
  5
5D9
  8
DIM
 10
17.70607064203977
 20
1.709839792095294
 30
0.0
 40
0.015
 50
270.0
 51
25.00000000000002
  0
LINE
  5
5DA
  8
DIM
 10
17.71966525884532
 20
1.716179066021404
 30
0.0
 11
17.64664978385342
 21
1.872761257445828
 31
0.0
  0
LINE
  5
5DB
  8
DIM
 10
17.76239825489798
 20
1.723918326744761
 30
0.0
 11
17.68938277990609
 21
1.880500518169181
 31
0.0
  0
ARC
  5
5DC
  8
DIM
 10
17.71998305046467
 20
1.704139792095296
 30
0.0
 40
0.0468
 50
270.0
 51
24.99999999999686
  0
LINE
  5
5DD
  8
DIM
 10
17.64078305046467
 20
1.694839792095293
 30
0.0
 11
17.70607064203977
 21
1.694839792095293
 31
0.0
  0
LINE
  5
5DE
  8
DIM
 10
17.64078305046467
 20
1.657339792095293
 30
0.0
 11
17.71998305046467
 21
1.657339792095293
 31
0.0
  0
LINE
  5
5DF
  8
DIM
 10
17.61078305046467
 20
1.939339792095293
 30
0.0
 11
17.61078305046467
 21
1.657339792095293
 31
0.0
  0
LINE
  5
5E0
  8
DIM
 10
17.56878305046467
 20
1.939339792095294
 30
0.0
 11
17.61078305046467
 21
1.939339792095293
 31
0.0
  0
LINE
  5
5E1
  8
DIM
 10
17.56878305046467
 20
1.657339792095293
 30
0.0
 11
17.56878305046467
 21
1.939339792095294
 31
0.0
  0
LINE
  5
5E2
  8
DIM
 10
17.56878305046467
 20
1.657339792095293
 30
0.0
 11
17.61078305046467
 21
1.657339792095293
 31
0.0
  0
LINE
  5
5E3
  8
DIM
 10
17.40872313781339
 20
1.694839792095291
 30
0.0
 11
17.44170198362512
 21
1.864501245758061
 31
0.0
  0
LINE
  5
5E4
  8
DIM
 10
17.40872313781339
 20
1.694839792095291
 30
0.0
 11
17.46118390544374
 21
1.694839792095291
 31
0.0
  0
LINE
  5
5E5
  8
DIM
 10
17.47123200015991
 20
1.657339792095292
 30
0.0
 11
17.46118390544374
 21
1.694839792095291
 31
0.0
  0
LINE
  5
5E6
  8
DIM
 10
17.36323200015991
 20
1.657339792095292
 30
0.0
 11
17.47123200015991
 21
1.657339792095292
 31
0.0
  0
LINE
  5
5E7
  8
DIM
 10
17.50718093525289
 20
1.657339792095292
 30
0.0
 11
17.44170198362512
 21
1.864501245758061
 31
0.0
  0
LINE
  5
5E8
  8
DIM
 10
17.5521809352529
 20
1.657339792095292
 30
0.0
 11
17.50718093525289
 21
1.657339792095292
 31
0.0
  0
LINE
  5
5E9
  8
DIM
 10
17.47661926298732
 20
1.939339792095292
 30
0.0
 11
17.5521809352529
 21
1.657339792095292
 31
0.0
  0
LINE
  5
5EA
  8
DIM
 10
17.41804724733675
 20
1.939339792095292
 30
0.0
 11
17.47661926298732
 21
1.939339792095292
 31
0.0
  0
LINE
  5
5EB
  8
DIM
 10
17.36323200015991
 20
1.657339792095292
 30
0.0
 11
17.41804724733675
 21
1.939339792095292
 31
0.0
  0
LINE
  5
5EC
  8
DIM
 10
17.28915260940612
 20
1.809285876785438
 30
0.0
 11
17.34979774608814
 21
1.939339792095293
 31
0.0
  0
LINE
  5
5ED
  8
DIM
 10
17.23724513521168
 20
1.657339792095293
 30
0.0
 11
17.23724513521168
 21
1.697969939149305
 31
0.0
  0
LINE
  5
5EE
  8
DIM
 10
17.18624513521168
 20
1.657339792095293
 30
0.0
 11
17.23724513521168
 21
1.657339792095293
 31
0.0
  0
LINE
  5
5EF
  8
DIM
 10
17.29879774608814
 20
1.657339792095293
 30
0.0
 11
17.26167299834513
 21
1.750355660692248
 31
0.0
  0
LINE
  5
5F0
  8
DIM
 10
17.29879774608814
 20
1.657339792095293
 30
0.0
 11
17.34979774608814
 21
1.657339792095293
 31
0.0
  0
LINE
  5
5F1
  8
DIM
 10
17.34979774608814
 20
1.657339792095292
 30
0.0
 11
17.28915260940612
 21
1.809285876785438
 31
0.0
  0
LINE
  5
5F2
  8
DIM
 10
17.23724513521168
 20
1.697969939149305
 30
0.0
 11
17.26167299834513
 21
1.750355660692248
 31
0.0
  0
LINE
  5
5F3
  8
DIM
 10
17.29879774608814
 20
1.939339792095293
 30
0.0
 11
17.34979774608814
 21
1.939339792095293
 31
0.0
  0
LINE
  5
5F4
  8
DIM
 10
17.23724513521168
 20
1.807339792095293
 30
0.0
 11
17.29879774608814
 21
1.939339792095294
 31
0.0
  0
LINE
  5
5F5
  8
DIM
 10
17.23724513521168
 20
1.939339792095294
 30
0.0
 11
17.23724513521168
 21
1.807339792095293
 31
0.0
  0
LINE
  5
5F6
  8
DIM
 10
17.18624513521168
 20
1.939339792095294
 30
0.0
 11
17.23724513521168
 21
1.939339792095294
 31
0.0
  0
LINE
  5
5F7
  8
DIM
 10
17.18624513521168
 20
1.939339792095294
 30
0.0
 11
17.18624513521168
 21
1.657339792095293
 31
0.0
  0
ARC
  5
5F8
  8
DIM
 10
16.95524513521168
 20
1.810339792095294
 30
0.0
 40
0.0075
 50
270.0000000000051
 51
0.0000000000005598
  0
LINE
  5
5F9
  8
DIM
 10
17.04674513521168
 20
1.694839792095293
 30
0.0
 11
17.07674513521168
 21
1.694839792095293
 31
0.0
  0
LINE
  5
5FA
  8
DIM
 10
17.03924513521168
 20
1.687339792095296
 30
0.0
 11
17.08424513521168
 21
1.687339792095295
 31
0.0
  0
LINE
  5
5FB
  8
DIM
 10
17.07674513521168
 20
1.879339792095294
 30
0.0
 11
17.07674513521168
 21
1.694839792095293
 31
0.0
  0
LINE
  5
5FC
  8
DIM
 10
17.08424513521168
 20
1.871839792095292
 30
0.0
 11
17.11124513521168
 21
1.871839792095293
 31
0.0
  0
LINE
  5
5FD
  8
DIM
 10
17.10374513521168
 20
1.879339792095292
 30
0.0
 11
17.07674513521168
 21
1.879339792095294
 31
0.0
  0
LINE
  5
5FE
  8
DIM
 10
17.04674513521168
 20
1.879339792095293
 30
0.0
 11
17.04674513521168
 21
1.694839792095293
 31
0.0
  0
LINE
  5
5FF
  8
DIM
 10
17.03924513521168
 20
1.871839792095292
 30
0.0
 11
17.03924513521168
 21
1.687339792095296
 31
0.0
  0
LINE
  5
600
  8
DIM
 10
17.08424513521168
 20
1.871839792095292
 30
0.0
 11
17.08424513521168
 21
1.687339792095295
 31
0.0
  0
LINE
  5
601
  8
DIM
 10
17.10374513521168
 20
1.901839792095295
 30
0.0
 11
17.10374513521168
 21
1.879339792095292
 31
0.0
  0
LINE
  5
602
  8
DIM
 10
17.11124513521168
 20
1.909339792095292
 30
0.0
 11
17.11124513521168
 21
1.871839792095293
 31
0.0
  0
LINE
  5
603
  8
DIM
 10
17.01974513521168
 20
1.901839792095295
 30
0.0
 11
17.10374513521168
 21
1.901839792095295
 31
0.0
  0
LINE
  5
604
  8
DIM
 10
17.01974513521168
 20
1.879339792095293
 30
0.0
 11
17.04674513521168
 21
1.879339792095293
 31
0.0
  0
LINE
  5
605
  8
DIM
 10
17.01224513521168
 20
1.871839792095293
 30
0.0
 11
17.03924513521168
 21
1.871839792095293
 31
0.0
  0
LINE
  5
606
  8
DIM
 10
17.01974513521168
 20
1.901839792095295
 30
0.0
 11
17.01974513521168
 21
1.879339792095293
 31
0.0
  0
LINE
  5
607
  8
DIM
 10
17.01224513521168
 20
1.909339792095292
 30
0.0
 11
17.01224513521168
 21
1.871839792095293
 31
0.0
  0
ARC
  5
608
  8
DIM
 10
16.97174513521168
 20
1.796839792095295
 30
0.0
 40
0.027
 50
270.0000000000023
 51
0.0
  0
ARC
  5
609
  8
DIM
 10
16.97174513521168
 20
1.796839792095297
 30
0.0
 40
0.0345
 50
270.0000000000013
 51
359.9999999999998
  0
LINE
  5
60A
  8
DIM
 10
16.93574513521168
 20
1.769839792095294
 30
0.0
 11
16.97174513521168
 21
1.769839792095296
 31
0.0
  0
LINE
  5
60B
  8
DIM
 10
16.94324513521168
 20
1.762339792095296
 30
0.0
 11
16.97174513521168
 21
1.762339792095297
 31
0.0
  0
LINE
  5
60C
  8
DIM
 10
16.94324513521168
 20
1.687339792095296
 30
0.0
 11
16.94324513521168
 21
1.762339792095295
 31
0.0
  0
LINE
  5
60D
  8
DIM
 10
16.93574513521168
 20
1.694839792095294
 30
0.0
 11
16.93574513521168
 21
1.769839792095294
 31
0.0
  0
ARC
  5
60E
  8
DIM
 10
16.95674513521168
 20
1.808839792095294
 30
0.0
 40
0.0135
 50
270.0000000000036
 51
0.0000000000004326
  0
LINE
  5
60F
  8
DIM
 10
16.94324513521168
 20
1.802839792095292
 30
0.0
 11
16.95524513521168
 21
1.802839792095294
 31
0.0
  0
LINE
  5
610
  8
DIM
 10
16.93574513521168
 20
1.795339792095293
 30
0.0
 11
16.95674513521168
 21
1.795339792095294
 31
0.0
  0
ARC
  5
611
  8
DIM
 10
16.95524513521168
 20
1.864339792095294
 30
0.0
 40
0.0075
 50
0.0000000000003053
 51
90.0
  0
LINE
  5
612
  8
DIM
 10
16.96274513521168
 20
1.864339792095294
 30
0.0
 11
16.96274513521168
 21
1.810339792095294
 31
0.0
  0
ARC
  5
613
  8
DIM
 10
16.95674513521168
 20
1.865839792095294
 30
0.0
 40
0.0135
 50
0.0000000000001527
 51
90.00000000000178
  0
LINE
  5
614
  8
DIM
 10
16.97024513521168
 20
1.865839792095294
 30
0.0
 11
16.97024513521168
 21
1.808839792095294
 31
0.0
  0
LINE
  5
615
  8
DIM
 10
16.94324513521168
 20
1.871839792095293
 30
0.0
 11
16.95524513521168
 21
1.871839792095293
 31
0.0
  0
LINE
  5
616
  8
DIM
 10
16.94324513521168
 20
1.871839792095293
 30
0.0
 11
16.94324513521168
 21
1.802839792095292
 31
0.0
  0
ARC
  5
617
  8
DIM
 10
16.97174513521168
 20
1.874839792095294
 30
0.0
 40
0.027
 50
0.0000000000001527
 51
89.99999999999804
  0
ARC
  5
618
  8
DIM
 10
16.97174513521168
 20
1.874839792095295
 30
0.0
 40
0.0345
 50
0.0
 51
90.0
  0
LINE
  5
619
  8
DIM
 10
17.01224513521168
 20
1.909339792095292
 30
0.0
 11
17.11124513521168
 21
1.909339792095291
 31
0.0
  0
LINE
  5
61A
  8
DIM
 10
16.99874513521168
 20
1.874839792095294
 30
0.0
 11
16.99874513521168
 21
1.796839792095295
 31
0.0
  0
LINE
  5
61B
  8
DIM
 10
16.93574513521168
 20
1.879339792095293
 30
0.0
 11
16.95674513521168
 21
1.879339792095294
 31
0.0
  0
LINE
  5
61C
  8
DIM
 10
16.93574513521168
 20
1.879339792095293
 30
0.0
 11
16.93574513521168
 21
1.795339792095293
 31
0.0
  0
LINE
  5
61D
  8
DIM
 10
17.00624513521168
 20
1.874839792095295
 30
0.0
 11
17.00624513521168
 21
1.796839792095297
 31
0.0
  0
LINE
  5
61E
  8
DIM
 10
16.90574513521168
 20
1.694839792095294
 30
0.0
 11
16.93574513521168
 21
1.694839792095294
 31
0.0
  0
LINE
  5
61F
  8
DIM
 10
16.90574513521168
 20
1.901839792095295
 30
0.0
 11
16.97174513521168
 21
1.901839792095294
 31
0.0
  0
LINE
  5
620
  8
DIM
 10
16.90574513521168
 20
1.901839792095295
 30
0.0
 11
16.90574513521168
 21
1.694839792095294
 31
0.0
  0
LINE
  5
621
  8
DIM
 10
16.89824513521168
 20
1.687339792095295
 30
0.0
 11
16.94324513521168
 21
1.687339792095296
 31
0.0
  0
LINE
  5
622
  8
DIM
 10
16.89824513521168
 20
1.909339792095293
 30
0.0
 11
16.97174513521168
 21
1.909339792095294
 31
0.0
  0
LINE
  5
623
  8
DIM
 10
16.89824513521168
 20
1.909339792095293
 30
0.0
 11
16.89824513521168
 21
1.687339792095295
 31
0.0
  0
LINE
  5
624
  8
DIM
 10
16.79774513521168
 20
1.724430399980784
 30
0.0
 11
16.79774513521168
 21
1.694839792095293
 31
0.0
  0
LINE
  5
625
  8
DIM
 10
16.82159149859804
 20
1.75782257941817
 30
0.0
 11
16.80524513521168
 21
1.722767690010963
 31
0.0
  0
LINE
  5
626
  8
DIM
 10
16.82244637073927
 20
1.777402370514837
 30
0.0
 11
16.79774513521168
 21
1.724430399980784
 31
0.0
  0
LINE
  5
627
  8
DIM
 10
16.80524513521168
 20
1.722767690010963
 30
0.0
 11
16.80524513521168
 21
1.687339792095294
 31
0.0
  0
LINE
  5
628
  8
DIM
 10
16.84724513521168
 20
1.687339792095295
 30
0.0
 11
16.89224513521168
 21
1.687339792095295
 31
0.0
  0
LINE
  5
629
  8
DIM
 10
16.85202316216774
 20
1.901839792095292
 30
0.0
 11
16.8804724933833
 21
1.901839792095293
 31
0.0
  0
LINE
  5
62A
  8
DIM
 10
16.85202316216774
 20
1.901839792095292
 30
0.0
 11
16.79774513521168
 21
1.785440187656427
 31
0.0
  0
LINE
  5
62B
  8
DIM
 10
16.84724513521168
 20
1.909339792095293
 30
0.0
 11
16.80524513521168
 21
1.819270501433893
 31
0.0
  0
LINE
  5
62C
  8
DIM
 10
16.84724513521168
 20
1.909339792095293
 30
0.0
 11
16.89224513521168
 21
1.909339792095293
 31
0.0
  0
LINE
  5
62D
  8
DIM
 10
16.8804724933833
 20
1.901839792095293
 30
0.0
 11
16.8387545623296
 21
1.812375400241287
 31
0.0
  0
LINE
  5
62E
  8
DIM
 10
16.89224513521168
 20
1.909339792095293
 30
0.0
 11
16.84686477735027
 21
1.812021300606294
 31
0.0
  0
LINE
  5
62F
  8
DIM
 10
16.85249669174825
 20
1.694839792095294
 30
0.0
 11
16.82244637073927
 21
1.777402370514838
 31
0.0
  0
LINE
  5
630
  8
DIM
 10
16.84724513521168
 20
1.687339792095295
 30
0.0
 11
16.82159149859804
 21
1.75782257941817
 31
0.0
  0
LINE
  5
631
  8
DIM
 10
16.88153402516112
 20
1.694839792095294
 30
0.0
 11
16.8387545623296
 21
1.812375400241288
 31
0.0
  0
LINE
  5
632
  8
DIM
 10
16.89224513521168
 20
1.687339792095295
 30
0.0
 11
16.84686477735027
 21
1.812021300606294
 31
0.0
  0
LINE
  5
633
  8
DIM
 10
16.88153402516112
 20
1.694839792095293
 30
0.0
 11
16.85249669174825
 21
1.694839792095294
 31
0.0
  0
LINE
  5
634
  8
DIM
 10
16.77074513521168
 20
1.694839792095293
 30
0.0
 11
16.79774513521168
 21
1.694839792095293
 31
0.0
  0
LINE
  5
635
  8
DIM
 10
16.77074513521168
 20
1.901839792095294
 30
0.0
 11
16.79774513521168
 21
1.901839792095293
 31
0.0
  0
LINE
  5
636
  8
DIM
 10
16.79774513521168
 20
1.901839792095294
 30
0.0
 11
16.79774513521168
 21
1.785440187656427
 31
0.0
  0
LINE
  5
637
  8
DIM
 10
16.80524513521168
 20
1.909339792095293
 30
0.0
 11
16.80524513521168
 21
1.819270501433893
 31
0.0
  0
LINE
  5
638
  8
DIM
 10
16.77074513521168
 20
1.901839792095294
 30
0.0
 11
16.77074513521168
 21
1.694839792095293
 31
0.0
  0
LINE
  5
639
  8
DIM
 10
16.76324513521168
 20
1.909339792095293
 30
0.0
 11
16.80524513521168
 21
1.909339792095293
 31
0.0
  0
LINE
  5
63A
  8
DIM
 10
16.76324513521168
 20
1.687339792095294
 30
0.0
 11
16.80524513521168
 21
1.687339792095295
 31
0.0
  0
LINE
  5
63B
  8
DIM
 10
16.76324513521168
 20
1.909339792095293
 30
0.0
 11
16.76324513521168
 21
1.687339792095294
 31
0.0
  0
LINE
  5
63C
  8
DIM
 10
17.14124513521168
 20
1.939339792095294
 30
0.0
 11
17.14124513521168
 21
1.657339792095293
 31
0.0
  0
LINE
  5
63D
  8
DIM
 10
16.72724513521168
 20
1.939339792095294
 30
0.0
 11
16.72724513521168
 21
1.657339792095293
 31
0.0
  0
LINE
  5
63E
  8
DIM
 10
16.72724513521168
 20
1.939339792095294
 30
0.0
 11
17.14124513521168
 21
1.939339792095294
 31
0.0
  0
LINE
  5
63F
  8
DIM
 10
16.72724513521168
 20
1.657339792095293
 30
0.0
 11
17.14124513521168
 21
1.657339792095293
 31
0.0
  0
LINE
  5
640
  8
BORDER
 10
10.74
 20
7.720000000000001
 30
0.0
 11
21.0
 21
7.72
 31
0.0
  0
LINE
  5
641
  8
BORDER
 10
10.74
 20
0.0
 30
0.0
 11
10.74
 21
7.720000000000001
 31
0.0
  0
ENDBLK
  5
12B6
  8
0
  0
BLOCK
  8
0
  2
*D2
 70
     1
 10
0.0
 20
0.0
 30
0.0
  3
*D2
  1

  0
LINE
  5
652
  8
0
  6
BYBLOCK
 62
     0
 10
42.99676040410668
 20
134.4609804894549
 30
0.0
 11
42.99676040410668
 21
156.2160413355875
 31
0.0
  0
LINE
  5
653
  8
0
  6
BYBLOCK
 62
     0
 10
113.9975909043844
 20
140.7505921892421
 30
0.0
 11
113.9975909043844
 21
156.2160413355875
 31
0.0
  0
LINE
  5
654
  8
0
  6
BYBLOCK
 62
     0
 10
45.39676040410668
 20
154.9660413355875
 30
0.0
 11
111.5975909043844
 21
154.9660413355875
 31
0.0
  0
SOLID
  5
655
  8
0
  6
BYBLOCK
 62
     0
 10
45.39676040410668
 20
155.3660413355875
 30
0.0
 11
45.39676040410668
 21
154.5660413355875
 31
0.0
 12
42.99676040410668
 22
154.9660413355875
 32
0.0
 13
42.99676040410668
 23
154.9660413355875
 33
0.0
  0
SOLID
  5
656
  8
0
  6
BYBLOCK
 62
     0
 10
111.5975909043844
 20
155.3660413355875
 30
0.0
 11
111.5975909043844
 21
154.5660413355875
 31
0.0
 12
113.9975909043844
 22
154.9660413355875
 32
0.0
 13
113.9975909043844
 23
154.9660413355875
 33
0.0
  0
TEXT
  5
657
  8
0
  6
CONTINUOUS
 62
     0
 10
75.70345906243813
 20
155.9660413355875
 30
0.0
 40
2.5
  1
71
  7
ROMANS
  0
POINT
  5
658
  8
DEFPOINTS
  6
BYBLOCK
 62
     0
 10
42.99676040410668
 20
133.2109804894549
 30
0.0
  0
POINT
  5
659
  8
DEFPOINTS
  6
BYBLOCK
 62
     0
 10
113.9975909043844
 20
139.5005921892421
 30
0.0
  0
POINT
  5
65A
  8
DEFPOINTS
  6
BYBLOCK
 62
     0
 10
113.9975909043844
 20
154.9660413355875
 30
0.0
  0
ENDBLK
  5
12B8
  8
0
  0
BLOCK
  8
0
  2
*D3
 70
     1
 10
0.0
 20
0.0
 30
0.0
  3
*D3
  1

  0
LINE
  5
675
  8
0
  6
BYBLOCK
 62
     0
 10
105.2531099933845
 20
145.9682804894555
 30
0.0
 11
105.2531099933845
 21
150.816038200544
 31
0.0
  0
LINE
  5
676
  8
0
  6
BYBLOCK
 62
     0
 10
45.39676040410668
 20
149.566038200544
 30
0.0
 11
102.8531099933845
 21
149.566038200544
 31
0.0
  0
SOLID
  5
677
  8
0
  6
BYBLOCK
 62
     0
 10
45.39676040410668
 20
149.966038200544
 30
0.0
 11
45.39676040410668
 21
149.166038200544
 31
0.0
 12
42.99676040410668
 22
149.566038200544
 32
0.0
 13
42.99676040410668
 23
149.566038200544
 33
0.0
  0
SOLID
  5
678
  8
0
  6
BYBLOCK
 62
     0
 10
102.8531099933845
 20
149.966038200544
 30
0.0
 11
102.8531099933845
 21
149.166038200544
 31
0.0
 12
105.2531099933845
 22
149.566038200544
 32
0.0
 13
105.2531099933845
 23
149.566038200544
 33
0.0
  0
TEXT
  5
679
  8
0
  6
CONTINUOUS
 62
     0
 10
69.95118481625116
 20
150.566038200544
 30
0.0
 40
2.5
  1
62.3
  7
ROMANS
  0
POINT
  5
67A
  8
DEFPOINTS
  6
BYBLOCK
 62
     0
 10
42.99676040410668
 20
133.2109804894549
 30
0.0
  0
POINT
  5
67B
  8
DEFPOINTS
  6
BYBLOCK
 62
     0
 10
105.2531099933845
 20
144.7182804894555
 30
0.0
  0
POINT
  5
67C
  8
DEFPOINTS
  6
BYBLOCK
 62
     0
 10
105.2531099933845
 20
149.566038200544
 30
0.0
  0
ENDBLK
  5
12BA
  8
0
  0
BLOCK
  8
0
  2
*D4
 70
     1
 10
0.0
 20
0.0
 30
0.0
  3
*D4
  1

  0
LINE
  5
681
  8
0
  6
BYBLOCK
 62
     0
 10
107.6531099933845
 20
149.566038200544
 30
0.0
 11
111.5975909043844
 21
149.566038200544
 31
0.0
  0
SOLID
  5
682
  8
0
  6
BYBLOCK
 62
     0
 10
107.6531099933845
 20
149.966038200544
 30
0.0
 11
107.6531099933845
 21
149.166038200544
 31
0.0
 12
105.2531099933845
 22
149.566038200544
 32
0.0
 13
105.2531099933845
 23
149.566038200544
 33
0.0
  0
SOLID
  5
683
  8
0
  6
BYBLOCK
 62
     0
 10
111.5975909043844
 20
149.966038200544
 30
0.0
 11
111.5975909043844
 21
149.166038200544
 31
0.0
 12
113.9975909043844
 22
149.566038200544
 32
0.0
 13
113.9975909043844
 23
149.566038200544
 33
0.0
  0
TEXT
  5
684
  8
0
  6
CONTINUOUS
 62
     0
 10
104.9824933060273
 20
151.6374667719725
 30
0.0
 40
2.5
  1
(8.7)
  7
ROMANS
  0
POINT
  5
685
  8
DEFPOINTS
  6
BYBLOCK
 62
     0
 10
105.2531099933845
 20
149.566038200544
 30
0.0
  0
POINT
  5
686
  8
DEFPOINTS
  6
BYBLOCK
 62
     0
 10
113.9975909043844
 20
149.566038200544
 30
0.0
  0
POINT
  5
687
  8
DEFPOINTS
  6
BYBLOCK
 62
     0
 10
113.9975909043844
 20
149.566038200544
 30
0.0
  0
ENDBLK
  5
12BC
  8
0
  0
BLOCK
  8
0
  2
*D5
 70
     1
 10
0.0
 20
0.0
 30
0.0
  3
*D5
  1

  0
LINE
  5
68C
  8
0
  6
BYBLOCK
 62
     0
 10
114.880122659115
 20
139.2220023507558
 30
0.0
 11
129.1180371506159
 21
131.0017385863892
 31
0.0
  0
ARC
  5
68D
  8
0
  6
BYBLOCK
 62
     0
 10
105.3602896703568
 20
144.7182804894555
 30
0.0
 40
26.18308380613325
 50
335.2536995689899
 51
354.746300431011
  0
SOLID
  5
68E
  8
0
  6
BYBLOCK
 62
     0
 10
129.4941986269696
 20
133.5740993792545
 30
0.0
 11
128.7837738708465
 21
133.941926330262
 31
0.0
 12
128.0355053958853
 22
131.6267385863892
 32
0.0
 13
128.0355053958853
 23
131.6267385863892
 33
0.0
  0
SOLID
  5
68F
  8
0
  6
BYBLOCK
 62
     0
 10
131.0337991127211
 20
142.3391348512507
 30
0.0
 11
131.8329584745048
 21
142.3024699569583
 31
0.0
 12
131.5433734764901
 22
144.7182804894556
 32
0.0
 13
131.5433734764901
 23
144.7182804894556
 33
0.0
  0
TEXT
  5
690
  8
0
  6
CONTINUOUS
 62
     0
 10
129.1812409282215
 20
136.0611923324147
 30
0.0
 40
2.5
  1
30°
 50
76.5130177272739
  7
ROMANS
  0
POINT
  5
691
  8
DEFPOINTS
  6
BYBLOCK
 62
     0
 10
129.9643403123993
 20
135.763138413374
 30
0.0
  0
POINT
  5
692
  8
DEFPOINTS
  6
BYBLOCK
 62
     0
 10
106.5031099933845
 20
144.7182804894555
 30
0.0
  0
POINT
  5
693
  8
DEFPOINTS
  6
BYBLOCK
 62
     0
 10
113.7975909043844
 20
139.8470023507558
 30
0.0
  0
POINT
  5
694
  8
DEFPOINTS
  6
BYBLOCK
 62
     0
 10
105.4531099933845
 20
144.6646906509692
 30
0.0
  0
POINT
  5
695
  8
DEFPOINTS
  6
BYBLOCK
 62
     0
 10
138.3993904354656
 20
144.7182804894555
 30
0.0
  0
ENDBLK
  5
12BE
  8
0
  0
BLOCK
  8
0
  2
*D6
 70
     1
 10
0.0
 20
0.0
 30
0.0
  3
*D6
  1

  0
LINE
  5
BA8
  8
0
  6
BYBLOCK
 62
     0
 10
47.2072839501992
 20
-105.7446609072783
 30
0.0
 11
37.9824283678802
 21
-103.272868303702
 31
0.0
  0
LINE
  5
BA9
  8
0
  6
BYBLOCK
 62
     0
 10
53.81098759162978
 20
-107.849054455593
 30
0.0
 11
37.37996203155885
 21
-107.8490544555932
 31
0.0
  0
ARC
  5
BAA
  8
0
  6
BYBLOCK
 62
     0
 10
55.06098759162968
 20
-107.849054455593
 30
0.0
 40
17.05602556007083
 50
156.9360904057648
 51
160.9680452028821
  0
ARC
  5
BAB
  8
0
  6
BYBLOCK
 62
     0
 10
55.06098759162968
 20
-107.849054455593
 30
0.0
 40
17.05602556007083
 50
184.0319547971178
 51
188.063909594235
  0
SOLID
  5
BAC
  8
0
  6
BYBLOCK
 62
     0
 10
39.12854268715892
 20
-102.3456900540101
 30
0.0
 11
38.74605341174628
 21
-102.2286347072962
 31
0.0
 12
38.58613200931086
 22
-103.4346302068911
 32
0.0
 13
38.58613200931086
 23
-103.4346302068911
 33
0.0
  0
SOLID
  5
BAD
  8
0
  6
BYBLOCK
 62
     0
 10
37.84729964074452
 20
-109.05534735971
 30
0.0
 11
38.24705206320481
 21
-109.0412760862381
 31
0.0
 12
38.00496203155886
 22
-107.8490544555932
 32
0.0
 13
38.00496203155886
 23
-107.8490544555932
 33
0.0
  0
TEXT
  5
BAE
  8
0
  6
CONTINUOUS
 62
     0
 10
37.46425104718845
 20
-106.9178490928585
 30
0.0
 40
1.25
  1
15°
 50
82.03541890320558
  7
ROMANS
  0
POINT
  5
BAF
  8
DEFPOINTS
  6
BYBLOCK
 62
     0
 10
38.06986535816984
 20
-106.362523879582
 30
0.0
  0
POINT
  5
BB0
  8
DEFPOINTS
  6
BYBLOCK
 62
     0
 10
55.06098759162984
 20
-107.8490544555931
 30
0.0
  0
POINT
  5
BB1
  8
DEFPOINTS
  6
BYBLOCK
 62
     0
 10
55.06098759162979
 20
-107.849054455593
 30
0.0
  0
POINT
  5
BB2
  8
DEFPOINTS
  6
BYBLOCK
 62
     0
 10
54.43598759162978
 20
-107.849054455593
 30
0.0
  0
POINT
  5
BB3
  8
DEFPOINTS
  6
BYBLOCK
 62
     0
 10
47.81098759162986
 20
-105.9064228104673
 30
0.0
  0
ENDBLK
  5
12C0
  8
0
  0
BLOCK
  8
0
  2
*D7
 70
     1
 10
0.0
 20
0.0
 30
0.0
  3
*D7
  1

  0
LINE
  5
BB6
  8
0
  6
BYBLOCK
 62
     0
 10
30.21426400280089
 20
-72.3690900207143
 30
0.0
 11
43.98217725605883
 21
-83.99437853665026
 31
0.0
  0
TEXT
  5
BB7
  8
0
  6
CONTINUOUS
 62
     0
 10
30.7369489091869
 20
-72.15602995184958
 30
0.0
 40
1.25
  1
R14.5
 50
319.8230723625132
  7
ROMANS
  0
SOLID
  5
BB8
  8
0
  6
BYBLOCK
 62
     0
 10
43.19434020647977
 20
-83.06738728355747
 30
0.0
 11
42.93628018112962
 21
-83.37300963764218
 31
0.0
 12
43.98217725605883
 22
-83.99437853665026
 32
0.0
 13
43.98217725605883
 23
-83.99437853665026
 33
0.0
  0
POINT
  5
BB9
  8
DEFPOINTS
  6
BYBLOCK
 62
     0
 10
43.98217725605883
 20
-83.99437853665026
 30
0.0
  0
POINT
  5
BBA
  8
DEFPOINTS
  6
BYBLOCK
 62
     0
 10
55.06098759162973
 20
-93.349054455593
 30
0.0
  0
ENDBLK
  5
12C2
  8
0
  0
BLOCK
  8
0
  2
*D8
 70
     1
 10
0.0
 20
0.0
 30
0.0
  3
*D8
  1

  0
LINE
  5
BBD
  8
0
  6
BYBLOCK
 62
     0
 10
54.43598759162978
 20
-78.84905445559303
 30
0.0
 11
32.86493509706378
 21
-78.84905445559303
 31
0.0
  0
LINE
  5
BBE
  8
0
  6
BYBLOCK
 62
     0
 10
54.43598759162978
 20
-107.849054455593
 30
0.0
 11
32.86493509706378
 21
-107.849054455593
 31
0.0
  0
LINE
  5
BBF
  8
0
  6
BYBLOCK
 62
     0
 10
33.48993509706378
 20
-80.04905445559304
 30
0.0
 11
33.48993509706378
 21
-106.649054455593
 31
0.0
  0
SOLID
  5
BC0
  8
0
  6
BYBLOCK
 62
     0
 10
33.28993509706378
 20
-80.04905445559304
 30
0.0
 11
33.68993509706378
 21
-80.04905445559304
 31
0.0
 12
33.48993509706378
 22
-78.84905445559303
 32
0.0
 13
33.48993509706378
 23
-78.84905445559303
 33
0.0
  0
SOLID
  5
BC1
  8
0
  6
BYBLOCK
 62
     0
 10
33.28993509706378
 20
-106.649054455593
 30
0.0
 11
33.68993509706378
 21
-106.649054455593
 31
0.0
 12
33.48993509706378
 22
-107.849054455593
 32
0.0
 13
33.48993509706378
 23
-107.849054455593
 33
0.0
  0
TEXT
  5
BC2
  8
0
  6
CONTINUOUS
 62
     0
 10
32.98993509706378
 20
-94.51069880083114
 30
0.0
 40
1.25
  1
29
 50
90.0
  7
ROMANS
  0
POINT
  5
BC3
  8
DEFPOINTS
  6
BYBLOCK
 62
     0
 10
55.06098759162978
 20
-78.84905445559303
 30
0.0
  0
POINT
  5
BC4
  8
DEFPOINTS
  6
BYBLOCK
 62
     0
 10
55.06098759162978
 20
-107.849054455593
 30
0.0
  0
POINT
  5
BC5
  8
DEFPOINTS
  6
BYBLOCK
 62
     0
 10
33.48993509706378
 20
-107.849054455593
 30
0.0
  0
ENDBLK
  5
12C4
  8
0
  0
BLOCK
  8
0
  2
*D9
 70
     1
 10
0.0
 20
0.0
 30
0.0
  3
*D9
  1

  0
LINE
  5
BC8
  8
0
  6
BYBLOCK
 62
     0
 10
-9.659594001459595
 20
-78.84905445559394
 30
0.0
 11
13.87208771038246
 21
-78.84905445559394
 31
0.0
  0
LINE
  5
BC9
  8
0
  6
BYBLOCK
 62
     0
 10
-9.726480722558676
 20
-117.8327977957973
 30
0.0
 11
13.87208771038246
 21
-117.8327977957973
 31
0.0
  0
LINE
  5
BCA
  8
0
  6
BYBLOCK
 62
     0
 10
13.24708771038246
 20
-80.04905445559395
 30
0.0
 11
13.24708771038246
 21
-116.6327977957973
 31
0.0
  0
SOLID
  5
BCB
  8
0
  6
BYBLOCK
 62
     0
 10
13.04708771038246
 20
-80.04905445559395
 30
0.0
 11
13.44708771038246
 21
-80.04905445559395
 31
0.0
 12
13.24708771038246
 22
-78.84905445559394
 32
0.0
 13
13.24708771038246
 23
-78.84905445559394
 33
0.0
  0
SOLID
  5
BCC
  8
0
  6
BYBLOCK
 62
     0
 10
13.04708771038246
 20
-116.6327977957973
 30
0.0
 11
13.44708771038246
 21
-116.6327977957973
 31
0.0
 12
13.24708771038246
 22
-117.8327977957973
 32
0.0
 13
13.24708771038246
 23
-117.8327977957973
 33
0.0
  0
TEXT
  5
BCD
  8
0
  6
CONTINUOUS
 62
     0
 10
12.21137342466818
 20
-99.28761312371608
 30
0.0
 40
1.25
  1
(39)
 50
90.0
  7
ROMANS
  0
POINT
  5
BCE
  8
DEFPOINTS
  6
BYBLOCK
 62
     0
 10
-10.2845940014596
 20
-78.84905445559394
 30
0.0
  0
POINT
  5
BCF
  8
DEFPOINTS
  6
BYBLOCK
 62
     0
 10
-10.35148072255868
 20
-117.8327977957973
 30
0.0
  0
POINT
  5
BD0
  8
DEFPOINTS
  6
BYBLOCK
 62
     0
 10
13.24708771038246
 20
-117.8327977957973
 30
0.0
  0
ENDBLK
  5
12C6
  8
0
  0
BLOCK
  8
0
  2
*D10
 70
     1
 10
0.0
 20
0.0
 30
0.0
  3
*D10
  1

  0
LINE
  5
F9B
  8
0
  6
BYBLOCK
 62
     0
 10
-9.726480722558676
 20
-117.8327977957973
 30
0.0
 11
9.210229044310779
 21
-117.8327977957973
 31
0.0
  0
LINE
  5
F9C
  8
0
  6
BYBLOCK
 62
     0
 10
8.585229044310779
 20
-116.6327977957973
 30
0.0
 11
8.58522904431078
 21
-94.54905445559392
 31
0.0
  0
SOLID
  5
F9D
  8
0
  6
BYBLOCK
 62
     0
 10
8.38522904431078
 20
-116.6327977957973
 30
0.0
 11
8.785229044310778
 21
-116.6327977957973
 31
0.0
 12
8.585229044310779
 22
-117.8327977957973
 32
0.0
 13
8.585229044310779
 23
-117.8327977957973
 33
0.0
  0
SOLID
  5
F9E
  8
0
  6
BYBLOCK
 62
     0
 10
8.385229044310782
 20
-94.54905445559392
 30
0.0
 11
8.78522904431078
 21
-94.54905445559392
 31
0.0
 12
8.58522904431078
 22
-93.34905445559392
 32
0.0
 13
8.58522904431078
 23
-93.34905445559392
 33
0.0
  0
TEXT
  5
F9F
  8
0
  6
CONTINUOUS
 62
     0
 10
7.549514758596501
 20
-106.4450079317211
 30
0.0
 40
1.25
  1
(24.5)
 50
90.0
  7
ROMANS
  0
POINT
  5
FA0
  8
DEFPOINTS
  6
BYBLOCK
 62
     0
 10
-10.35148072255868
 20
-117.8327977957973
 30
0.0
  0
POINT
  5
FA1
  8
DEFPOINTS
  6
BYBLOCK
 62
     0
 10
8.585229044310779
 20
-93.34905445559392
 30
0.0
  0
POINT
  5
FA2
  8
DEFPOINTS
  6
BYBLOCK
 62
     0
 10
8.58522904431078
 20
-93.34905445559392
 30
0.0
  0
ENDBLK
  5
12C8
  8
0
  0
BLOCK
  8
0
  2
*D11
 70
     1
 10
0.0
 20
0.0
 30
0.0
  3
*D11
  1

  0
LINE
  5
BDD
  8
0
  6
BYBLOCK
 62
     0
 10
13.43734127698706
 20
-77.02631574192132
 30
0.0
 11
15.91567094039296
 21
-72.73372284699721
 31
0.0
  0
ARC
  5
BDE
  8
0
  6
BYBLOCK
 62
     0
 10
13.12484127698706
 20
-77.56758161928659
 30
0.0
 40
4.956659326811815
 50
32.18934852737834
 51
46.09467426368919
  0
ARC
  5
BDF
  8
0
  6
BYBLOCK
 62
     0
 10
13.12484127698706
 20
-77.56758161928659
 30
0.0
 40
4.956659326811815
 50
83.90532573631063
 51
97.81065147262146
  0
SOLID
  5
BE0
  8
0
  6
BYBLOCK
 62
     0
 10
16.44189888188118
 20
-74.15620120734656
 30
0.0
 11
16.6823608795253
 21
-73.83654822724314
 31
0.0
 12
15.60317094039297
 22
-73.27498872436249
 32
0.0
 13
15.60317094039297
 23
-73.27498872436249
 33
0.0
  0
SOLID
  5
BE1
  8
0
  6
BYBLOCK
 62
     0
 10
13.69624915232477
 20
-72.44410146074307
 30
0.0
 11
13.60594675587623
 21
-72.83377501282949
 31
0.0
 12
14.82011861035977
 22
-72.90984542613188
 32
0.0
 13
14.82011861035977
 23
-72.90984542613188
 33
0.0
  0
TEXT
  5
BE2
  8
0
  6
CONTINUOUS
 62
     0
 10
13.56655746561543
 20
-71.9214975963743
 30
0.0
 40
1.25
  1
10°
 50
339.9999999999994
  7
ROMANS
  0
POINT
  5
BE3
  8
DEFPOINTS
  6
BYBLOCK
 62
     0
 10
15.34938591939319
 20
-73.13814905788408
 30
0.0
  0
POINT
  5
BE4
  8
DEFPOINTS
  6
BYBLOCK
 62
     0
 10
13.12484127698713
 20
-77.56758161928639
 30
0.0
  0
POINT
  5
BE5
  8
DEFPOINTS
  6
BYBLOCK
 62
     0
 10
-5.860138190207802
 20
-110.4505306371201
 30
0.0
  0
POINT
  5
BE6
  8
DEFPOINTS
  6
BYBLOCK
 62
     0
 10
11.87484127698718
 20
-79.73264512874749
 30
0.0
  0
POINT
  5
BE7
  8
DEFPOINTS
  6
BYBLOCK
 62
     0
 10
19.96524414350063
 20
-58.77372920356811
 30
0.0
  0
ENDBLK
  5
12CA
  8
0
  0
BLOCK
  8
0
  2
*D12
 70
     1
 10
0.0
 20
0.0
 30
0.0
  3
*D12
  1

  0
LINE
  5
F54
  8
0
  6
BYBLOCK
 62
     0
 10
2.874605467340871
 20
-94.54905445559397
 30
0.0
 11
2.87460546734087
 21
-110.8758093073719
 31
0.0
  0
SOLID
  5
F55
  8
0
  6
BYBLOCK
 62
     0
 10
2.674605467340871
 20
-94.54905445559397
 30
0.0
 11
3.074605467340871
 21
-94.54905445559397
 31
0.0
 12
2.874605467340871
 22
-93.34905445559397
 32
0.0
 13
2.874605467340871
 23
-93.34905445559397
 33
0.0
  0
SOLID
  5
F56
  8
0
  6
BYBLOCK
 62
     0
 10
2.674605467340871
 20
-110.8758093073719
 30
0.0
 11
3.07460546734087
 21
-110.8758093073719
 31
0.0
 12
2.87460546734087
 22
-112.0758093073719
 32
0.0
 13
2.87460546734087
 23
-112.0758093073719
 33
0.0
  0
TEXT
  5
F57
  8
0
  6
CONTINUOUS
 62
     0
 10
2.374605467340871
 20
-105.5833752620282
 30
0.0
 40
1.25
  1
18.73
 50
90.0
  7
ROMANS
  0
POINT
  5
F58
  8
DEFPOINTS
  6
BYBLOCK
 62
     0
 10
2.874605467340871
 20
-93.34905445559397
 30
0.0
  0
POINT
  5
F59
  8
DEFPOINTS
  6
BYBLOCK
 62
     0
 10
2.874605467340871
 20
-112.0758093073719
 30
0.0
  0
POINT
  5
F5A
  8
DEFPOINTS
  6
BYBLOCK
 62
     0
 10
2.87460546734087
 20
-112.0758093073719
 30
0.0
  0
ENDBLK
  5
12CC
  8
0
  0
BLOCK
  8
0
  2
*D13
 70
     1
 10
0.0
 20
0.0
 30
0.0
  3
*D13
  1

  0
LINE
  5
F67
  8
0
  6
BYBLOCK
 62
     0
 10
-17.78459400145891
 20
-118.2148669016308
 30
0.0
 11
-17.78459400145891
 21
-123.8605047035657
 31
0.0
  0
LINE
  5
F68
  8
0
  6
BYBLOCK
 62
     0
 10
-11.55148072115851
 20
-123.2355047035657
 30
0.0
 11
-16.58459400145891
 21
-123.2355047035657
 31
0.0
  0
SOLID
  5
F69
  8
0
  6
BYBLOCK
 62
     0
 10
-11.55148072115851
 20
-123.0355047035656
 30
0.0
 11
-11.55148072115851
 21
-123.4355047035657
 31
0.0
 12
-10.35148072115851
 22
-123.2355047035657
 32
0.0
 13
-10.35148072115851
 23
-123.2355047035657
 33
0.0
  0
SOLID
  5
F6A
  8
0
  6
BYBLOCK
 62
     0
 10
-16.58459400145891
 20
-123.0355047035656
 30
0.0
 11
-16.58459400145891
 21
-123.4355047035657
 31
0.0
 12
-17.78459400145891
 22
-123.2355047035657
 32
0.0
 13
-17.78459400145891
 23
-123.2355047035657
 33
0.0
  0
TEXT
  5
F6B
  8
0
  6
CONTINUOUS
 62
     0
 10
-15.47982366532087
 20
-122.7355047035657
 30
0.0
 40
1.25
  1
7.43
  7
ROMANS
  0
POINT
  5
F6C
  8
DEFPOINTS
  6
BYBLOCK
 62
     0
 10
-10.35148072115851
 20
-123.2355047035657
 30
0.0
  0
POINT
  5
F6D
  8
DEFPOINTS
  6
BYBLOCK
 62
     0
 10
-17.78459400145891
 20
-117.5898669016308
 30
0.0
  0
POINT
  5
F6E
  8
DEFPOINTS
  6
BYBLOCK
 62
     0
 10
-17.78459400145891
 20
-123.2355047035657
 30
0.0
  0
ENDBLK
  5
12CE
  8
0
  0
BLOCK
  8
0
  2
*D14
 70
     1
 10
0.0
 20
0.0
 30
0.0
  3
*D14
  1

  0
LINE
  5
FA5
  8
0
  6
BYBLOCK
 62
     0
 10
-5.28459400145897
 20
-110.2116993330584
 30
0.0
 11
-5.284594001458971
 21
-130.0518551314088
 31
0.0
  0
LINE
  5
FA6
  8
0
  6
BYBLOCK
 62
     0
 10
-17.78459400145891
 20
-118.2148669016308
 30
0.0
 11
-17.78459400145891
 21
-130.0518551314088
 31
0.0
  0
LINE
  5
FA7
  8
0
  6
BYBLOCK
 62
     0
 10
-6.484594001458971
 20
-129.4268551314088
 30
0.0
 11
-16.58459400145891
 21
-129.4268551314088
 31
0.0
  0
SOLID
  5
FA8
  8
0
  6
BYBLOCK
 62
     0
 10
-6.484594001458971
 20
-129.2268551314088
 30
0.0
 11
-6.484594001458971
 21
-129.6268551314088
 31
0.0
 12
-5.284594001458971
 22
-129.4268551314088
 32
0.0
 13
-5.284594001458971
 23
-129.4268551314088
 33
0.0
  0
SOLID
  5
FA9
  8
0
  6
BYBLOCK
 62
     0
 10
-16.58459400145891
 20
-129.2268551314088
 30
0.0
 11
-16.58459400145891
 21
-129.6268551314088
 31
0.0
 12
-17.78459400145891
 22
-129.4268551314088
 32
0.0
 13
-17.78459400145891
 23
-129.4268551314088
 33
0.0
  0
TEXT
  5
FAA
  8
0
  6
CONTINUOUS
 62
     0
 10
-15.65370820246197
 20
-128.3911408456945
 30
0.0
 40
1.25
  1
(12.5)
  7
ROMANS
  0
POINT
  5
FAB
  8
DEFPOINTS
  6
BYBLOCK
 62
     0
 10
-5.28459400145897
 20
-109.5866993330584
 30
0.0
  0
POINT
  5
FAC
  8
DEFPOINTS
  6
BYBLOCK
 62
     0
 10
-17.78459400145891
 20
-117.5898669016308
 30
0.0
  0
POINT
  5
FAD
  8
DEFPOINTS
  6
BYBLOCK
 62
     0
 10
-17.78459400145891
 20
-129.4268551314088
 30
0.0
  0
ENDBLK
  5
12D0
  8
0
  0
BLOCK
  8
0
  2
*D15
 70
     1
 10
0.0
 20
0.0
 30
0.0
  3
*D15
  1

  0
LINE
  5
C0A
  8
0
  6
BYBLOCK
 62
     0
 10
-10.11412247630915
 20
-45.94860309696367
 30
0.0
 11
-10.11412247630915
 21
-63.0193461136559
 31
0.0
  0
LINE
  5
C0B
  8
0
  6
BYBLOCK
 62
     0
 10
-18.31412247630919
 20
-45.58126048788242
 30
0.0
 11
-18.31412247630919
 21
-63.0193461136559
 31
0.0
  0
LINE
  5
C0C
  8
0
  6
BYBLOCK
 62
     0
 10
-11.31412247630915
 20
-62.3943461136559
 30
0.0
 11
-17.11412247630919
 21
-62.3943461136559
 31
0.0
  0
LINE
  5
C0D
  8
0
  6
BYBLOCK
 62
     0
 10
-18.31412247630919
 20
-62.3943461136559
 30
0.0
 11
-22.95459866678536
 21
-62.3943461136559
 31
0.0
  0
SOLID
  5
C0E
  8
0
  6
BYBLOCK
 62
     0
 10
-11.31412247630915
 20
-62.1943461136559
 30
0.0
 11
-11.31412247630915
 21
-62.5943461136559
 31
0.0
 12
-10.11412247630915
 22
-62.3943461136559
 32
0.0
 13
-10.11412247630915
 23
-62.3943461136559
 33
0.0
  0
SOLID
  5
C0F
  8
0
  6
BYBLOCK
 62
     0
 10
-17.11412247630919
 20
-62.1943461136559
 30
0.0
 11
-17.11412247630919
 21
-62.5943461136559
 31
0.0
 12
-18.31412247630919
 22
-62.3943461136559
 32
0.0
 13
-18.31412247630919
 23
-62.3943461136559
 33
0.0
  0
TEXT
  5
C10
  8
0
  6
CONTINUOUS
 62
     0
 10
-22.63317009535679
 20
-61.8943461136559
 30
0.0
 40
1.25
  1
4.1
  7
ROMANS
  0
POINT
  5
C11
  8
DEFPOINTS
  6
BYBLOCK
 62
     0
 10
-10.11412247630915
 20
-45.32360309696367
 30
0.0
  0
POINT
  5
C12
  8
DEFPOINTS
  6
BYBLOCK
 62
     0
 10
-18.31412247630919
 20
-44.95626048788242
 30
0.0
  0
POINT
  5
C13
  8
DEFPOINTS
  6
BYBLOCK
 62
     0
 10
-18.31412247630919
 20
-62.3943461136559
 30
0.0
  0
ENDBLK
  5
12D2
  8
0
  0
BLOCK
  8
0
  2
*D16
 70
     1
 10
0.0
 20
0.0
 30
0.0
  3
*D16
  1

  0
LINE
  5
C16
  8
0
  6
BYBLOCK
 62
     0
 10
-17.31412247630931
 20
-44.58126048788236
 30
0.0
 11
-17.31412247630931
 21
-57.70467480334986
 31
0.0
  0
LINE
  5
C17
  8
0
  6
BYBLOCK
 62
     0
 10
-18.31412247630959
 20
-45.58126048788282
 30
0.0
 11
-18.31412247630959
 21
-57.70467480334986
 31
0.0
  0
LINE
  5
C18
  8
0
  6
BYBLOCK
 62
     0
 10
-16.11412247630931
 20
-57.07967480334986
 30
0.0
 11
-14.91412247630931
 21
-57.07967480334986
 31
0.0
  0
LINE
  5
C19
  8
0
  6
BYBLOCK
 62
     0
 10
-19.51412247630959
 20
-57.07967480334986
 30
0.0
 11
-28.20221771440484
 21
-57.07967480334986
 31
0.0
  0
SOLID
  5
C1A
  8
0
  6
BYBLOCK
 62
     0
 10
-16.11412247630931
 20
-56.87967480334986
 30
0.0
 11
-16.11412247630931
 21
-57.27967480334986
 31
0.0
 12
-17.31412247630931
 22
-57.07967480334986
 32
0.0
 13
-17.31412247630931
 23
-57.07967480334986
 33
0.0
  0
SOLID
  5
C1B
  8
0
  6
BYBLOCK
 62
     0
 10
-19.51412247630959
 20
-56.87967480334986
 30
0.0
 11
-19.51412247630959
 21
-57.27967480334986
 31
0.0
 12
-18.31412247630959
 22
-57.07967480334986
 32
0.0
 13
-18.31412247630959
 23
-57.07967480334986
 33
0.0
  0
TEXT
  5
C1C
  8
0
  6
CONTINUOUS
 62
     0
 10
-27.8835793215477
 20
-56.57967480334986
 30
0.0
 40
1.25
  1
0.5x45°
  7
ROMANS
  0
POINT
  5
C1D
  8
DEFPOINTS
  6
BYBLOCK
 62
     0
 10
-17.31412247630931
 20
-43.95626048788236
 30
0.0
  0
POINT
  5
C1E
  8
DEFPOINTS
  6
BYBLOCK
 62
     0
 10
-18.31412247630959
 20
-44.95626048788282
 30
0.0
  0
POINT
  5
C1F
  8
DEFPOINTS
  6
BYBLOCK
 62
     0
 10
-18.31412247630959
 20
-57.07967480334986
 30
0.0
  0
ENDBLK
  5
12D4
  8
0
  0
BLOCK
  8
0
  2
*D17
 70
     1
 10
0.0
 20
0.0
 30
0.0
  3
*D17
  1

  0
LINE
  5
C22
  8
0
  6
BYBLOCK
 62
     0
 10
-11.11412247630875
 20
-44.94860309696332
 30
0.0
 11
-11.11412247630875
 21
-57.76948973817747
 31
0.0
  0
LINE
  5
C23
  8
0
  6
BYBLOCK
 62
     0
 10
-10.1141224763096
 20
-45.94860309696321
 30
0.0
 11
-10.1141224763096
 21
-57.76948973817747
 31
0.0
  0
LINE
  5
C24
  8
0
  6
BYBLOCK
 62
     0
 10
-12.31412247630875
 20
-57.14448973817747
 30
0.0
 11
-13.51412247630875
 21
-57.14448973817747
 31
0.0
  0
LINE
  5
C25
  8
0
  6
BYBLOCK
 62
     0
 10
-8.914122476309604
 20
-57.14448973817747
 30
0.0
 11
-0.2260272382143595
 21
-57.14448973817747
 31
0.0
  0
SOLID
  5
C26
  8
0
  6
BYBLOCK
 62
     0
 10
-12.31412247630875
 20
-56.94448973817747
 30
0.0
 11
-12.31412247630875
 21
-57.34448973817747
 31
0.0
 12
-11.11412247630875
 22
-57.14448973817747
 32
0.0
 13
-11.11412247630875
 23
-57.14448973817747
 33
0.0
  0
SOLID
  5
C27
  8
0
  6
BYBLOCK
 62
     0
 10
-8.914122476309604
 20
-56.94448973817747
 30
0.0
 11
-8.914122476309604
 21
-57.34448973817747
 31
0.0
 12
-10.1141224763096
 22
-57.14448973817747
 32
0.0
 13
-10.1141224763096
 23
-57.14448973817747
 33
0.0
  0
TEXT
  5
C28
  8
0
  6
CONTINUOUS
 62
     0
 10
-7.395484083452454
 20
-56.64448973817747
 30
0.0
 40
1.25
  1
0.5x45°
  7
ROMANS
  0
POINT
  5
C29
  8
DEFPOINTS
  6
BYBLOCK
 62
     0
 10
-11.11412247630875
 20
-44.32360309696332
 30
0.0
  0
POINT
  5
C2A
  8
DEFPOINTS
  6
BYBLOCK
 62
     0
 10
-10.1141224763096
 20
-45.32360309696321
 30
0.0
  0
POINT
  5
C2B
  8
DEFPOINTS
  6
BYBLOCK
 62
     0
 10
-10.1141224763096
 20
-57.14448973817747
 30
0.0
  0
ENDBLK
  5
12D6
  8
0
  0
BLOCK
  8
0
  2
*D18
 70
     1
 10
0.0
 20
0.0
 30
0.0
  3
*D18
  1

  0
LINE
  5
C2E
  8
0
  6
BYBLOCK
 62
     0
 10
1.310877523690237
 20
-22.32360309696338
 30
0.0
 11
8.80673113775623
 21
-22.32360309696338
 31
0.0
  0
LINE
  5
C2F
  8
0
  6
BYBLOCK
 62
     0
 10
1.31087752369092
 20
-50.32360309696338
 30
0.0
 11
8.806731137756229
 21
-50.32360309696338
 31
0.0
  0
LINE
  5
C30
  8
0
  6
BYBLOCK
 62
     0
 10
8.18173113775623
 20
-23.52360309696338
 30
0.0
 11
8.181731137756229
 21
-49.12360309696338
 31
0.0
  0
SOLID
  5
C31
  8
0
  6
BYBLOCK
 62
     0
 10
7.98173113775623
 20
-23.52360309696338
 30
0.0
 11
8.38173113775623
 21
-23.52360309696338
 31
0.0
 12
8.18173113775623
 22
-22.32360309696338
 32
0.0
 13
8.18173113775623
 23
-22.32360309696338
 33
0.0
  0
SOLID
  5
C32
  8
0
  6
BYBLOCK
 62
     0
 10
7.981731137756229
 20
-49.12360309696338
 30
0.0
 11
8.381731137756228
 21
-49.12360309696338
 31
0.0
 12
8.181731137756229
 22
-50.32360309696338
 32
0.0
 13
8.181731137756229
 23
-50.32360309696338
 33
0.0
  0
TEXT
  5
C33
  8
0
  6
CONTINUOUS
 62
     0
 10
7.681731137756231
 20
-38.21458234125827
 30
0.0
 40
1.25
  1
ø14
 50
90.0
  7
ROMANS
  0
POINT
  5
C34
  8
DEFPOINTS
  6
BYBLOCK
 62
     0
 10
0.6858775236902375
 20
-22.32360309696338
 30
0.0
  0
POINT
  5
C35
  8
DEFPOINTS
  6
BYBLOCK
 62
     0
 10
0.6858775236909196
 20
-50.32360309696338
 30
0.0
  0
POINT
  5
C36
  8
DEFPOINTS
  6
BYBLOCK
 62
     0
 10
8.181731137756229
 20
-50.32360309696338
 30
0.0
  0
ENDBLK
  5
12D8
  8
0
  0
BLOCK
  8
0
  2
*D19
 70
     1
 10
0.0
 20
0.0
 30
0.0
  3
*D19
  1

  0
LINE
  5
C39
  8
0
  6
BYBLOCK
 62
     0
 10
-15.68459400145946
 20
-89.1754739346652
 30
0.0
 11
-15.68459400145946
 21
-74.17814535711005
 31
0.0
  0
LINE
  5
C3A
  8
0
  6
BYBLOCK
 62
     0
 10
-17.7845940014596
 20
-78.22405445559411
 30
0.0
 11
-17.7845940014596
 21
-74.17814535711005
 31
0.0
  0
LINE
  5
C3B
  8
0
  6
BYBLOCK
 62
     0
 10
-14.48459400145946
 20
-74.80314535711005
 30
0.0
 11
-13.28459400145946
 21
-74.80314535711005
 31
0.0
  0
LINE
  5
C3C
  8
0
  6
BYBLOCK
 62
     0
 10
-18.98459400145959
 20
-74.80314535711005
 30
0.0
 11
-23.44649876336436
 21
-74.80314535711005
 31
0.0
  0
SOLID
  5
C3D
  8
0
  6
BYBLOCK
 62
     0
 10
-14.48459400145946
 20
-74.60314535711005
 30
0.0
 11
-14.48459400145946
 21
-75.00314535711006
 31
0.0
 12
-15.68459400145946
 22
-74.80314535711005
 32
0.0
 13
-15.68459400145946
 23
-74.80314535711005
 33
0.0
  0
SOLID
  5
C3E
  8
0
  6
BYBLOCK
 62
     0
 10
-18.98459400145959
 20
-74.60314535711005
 30
0.0
 11
-18.98459400145959
 21
-75.00314535711006
 31
0.0
 12
-17.7845940014596
 22
-74.80314535711005
 32
0.0
 13
-17.7845940014596
 23
-74.80314535711005
 33
0.0
  0
TEXT
  5
C3F
  8
0
  6
CONTINUOUS
 62
     0
 10
-23.12507019193579
 20
-74.30314535711005
 30
0.0
 40
1.25
  1
2.1
  7
ROMANS
  0
POINT
  5
C40
  8
DEFPOINTS
  6
BYBLOCK
 62
     0
 10
-15.68459400145946
 20
-89.8004739346652
 30
0.0
  0
POINT
  5
C41
  8
DEFPOINTS
  6
BYBLOCK
 62
     0
 10
-17.7845940014596
 20
-78.84905445559411
 30
0.0
  0
POINT
  5
C42
  8
DEFPOINTS
  6
BYBLOCK
 62
     0
 10
-17.7845940014596
 20
-74.80314535711005
 30
0.0
  0
ENDBLK
  5
12DA
  8
0
  0
BLOCK
  8
0
  2
*D20
 70
     1
 10
0.0
 20
0.0
 30
0.0
  3
*D20
  1

  0
LINE
  5
C45
  8
0
  6
BYBLOCK
 62
     0
 10
13.66610715435246
 20
-77.88008161928644
 30
0.0
 11
17.84255548298617
 21
-80.29135518607974
 31
0.0
  0
LINE
  5
C46
  8
0
  6
BYBLOCK
 62
     0
 10
12.41610715435246
 20
-80.04514512874749
 30
0.0
 11
16.59255548298617
 21
-82.45641869554079
 31
0.0
  0
LINE
  5
C47
  8
0
  6
BYBLOCK
 62
     0
 10
15.45128960562089
 20
-83.1831491800821
 30
0.0
 11
14.85128960562088
 21
-84.22237966462342
 31
0.0
  0
LINE
  5
C48
  8
0
  6
BYBLOCK
 62
     0
 10
17.90128960562091
 20
-78.9396247015384
 30
0.0
 11
20.4298507131537
 21
-74.56002839324907
 31
0.0
  0
SOLID
  5
C49
  8
0
  6
BYBLOCK
 62
     0
 10
15.278084524864
 20
-83.08314918008209
 30
0.0
 11
15.62449468637777
 21
-83.2831491800821
 31
0.0
 12
16.0512896056209
 22
-82.14391869554078
 32
0.0
 13
16.0512896056209
 23
-82.14391869554078
 33
0.0
  0
SOLID
  5
C4A
  8
0
  6
BYBLOCK
 62
     0
 10
17.72808452486402
 20
-78.8396247015384
 30
0.0
 11
18.07449468637779
 21
-79.03962470153841
 31
0.0
 12
17.3012896056209
 22
-79.97885518607973
 32
0.0
 13
17.3012896056209
 23
-79.97885518607973
 33
0.0
  0
TEXT
  5
C4B
  8
0
  6
CONTINUOUS
 62
     0
 10
18.31826658269004
 20
-77.21739939166824
 30
0.0
 40
1.25
  1
2.4
 50
59.99999999999947
  7
ROMANS
  0
POINT
  5
C4C
  8
DEFPOINTS
  6
BYBLOCK
 62
     0
 10
13.12484127698718
 20
-77.56758161928644
 30
0.0
  0
POINT
  5
C4D
  8
DEFPOINTS
  6
BYBLOCK
 62
     0
 10
11.87484127698719
 20
-79.73264512874749
 30
0.0
  0
POINT
  5
C4E
  8
DEFPOINTS
  6
BYBLOCK
 62
     0
 10
16.0512896056209
 20
-82.14391869554078
 30
0.0
  0
ENDBLK
  5
12DC
  8
0
  0
BLOCK
  8
0
  2
*D21
 70
     1
 10
0.0
 20
0.0
 30
0.0
  3
*D21
  1

  0
LINE
  5
C51
  8
0
  6
BYBLOCK
 62
     0
 10
-10.48912247630949
 20
-28.32360309696355
 30
0.0
 11
5.284160006466038
 21
-28.32360309696355
 31
0.0
  0
LINE
  5
C52
  8
0
  6
BYBLOCK
 62
     0
 10
-10.48912247630949
 20
-44.32360309696332
 30
0.0
 11
5.284160006466039
 21
-44.32360309696332
 31
0.0
  0
LINE
  5
C53
  8
0
  6
BYBLOCK
 62
     0
 10
4.659160006466039
 20
-29.52360309696355
 30
0.0
 11
4.659160006466038
 21
-43.12360309696332
 31
0.0
  0
SOLID
  5
C54
  8
0
  6
BYBLOCK
 62
     0
 10
4.459160006466039
 20
-29.52360309696355
 30
0.0
 11
4.859160006466039
 21
-29.52360309696355
 31
0.0
 12
4.659160006466039
 22
-28.32360309696355
 32
0.0
 13
4.659160006466039
 23
-28.32360309696355
 33
0.0
  0
SOLID
  5
C55
  8
0
  6
BYBLOCK
 62
     0
 10
4.459160006466038
 20
-43.12360309696332
 30
0.0
 11
4.859160006466039
 21
-43.12360309696332
 31
0.0
 12
4.659160006466038
 22
-44.32360309696332
 32
0.0
 13
4.659160006466038
 23
-44.32360309696332
 33
0.0
  0
TEXT
  5
C56
  8
0
  6
CONTINUOUS
 62
     0
 10
4.159160006466038
 20
-37.52624035491628
 30
0.0
 40
1.25
  1
ø8
 50
90.0
  7
ROMANS
  0
POINT
  5
C57
  8
DEFPOINTS
  6
BYBLOCK
 62
     0
 10
-11.11412247630949
 20
-28.32360309696355
 30
0.0
  0
POINT
  5
C58
  8
DEFPOINTS
  6
BYBLOCK
 62
     0
 10
-11.11412247630949
 20
-44.32360309696332
 30
0.0
  0
POINT
  5
C59
  8
DEFPOINTS
  6
BYBLOCK
 62
     0
 10
4.659160006466038
 20
-44.32360309696332
 30
0.0
  0
ENDBLK
  5
12DE
  8
0
  0
BLOCK
  8
0
  2
*D22
 70
     1
 10
0.0
 20
0.0
 30
0.0
  3
*D22
  1

  0
LINE
  5
F71
  8
0
  6
BYBLOCK
 62
     0
 10
-18.93912247630965
 20
-28.52360309696397
 30
0.0
 11
-26.65709780080186
 21
-28.52360309696397
 31
0.0
  0
LINE
  5
F72
  8
0
  6
BYBLOCK
 62
     0
 10
-18.93912247630931
 20
-44.10969799843934
 30
0.0
 11
-26.65709780080186
 21
-44.10969799843934
 31
0.0
  0
LINE
  5
F73
  8
0
  6
BYBLOCK
 62
     0
 10
-26.03209780080186
 20
-29.72360309696397
 30
0.0
 11
-26.03209780080186
 21
-42.90969799843934
 31
0.0
  0
SOLID
  5
F74
  8
0
  6
BYBLOCK
 62
     0
 10
-26.23209780080186
 20
-29.72360309696397
 30
0.0
 11
-25.83209780080186
 21
-29.72360309696397
 31
0.0
 12
-26.03209780080186
 22
-28.52360309696397
 32
0.0
 13
-26.03209780080186
 23
-28.52360309696397
 33
0.0
  0
SOLID
  5
F75
  8
0
  6
BYBLOCK
 62
     0
 10
-26.23209780080186
 20
-42.90969799843934
 30
0.0
 11
-25.83209780080186
 21
-42.90969799843934
 31
0.0
 12
-26.03209780080186
 22
-44.10969799843934
 32
0.0
 13
-26.03209780080186
 23
-44.10969799843934
 33
0.0
  0
TEXT
  5
F76
  8
0
  6
CONTINUOUS
 62
     0
 10
-26.53209780080186
 20
-37.81541857315418
 30
0.0
 40
1.25
  1
7.8
 50
90.0
  7
ROMANS
  0
POINT
  5
F77
  8
DEFPOINTS
  6
BYBLOCK
 62
     0
 10
-18.31412247630965
 20
-28.52360309696397
 30
0.0
  0
POINT
  5
F78
  8
DEFPOINTS
  6
BYBLOCK
 62
     0
 10
-18.31412247630931
 20
-44.10969799843934
 30
0.0
  0
POINT
  5
F79
  8
DEFPOINTS
  6
BYBLOCK
 62
     0
 10
-26.03209780080186
 20
-44.10969799843934
 30
0.0
  0
ENDBLK
  5
12E0
  8
0
  0
BLOCK
  8
0
  2
*D23
 70
     1
 10
0.0
 20
0.0
 30
0.0
  3
*D23
  1

  0
LINE
  5
C67
  8
0
  6
BYBLOCK
 62
     0
 10
-20.13427534919505
 20
-44.32360309696377
 30
0.0
 11
-31.10910403238528
 21
-44.32360309696431
 31
0.0
  0
LINE
  5
C68
  8
0
  6
BYBLOCK
 62
     0
 10
-20.12570385015582
 20
-44.42675785062665
 30
0.0
 11
-30.95001935972418
 21
-46.23812704951811
 31
0.0
  0
ARC
  5
C69
  8
0
  6
BYBLOCK
 62
     0
 10
-19.50927534919505
 20
-44.32360309696374
 30
0.0
 40
10.97482868319023
 50
167.4641812688342
 51
173.7320906344186
  0
ARC
  5
C6A
  8
0
  6
BYBLOCK
 62
     0
 10
-19.50927534919505
 20
-44.32360309696374
 30
0.0
 40
10.97482868319023
 50
195.7679093655833
 51
202.0358187311676
  0
SOLID
  5
C6B
  8
0
  6
BYBLOCK
 62
     0
 10
-30.21879847431823
 20
-43.13633187232403
 30
0.0
 11
-30.61820025301598
 21
-43.11446364941798
 31
0.0
 12
-30.48410403238528
 22
-44.32360309696427
 32
0.0
 13
-30.48410403238528
 23
-44.32360309696427
 33
0.0
  0
SOLID
  5
C6C
  8
0
  6
BYBLOCK
 62
     0
 10
-30.26628245942279
 20
-47.34966138339085
 30
0.0
 11
-29.8759675336999
 21
-47.26217276265682
 31
0.0
 12
-30.33359085876342
 22
-46.13497229585519
 32
0.0
 13
-30.33359085876342
 23
-46.13497229585519
 33
0.0
  0
TEXT
  5
C6D
  8
0
  6
CONTINUOUS
 62
     0
 10
-31.08463295334851
 20
-41.91242550265197
 30
0.0
 40
1.25
  1
9°30'
 50
66.91527547062847
  7
ROMANS
  0
POINT
  5
C6E
  8
DEFPOINTS
  6
BYBLOCK
 62
     0
 10
-30.41712406484029
 20
-45.53426449552704
 30
0.0
  0
POINT
  5
C6F
  8
DEFPOINTS
  6
BYBLOCK
 62
     0
 10
-17.327836874772
 20
-43.95855549110323
 30
0.0
  0
POINT
  5
C70
  8
DEFPOINTS
  6
BYBLOCK
 62
     0
 10
-11.11412247630949
 20
-44.32360309696332
 30
0.0
  0
POINT
  5
C71
  8
DEFPOINTS
  6
BYBLOCK
 62
     0
 10
-17.63687248475458
 20
-44.32360309696364
 30
0.0
  0
POINT
  5
C72
  8
DEFPOINTS
  6
BYBLOCK
 62
     0
 10
-14.11412247630892
 20
-43.42076413882195
 30
0.0
  0
ENDBLK
  5
12E2
  8
0
  0
BLOCK
  8
0
  2
*D24
 70
     1
 10
0.0
 20
0.0
 30
0.0
  3
*D24
  1

  0
LINE
  5
F2B
  8
0
  6
BYBLOCK
 62
     0
 10
108.5386528339142
 20
-117.5898669016298
 30
0.0
 11
120.0105082787901
 21
-117.5898669016298
 31
0.0
  0
LINE
  5
F2C
  8
0
  6
BYBLOCK
 62
     0
 10
119.3855082787901
 20
-94.54905445559304
 30
0.0
 11
119.3855082787901
 21
-116.3898669016298
 31
0.0
  0
SOLID
  5
F2D
  8
0
  6
BYBLOCK
 62
     0
 10
119.1855082787901
 20
-94.54905445559304
 30
0.0
 11
119.5855082787901
 21
-94.54905445559304
 31
0.0
 12
119.3855082787901
 22
-93.34905445559303
 32
0.0
 13
119.3855082787901
 23
-93.34905445559303
 33
0.0
  0
SOLID
  5
F2E
  8
0
  6
BYBLOCK
 62
     0
 10
119.1855082787901
 20
-116.3898669016298
 30
0.0
 11
119.5855082787901
 21
-116.3898669016298
 31
0.0
 12
119.3855082787901
 22
-117.5898669016298
 32
0.0
 13
119.3855082787901
 23
-117.5898669016298
 33
0.0
  0
TEXT
  5
F2F
  8
0
  6
CONTINUOUS
 62
     0
 10
118.3497939930758
 20
-106.1304690838684
 30
0.0
 40
1.25
  1
(24.2)
 50
90.0
  7
ROMANS
  0
POINT
  5
F30
  8
DEFPOINTS
  6
BYBLOCK
 62
     0
 10
119.3855082787901
 20
-93.34905445559303
 30
0.0
  0
POINT
  5
F31
  8
DEFPOINTS
  6
BYBLOCK
 62
     0
 10
107.9136528339142
 20
-117.5898669016298
 30
0.0
  0
POINT
  5
F32
  8
DEFPOINTS
  6
BYBLOCK
 62
     0
 10
119.3855082787901
 20
-117.5898669016298
 30
0.0
  0
ENDBLK
  5
12E4
  8
0
  0
BLOCK
  8
0
  2
*D25
 70
     1
 10
0.0
 20
0.0
 30
0.0
  3
*D25
  1

  0
LINE
  5
F40
  8
0
  6
BYBLOCK
 62
     0
 10
108.5386528339142
 20
-78.84905445559303
 30
0.0
 11
125.5103094743005
 21
-78.84905445559305
 31
0.0
  0
LINE
  5
F41
  8
0
  6
BYBLOCK
 62
     0
 10
108.5386528339142
 20
-117.5898669016298
 30
0.0
 11
125.5103094743005
 21
-117.5898669016298
 31
0.0
  0
LINE
  5
F42
  8
0
  6
BYBLOCK
 62
     0
 10
124.8853094743005
 20
-80.04905445559305
 30
0.0
 11
124.8853094743005
 21
-116.3898669016298
 31
0.0
  0
SOLID
  5
F43
  8
0
  6
BYBLOCK
 62
     0
 10
124.6853094743005
 20
-80.04905445559305
 30
0.0
 11
125.0853094743005
 21
-80.04905445559305
 31
0.0
 12
124.8853094743005
 22
-78.84905445559305
 32
0.0
 13
124.8853094743005
 23
-78.84905445559305
 33
0.0
  0
SOLID
  5
F44
  8
0
  6
BYBLOCK
 62
     0
 10
124.6853094743005
 20
-116.3898669016298
 30
0.0
 11
125.0853094743005
 21
-116.3898669016298
 31
0.0
 12
124.8853094743005
 22
-117.5898669016298
 32
0.0
 13
124.8853094743005
 23
-117.5898669016298
 33
0.0
  0
TEXT
  5
F45
  8
0
  6
CONTINUOUS
 62
     0
 10
123.8495951885862
 20
-101.2278478267452
 30
0.0
 40
1.25
  1
(38.7)
 50
90.0
  7
ROMANS
  0
POINT
  5
F46
  8
DEFPOINTS
  6
BYBLOCK
 62
     0
 10
107.9136528339142
 20
-78.84905445559303
 30
0.0
  0
POINT
  5
F47
  8
DEFPOINTS
  6
BYBLOCK
 62
     0
 10
107.9136528339142
 20
-117.5898669016298
 30
0.0
  0
POINT
  5
F48
  8
DEFPOINTS
  6
BYBLOCK
 62
     0
 10
124.8853094743005
 20
-117.5898669016298
 30
0.0
  0
ENDBLK
  5
12E6
  8
0
  0
BLOCK
  8
0
  2
*D26
 70
     1
 10
0.0
 20
0.0
 30
0.0
  3
*D26
  1

  0
LINE
  5
C8A
  8
0
  6
BYBLOCK
 62
     0
 10
97.78865283391417
 20
-105.3035371274974
 30
0.0
 11
92.26274994354736
 21
-105.3035371274974
 31
0.0
  0
LINE
  5
C8B
  8
0
  6
BYBLOCK
 62
     0
 10
99.78865283391417
 20
-78.84905445559298
 30
0.0
 11
92.26274994354736
 21
-78.84905445559298
 31
0.0
  0
LINE
  5
C8C
  8
0
  6
BYBLOCK
 62
     0
 10
92.88774994354736
 20
-104.1035371274974
 30
0.0
 11
92.88774994354736
 21
-80.04905445559298
 31
0.0
  0
SOLID
  5
C8D
  8
0
  6
BYBLOCK
 62
     0
 10
92.68774994354736
 20
-104.1035371274974
 30
0.0
 11
93.08774994354737
 21
-104.1035371274974
 31
0.0
 12
92.88774994354736
 22
-105.3035371274974
 32
0.0
 13
92.88774994354736
 23
-105.3035371274974
 33
0.0
  0
SOLID
  5
C8E
  8
0
  6
BYBLOCK
 62
     0
 10
92.68774994354736
 20
-80.04905445559298
 30
0.0
 11
93.08774994354737
 21
-80.04905445559298
 31
0.0
 12
92.88774994354736
 22
-78.84905445559298
 32
0.0
 13
92.88774994354736
 23
-78.84905445559298
 33
0.0
  0
TEXT
  5
C8F
  8
0
  6
CONTINUOUS
 62
     0
 10
92.38774994354736
 20
-94.61294519487153
 30
0.0
 40
1.25
  1
27
 50
90.0
  7
ROMANS
  0
POINT
  5
C90
  8
DEFPOINTS
  6
BYBLOCK
 62
     0
 10
98.41365283391417
 20
-105.3035371274974
 30
0.0
  0
POINT
  5
C91
  8
DEFPOINTS
  6
BYBLOCK
 62
     0
 10
100.4136528339142
 20
-78.84905445559298
 30
0.0
  0
POINT
  5
C92
  8
DEFPOINTS
  6
BYBLOCK
 62
     0
 10
92.88774994354736
 20
-78.84905445559298
 30
0.0
  0
ENDBLK
  5
12E8
  8
0
  0
BLOCK
  8
0
  2
*D27
 70
     1
 10
0.0
 20
0.0
 30
0.0
  3
*D27
  1

  0
LINE
  5
C95
  8
0
  6
BYBLOCK
 62
     0
 10
62.37446705733247
 20
-117.7634647782775
 30
0.0
 11
61.09704576181813
 21
-121.694963269519
 31
0.0
  0
ARC
  5
C96
  8
0
  6
BYBLOCK
 62
     0
 10
69.56098759162978
 20
-95.64562884029857
 30
0.0
 40
26.76489111887459
 50
254.569063147284
 51
267.4309368527159
  0
SOLID
  5
C97
  8
0
  6
BYBLOCK
 62
     0
 10
62.38195141955858
 20
-121.6372448397613
 30
0.0
 11
62.49699905854801
 21
-121.2541468878444
 31
0.0
 12
61.29018138330247
 22
-121.1005529468346
 32
0.0
 13
61.29018138330247
 23
-121.1005529468346
 33
0.0
  0
SOLID
  5
C98
  8
0
  6
BYBLOCK
 62
     0
 10
68.36577263960217
 20
-122.1836693068711
 30
0.0
 11
68.35680566869488
 21
-122.5835687860315
 31
0.0
 12
69.56098759162968
 22
-122.4105199591732
 32
0.0
 13
69.56098759162968
 23
-122.4105199591732
 33
0.0
  0
TEXT
  5
C99
  8
0
  6
CONTINUOUS
 62
     0
 10
64.23402579042008
 20
-121.4092898850917
 30
0.0
 40
1.25
  1
18°
 50
351.6214101936801
  7
ROMANS
  0
POINT
  5
C9A
  8
DEFPOINTS
  6
BYBLOCK
 62
     0
 10
63.99625382455132
 20
-121.8256428721273
 30
0.0
  0
POINT
  5
C9B
  8
DEFPOINTS
  6
BYBLOCK
 62
     0
 10
62.56760267881683
 20
-117.169054455593
 30
0.0
  0
POINT
  5
C9C
  8
DEFPOINTS
  6
BYBLOCK
 62
     0
 10
69.5609875916298
 20
-93.34905445559305
 30
0.0
  0
POINT
  5
C9D
  8
DEFPOINTS
  6
BYBLOCK
 62
     0
 10
69.5609875916298
 20
-131.0418430887932
 30
0.0
  0
POINT
  5
C9E
  8
DEFPOINTS
  6
BYBLOCK
 62
     0
 10
68.85130707790945
 20
-97.82980087402973
 30
0.0
  0
ENDBLK
  5
12EA
  8
0
  0
BLOCK
  8
0
  2
*D28
 70
     1
 10
0.0
 20
0.0
 30
0.0
  3
*D28
  1

  0
LINE
  5
EB8
  8
0
  6
BYBLOCK
 62
     0
 10
69.56098759162978
 20
-93.97405445559303
 30
0.0
 11
69.56098759162978
 21
-130.0886155940868
 31
0.0
  0
LINE
  5
EB9
  8
0
  6
BYBLOCK
 62
     0
 10
55.06098759162973
 20
-118.2148669016308
 30
0.0
 11
55.06098759162973
 21
-130.0886155940868
 31
0.0
  0
LINE
  5
EBA
  8
0
  6
BYBLOCK
 62
     0
 10
68.36098759162978
 20
-129.4636155940868
 30
0.0
 11
56.26098759162973
 21
-129.4636155940868
 31
0.0
  0
SOLID
  5
EBB
  8
0
  6
BYBLOCK
 62
     0
 10
68.36098759162978
 20
-129.2636155940868
 30
0.0
 11
68.36098759162978
 21
-129.6636155940868
 31
0.0
 12
69.56098759162978
 22
-129.4636155940868
 32
0.0
 13
69.56098759162978
 23
-129.4636155940868
 33
0.0
  0
SOLID
  5
EBC
  8
0
  6
BYBLOCK
 62
     0
 10
56.26098759162973
 20
-129.2636155940868
 30
0.0
 11
56.26098759162973
 21
-129.6636155940868
 31
0.0
 12
55.06098759162973
 22
-129.4636155940868
 32
0.0
 13
55.06098759162973
 23
-129.4636155940868
 33
0.0
  0
TEXT
  5
EBD
  8
0
  6
CONTINUOUS
 62
     0
 10
60.17384175269689
 20
-128.9636155940868
 30
0.0
 40
1.25
  1
14.5
  7
ROMANS
  0
POINT
  5
EBE
  8
DEFPOINTS
  6
BYBLOCK
 62
     0
 10
69.56098759162978
 20
-93.34905445559303
 30
0.0
  0
POINT
  5
EBF
  8
DEFPOINTS
  6
BYBLOCK
 62
     0
 10
55.06098759162973
 20
-117.5898669016308
 30
0.0
  0
POINT
  5
EC0
  8
DEFPOINTS
  6
BYBLOCK
 62
     0
 10
55.06098759162973
 20
-129.4636155940868
 30
0.0
  0
ENDBLK
  5
12EC
  8
0
  0
BLOCK
  8
0
  2
*D29
 70
     1
 10
0.0
 20
0.0
 30
0.0
  3
*D29
  1

  0
LINE
  5
ECE
  8
0
  6
BYBLOCK
 62
     0
 10
62.43087242667912
 20
-118.2148669016309
 30
0.0
 11
62.43087242667912
 21
-126.2815193826055
 31
0.0
  0
LINE
  5
ECF
  8
0
  6
BYBLOCK
 62
     0
 10
55.06098759162973
 20
-118.2148669016308
 30
0.0
 11
55.06098759162973
 21
-126.2815193826055
 31
0.0
  0
LINE
  5
ED0
  8
0
  6
BYBLOCK
 62
     0
 10
61.23087242667911
 20
-125.6565193826055
 30
0.0
 11
56.26098759162973
 21
-125.6565193826055
 31
0.0
  0
SOLID
  5
ED1
  8
0
  6
BYBLOCK
 62
     0
 10
61.23087242667911
 20
-125.4565193826055
 30
0.0
 11
61.23087242667911
 21
-125.8565193826055
 31
0.0
 12
62.43087242667912
 22
-125.6565193826055
 32
0.0
 13
62.43087242667912
 23
-125.6565193826055
 33
0.0
  0
SOLID
  5
ED2
  8
0
  6
BYBLOCK
 62
     0
 10
56.26098759162973
 20
-125.4565193826055
 30
0.0
 11
56.26098759162973
 21
-125.8565193826055
 31
0.0
 12
55.06098759162973
 22
-125.6565193826055
 32
0.0
 13
55.06098759162973
 23
-125.6565193826055
 33
0.0
  0
TEXT
  5
ED3
  8
0
  6
CONTINUOUS
 62
     0
 10
57.80231315239271
 20
-125.1565193826055
 30
0.0
 40
1.25
  1
7.4
  7
ROMANS
  0
POINT
  5
ED4
  8
DEFPOINTS
  6
BYBLOCK
 62
     0
 10
62.43087242667912
 20
-117.5898669016309
 30
0.0
  0
POINT
  5
ED5
  8
DEFPOINTS
  6
BYBLOCK
 62
     0
 10
55.06098759162973
 20
-117.5898669016308
 30
0.0
  0
POINT
  5
ED6
  8
DEFPOINTS
  6
BYBLOCK
 62
     0
 10
55.06098759162973
 20
-125.6565193826055
 30
0.0
  0
ENDBLK
  5
12EE
  8
0
  0
BLOCK
  8
0
  2
*D30
 70
     1
 10
0.0
 20
0.0
 30
0.0
  3
*D30
  1

  0
LINE
  5
EAC
  8
0
  6
BYBLOCK
 62
     0
 10
57.1609875916298
 20
-118.2148669016309
 30
0.0
 11
57.1609875916298
 21
-123.3022337738537
 31
0.0
  0
LINE
  5
EAD
  8
0
  6
BYBLOCK
 62
     0
 10
55.06098759162973
 20
-118.2148669016308
 30
0.0
 11
55.06098759162973
 21
-123.3022337738537
 31
0.0
  0
LINE
  5
EAE
  8
0
  6
BYBLOCK
 62
     0
 10
58.3609875916298
 20
-122.6772337738537
 30
0.0
 11
59.5609875916298
 21
-122.6772337738537
 31
0.0
  0
LINE
  5
EAF
  8
0
  6
BYBLOCK
 62
     0
 10
53.86098759162972
 20
-122.6772337738537
 30
0.0
 11
47.49432092496306
 21
-122.6772337738537
 31
0.0
  0
SOLID
  5
EB0
  8
0
  6
BYBLOCK
 62
     0
 10
58.3609875916298
 20
-122.4772337738537
 30
0.0
 11
58.3609875916298
 21
-122.8772337738537
 31
0.0
 12
57.1609875916298
 22
-122.6772337738537
 32
0.0
 13
57.1609875916298
 23
-122.6772337738537
 33
0.0
  0
SOLID
  5
EB1
  8
0
  6
BYBLOCK
 62
     0
 10
53.86098759162972
 20
-122.4772337738537
 30
0.0
 11
53.86098759162972
 21
-122.8772337738537
 31
0.0
 12
55.06098759162973
 22
-122.6772337738537
 32
0.0
 13
55.06098759162973
 23
-122.6772337738537
 33
0.0
  0
TEXT
  5
EB2
  8
0
  6
CONTINUOUS
 62
     0
 10
47.75622568686782
 20
-121.6415194881395
 30
0.0
 40
1.25
  1
(2.4)
  7
ROMANS
  0
POINT
  5
EB3
  8
DEFPOINTS
  6
BYBLOCK
 62
     0
 10
57.1609875916298
 20
-117.5898669016309
 30
0.0
  0
POINT
  5
EB4
  8
DEFPOINTS
  6
BYBLOCK
 62
     0
 10
55.06098759162973
 20
-117.5898669016308
 30
0.0
  0
POINT
  5
EB5
  8
DEFPOINTS
  6
BYBLOCK
 62
     0
 10
55.06098759162973
 20
-122.6772337738537
 30
0.0
  0
ENDBLK
  5
12F0
  8
0
  0
BLOCK
  8
0
  2
*D31
 70
     1
 10
0.0
 20
0.0
 30
0.0
  3
*D31
  1

  0
LINE
  5
F87
  8
0
  6
BYBLOCK
 62
     0
 10
95.80196426932201
 20
-110.5592940960945
 30
0.0
 11
95.80196426932201
 21
-131.5283755866827
 31
0.0
  0
LINE
  5
F88
  8
0
  6
BYBLOCK
 62
     0
 10
107.9136528339142
 20
-118.2148669016298
 30
0.0
 11
107.9136528339142
 21
-131.5283755866827
 31
0.0
  0
LINE
  5
F89
  8
0
  6
BYBLOCK
 62
     0
 10
97.00196426932202
 20
-130.9033755866827
 30
0.0
 11
106.7136528339142
 21
-130.9033755866827
 31
0.0
  0
SOLID
  5
F8A
  8
0
  6
BYBLOCK
 62
     0
 10
97.00196426932202
 20
-130.7033755866827
 30
0.0
 11
97.00196426932202
 21
-131.1033755866827
 31
0.0
 12
95.80196426932201
 22
-130.9033755866827
 32
0.0
 13
95.80196426932201
 23
-130.9033755866827
 33
0.0
  0
SOLID
  5
F8B
  8
0
  6
BYBLOCK
 62
     0
 10
106.7136528339142
 20
-130.7033755866827
 30
0.0
 11
106.7136528339142
 21
-131.1033755866827
 31
0.0
 12
107.9136528339142
 22
-130.9033755866827
 32
0.0
 13
107.9136528339142
 23
-130.9033755866827
 33
0.0
  0
TEXT
  5
F8C
  8
0
  6
CONTINUOUS
 62
     0
 10
99.42579479222123
 20
-129.8676613009684
 30
0.0
 40
1.25
  1
(12.1)
  7
ROMANS
  0
POINT
  5
F8D
  8
DEFPOINTS
  6
BYBLOCK
 62
     0
 10
95.80196426932201
 20
-109.9342940960945
 30
0.0
  0
POINT
  5
F8E
  8
DEFPOINTS
  6
BYBLOCK
 62
     0
 10
107.9136528339142
 20
-117.5898669016298
 30
0.0
  0
POINT
  5
F8F
  8
DEFPOINTS
  6
BYBLOCK
 62
     0
 10
107.9136528339142
 20
-130.9033755866827
 30
0.0
  0
ENDBLK
  5
12F2
  8
0
  0
BLOCK
  8
0
  2
*D32
 70
     1
 10
0.0
 20
0.0
 30
0.0
  3
*D32
  1

  0
LINE
  5
CE8
  8
0
  6
BYBLOCK
 62
     0
 10
97.8099491924835
 20
-105.1417752243082
 30
0.0
 11
87.6845194809483
 21
-102.4286745100842
 31
0.0
  0
ARC
  5
CE9
  8
0
  6
BYBLOCK
 62
     0
 10
98.41365283391438
 20
-105.3035371274974
 30
0.0
 40
10.48261619676919
 50
171.5625347181339
 51
173.4374652818656
  0
SOLID
  5
CEA
  8
0
  6
BYBLOCK
 62
     0
 10
87.84866290553137
 20
-103.7248026750093
 30
0.0
 11
88.2403254886267
 21
-103.8060456501092
 31
0.0
 12
88.28822312237895
 22
-102.5904364132733
 32
0.0
 13
88.28822312237895
 23
-102.5904364132733
 33
0.0
  0
SOLID
  5
CEB
  8
0
  6
BYBLOCK
 62
     0
 10
88.19939389758146
 20
-104.1169519511315
 30
0.0
 11
87.80004966414194
 21
-104.094056903226
 31
0.0
 12
87.9310366371452
 22
-105.3035371274974
 32
0.0
 13
87.9310366371452
 23
-105.3035371274974
 33
0.0
  0
TEXT
  5
CEC
  8
0
  6
CONTINUOUS
 62
     0
 10
87.33290961270018
 20
-104.9385232000213
 30
0.0
 40
1.25
  1
15°
 50
80.2540674431104
  7
ROMANS
  0
POINT
  5
CED
  8
DEFPOINTS
  6
BYBLOCK
 62
     0
 10
87.97092615656227
 20
-104.3899169269293
 30
0.0
  0
POINT
  5
CEE
  8
DEFPOINTS
  6
BYBLOCK
 62
     0
 10
107.9136528339142
 20
-107.8490544555931
 30
0.0
  0
POINT
  5
CEF
  8
DEFPOINTS
  6
BYBLOCK
 62
     0
 10
98.41365283391416
 20
-105.3035371274974
 30
0.0
  0
POINT
  5
CF0
  8
DEFPOINTS
  6
BYBLOCK
 62
     0
 10
86.2850531608825
 20
-105.3035371274974
 30
0.0
  0
POINT
  5
CF1
  8
DEFPOINTS
  6
BYBLOCK
 62
     0
 10
98.41365283391416
 20
-105.3035371274973
 30
0.0
  0
ENDBLK
  5
12F4
  8
0
  0
BLOCK
  8
0
  2
*D33
 70
     1
 10
0.0
 20
0.0
 30
0.0
  3
*D33
  1

  0
LINE
  5
CF4
  8
0
  6
BYBLOCK
 62
     0
 10
69.56098759162978
 20
-92.72405445559303
 30
0.0
 11
69.56098759162978
 21
-67.84009662948978
 31
0.0
  0
LINE
  5
CF5
  8
0
  6
BYBLOCK
 62
     0
 10
40.56098759162978
 20
-92.72405445559303
 30
0.0
 11
40.56098759162978
 21
-67.84009662948978
 31
0.0
  0
LINE
  5
CF6
  8
0
  6
BYBLOCK
 62
     0
 10
68.36098759162978
 20
-68.46509662948978
 30
0.0
 11
41.76098759162979
 21
-68.46509662948978
 31
0.0
  0
SOLID
  5
CF7
  8
0
  6
BYBLOCK
 62
     0
 10
68.36098759162978
 20
-68.26509662948978
 30
0.0
 11
68.36098759162978
 21
-68.66509662948978
 31
0.0
 12
69.56098759162978
 22
-68.46509662948978
 32
0.0
 13
69.56098759162978
 23
-68.46509662948978
 33
0.0
  0
SOLID
  5
CF8
  8
0
  6
BYBLOCK
 62
     0
 10
41.76098759162979
 20
-68.26509662948978
 30
0.0
 11
41.76098759162979
 21
-68.66509662948978
 31
0.0
 12
40.56098759162978
 22
-68.46509662948978
 32
0.0
 13
40.56098759162978
 23
-68.46509662948978
 33
0.0
  0
TEXT
  5
CF9
  8
0
  6
CONTINUOUS
 62
     0
 10
53.30410515115359
 20
-67.96509662948978
 30
0.0
 40
1.25
  1
ø29
  7
ROMANS
  0
POINT
  5
CFA
  8
DEFPOINTS
  6
BYBLOCK
 62
     0
 10
69.56098759162978
 20
-93.34905445559303
 30
0.0
  0
POINT
  5
CFB
  8
DEFPOINTS
  6
BYBLOCK
 62
     0
 10
40.56098759162978
 20
-93.34905445559303
 30
0.0
  0
POINT
  5
CFC
  8
DEFPOINTS
  6
BYBLOCK
 62
     0
 10
40.56098759162978
 20
-68.46509662948978
 30
0.0
  0
ENDBLK
  5
12F6
  8
0
  0
BLOCK
  8
0
  2
*D34
 70
     1
 10
0.0
 20
0.0
 30
0.0
  3
*D34
  1

  0
LINE
  5
CFF
  8
0
  6
BYBLOCK
 62
     0
 10
103.8136528339141
 20
-85.72405445559303
 30
0.0
 11
103.8136528339141
 21
-73.66293506174196
 31
0.0
  0
LINE
  5
D00
  8
0
  6
BYBLOCK
 62
     0
 10
107.9136528339142
 20
-78.22405445559303
 30
0.0
 11
107.9136528339142
 21
-73.66293506174196
 31
0.0
  0
LINE
  5
D01
  8
0
  6
BYBLOCK
 62
     0
 10
105.0136528339142
 20
-74.28793506174196
 30
0.0
 11
106.7136528339142
 21
-74.28793506174196
 31
0.0
  0
LINE
  5
D02
  8
0
  6
BYBLOCK
 62
     0
 10
107.9136528339142
 20
-74.28793506174196
 30
0.0
 11
113.1493671196284
 21
-74.28793506174196
 31
0.0
  0
SOLID
  5
D03
  8
0
  6
BYBLOCK
 62
     0
 10
105.0136528339142
 20
-74.08793506174196
 30
0.0
 11
105.0136528339142
 21
-74.48793506174196
 31
0.0
 12
103.8136528339141
 22
-74.28793506174196
 32
0.0
 13
103.8136528339141
 23
-74.28793506174196
 33
0.0
  0
SOLID
  5
D04
  8
0
  6
BYBLOCK
 62
     0
 10
106.7136528339142
 20
-74.08793506174196
 30
0.0
 11
106.7136528339142
 21
-74.48793506174196
 31
0.0
 12
107.9136528339142
 22
-74.28793506174196
 32
0.0
 13
107.9136528339142
 23
-74.28793506174196
 33
0.0
  0
TEXT
  5
D05
  8
0
  6
CONTINUOUS
 62
     0
 10
110.2088909291522
 20
-73.78793506174196
 30
0.0
 40
1.25
  1
4.1
  7
ROMANS
  0
POINT
  5
D06
  8
DEFPOINTS
  6
BYBLOCK
 62
     0
 10
103.8136528339141
 20
-86.34905445559303
 30
0.0
  0
POINT
  5
D07
  8
DEFPOINTS
  6
BYBLOCK
 62
     0
 10
107.9136528339142
 20
-78.84905445559303
 30
0.0
  0
POINT
  5
D08
  8
DEFPOINTS
  6
BYBLOCK
 62
     0
 10
107.9136528339142
 20
-74.28793506174196
 30
0.0
  0
ENDBLK
  5
12F8
  8
0
  0
BLOCK
  8
0
  2
*D35
 70
     1
 10
0.0
 20
0.0
 30
0.0
  3
*D35
  1

  0
LINE
  5
D0B
  8
0
  6
BYBLOCK
 62
     0
 10
100.4136528339142
 20
-78.22405445559298
 30
0.0
 11
100.4136528339142
 21
-71.16901520052869
 31
0.0
  0
LINE
  5
D0C
  8
0
  6
BYBLOCK
 62
     0
 10
98.41365283391417
 20
-80.22405445559298
 30
0.0
 11
98.41365283391417
 21
-71.16901520052869
 31
0.0
  0
LINE
  5
D0D
  8
0
  6
BYBLOCK
 62
     0
 10
101.6136528339142
 20
-71.79401520052869
 30
0.0
 11
102.8136528339142
 21
-71.79401520052869
 31
0.0
  0
LINE
  5
D0E
  8
0
  6
BYBLOCK
 62
     0
 10
97.21365283391417
 20
-71.79401520052869
 30
0.0
 11
90.31127188153322
 21
-71.79401520052869
 31
0.0
  0
SOLID
  5
D0F
  8
0
  6
BYBLOCK
 62
     0
 10
101.6136528339142
 20
-71.59401520052869
 30
0.0
 11
101.6136528339142
 21
-71.9940152005287
 31
0.0
 12
100.4136528339142
 22
-71.79401520052869
 32
0.0
 13
100.4136528339142
 23
-71.79401520052869
 33
0.0
  0
SOLID
  5
D10
  8
0
  6
BYBLOCK
 62
     0
 10
97.21365283391417
 20
-71.59401520052869
 30
0.0
 11
97.21365283391417
 21
-71.9940152005287
 31
0.0
 12
98.41365283391417
 22
-71.79401520052869
 32
0.0
 13
98.41365283391417
 23
-71.79401520052869
 33
0.0
  0
TEXT
  5
D11
  8
0
  6
CONTINUOUS
 62
     0
 10
90.62991027439034
 20
-71.29401520052869
 30
0.0
 40
1.25
  1
2x45°
  7
ROMANS
  0
POINT
  5
D12
  8
DEFPOINTS
  6
BYBLOCK
 62
     0
 10
100.4136528339142
 20
-78.84905445559298
 30
0.0
  0
POINT
  5
D13
  8
DEFPOINTS
  6
BYBLOCK
 62
     0
 10
98.41365283391417
 20
-80.84905445559298
 30
0.0
  0
POINT
  5
D14
  8
DEFPOINTS
  6
BYBLOCK
 62
     0
 10
98.41365283391417
 20
-71.79401520052869
 30
0.0
  0
ENDBLK
  5
12FA
  8
0
  0
BLOCK
  8
0
  2
*D36
 70
     1
 10
0.0
 20
0.0
 30
0.0
  3
*D36
  1

  0
LINE
  5
D17
  8
0
  6
BYBLOCK
 62
     0
 10
98.41365283391417
 20
-80.22405445559298
 30
0.0
 11
98.41365283391417
 21
-67.55939491351631
 31
0.0
  0
LINE
  5
D18
  8
0
  6
BYBLOCK
 62
     0
 10
107.9136528339142
 20
-78.22405445559303
 30
0.0
 11
107.9136528339142
 21
-67.55939491351631
 31
0.0
  0
LINE
  5
D19
  8
0
  6
BYBLOCK
 62
     0
 10
99.61365283391417
 20
-68.18439491351631
 30
0.0
 11
106.7136528339142
 21
-68.18439491351631
 31
0.0
  0
SOLID
  5
D1A
  8
0
  6
BYBLOCK
 62
     0
 10
99.61365283391417
 20
-67.98439491351631
 30
0.0
 11
99.61365283391417
 21
-68.38439491351632
 31
0.0
 12
98.41365283391417
 22
-68.18439491351631
 32
0.0
 13
98.41365283391417
 23
-68.18439491351631
 33
0.0
  0
SOLID
  5
D1B
  8
0
  6
BYBLOCK
 62
     0
 10
106.7136528339142
 20
-67.98439491351631
 30
0.0
 11
106.7136528339142
 21
-68.38439491351632
 31
0.0
 12
107.9136528339142
 22
-68.18439491351631
 32
0.0
 13
107.9136528339142
 23
-68.18439491351631
 33
0.0
  0
TEXT
  5
D1C
  8
0
  6
CONTINUOUS
 62
     0
 10
101.8723874593593
 20
-67.68439491351631
 30
0.0
 40
1.25
  1
9.5
  7
ROMANS
  0
POINT
  5
D1D
  8
DEFPOINTS
  6
BYBLOCK
 62
     0
 10
98.41365283391417
 20
-80.84905445559298
 30
0.0
  0
POINT
  5
D1E
  8
DEFPOINTS
  6
BYBLOCK
 62
     0
 10
107.9136528339142
 20
-78.84905445559303
 30
0.0
  0
POINT
  5
D1F
  8
DEFPOINTS
  6
BYBLOCK
 62
     0
 10
107.9136528339142
 20
-68.18439491351631
 30
0.0
  0
ENDBLK
  5
12FC
  8
0
  0
BLOCK
  8
0
  2
*D37
 70
     1
 10
0.0
 20
0.0
 30
0.0
  3
*D37
  1

  0
LINE
  5
E68
  8
0
  6
BYBLOCK
 62
     0
 10
100.3570610227724
 20
-117.9311327789167
 30
0.0
 11
102.7264812402712
 21
-122.0350889777272
 31
0.0
  0
ARC
  5
E69
  8
0
  6
BYBLOCK
 62
     0
 10
95.80196426932201
 20
-110.0414737731207
 30
0.0
 40
13.22403393587913
 50
275.2010262216452
 51
294.7989737927309
  0
SOLID
  5
E6A
  8
0
  6
BYBLOCK
 62
     0
 10
97.00980285240239
 20
-123.4108554204425
 30
0.0
 11
96.99165407864972
 21
-123.0112673550411
 31
0.0
 12
95.8019642693217
 22
-123.2655077089998
 32
0.0
 13
95.8019642693217
 23
-123.2655077089998
 33
0.0
  0
SOLID
  5
E6B
  8
0
  6
BYBLOCK
 62
     0
 10
101.2565594657485
 20
-121.8684894001993
 30
0.0
 11
101.440636199421
 21
-122.2236172027162
 31
0.0
 12
102.4139812401354
 22
-121.4938231004403
 32
0.0
 13
102.4139812401354
 23
-121.4938231004403
 33
0.0
  0
TEXT
  5
E6C
  8
0
  6
CONTINUOUS
 62
     0
 10
97.61359511184924
 20
-122.7169551975957
 30
0.0
 40
1.25
  1
30°
 50
14.55223452307228
  7
ROMANS
  0
POINT
  5
E6D
  8
DEFPOINTS
  6
BYBLOCK
 62
     0
 10
100.3248502534937
 20
-122.4680008789321
 30
0.0
  0
POINT
  5
E6E
  8
DEFPOINTS
  6
BYBLOCK
 62
     0
 10
95.80196426932201
 20
-110.5592940960945
 30
0.0
  0
POINT
  5
E6F
  8
DEFPOINTS
  6
BYBLOCK
 62
     0
 10
100.0445610226366
 20
-117.3898669016298
 30
0.0
  0
POINT
  5
E70
  8
DEFPOINTS
  6
BYBLOCK
 62
     0
 10
95.85555410780825
 20
-110.1342940960945
 30
0.0
  0
POINT
  5
E71
  8
DEFPOINTS
  6
BYBLOCK
 62
     0
 10
95.80196426932201
 20
-133.3840251763145
 30
0.0
  0
ENDBLK
  5
12FE
  8
0
  0
BLOCK
  8
0
  2
*D38
 70
     1
 10
0.0
 20
0.0
 30
0.0
  3
*D38
  1

  0
LINE
  5
E8E
  8
0
  6
BYBLOCK
 62
     0
 10
95.4894642695444
 20
-110.3683802967037
 30
0.0
 11
88.7660315297371
 21
-122.0137074143723
 31
0.0
  0
ARC
  5
E8F
  8
0
  6
BYBLOCK
 62
     0
 10
95.801964269322
 20
-109.8271144192101
 30
0.0
 40
13.44686548918445
 50
245.1147809026495
 51
264.8852191208933
  0
SOLID
  5
E90
  8
0
  6
BYBLOCK
 62
     0
 10
90.0513270282563
 20
-122.2029680029482
 30
0.0
 11
90.23567099029283
 21
-121.8479788430283
 31
0.0
 12
89.0785315295147
 22
-121.4724415368786
 32
0.0
 13
89.0785315295147
 23
-121.4724415368786
 33
0.0
  0
SOLID
  5
E91
  8
0
  6
BYBLOCK
 62
     0
 10
94.61208344738795
 20
-123.0206350256887
 30
0.0
 11
94.59423542175008
 21
-123.4202366372731
 31
0.0
 12
95.80196426932214
 22
-123.2739799083945
 32
0.0
 13
95.80196426932214
 23
-123.2739799083945
 33
0.0
  0
TEXT
  5
E92
  8
0
  6
CONTINUOUS
 62
     0
 10
91.15869595071786
 20
-121.9971670635861
 30
0.0
 40
1.25
  1
30°
 50
345.4253379212986
  7
ROMANS
  0
POINT
  5
E93
  8
DEFPOINTS
  6
BYBLOCK
 62
     0
 10
91.20286541089149
 20
-122.4630346933572
 30
0.0
  0
POINT
  5
E94
  8
DEFPOINTS
  6
BYBLOCK
 62
     0
 10
98.41365283391417
 20
-105.3035371274974
 30
0.0
  0
POINT
  5
E95
  8
DEFPOINTS
  6
BYBLOCK
 62
     0
 10
95.80196426932201
 20
-110.5592940960945
 30
0.0
  0
POINT
  5
E96
  8
DEFPOINTS
  6
BYBLOCK
 62
     0
 10
95.801964269322
 20
-133.3840251763145
 30
0.0
  0
POINT
  5
E97
  8
DEFPOINTS
  6
BYBLOCK
 62
     0
 10
95.85555410780825
 20
-109.7342940960945
 30
0.0
  0
ENDBLK
  5
1300
  8
0
  0
BLOCK
  8
0
  2
*D39
 70
     1
 10
0.0
 20
0.0
 30
0.0
  3
*D39
  1

  0
LINE
  5
FFD
  8
0
  6
BYBLOCK
 62
     0
 10
59.13060309765422
 20
-55.11462449065867
 30
0.0
 11
59.13060309765422
 21
-62.53434537853309
 31
0.0
  0
LINE
  5
FFE
  8
0
  6
BYBLOCK
 62
     0
 10
57.16098759162981
 20
-55.46192084599253
 30
0.0
 11
57.16098759162981
 21
-62.53434537853309
 31
0.0
  0
LINE
  5
FFF
  8
0
  6
BYBLOCK
 62
     0
 10
60.33060309765423
 20
-61.90934537853309
 30
0.0
 11
61.53060309765422
 21
-61.90934537853309
 31
0.0
  0
LINE
  5
1000
  8
0
  6
BYBLOCK
 62
     0
 10
55.9609875916298
 20
-61.90934537853309
 30
0.0
 11
54.76098759162981
 21
-61.90934537853309
 31
0.0
  0
LINE
  5
1001
  8
0
  6
BYBLOCK
 62
     0
 10
59.13060309765422
 20
-61.90934537853309
 30
0.0
 11
57.16098759162981
 21
-61.90934537853309
 31
0.0
  0
SOLID
  5
1002
  8
0
  6
BYBLOCK
 62
     0
 10
60.33060309765423
 20
-61.70934537853309
 30
0.0
 11
60.33060309765423
 21
-62.10934537853309
 31
0.0
 12
59.13060309765422
 22
-61.90934537853309
 32
0.0
 13
59.13060309765422
 23
-61.90934537853309
 33
0.0
  0
SOLID
  5
1003
  8
0
  6
BYBLOCK
 62
     0
 10
55.9609875916298
 20
-61.70934537853309
 30
0.0
 11
55.9609875916298
 21
-62.10934537853309
 31
0.0
 12
57.16098759162981
 22
-61.90934537853309
 32
0.0
 13
57.16098759162981
 23
-61.90934537853309
 33
0.0
  0
TEXT
  5
1004
  8
0
  6
CONTINUOUS
 62
     0
 10
57.54683701130868
 20
-61.40934537853309
 30
0.0
 40
1.25
  1
2
  7
ROMANS
  0
POINT
  5
1005
  8
DEFPOINTS
  6
BYBLOCK
 62
     0
 10
59.13060309765422
 20
-54.48962449065867
 30
0.0
  0
POINT
  5
1006
  8
DEFPOINTS
  6
BYBLOCK
 62
     0
 10
57.16098759162981
 20
-54.83692084599253
 30
0.0
  0
POINT
  5
1007
  8
DEFPOINTS
  6
BYBLOCK
 62
     0
 10
57.16098759162981
 20
-61.90934537853309
 30
0.0
  0
ENDBLK
  5
1302
  8
0
  0
BLOCK
  8
0
  2
*D40
 70
     1
 10
0.0
 20
0.0
 30
0.0
  3
*D40
  1

  0
LINE
  5
102C
  8
0
  6
BYBLOCK
 62
     0
 10
56.53598759162975
 20
-54.83692084599252
 30
0.0
 11
47.66239000967473
 21
-54.83692084599253
 31
0.0
  0
LINE
  5
102D
  8
0
  6
BYBLOCK
 62
     0
 10
56.54548274599712
 20
-54.94545095703436
 30
0.0
 11
47.80669505017742
 21
-56.48633500649049
 31
0.0
  0
ARC
  5
102E
  8
0
  6
BYBLOCK
 62
     0
 10
57.16098759162975
 20
-54.83692084599253
 30
0.0
 40
8.873597581955016
 50
164.491648682551
 51
172.2458243412755
  0
ARC
  5
102F
  8
0
  6
BYBLOCK
 62
     0
 10
57.16098759162975
 20
-54.83692084599253
 30
0.0
 40
8.873597581955016
 50
197.7541756587243
 51
205.5083513174487
  0
ARC
  5
1030
  8
0
  6
BYBLOCK
 62
     0
 10
57.16098759162975
 20
-54.83692084599253
 30
0.0
 40
8.873597581955016
 50
180.0
 51
189.9999999999997
  0
SOLID
  5
1031
  8
0
  6
BYBLOCK
 62
     0
 10
48.56807187140625
 20
-53.65319043221795
 30
0.0
 11
48.16898731225063
 21
-53.62614390483338
 31
0.0
 12
48.28739000967473
 22
-54.83692084599252
 32
0.0
 13
48.28739000967473
 23
-54.83692084599252
 33
0.0
  0
SOLID
  5
1032
  8
0
  6
BYBLOCK
 62
     0
 10
48.51584521080266
 20
-57.59074782690912
 30
0.0
 11
48.90417019857403
 21
-57.49481189061636
 31
0.0
 12
48.42219989581005
 22
-56.37780489544865
 32
0.0
 13
48.42219989581005
 23
-56.37780489544865
 33
0.0
  0
TEXT
  5
1033
  8
0
  6
CONTINUOUS
 62
     0
 10
48.95077418660885
 20
-57.07472764836341
 30
0.0
 40
1.25
  1
10°
 50
295.5083513174487
  7
ROMANS
  0
POINT
  5
1034
  8
DEFPOINTS
  6
BYBLOCK
 62
     0
 10
48.30240273234786
 20
-55.35287465921571
 30
0.0
  0
POINT
  5
1035
  8
DEFPOINTS
  6
BYBLOCK
 62
     0
 10
57.16098759162981
 20
-54.83692084599254
 30
0.0
  0
POINT
  5
1036
  8
DEFPOINTS
  6
BYBLOCK
 62
     0
 10
57.16098759162981
 20
-54.83692084599254
 30
0.0
  0
POINT
  5
1037
  8
DEFPOINTS
  6
BYBLOCK
 62
     0
 10
81.31067372251256
 20
-54.83692084599254
 30
0.0
  0
POINT
  5
1038
  8
DEFPOINTS
  6
BYBLOCK
 62
     0
 10
59.13060309765422
 20
-54.48962449065867
 30
0.0
  0
ENDBLK
  5
1304
  8
0
  0
BLOCK
  8
0
  2
*D41
 70
     1
 10
0.0
 20
0.0
 30
0.0
  3
*D41
  1

  0
LINE
  5
101D
  8
0
  6
BYBLOCK
 62
     0
 10
70.14829547962104
 20
-50.47951241332126
 30
0.0
 11
73.93732070810695
 21
-49.10042001326875
 31
0.0
  0
ARC
  5
101E
  8
0
  6
BYBLOCK
 62
     0
 10
58.17641420351556
 20
-54.83692084599254
 30
0.0
 40
16.14740637625717
 50
351.4821284333212
 51
355.7410642166607
  0
ARC
  5
101F
  8
0
  6
BYBLOCK
 62
     0
 10
58.17641420351556
 20
-54.83692084599254
 30
0.0
 40
16.14740637625717
 50
24.25893578333925
 51
28.51787156667865
  0
ARC
  5
1020
  8
0
  6
BYBLOCK
 62
     0
 10
58.17641420351556
 20
-54.83692084599254
 30
0.0
 40
16.14740637625717
 50
0.0000000000000509
 51
19.99999999999985
  0
SOLID
  5
1021
  8
0
  6
BYBLOCK
 62
     0
 10
74.07936949252166
 20
-56.02866061034619
 30
0.0
 11
74.47909325864994
 21
-56.0435236784085
 31
0.0
 12
74.32382057977271
 22
-54.83692084599251
 32
0.0
 13
74.32382057977271
 23
-54.83692084599251
 33
0.0
  0
SOLID
  5
1022
  8
0
  6
BYBLOCK
 62
     0
 10
73.08323893698626
 20
-48.12724044112245
 30
0.0
 11
72.7127049322717
 21
-48.27792073628471
 31
0.0
 12
73.35001282011575
 22
-49.31418260284728
 32
0.0
 13
73.35001282011575
 23
-49.31418260284728
 33
0.0
  0
TEXT
  5
1023
  8
0
  6
CONTINUOUS
 62
     0
 10
74.29302485951072
 20
-50.42786243520756
 30
0.0
 40
1.25
  1
20°
 50
280.3859086252933
  7
ROMANS
  0
POINT
  5
1024
  8
DEFPOINTS
  6
BYBLOCK
 62
     0
 10
74.21463759446101
 20
-52.96232138420852
 30
0.0
  0
POINT
  5
1025
  8
DEFPOINTS
  6
BYBLOCK
 62
     0
 10
59.13060309765423
 20
-54.48962449065867
 30
0.0
  0
POINT
  5
1026
  8
DEFPOINTS
  6
BYBLOCK
 62
     0
 10
57.16098759162981
 20
-54.83692084599254
 30
0.0
  0
POINT
  5
1027
  8
DEFPOINTS
  6
BYBLOCK
 62
     0
 10
81.31067372251256
 20
-54.83692084599254
 30
0.0
  0
POINT
  5
1028
  8
DEFPOINTS
  6
BYBLOCK
 62
     0
 10
69.56098759162984
 20
-50.6932750028998
 30
0.0
  0
ENDBLK
  5
1306
  8
0
  0
BLOCK
  8
0
  2
MARK-1
 70
     2
 10
0.0
 20
0.0
 30
0.0
  3
MARK-1
  1

  0
LINE
  5
10CB
  8
DIM
 10
0.0
 20
-1.718700012393281
 30
0.0
 11
2.523197890534817
 21
-1.718700012393281
 31
0.0
  0
LINE
  5
10CC
  8
DIM
 10
0.0
 20
0.0
 30
0.0
 11
2.523197890534817
 21
0.0
 31
0.0
  0
LINE
  5
10CD
  8
DIM
 10
0.0
 20
0.0
 30
0.0
 11
0.0
 21
-1.718700012393281
 31
0.0
  0
LINE
  5
10CE
  8
DIM
 10
2.523197890534817
 20
0.0
 30
0.0
 11
2.523197890534817
 21
-1.718700012393281
 31
0.0
  0
LINE
  5
10CF
  8
DIM
 10
0.2194085122204115
 20
-0.1828404268503512
 30
0.0
 11
0.2194085122204115
 21
-1.53585958554293
 31
0.0
  0
LINE
  5
10D0
  8
DIM
 10
0.2194085122204115
 20
-1.53585958554293
 30
0.0
 11
0.4753851098109152
 21
-1.535859585542923
 31
0.0
  0
LINE
  5
10D1
  8
DIM
 10
0.2194085122204115
 20
-0.1828404268503512
 30
0.0
 11
0.475385109810901
 21
-0.1828404268503512
 31
0.0
  0
LINE
  5
10D2
  8
DIM
 10
0.2651186189330019
 20
-0.2285505335629363
 30
0.0
 11
0.2651186189330019
 21
-1.490149478830345
 31
0.0
  0
LINE
  5
10D3
  8
DIM
 10
0.475385109810901
 20
-0.1828404268503512
 30
0.0
 11
0.475385109810901
 21
-0.7317840118716408
 31
0.0
  0
LINE
  5
10D4
  8
DIM
 10
0.4296750030983176
 20
-0.2285505335629363
 30
0.0
 11
0.4296750030983176
 21
-0.9379689789234078
 31
0.0
  0
LINE
  5
10D5
  8
DIM
 10
0.2651186189330019
 20
-0.2285505335629363
 30
0.0
 11
0.4296750030983176
 21
-0.2285505335629416
 31
0.0
  0
LINE
  5
10D6
  8
DIM
 10
0.2651186189330019
 20
-1.490149478830345
 30
0.0
 11
0.4296750030983176
 21
-1.490149478830345
 31
0.0
  0
LINE
  5
10D7
  8
DIM
 10
0.9403415498873713
 20
-1.490149478830345
 30
0.0
 11
0.7633682686939238
 21
-1.49014947883034
 31
0.0
  0
LINE
  5
10D8
  8
DIM
 10
1.005622347676912
 20
-1.535859585542923
 30
0.0
 11
0.729043547610182
 21
-0.7759655776597096
 31
0.0
  0
LINE
  5
10D9
  8
DIM
 10
0.9403415498873713
 20
-1.49014947883034
 30
0.0
 11
0.6796143750692565
 21
-0.7738074533793817
 31
0.0
  0
LINE
  5
10DA
  8
DIM
 10
0.7313617074013905
 20
-1.535859585542923
 30
0.0
 11
0.5750109784446593
 21
-1.106289488219028
 31
0.0
  0
LINE
  5
10DB
  8
DIM
 10
0.7633682686939238
 20
-1.49014947883034
 30
0.0
 11
0.5802211513515019
 21
-0.9869569094938484
 31
0.0
  0
LINE
  5
10DC
  8
DIM
 10
1.005622347676912
 20
-0.1828404268503512
 30
0.0
 11
0.729043547610182
 21
-0.7759655776597096
 31
0.0
  0
LINE
  5
10DD
  8
DIM
 10
0.9338718524416691
 20
-0.2285505335629416
 30
0.0
 11
0.6796143750692565
 21
-0.7738074533793871
 31
0.0
  0
LINE
  5
10DE
  8
DIM
 10
0.7313617074013905
 20
-0.1828404268503512
 30
0.0
 11
1.005622347676912
 21
-0.1828404268503512
 31
0.0
  0
LINE
  5
10DF
  8
DIM
 10
0.7313617074013905
 20
-0.1828404268503512
 30
0.0
 11
0.475385109810901
 21
-0.7317840118716408
 31
0.0
  0
LINE
  5
10E0
  8
DIM
 10
0.7604822570063092
 20
-0.2285505335629487
 30
0.0
 11
0.4296750030983176
 21
-0.9379689789234078
 31
0.0
  0
LINE
  5
10E1
  8
DIM
 10
0.7604822570063163
 20
-0.2285505335629487
 30
0.0
 11
0.9338718524416691
 21
-0.2285505335629416
 31
0.0
  0
LINE
  5
10E2
  8
DIM
 10
0.7313617074013905
 20
-1.535859585542923
 30
0.0
 11
1.005622347676912
 21
-1.535859585542923
 31
0.0
  0
LINE
  5
10E3
  8
DIM
 10
0.475385109810901
 20
-1.319937852965881
 30
0.0
 11
0.475385109810901
 21
-1.53585958554293
 31
0.0
  0
LINE
  5
10E4
  8
DIM
 10
0.5802211513515019
 20
-0.9869569094938555
 30
0.0
 11
0.4296750030983176
 21
-1.309804166278864
 31
0.0
  0
LINE
  5
10E5
  8
DIM
 10
0.5750109784446593
 20
-1.106289488219028
 30
0.0
 11
0.475385109810901
 21
-1.319937852965881
 31
0.0
  0
LINE
  5
10E6
  8
DIM
 10
0.4296750030983176
 20
-1.309804166278864
 30
0.0
 11
0.4296750030983176
 21
-1.490149478830345
 31
0.0
  0
LINE
  5
10E7
  8
DIM
 10
1.04219043304699
 20
-0.1828404268503512
 30
0.0
 11
1.04219043304699
 21
-1.535859585542923
 31
0.0
  0
LINE
  5
10E8
  8
DIM
 10
1.04219043304699
 20
-0.1828404268503512
 30
0.0
 11
1.49014947883034
 21
-0.1828404268503441
 31
0.0
  0
LINE
  5
10E9
  8
DIM
 10
1.04219043304699
 20
-1.535859585542923
 30
0.0
 11
1.316451073322511
 21
-1.535859585542918
 31
0.0
  0
LINE
  5
10EA
  8
DIM
 10
1.087900539759573
 20
-0.2285505335629292
 30
0.0
 11
1.087900539759573
 21
-1.49014947883034
 31
0.0
  0
LINE
  5
10EB
  8
DIM
 10
1.087900539759573
 20
-0.2285505335629292
 30
0.0
 11
1.490149478830354
 21
-0.2285505335629363
 31
0.0
  0
LINE
  5
10EC
  8
DIM
 10
1.087900539759573
 20
-1.49014947883034
 30
0.0
 11
1.270740966609928
 21
-1.49014947883034
 31
0.0
  0
LINE
  5
10ED
  8
DIM
 10
1.700415969708246
 20
-0.3931069177282431
 30
0.0
 11
1.700415969708246
 21
-0.8684920275391406
 31
0.0
  0
LINE
  5
10EE
  8
DIM
 10
1.270740966609928
 20
-0.3656808537007024
 30
0.0
 11
1.270740966609928
 21
-0.8776340488816814
 31
0.0
  0
LINE
  5
10EF
  8
DIM
 10
1.270740966609928
 20
-0.3656808537007024
 30
0.0
 11
1.398729265405159
 21
-0.3656808537006953
 31
0.0
  0
LINE
  5
10F0
  8
DIM
 10
1.654705862995662
 20
-0.3931069177282502
 30
0.0
 11
1.654705862995662
 21
-0.8684920275391459
 31
0.0
  0
LINE
  5
10F1
  8
DIM
 10
1.736984055078317
 20
-0.1828404268503583
 30
0.0
 11
2.34035746368447
 21
-0.1828404268503636
 31
0.0
  0
ARC
  5
10F2
  8
DIM
 10
1.49014947883034
 20
-0.3931069177282431
 30
0.0
 40
0.2102664908779013
 50
0.0
 51
90.0
  0
ARC
  5
10F3
  8
DIM
 10
1.49014947883034
 20
-0.3931069177282502
 30
0.0
 40
0.164556384165314
 50
0.0000000000001527
 51
89.99999999999804
  0
LINE
  5
10F4
  8
DIM
 10
1.316451073322511
 20
-0.4113909604132875
 30
0.0
 11
1.316451073322511
 21
-0.8319239421690963
 31
0.0
  0
LINE
  5
10F5
  8
DIM
 10
1.316451073322511
 20
-0.4113909604132875
 30
0.0
 11
1.389587244062632
 21
-0.4113909604132875
 31
0.0
  0
LINE
  5
10F6
  8
DIM
 10
1.48100745748782
 20
-0.4479590457833567
 30
0.0
 11
1.48100745748782
 21
-0.7953558567990147
 31
0.0
  0
ARC
  5
10F7
  8
DIM
 10
1.398729265405159
 20
-0.4479590457833567
 30
0.0
 40
0.082278192082657
 50
0.0000000000001527
 51
90.00000000000178
  0
LINE
  5
10F8
  8
DIM
 10
1.43529735077523
 20
-0.4571010671258726
 30
0.0
 11
1.43529735077523
 21
-0.7862138354564987
 31
0.0
  0
ARC
  5
10F9
  8
DIM
 10
1.389587244062632
 20
-0.4571010671258726
 30
0.0
 40
0.0457101067125872
 50
0.0000000000003053
 51
90.0
  0
LINE
  5
10FA
  8
DIM
 10
1.270740966609928
 20
-0.8776340488816814
 30
0.0
 11
1.398729265405173
 21
-0.8776340488816743
 31
0.0
  0
LINE
  5
10FB
  8
DIM
 10
1.316451073322511
 20
-0.8319239421690963
 30
0.0
 11
1.389587244062646
 21
-0.8319239421690838
 31
0.0
  0
ARC
  5
10FC
  8
DIM
 10
1.398729265405173
 20
-0.7953558567990147
 30
0.0
 40
0.082278192082657
 50
270.0000000000036
 51
0.0000000000004326
  0
LINE
  5
10FD
  8
DIM
 10
1.270740966609928
 20
-1.49014947883034
 30
0.0
 11
1.270740966609928
 21
-1.033048411704467
 31
0.0
  0
LINE
  5
10FE
  8
DIM
 10
1.316451073322511
 20
-1.535859585542918
 30
0.0
 11
1.316451073322511
 21
-1.078758518417052
 31
0.0
  0
LINE
  5
10FF
  8
DIM
 10
1.316451073322511
 20
-1.078758518417045
 30
0.0
 11
1.490149478830354
 21
-1.078758518417038
 31
0.0
  0
LINE
  5
1100
  8
DIM
 10
1.270740966609928
 20
-1.033048411704467
 30
0.0
 11
1.490149478830354
 21
-1.03304841170446
 31
0.0
  0
ARC
  5
1101
  8
DIM
 10
1.49014947883034
 20
-0.8684920275391406
 30
0.0
 40
0.2102664908779013
 50
270.0000000000013
 51
359.9999999999998
  0
ARC
  5
1102
  8
DIM
 10
1.49014947883034
 20
-0.8684920275391459
 30
0.0
 40
0.164556384165314
 50
270.0000000000023
 51
0.0
  0
LINE
  5
1103
  8
DIM
 10
1.736984055078317
 20
-0.1828404268503583
 30
0.0
 11
1.736984055078317
 21
-0.4113909604132875
 31
0.0
  0
LINE
  5
1104
  8
DIM
 10
1.782694161790907
 20
-0.2285505335629292
 30
0.0
 11
1.782694161790907
 21
-0.3656808537007024
 31
0.0
  0
LINE
  5
1105
  8
DIM
 10
1.736984055078317
 20
-0.4113909604132875
 30
0.0
 11
1.901540439243625
 21
-0.4113909604132875
 31
0.0
  0
LINE
  5
1106
  8
DIM
 10
1.782694161790907
 20
-0.3656808537007024
 30
0.0
 11
1.947250545956209
 21
-0.3656808537007024
 31
0.0
  0
LINE
  5
1107
  8
DIM
 10
1.782694161790907
 20
-0.2285505335629292
 30
0.0
 11
2.294647356971872
 21
-0.2285505335629292
 31
0.0
  0
LINE
  5
1108
  8
DIM
 10
2.34035746368447
 20
-0.1828404268503583
 30
0.0
 11
2.34035746368447
 21
-0.4113909604132875
 31
0.0
  0
LINE
  5
1109
  8
DIM
 10
2.294647356971872
 20
-0.2285505335629292
 30
0.0
 11
2.294647356971872
 21
-0.3656808537007095
 31
0.0
  0
LINE
  5
110A
  8
DIM
 10
2.175801079519147
 20
-0.4113909604132928
 30
0.0
 11
2.175801079519147
 21
-1.535859585542923
 31
0.0
  0
LINE
  5
110B
  8
DIM
 10
1.901540439243625
 20
-0.4113909604132928
 30
0.0
 11
1.901540439243625
 21
-1.535859585542918
 31
0.0
  0
LINE
  5
110C
  8
DIM
 10
1.947250545956209
 20
-0.3656808537007024
 30
0.0
 11
1.947250545956209
 21
-1.490149478830345
 31
0.0
  0
LINE
  5
110D
  8
DIM
 10
2.294647356971872
 20
-0.3656808537007095
 30
0.0
 11
2.130090972806578
 21
-0.3656808537006953
 31
0.0
  0
LINE
  5
110E
  8
DIM
 10
2.175801079519147
 20
-0.4113909604132928
 30
0.0
 11
2.34035746368447
 21
-0.4113909604132875
 31
0.0
  0
LINE
  5
110F
  8
DIM
 10
2.130090972806578
 20
-0.3656808537006953
 30
0.0
 11
2.130090972806563
 21
-1.490149478830345
 31
0.0
  0
LINE
  5
1110
  8
DIM
 10
1.901540439243625
 20
-1.535859585542918
 30
0.0
 11
2.175801079519147
 21
-1.535859585542923
 31
0.0
  0
LINE
  5
1111
  8
DIM
 10
1.947250545956209
 20
-1.490149478830345
 30
0.0
 11
2.130090972806563
 21
-1.490149478830345
 31
0.0
  0
ARC
  5
1112
  8
DIM
 10
1.389587244062632
 20
-0.7862138354564987
 30
0.0
 40
0.0457101067125872
 50
270.0000000000051
 51
0.0000000000005598
  0
LINE
  5
1113
  8
DIM
 10
2.797458530810339
 20
0.0
 30
0.0
 11
2.797458530810339
 21
-1.718700012393281
 31
0.0
  0
LINE
  5
1114
  8
DIM
 10
2.797458530810339
 20
0.0
 30
0.0
 11
3.108287256455938
 21
0.0
 31
0.0
  0
LINE
  5
1115
  8
DIM
 10
3.108287256455938
 20
0.0
 30
0.0
 11
3.108287256455938
 21
-0.8044978781415377
 31
0.0
  0
LINE
  5
1116
  8
DIM
 10
3.108287256455938
 20
-0.8044978781415377
 30
0.0
 11
3.483430778002777
 21
0.0
 31
0.0
  0
LINE
  5
1117
  8
DIM
 10
3.483430778002791
 20
-0.0000000000000053
 30
0.0
 11
3.794259503648384
 21
-0.0000000000000053
 31
0.0
  0
LINE
  5
1118
  8
DIM
 10
3.108287256455938
 20
-1.471072231381687
 30
0.0
 11
3.257167287201334
 21
-1.151797975122511
 31
0.0
  0
LINE
  5
1119
  8
DIM
 10
3.794259503648384
 20
-1.718700012393288
 30
0.0
 11
3.424646747737057
 21
-0.7926371129604401
 31
0.0
  0
LINE
  5
111A
  8
DIM
 10
3.483430778002791
 20
-1.718700012393281
 30
0.0
 11
3.794259503648384
 21
-1.718700012393281
 31
0.0
  0
LINE
  5
111B
  8
DIM
 10
3.483430778002791
 20
-1.718700012393281
 30
0.0
 11
3.257167287201334
 21
-1.151797975122511
 31
0.0
  0
LINE
  5
111C
  8
DIM
 10
2.797458530810339
 20
-1.718700012393281
 30
0.0
 11
3.108287256455938
 21
-1.718700012393281
 31
0.0
  0
LINE
  5
111D
  8
DIM
 10
3.108287256455938
 20
-1.718700012393281
 30
0.0
 11
3.108287256455938
 21
-1.471072231381681
 31
0.0
  0
LINE
  5
111E
  8
DIM
 10
3.424646747737057
 20
-0.7926371129604401
 30
0.0
 11
3.794259503648384
 21
-0.0000000000000053
 31
0.0
  0
LINE
  5
111F
  8
DIM
 10
3.876136995278316
 20
-1.718700012393288
 30
0.0
 11
4.210218435002318
 21
-0.0000000000000124
 31
0.0
  0
LINE
  5
1120
  8
DIM
 10
4.210218435002318
 20
-0.0000000000000124
 30
0.0
 11
4.567196179770193
 21
-0.0000000000000124
 31
0.0
  0
LINE
  5
1121
  8
DIM
 10
4.567196179770193
 20
-0.0000000000000124
 30
0.0
 11
5.027720460122332
 21
-1.718700012393288
 31
0.0
  0
LINE
  5
1122
  8
DIM
 10
5.027720460122332
 20
-1.718700012393288
 30
0.0
 11
4.753459819846796
 21
-1.718700012393288
 31
0.0
  0
LINE
  5
1123
  8
DIM
 10
4.753459819846796
 20
-1.718700012393288
 30
0.0
 11
4.354386504335594
 21
-0.4561170585719783
 31
0.0
  0
LINE
  5
1124
  8
DIM
 10
3.876136995278316
 20
-1.718700012393288
 30
0.0
 11
4.534362531939564
 21
-1.718700012393288
 31
0.0
  0
LINE
  5
1125
  8
DIM
 10
4.534362531939564
 20
-1.718700012393288
 30
0.0
 11
4.473122601041666
 21
-1.490149478830359
 31
0.0
  0
LINE
  5
1126
  8
DIM
 10
4.153390962827345
 20
-1.490149478830359
 30
0.0
 11
4.473122601041666
 21
-1.490149478830359
 31
0.0
  0
LINE
  5
1127
  8
DIM
 10
4.153390962827345
 20
-1.490149478830359
 30
0.0
 11
4.354386504335594
 21
-0.4561170585719783
 31
0.0
  0
LINE
  5
1128
  8
DIM
 10
5.128905054520288
 20
-1.718700012393281
 30
0.0
 11
5.384881652110792
 21
-1.718700012393281
 31
0.0
  0
LINE
  5
1129
  8
DIM
 10
5.128905054520303
 20
-1.718700012393281
 30
0.0
 11
5.128905054520303
 21
0.0
 31
0.0
  0
LINE
  5
112A
  8
DIM
 10
5.128905054520303
 20
0.0
 30
0.0
 11
5.384881652110792
 21
-0.0000000000000053
 31
0.0
  0
LINE
  5
112B
  8
DIM
 10
5.384881652110792
 20
-0.0000000000000053
 30
0.0
 11
5.384881652110792
 21
-1.718700012393281
 31
0.0
  0
LINE
  5
112C
  8
DIM
 10
5.56772207896114
 20
-1.718700012393281
 30
0.0
 11
6.050420805846052
 21
-1.718700012393281
 31
0.0
  0
LINE
  5
112D
  8
DIM
 10
5.56772207896114
 20
-1.490149478830345
 30
0.0
 11
5.965629116015215
 21
-1.490149478830345
 31
0.0
  0
ARC
  5
112E
  8
DIM
 10
6.050420805846052
 20
-1.43346894650672
 30
0.0
 40
0.2852310658865443
 50
270.0
 51
24.99999999999686
  0
LINE
  5
112F
  8
DIM
 10
6.308927941963802
 20
-1.312925089247301
 30
0.0
 11
5.863921921490487
 21
-0.358606598673834
 31
0.0
  0
LINE
  5
1130
  8
DIM
 10
6.048483967335009
 20
-1.36009341371946
 30
0.0
 11
5.603477946861673
 21
-0.405774923145966
 31
0.0
  0
ARC
  5
1131
  8
DIM
 10
5.965629116015215
 20
-1.398729265405169
 30
0.0
 40
0.0914202134251745
 50
270.0
 51
25.00000000000002
  0
LINE
  5
1132
  8
DIM
 10
6.262515700992473
 20
-0.0000000000000053
 30
0.0
 11
6.262515700992473
 21
-0.2285505335629416
 31
0.0
  0
LINE
  5
1133
  8
DIM
 10
6.262515700992473
 20
-0.2285505335629416
 30
0.0
 11
5.946776772810267
 21
-0.2285505335629487
 31
0.0
  0
LINE
  5
1134
  8
DIM
 10
6.262515700992473
 20
-0.0000000000000053
 30
0.0
 11
5.861985082979402
 21
-0.0000000000000053
 31
0.0
  0
ARC
  5
1135
  8
DIM
 10
5.946776772810267
 20
-0.3199707469881243
 30
0.0
 40
0.0914202134251745
 50
90.00000000000082
 51
204.9999999999997
  0
LINE
  5
1136
  8
DIM
 10
5.56772207896114
 20
-1.490149478830345
 30
0.0
 11
5.56772207896114
 21
-1.718700012393281
 31
0.0
  0
ARC
  5
1137
  8
DIM
 10
5.861985082979402
 20
-0.2852310658865473
 30
0.0
 40
0.2852310658865443
 50
90.0
 51
205.0000000000001
  0
LINE
  5
1138
  8
DIM
 10
6.481924213212871
 20
-1.718700012393281
 30
0.0
 11
7.140149749874126
 21
-1.718700012393281
 31
0.0
  0
LINE
  5
1139
  8
DIM
 10
7.140149749874126
 20
-1.718700012393281
 30
0.0
 11
7.140149749874126
 21
-1.490149478830345
 31
0.0
  0
LINE
  5
113A
  8
DIM
 10
6.481924213212871
 20
-1.718700012393281
 30
0.0
 11
6.481924213212871
 21
0.0
 31
0.0
  0
LINE
  5
113B
  8
DIM
 10
6.481924213212871
 20
0.0
 30
0.0
 11
7.140149749874126
 21
0.0
 31
0.0
  0
LINE
  5
113C
  8
DIM
 10
6.756184853488392
 20
-1.490149478830345
 30
0.0
 11
6.756184853488392
 21
-0.9736252729781061
 31
0.0
  0
LINE
  5
113D
  8
DIM
 10
6.756184853488392
 20
-1.490149478830345
 30
0.0
 11
7.140149749874126
 21
-1.490149478830345
 31
0.0
  0
LINE
  5
113E
  8
DIM
 10
6.756184853488392
 20
-0.2285505335629363
 30
0.0
 11
7.140149749874126
 21
-0.2285505335629363
 31
0.0
  0
LINE
  5
113F
  8
DIM
 10
7.140149749874126
 20
-0.2285505335629363
 30
0.0
 11
7.140149749874126
 21
0.0
 31
0.0
  0
LINE
  5
1140
  8
DIM
 10
7.140149749874126
 20
-0.7450747394151698
 30
0.0
 11
6.756184853488406
 21
-0.7450747394151698
 31
0.0
  0
LINE
  5
1141
  8
DIM
 10
7.140149749874141
 20
-0.9736252729781061
 30
0.0
 11
6.756184853488406
 21
-0.9736252729781061
 31
0.0
  0
LINE
  5
1142
  8
DIM
 10
7.140149749874126
 20
-0.9736252729781061
 30
0.0
 11
7.140149749874126
 21
-0.7450747394151698
 31
0.0
  0
LINE
  5
1143
  8
DIM
 10
6.756184853488392
 20
-0.7450747394151698
 30
0.0
 11
6.756184853488392
 21
-0.2285505335629363
 31
0.0
  0
LINE
  5
1144
  8
DIM
 10
7.304706134039449
 20
-1.718700012393281
 30
0.0
 11
7.304706134039449
 21
0.0
 31
0.0
  0
LINE
  5
1145
  8
DIM
 10
7.304706134039449
 20
0.0
 30
0.0
 11
7.860541031664511
 21
0.0
 31
0.0
  0
LINE
  5
1146
  8
DIM
 10
8.145772097551053
 20
-1.610663030844735
 30
0.0
 11
8.145772097551053
 21
-1.087900539759573
 31
0.0
  0
ARC
  5
1147
  8
DIM
 10
7.860541031664511
 20
-0.285231065886542
 30
0.0
 40
0.2852310658865443
 50
0.0
 51
90.0
  0
LINE
  5
1148
  8
DIM
 10
7.578966774314971
 20
-0.2285505335629363
 30
0.0
 11
7.761807201165318
 21
-0.2285505335629416
 31
0.0
  0
LINE
  5
1149
  8
DIM
 10
7.578966774314971
 20
-1.718700012393281
 30
0.0
 11
7.578966774314971
 21
-0.9736252729781061
 31
0.0
  0
LINE
  5
114A
  8
DIM
 10
7.761807201165318
 20
-0.7450747394151627
 30
0.0
 11
7.578966774314971
 21
-0.7450747394151698
 31
0.0
  0
LINE
  5
114B
  8
DIM
 10
7.706955073110215
 20
-0.9736252729781061
 30
0.0
 11
7.578966774314971
 21
-0.9736252729781061
 31
0.0
  0
LINE
  5
114C
  8
DIM
 10
7.304706134039449
 20
-1.718700012393281
 30
0.0
 11
7.578966774314971
 21
-1.718700012393281
 31
0.0
  0
LINE
  5
114D
  8
DIM
 10
7.578966774314956
 20
-0.7450747394151698
 30
0.0
 11
7.578966774314971
 21
-0.2285505335629363
 31
0.0
  0
LINE
  5
114E
  8
DIM
 10
7.871511457275531
 20
-0.6353704833049552
 30
0.0
 11
7.871511457275531
 21
-0.3382547896731491
 31
0.0
  0
ARC
  5
114F
  8
DIM
 10
7.761807201165318
 20
-0.3382547896731491
 30
0.0
 40
0.1097042561102094
 50
0.0
 51
90.0
  0
ARC
  5
1150
  8
DIM
 10
7.761807201165318
 20
-0.6353704833049552
 30
0.0
 40
0.1097042561102094
 50
270.0
 51
0.0
  0
LINE
  5
1151
  8
DIM
 10
8.145772097551053
 20
-0.285231065886542
 30
0.0
 11
8.145772097551053
 21
-0.6307994726337078
 31
0.0
  0
LINE
  5
1152
  8
DIM
 10
7.871511457275531
 20
-1.13818165714342
 30
0.0
 11
7.871511457275531
 21
-1.627967625038771
 31
0.0
  0
LINE
  5
1153
  8
DIM
 10
7.882946463226403
 20
-1.718700012393281
 30
0.0
 11
8.17421436706644
 21
-1.718700012393281
 31
0.0
  0
ARC
  5
1154
  8
DIM
 10
7.917221563988114
 20
-0.6307994726337078
 30
0.0
 40
0.2285505335629362
 50
270.0
 51
0.0
  0
ARC
  5
1155
  8
DIM
 10
7.917221563988114
 20
-1.087900539759573
 30
0.0
 40
0.2285505335629362
 50
0.0
 51
89.99999999999861
  0
ARC
  5
1156
  8
DIM
 10
7.706955073110215
 20
-1.13818165714342
 30
0.0
 40
0.164556384165314
 50
0.0
 51
90.0
  0
ARC
  5
1157
  8
DIM
 10
8.365180609771471
 20
-1.610663030844735
 30
0.0
 40
0.2194085122204187
 50
180.0
 51
209.4985180895017
  0
ARC
  5
1158
  8
DIM
 10
8.237192310976226
 20
-1.627967625038771
 30
0.0
 40
0.3656808537006979
 50
180.0
 51
194.366235341689
  0
ATTDEF
  5
1159
  8
0
 10
-0.131209274828791
 20
-3.093372301292401
 30
0.0
 40
1.2
  1

 41
1.481245992734578
 72
     5
 11
8.163768284484846
 21
-3.093372301292401
 31
0.0
  3

  2
PART#
 70
     0
  0
ENDBLK
  5
1308
  8
0
  0
BLOCK
  8
0
  2
*D43
 70
     1
 10
0.0
 20
0.0
 30
0.0
  3
*D43
  1

  0
LINE
  5
1161
  8
0
  6
BYBLOCK
 62
     0
 10
209.2366027153292
 20
-81.7698878587873
 30
0.0
 11
209.2366027153292
 21
-69.78078042458526
 31
0.0
  0
LINE
  5
1162
  8
0
  6
BYBLOCK
 62
     0
 10
222.0542311745587
 20
-81.7698878587873
 30
0.0
 11
222.0542311745587
 21
-69.78078042458526
 31
0.0
  0
LINE
  5
1163
  8
0
  6
BYBLOCK
 62
     0
 10
210.4366027153291
 20
-70.40578042458526
 30
0.0
 11
220.8542311745587
 21
-70.40578042458526
 31
0.0
  0
SOLID
  5
1164
  8
0
  6
BYBLOCK
 62
     0
 10
210.4366027153291
 20
-70.20578042458526
 30
0.0
 11
210.4366027153291
 21
-70.60578042458526
 31
0.0
 12
209.2366027153292
 22
-70.40578042458526
 32
0.0
 13
209.2366027153292
 23
-70.40578042458526
 33
0.0
  0
SOLID
  5
1165
  8
0
  6
BYBLOCK
 62
     0
 10
220.8542311745587
 20
-70.20578042458526
 30
0.0
 11
220.8542311745587
 21
-70.60578042458526
 31
0.0
 12
222.0542311745587
 22
-70.40578042458526
 32
0.0
 13
222.0542311745587
 23
-70.40578042458526
 33
0.0
  0
TEXT
  5
1166
  8
0
  6
CONTINUOUS
 62
     0
 10
214.064860256155
 20
-69.90578042458526
 30
0.0
 40
1.25
  1
13
  7
ROMANS
  0
POINT
  5
1167
  8
DEFPOINTS
  6
BYBLOCK
 62
     0
 10
209.2366027153292
 20
-82.3948878587873
 30
0.0
  0
POINT
  5
1168
  8
DEFPOINTS
  6
BYBLOCK
 62
     0
 10
222.0542311745587
 20
-82.3948878587873
 30
0.0
  0
POINT
  5
1169
  8
DEFPOINTS
  6
BYBLOCK
 62
     0
 10
222.0542311745587
 20
-70.40578042458526
 30
0.0
  0
ENDBLK
  5
130A
  8
0
  0
BLOCK
  8
0
  2
*D44
 70
     1
 10
0.0
 20
0.0
 30
0.0
  3
*D44
  1

  0
LINE
  5
120E
  8
0
  6
BYBLOCK
 62
     0
 10
127.4049936523231
 20
-20.29799431990591
 30
0.0
 11
144.716240987907
 21
-20.29799431990591
 31
0.0
  0
LINE
  5
120F
  8
0
  6
BYBLOCK
 62
     0
 10
127.4668840714974
 20
-27.25820008280584
 30
0.0
 11
144.716240987907
 21
-27.25820008280584
 31
0.0
  0
LINE
  5
1210
  8
0
  6
BYBLOCK
 62
     0
 10
144.091240987907
 20
-21.49799431990591
 30
0.0
 11
144.091240987907
 21
-26.05820008280584
 31
0.0
  0
SOLID
  5
1211
  8
0
  6
BYBLOCK
 62
     0
 10
143.891240987907
 20
-21.49799431990591
 30
0.0
 11
144.291240987907
 21
-21.49799431990591
 31
0.0
 12
144.091240987907
 22
-20.29799431990591
 32
0.0
 13
144.091240987907
 23
-20.29799431990591
 33
0.0
  0
SOLID
  5
1212
  8
0
  6
BYBLOCK
 62
     0
 10
143.891240987907
 20
-26.05820008280584
 30
0.0
 11
144.291240987907
 21
-26.05820008280584
 31
0.0
 12
144.091240987907
 22
-27.25820008280584
 32
0.0
 13
144.091240987907
 23
-27.25820008280584
 33
0.0
  0
TEXT
  5
1213
  8
0
  6
CONTINUOUS
 62
     0
 10
143.591240987907
 20
-23.61907021888516
 30
0.0
 40
1.25
  1
7
 50
90.0
  7
ROMANS
  0
POINT
  5
1214
  8
DEFPOINTS
  6
BYBLOCK
 62
     0
 10
126.7799936523231
 20
-20.29799431990591
 30
0.0
  0
POINT
  5
1215
  8
DEFPOINTS
  6
BYBLOCK
 62
     0
 10
126.8418840714974
 20
-27.25820008280584
 30
0.0
  0
POINT
  5
1216
  8
DEFPOINTS
  6
BYBLOCK
 62
     0
 10
144.091240987907
 20
-27.25820008280584
 30
0.0
  0
ENDBLK
  5
130C
  8
0
  0
ENDSEC
  0
SECTION
  2
ENTITIES
  0
LINE
  5
37E
  8
LINE
 10
38.71162074913119
 20
120.7141804894559
 30
0.0
 11
40.9647604041071
 21
120.7141804894559
 31
0.0
  0
LINE
  5
37F
  8
LINE
 10
38.7116207491311
 20
84.72238048945516
 30
0.0
 11
40.9647604041071
 21
84.72238048945516
 31
0.0
  0
LINE
  5
380
  8
CTRL
 10
2.991760404106969
 20
102.7182804894555
 30
0.0
 11
113.4803032313089
 21
102.7182804894555
 31
0.0
  0
LINE
  5
381
  8
HIDDEN
 10
2.991760404106969
 20
110.6557804894555
 30
0.0
 11
45.66585955631382
 21
110.6557804894555
 31
0.0
  0
LINE
  5
382
  8
HIDDEN
 10
2.991760404106969
 20
94.78078048945554
 30
0.0
 11
45.66585955631382
 21
94.78078048945554
 31
0.0
  0
LINE
  5
383
  8
LINE
 10
8.07176040410667
 20
84.72238048945516
 30
0.0
 11
8.07176040410667
 21
102.7182804894555
 31
0.0
  0
ARC
  5
384
  8
LINE
 10
3.982360404106657
 20
85.9029315982794
 30
0.0
 40
0.9905999999999999
 50
180.0
 51
280.0000000000003
  0
ARC
  5
385
  8
LINE
 10
31.80917074912995
 20
60.89705531528099
 30
0.0
 40
24.80503851352893
 50
73.84313558935749
 51
106.1568644106427
  0
LINE
  5
386
  8
LINE
 10
8.07176040410667
 20
84.72238048945516
 30
0.0
 11
24.90672074912879
 21
84.72238048945516
 31
0.0
  0
POINT
  5
387
  8
DEFPOINTS
  6
BYBLOCK
 62
     0
 10
8.07176040410667
 20
84.72238048945516
 30
0.0
  0
LINE
  5
388
  8
LINE
 10
4.154376288903734
 20
84.92738103814548
 30
0.0
 11
5.24490005908433
 21
85.11966980193247
 31
0.0
  0
LINE
  5
389
  8
LINE
 10
8.07176040410667
 20
84.72238048945516
 30
0.0
 11
5.24490005908433
 21
85.11966980193247
 31
0.0
  0
LINE
  5
38A
  8
LINE
 10
27.16075393507313
 20
81.21828048945554
 30
0.0
 11
36.64808756318672
 21
81.21828048945554
 31
0.0
  0
ARC
  5
38B
  8
LINE
 10
27.16075393507313
 20
81.61828048945554
 30
0.0
 40
0.4
 50
210.0000000000001
 51
270.0
  0
LINE
  5
38C
  8
LINE
 10
24.90672074912993
 20
84.72238048945549
 30
0.0
 11
26.81434377355936
 21
81.41828048945554
 31
0.0
  0
LINE
  5
38D
  8
LINE
 10
38.90212074912992
 20
84.72238048945547
 30
0.0
 11
38.90212074912992
 21
84.77342481061365
 31
0.0
  0
ARC
  5
38E
  8
LINE
 10
36.64808756318672
 20
81.61828048945554
 30
0.0
 40
0.4
 50
270.0
 51
329.9999999999998
  0
LINE
  5
38F
  8
LINE
 10
38.90212074912992
 20
84.72238048945547
 30
0.0
 11
36.99449772470049
 21
81.41828048945553
 31
0.0
  0
LINE
  5
390
  8
LINE
 10
2.991760404106969
 20
119.5336293806317
 30
0.0
 11
2.991760404106969
 21
102.7182804894555
 31
0.0
  0
LINE
  5
391
  8
LINE
 10
8.07176040410667
 20
120.7141804894559
 30
0.0
 11
8.07176040410667
 21
102.7182804894555
 31
0.0
  0
LINE
  5
392
  8
LINE
 10
2.991760404106969
 20
85.9029315982794
 30
0.0
 11
2.991760404106969
 21
102.7182804894555
 31
0.0
  0
POLYLINE
  5
393
  8
LINE
 66
     1
 10
0.0
 20
0.0
 30
0.0
 70
     1
  0
VERTEX
  5
1417
  8
LINE
 10
33.31163258844646
 20
102.7182804894555
 30
0.0
 42
0.1154657966092864
  0
VERTEX
  5
1418
  8
LINE
 10
32.88704408230666
 20
104.5323577131572
 30
0.0
 42
0.1039781620936588
  0
VERTEX
  5
1419
  8
LINE
 10
31.61025331669913
 20
106.153792043179
 30
0.0
 42
0.0910096456964627
  0
VERTEX
  5
141A
  8
LINE
 10
29.77030181872283
 20
107.1951622122902
 30
0.0
 42
0.0835706324580299
  0
VERTEX
  5
141B
  8
LINE
 10
27.50276040410631
 20
107.5768275224207
 30
0.0
 42
0.0835706324580311
  0
VERTEX
  5
141C
  8
LINE
 10
25.23521898949133
 20
107.1951622122902
 30
0.0
 42
0.0910096456964667
  0
VERTEX
  5
141D
  8
LINE
 10
23.39526749151503
 20
106.153792043179
 30
0.0
 42
0.1039781620936379
  0
VERTEX
  5
141E
  8
LINE
 10
22.11847672590744
 20
104.5323577131572
 30
0.0
 42
0.1154657966092841
  0
VERTEX
  5
141F
  8
LINE
 10
21.69388821976764
 20
102.7182804894555
 30
0.0
 42
0.1154657966092927
  0
VERTEX
  5
1420
  8
LINE
 10
22.11847672590744
 20
100.9042032657539
 30
0.0
 42
0.1039781620936538
  0
VERTEX
  5
1421
  8
LINE
 10
23.39526749151503
 20
99.28276893573212
 30
0.0
 42
0.0910096456964786
  0
VERTEX
  5
1422
  8
LINE
 10
25.23521898949133
 20
98.24139876662085
 30
0.0
 42
0.0835706324580348
  0
VERTEX
  5
1423
  8
LINE
 10
27.50276040410631
 20
97.85973345649037
 30
0.0
 42
0.0835706324580332
  0
VERTEX
  5
1424
  8
LINE
 10
29.77030181872283
 20
98.24139876662085
 30
0.0
 42
0.0910096456964735
  0
VERTEX
  5
1425
  8
LINE
 10
31.61025331669913
 20
99.28276893573212
 30
0.0
 42
0.1039781620936471
  0
VERTEX
  5
1426
  8
LINE
 10
32.88704408230524
 20
100.9042032657539
 30
0.0
 42
0.1154657966092838
  0
SEQEND
  5
144A
  8
LINE
  0
CIRCLE
  5
3A5
  8
LINE
 10
27.50276040410631
 20
102.7182804894555
 30
0.0
 40
4.495799999999999
  0
ARC
  5
3A6
  8
LINE
 10
3.982360404106657
 20
119.5336293806317
 30
0.0
 40
0.9905999999999999
 50
79.9999999999997
 51
180.0
  0
LINE
  5
3A7
  8
LINE
 10
8.07176040410667
 20
120.7141804894559
 30
0.0
 11
24.90672074912871
 21
120.7141804894559
 31
0.0
  0
POINT
  5
3A8
  8
DEFPOINTS
  6
BYBLOCK
 62
     0
 10
8.07176040410667
 20
120.7141804894559
 30
0.0
  0
LINE
  5
3A9
  8
LINE
 10
4.154376288903734
 20
120.5091799407656
 30
0.0
 11
5.24490005908433
 21
120.3168911769786
 31
0.0
  0
LINE
  5
3AA
  8
LINE
 10
8.07176040410667
 20
120.7141804894559
 30
0.0
 11
5.24490005908433
 21
120.3168911769786
 31
0.0
  0
LINE
  5
3AB
  8
LINE
 10
27.16075393507313
 20
124.2182804894555
 30
0.0
 11
36.64808756318672
 21
124.2182804894555
 31
0.0
  0
ARC
  5
3AC
  8
LINE
 10
31.80917074912995
 20
144.5395056636301
 30
0.0
 40
24.80503851352893
 50
253.8431355893573
 51
286.1568644106425
  0
ARC
  5
3AD
  8
LINE
 10
27.16075393507313
 20
123.8182804894555
 30
0.0
 40
0.4
 50
90.0
 51
149.9999999999999
  0
LINE
  5
3AE
  8
LINE
 10
24.90672074912993
 20
120.7141804894556
 30
0.0
 11
26.81434377355936
 21
124.0182804894555
 31
0.0
  0
ARC
  5
3AF
  8
LINE
 10
36.64808756318672
 20
123.8182804894555
 30
0.0
 40
0.4
 50
30.00000000000017
 51
90.0
  0
LINE
  5
3B0
  8
LINE
 10
38.90212074912992
 20
120.7141804894556
 30
0.0
 11
38.90212074912992
 21
120.6631361682974
 31
0.0
  0
LINE
  5
3B1
  8
LINE
 10
38.90212074912992
 20
120.7141804894556
 30
0.0
 11
36.99449772470049
 21
124.0182804894555
 31
0.0
  0
LINE
  5
3B2
  8
LINE
 10
40.9647604041071
 20
84.72238048945516
 30
0.0
 11
42.99676040410668
 21
85.26685324847529
 31
0.0
  0
LINE
  5
3B3
  8
LINE
 10
42.99676040410668
 20
72.22558048945541
 30
0.0
 11
42.99676040410668
 21
102.7182804894555
 31
0.0
  0
TEXT
  5
3B4
  8
DIM
 10
56.55520930861422
 20
71.41644287450063
 30
0.0
 40
3.3
  1
11.380.325
 50
90.0
 41
0.9482910164759918
  7
ROMANS
 72
     5
 11
56.55520930861422
 21
97.76565705830254
 31
0.0
  0
TEXT
  5
3B5
  8
DIM
 10
51.21235216575707
 20
71.41644287450063
 30
0.0
 40
3.3
  1
10.310.611
 50
90.0
 41
0.9821168952924785
  7
ROMANS
 72
     5
 11
51.21235216575707
 21
97.76565705830254
 31
0.0
  0
LINE
  5
3B6
  8
LINE
 10
106.2462930554508
 20
124.5917557611677
 30
0.0
 11
106.2462930554507
 21
75.92742384021793
 31
0.0
  0
LINE
  5
3B7
  8
LINE
 10
110.1967604041067
 20
123.5355233261014
 30
0.0
 11
110.1967604041067
 21
77.56069065096953
 31
0.0
  0
LINE
  5
3B9
  8
LINE
 10
62.49676040410668
 20
134.7182804894555
 30
0.0
 11
62.49676040410668
 21
70.71828048945554
 31
0.0
  0
LINE
  5
3BA
  8
LINE
 10
71.99759090438437
 20
75.92742384021793
 30
0.0
 11
83.24759090438437
 21
72.92742384021793
 31
0.0
  0
LINE
  5
3BB
  8
LINE
 10
109.2537933712608
 20
75.92742384021793
 30
0.0
 11
71.99759090438437
 21
75.92742384021793
 31
0.0
  0
LINE
  5
3BC
  8
LINE
 10
68.58018427903144
 20
70.71828048945554
 30
0.0
 11
44.50406040410547
 21
70.71828048945554
 31
0.0
  0
LINE
  5
3BD
  8
LINE
 10
42.99676040410668
 20
72.22558048945541
 30
0.0
 11
44.50406040410547
 21
70.71828048945554
 31
0.0
  0
LINE
  5
3BE
  8
LINE
 10
71.99759090438437
 20
75.92742384021793
 30
0.0
 11
68.58018427903144
 21
70.71828048945554
 31
0.0
  0
LINE
  5
3BF
  8
LINE
 10
106.9975909043844
 20
75.92742384021793
 30
0.0
 11
95.74759090438437
 21
72.92742384021791
 31
0.0
  0
LINE
  5
3C0
  8
LINE
 10
95.74759090438437
 20
72.92742384021791
 30
0.0
 11
83.24759090438437
 21
72.92742384021793
 31
0.0
  0
LINE
  5
3C1
  8
LINE
 10
110.1967604041067
 20
77.56069065096953
 30
0.0
 11
109.2537933712608
 21
75.92742384021791
 31
0.0
  0
LINE
  5
3C2
  8
LINE
 10
42.99676040410668
 20
133.2109804894549
 30
0.0
 11
42.99676040410668
 21
102.7182804894555
 31
0.0
  0
LINE
  5
3C3
  8
HIDDEN
 10
43.84750465102545
 20
110.6557804894555
 30
0.0
 11
89.44439037840112
 21
126.9403825349462
 31
0.0
  0
LINE
  5
3C4
  8
HIDDEN
 10
48.24668879741634
 20
106.1856531182065
 30
0.0
 11
91.10997643225244
 21
121.4939701306482
 31
0.0
  0
LINE
  5
3C5
  8
HIDDEN
 10
45.66585955631382
 20
94.78078048945554
 30
0.0
 11
50.24857731800648
 21
102.7182804894555
 31
0.0
  0
LINE
  5
3C6
  8
HIDDEN
 10
45.66585955631382
 20
110.6557804894555
 30
0.0
 11
45.66585955631382
 21
94.78078048945554
 31
0.0
  0
LINE
  5
3C7
  8
HIDDEN
 10
45.66585955631382
 20
110.6557804894555
 30
0.0
 11
50.24857731800648
 21
102.7182804894555
 31
0.0
  0
CIRCLE
  5
3C8
  8
LINE
 10
89.49759090438437
 20
102.7182804894555
 30
0.0
 40
3.525508501669311
  0
POLYLINE
  5
3C9
  8
LINE
 66
     1
 10
0.0
 20
0.0
 30
0.0
 70
     1
  0
VERTEX
  5
1427
  8
LINE
 10
88.0542152314103
 20
105.2182804894555
 30
0.0
  0
VERTEX
  5
1428
  8
LINE
 10
86.61083955843623
 20
102.7182804894555
 30
0.0
  0
VERTEX
  5
1429
  8
LINE
 10
88.0542152314103
 20
100.2182804894555
 30
0.0
  0
VERTEX
  5
142A
  8
LINE
 10
90.94096657735844
 20
100.2182804894555
 30
0.0
  0
VERTEX
  5
142B
  8
LINE
 10
92.38434225033251
 20
102.7182804894555
 30
0.0
  0
VERTEX
  5
142C
  8
LINE
 10
90.94096657735844
 20
105.2182804894555
 30
0.0
  0
SEQEND
  5
144B
  8
LINE
  0
ARC
  5
3D1
  8
DIM
 10
89.49759090438437
 20
102.7182804894555
 30
0.0
 40
4.696729081905044
 50
90.0
 51
0.0
  0
LINE
  5
3D3
  8
LINE
 10
74.49759090438437
 20
132.2182804894555
 30
0.0
 11
85.59759090438439
 21
132.2182804894555
 31
0.0
  0
LINE
  5
3D4
  8
LINE
 10
89.87743572283097
 20
128.9682804894555
 30
0.0
 11
67.53497849489187
 21
128.9682804894555
 31
0.0
  0
LINE
  5
3D5
  8
LINE
 10
74.99759090438437
 20
139.7182804894555
 30
0.0
 11
74.9975909043844
 21
132.2182804894555
 31
0.0
  0
LINE
  5
3D6
  8
LINE
 10
67.53497849489187
 20
128.9682804894555
 30
0.0
 11
63.76274825037316
 21
134.7182804894555
 31
0.0
  0
LINE
  5
3D7
  8
LINE
 10
40.9647604041071
 20
120.7141804894559
 30
0.0
 11
42.99676040410668
 21
120.1697077304358
 31
0.0
  0
LINE
  5
3D8
  8
LINE
 10
74.49759090438437
 20
128.9682804894555
 30
0.0
 11
74.49759090438437
 21
132.2182804894555
 31
0.0
  0
LINE
  5
3D9
  8
LINE
 10
63.76274825037316
 20
134.7182804894555
 30
0.0
 11
44.50406040410516
 21
134.7182804894555
 31
0.0
  0
LINE
  5
3DA
  8
LINE
 10
42.99676040410668
 20
133.2109804894549
 30
0.0
 11
44.50406040410516
 21
134.7182804894555
 31
0.0
  0
LINE
  5
3DE
  8
LINE
 10
93.39759090438434
 20
132.2182804894555
 30
0.0
 11
93.02730424489658
 21
134.3182804894555
 31
0.0
  0
LINE
  5
3DF
  8
LINE
 10
85.59759090438439
 20
132.2182804894555
 30
0.0
 11
85.96787756387215
 21
134.3182804894556
 31
0.0
  0
POLYLINE
  5
3E0
  8
LINE
 66
     1
 10
0.0
 20
0.0
 30
0.0
  0
VERTEX
  5
142D
  8
LINE
 10
93.89371689095708
 20
127.8944514804487
 30
0.0
  0
VERTEX
  5
142E
  8
LINE
 10
92.31324175133595
 20
127.6572411155471
 30
0.0
  0
VERTEX
  5
142F
  8
LINE
 10
90.6062784391558
 20
127.2702130812702
 30
0.0
  0
VERTEX
  5
1430
  8
LINE
 10
88.83881139784225
 20
126.7483283490987
 30
0.0
  0
VERTEX
  5
1431
  8
LINE
 10
87.07916390544233
 20
126.1117609165279
 30
0.0
  0
VERTEX
  5
1432
  8
LINE
 10
85.39535696720128
 20
125.385117960198
 30
0.0
  0
VERTEX
  5
1433
  8
LINE
 10
83.85247989280913
 20
124.5964886198699
 30
0.0
  0
VERTEX
  5
1434
  8
LINE
 10
82.51017420139021
 20
123.7763581834928
 30
0.0
  0
VERTEX
  5
1435
  8
LINE
 10
81.42032811650697
 20
122.9564296466699
 30
0.0
  0
VERTEX
  5
1436
  8
LINE
 10
80.62507077287331
 20
122.1683982003669
 30
0.0
  0
VERTEX
  5
1437
  8
LINE
 10
80.15514367080469
 20
121.4427260203173
 30
0.0
  0
VERTEX
  5
1438
  8
LINE
 10
80.02871233152779
 20
120.8074647199143
 30
0.0
  0
VERTEX
  5
1439
  8
LINE
 10
80.25066409005106
 20
120.2871709859
 30
0.0
  0
VERTEX
  5
143A
  8
LINE
 10
80.81241917014322
 20
119.9019573140799
 30
0.0
  0
VERTEX
  5
143B
  8
LINE
 10
81.69226234451328
 20
119.6667145398654
 30
0.0
  0
VERTEX
  5
143C
  8
LINE
 10
82.85618235952246
 20
119.5905362175327
 30
0.0
  0
VERTEX
  5
143D
  8
LINE
 10
84.25918667559229
 20
119.6763670994171
 30
0.0
  0
VERTEX
  5
143E
  8
LINE
 10
85.8470407006498
 20
119.9208893034474
 30
0.0
  0
VERTEX
  5
143F
  8
LINE
 10
87.55836428473108
 20
120.3146505693301
 30
0.0
  0
VERTEX
  5
1440
  8
LINE
 10
89.32700443356204
 20
120.8424296455091
 30
0.0
  0
VERTEX
  5
1441
  8
LINE
 10
91.08459252140362
 20
121.4838246824866
 30
0.0
  0
VERTEX
  5
1442
  8
LINE
 10
92.76318715143715
 20
122.2140418875495
 30
0.0
  0
VERTEX
  5
1443
  8
LINE
 10
94.29790050117131
 20
123.0048539546321
 30
0.0
  0
VERTEX
  5
1444
  8
LINE
 10
95.62940662875518
 20
123.8256912202107
 30
0.0
  0
VERTEX
  5
1445
  8
LINE
 10
96.70623477900645
 20
124.6448233654638
 30
0.0
  0
VERTEX
  5
1446
  8
LINE
 10
97.48675903902334
 20
125.4305859847705
 30
0.0
  0
VERTEX
  5
1447
  8
LINE
 10
97.94080743117169
 20
126.1526046062665
 30
0.0
  0
VERTEX
  5
1448
  8
LINE
 10
98.05082824228323
 20
126.7829688486667
 30
0.0
  0
SEQEND
  5
144C
  8
LINE
  0
LINE
  5
3E1
  8
LINE
 10
89.87743572283097
 20
128.9682804894555
 30
0.0
 11
110.1967604041067
 21
123.5355233261014
 31
0.0
  0
LINE
  5
3E2
  8
LINE
 10
93.3975909043844
 20
132.2182804894555
 30
0.0
 11
112.7975909041961
 21
132.2182804894555
 31
0.0
  0
LINE
  5
3E3
  8
LINE
 10
104.4975909043844
 20
125.0593044758419
 30
0.0
 11
104.4975909043844
 21
132.1709713830728
 31
0.0
  0
LINE
  5
3E6
  8
LINE
 10
85.96787756387215
 20
134.3182804894556
 30
0.0
 11
93.02730424489658
 21
134.3182804894555
 31
0.0
  0
CIRCLE
  5
3E9
  8
LINE
 10
108.0346036277649
 20
139.5005921907541
 30
0.0
 40
1.6361967276
  0
POINT
  5
3EF
  8
DEFPOINTS
  6
BYBLOCK
 62
     0
 10
104.6851278854394
 20
144.5912387642768
 30
0.0
  0
LINE
  5
3F1
  8
LINE
 10
105.4531099875663
 20
134.3364937306396
 30
0.0
 11
113.7975909041961
 21
139.1541820276196
 31
0.0
  0
LINE
  5
3F3
  8
LINE
 10
113.7975909043845
 20
139.8470023507558
 30
0.0
 11
105.4531099933845
 21
144.6646906509693
 31
0.0
  0
LINE
  5
3F5
  8
LINE
 10
104.8531099933845
 20
144.318280489673
 30
0.0
 11
104.8531099877682
 21
134.682903892503
 31
0.0
  0
ARC
  5
3F7
  8
LINE
 10
105.2531099933845
 20
144.3182804894555
 30
0.0
 40
0.4
 50
60.00000000000023
 51
179.9999999688434
  0
ARC
  5
3F8
  8
LINE
 10
113.5975909043844
 20
139.5005921892421
 30
0.0
 40
0.4
 50
299.9999999688492
 51
60.00000000000008
  0
LINE
  5
3FA
  8
LINE
 10
76.99759090438435
 20
141.7182804894555
 30
0.0
 11
101.4520735762887
 21
141.7182804894555
 31
0.0
  0
LINE
  5
3FD
  8
LINE
 10
76.99759090438435
 20
141.7182804894555
 30
0.0
 11
74.99759090438437
 21
139.7182804894555
 31
0.0
  0
LINE
  5
402
  8
DIM
 10
74.99759090438437
 20
139.7182804894555
 30
0.0
 11
101.987971961151
 21
139.7182804894555
 31
0.0
  0
ARC
  5
404
  8
LINE
 10
105.2531099877682
 20
134.6829038922699
 30
0.0
 40
0.4
 50
179.9999999666032
 51
299.9999999666096
  0
LINE
  5
405
  8
LINE
 10
104.8531099933845
 20
144.318280489673
 30
0.0
 11
100.3497778933287
 21
141.7182804894555
 31
0.0
  0
ARC
  5
407
  8
LINE
 10
105.2531099877682
 20
134.6829038922699
 30
0.0
 40
1.5
 50
150.0000000000003
 51
329.9999999999991
  0
LINE
  5
417
  8
LINE
 10
106.5521480934448
 20
133.9329038922699
 30
0.0
 11
107.4511861977769
 21
135.4900835669135
 31
0.0
  0
LINE
  5
418
  8
LINE
 10
103.9540718820915
 20
135.4329038922699
 30
0.0
 11
104.853109989113
 21
136.9900835715716
 31
0.0
  0
LINE
  5
419
  8
LINE
 10
103.9975909043844
 20
132.2182804894555
 30
0.0
 11
101.4520735762887
 21
141.7182804894555
 31
0.0
  0
LINE
  5
41A
  8
LINE
 10
113.7975909041961
 20
139.1541820276196
 30
0.0
 11
113.7975909041961
 21
133.2182804894555
 31
0.0
  0
LINE
  5
41B
  8
LINE
 10
113.7975909041961
 20
133.2182804894555
 30
0.0
 11
112.7975909041961
 21
132.2182804894555
 31
0.0
  0
INSERT
  5
644
  8
LINE
 66
     1
  2
KAISERA
 10
-248.5425107906744
 20
22.25014246604388
 30
0.0
 41
19.5
 42
19.5
 43
19.5
  0
ATTRIB
  5
645
  8
DIM
 10
61.87848774629325
 20
33.72062417206155
 30
0.0
 40
3.9
  1
Insert Holder ENH61/30 TC11
  2
NAME
 70
     0
  0
ATTRIB
  5
646
  8
DIM
 10
62.97485516192182
 20
46.94809500009828
 30
0.0
 40
1.95
  1
NONE
  2
SCALE
 70
     0
  0
ATTRIB
  5
647
  8
DIM
 10
62.56371738106114
 20
42.20345872482426
 30
0.0
 40
1.95
  1
3/28/00
  2
DATE
 70
     0
  0
ATTRIB
  5
648
  8
DIM
 10
144.106043918433
 20
47.23564871375126
 30
0.0
 40
1.95
  1
J.B.
  2
NAME
 70
     0
  0
ATTRIB
  5
649
  8
DIM
 10
143.0096765028046
 20
42.20345872482426
 30
0.0
 40
1.95
  1

  2
REVISED
 70
     0
  0
ATTRIB
  5
64A
  8
DIM
 10
71.88284041390361
 20
27.68199618534913
 30
0.0
 40
1.95
  1

  2
MATERIAL
 70
     0
  0
ATTRIB
  5
64B
  8
DIM
 10
76.13126414946419
 20
24.23135162151345
 30
0.0
 40
1.95
  1

  2
HEATTREAT
 70
     0
  0
ATTRIB
  5
64C
  8
DIM
 10
112.4484347921592
 20
27.39444247169615
 30
0.0
 40
1.95
  1

  2
FINISH
 70
     0
  0
ATTRIB
  5
64D
  8
DIM
 10
133.2794156891013
 20
24.37512847833995
 30
0.0
 40
2.925
  1
11.380.325
  2
DRAWINGNO.
 70
     0
  0
ATTRIB
  5
64E
  8
DIM
 10
-1.325705495896955
 20
24.66268219199293
 30
0.0
 40
2.925
  1
A
  2
REV.
 70
     0
  0
SEQEND
  5
130D
  8
LINE
  0
DIMENSION
  5
65C
  8
DIM
  2
*D2
 10
113.9975909043844
 20
154.9660413355875
 30
0.0
 11
77.72726858624765
 21
154.9660413355875
 31
0.0
 70
    32
  1
71
  3
STANDARD
 13
42.99676040410668
 23
133.2109804894549
 33
0.0
 14
113.9975909043844
 24
139.5005921892421
 34
0.0
1001
ACAD
1000
DSTYLE
1002
{
1070
   288
1070
     1
1070
   140
1040
0.125
1070
   340
1005
1CA
1070
    74
1070
     0
1070
   172
1070
     1
1070
    73
1070
     0
1070
    77
1070
     1
1070
    40
1040
20.0
1070
   147
1040
0.05
1070
    44
1040
0.0625
1070
   141
1040
0.0
1070
    41
1040
0.12
1002
}
  0
LINE
  5
668
  8
0
  6
BYBLOCK
 62
     0
 10
106.5031099933845
 20
144.7182804894555
 30
0.0
 11
138.3993904354656
 21
144.7182804894555
 31
0.0
  0
LINE
  5
669
  8
0
  6
BYBLOCK
 62
     0
 10
137.1493904354656
 20
142.3182804894555
 30
0.0
 11
137.1493904354656
 21
103.2283953193201
 31
0.0
  0
SOLID
  5
66A
  8
0
  6
BYBLOCK
 62
     0
 10
136.7493904354656
 20
142.3182804894555
 30
0.0
 11
137.5493904354657
 21
142.3182804894555
 31
0.0
 12
137.1493904354656
 22
144.7182804894555
 32
0.0
 13
137.1493904354656
 23
144.7182804894555
 33
0.0
  0
TEXT
  5
66B
  8
0
  6
CONTINUOUS
 62
     0
 10
136.1493904354656
 20
103.813588771701
 30
0.0
 40
2.5
  1
ø68 MIN.
 50
90.0
  7
ROMANS
  0
POINT
  5
66C
  8
DEFPOINTS
  6
BYBLOCK
 62
     0
 10
109.2537933712608
 20
75.92742384021793
 30
0.0
  0
POINT
  5
66D
  8
DEFPOINTS
  6
BYBLOCK
 62
     0
 10
105.2531099933845
 20
144.7182804894555
 30
0.0
  0
POINT
  5
66E
  8
DEFPOINTS
  6
BYBLOCK
 62
     0
 10
137.1493904354656
 20
144.7182804894555
 30
0.0
  0
TEXT
  5
66F
  8
0
  6
CONTINUOUS
 62
     0
 10
140.9340284662637
 20
102.1469221050343
 30
0.0
 40
2.5
  1
ø100 MAX.
 50
90.0
  7
ROMANS
  0
LINE
  5
670
  8
DIM
 10
108.0346036277649
 20
139.5005921907541
 30
0.0
 11
126.808398602542
 21
155.1203276578899
 31
0.0
  0
LINE
  5
671
  8
DIM
 10
126.808398602542
 20
155.1203276578899
 30
0.0
 11
151.1946202078575
 21
155.1203276578899
 31
0.0
  0
TEXT
  5
672
  8
DIM
 10
127.5801143738697
 20
156.3546139159423
 30
0.0
 40
2.5
  1
TCMT110204
  7
ROMANS
  0
DIMENSION
  5
67E
  8
DIM
  2
*D3
 10
105.2531099933845
 20
149.566038200544
 30
0.0
 11
74.17737529244164
 21
149.566038200544
 31
0.0
 70
    32
  1
62.3
  3
STANDARD
 13
42.99676040410668
 23
133.2109804894549
 33
0.0
 14
105.2531099933845
 24
144.7182804894555
 34
0.0
1001
ACAD
1000
DSTYLE
1002
{
1070
   288
1070
     1
1070
   140
1040
0.125
1070
   340
1005
1CA
1070
    74
1070
     0
1070
   172
1070
     1
1070
    73
1070
     0
1070
    77
1070
     1
1070
    75
1070
     1
1070
    40
1040
20.0
1070
   147
1040
0.05
1070
    44
1040
0.0625
1070
   141
1040
0.0
1070
    41
1040
0.12
1002
}
  0
DIMENSION
  5
689
  8
DIM
  2
*D4
 10
113.9975909043844
 20
149.566038200544
 30
0.0
 11
109.6253504488844
 21
149.566038200544
 31
0.0
 70
    32
  1
(8.7)
  3
STANDARD
 13
105.2531099933845
 23
149.566038200544
 33
0.0
 14
113.9975909043844
 24
149.566038200544
 34
0.0
1001
ACAD
1000
DSTYLE
1002
{
1070
   288
1070
     1
1070
   140
1040
0.125
1070
   340
1005
1CA
1070
    74
1070
     0
1070
   172
1070
     1
1070
    73
1070
     0
1070
    77
1070
     1
1070
    76
1070
     1
1070
    75
1070
     1
1070
    40
1040
20.0
1070
   147
1040
0.05
1070
    44
1040
0.0625
1070
   141
1040
0.0
1070
    41
1040
0.12
1002
}
  0
DIMENSION
  5
697
  8
DIM
  2
*D5
 10
138.3993904354656
 20
144.7182804894555
 30
0.0
 11
130.8213208620122
 21
138.6117456081545
 31
0.0
 70
    34
  1
30%%D
  3
STANDARD
 13
113.7975909043845
 23
139.8470023507558
 33
0.0
 14
105.4531099933845
 24
144.6646906509693
 34
0.0
 15
106.5031099933845
 25
144.7182804894555
 35
0.0
 16
129.9643403123993
 26
135.763138413374
 36
0.0
1001
ACAD
1000
DSTYLE
1002
{
1070
   288
1070
     1
1070
   140
1040
0.125
1070
   340
1005
1CA
1070
    74
1070
     0
1070
   172
1070
     1
1070
    73
1070
     0
1070
    77
1070
     1
1070
    75
1070
     1
1070
    40
1040
20.0
1070
   147
1040
0.05
1070
    44
1040
0.0625
1070
   141
1040
0.0
1070
    41
1040
0.12
1002
}
  0
VIEWPORT
  5
12AB
 67
     1
  8
0
 10
7.8
 20
4.5
 30
0.0
 40
15.64
 41
9.0
 68
     1
 69
     1
1001
ACAD
1000
MVIEW
1002
{
1070
    16
1010
0.0
1020
0.0
1030
0.0
1020
0.0
1030
0.0
1010
0.0
1020
0.0
1030
1.0
1020
0.0
1030
1.0
1040
0.0
1040
12.0
1040
6.0
1040
4.5
1040
50.0
1040
0.0
1040
0.0
1070
    16
1070
   100
1070
     0
1070
     3
1070
     0
1070
     0
1070
     0
1070
     0
1040
0.0
1040
0.0
1040
0.0
1040
0.5
1040
0.5
1040
0.5
1040
0.5
1070
     0
1002
{
1002
}
1002
}
  0
ENDSEC
  0
EOF
