  0
SECTION
  2
HEADER
  9
$ACADVER
  1
AC1009
  9
$DWGCODEPAGE
  3
ansi_1252
  9
$INSBASE
 10
0.0
 20
0.0
 30
0.0
  9
$EXTMIN
 10
-2.746239372378625
 20
24.01646354685803
 30
0.0
  9
$EXTMAX
 10
163.9274606276213
 20
149.427863546858
 30
0.0
  9
$LIMMIN
 10
0.0
 20
0.0
  9
$LIMMAX
 10
12.0
 20
9.0
  9
$ORTHOMODE
 70
     0
  9
$REGENMODE
 70
     1
  9
$FILLMODE
 70
     1
  9
$QTEXTMODE
 70
     0
  9
$MIRRTEXT
 70
     1
  9
$DRAGMODE
 70
     2
  9
$LTSCALE
 40
5.0
  9
$OSMODE
 70
   511
  9
$ATTMODE
 70
     1
  9
$TEXTSIZE
 40
2.0
  9
$TRACEWID
 40
0.05
  9
$TEXTSTYLE
  7
ROMANS
  9
$CLAYER
  8
DIM
  9
$CELTYPE
  6
BYLAYER
  9
$CECOLOR
 62
   256
  9
$DIMSCALE
 40
10.0
  9
$DIMASZ
 40
0.12
  9
$DIMEXO
 40
0.0625
  9
$DIMDLI
 40
0.38
  9
$DIMRND
 40
0.0
  9
$DIMDLE
 40
0.0
  9
$DIMEXE
 40
0.0625
  9
$DIMTP
 40
0.0
  9
$DIMTM
 40
0.0
  9
$DIMTXT
 40
0.125
  9
$DIMCEN
 40
0.0
  9
$DIMTSZ
 40
0.0
  9
$DIMTOL
 70
     0
  9
$DIMLIM
 70
     0
  9
$DIMTIH
 70
     0
  9
$DIMTOH
 70
     0
  9
$DIMSE1
 70
     0
  9
$DIMSE2
 70
     0
  9
$DIMTAD
 70
     1
  9
$DIMZIN
 70
     0
  9
$DIMBLK
  1

  9
$DIMASO
 70
     1
  9
$DIMSHO
 70
     1
  9
$DIMPOST
  1

  9
$DIMAPOST
  1

  9
$DIMALT
 70
     0
  9
$DIMALTD
 70
     2
  9
$DIMALTF
 40
25.4
  9
$DIMLFAC
 40
1.0
  9
$DIMTOFL
 70
     1
  9
$DIMTVP
 40
0.0
  9
$DIMTIX
 70
     0
  9
$DIMSOXD
 70
     0
  9
$DIMSAH
 70
     0
  9
$DIMBLK1
  1

  9
$DIMBLK2
  1

  9
$DIMSTYLE
  2
STANDARD
  9
$DIMCLRD
 70
     0
  9
$DIMCLRE
 70
     0
  9
$DIMCLRT
 70
     0
  9
$DIMTFAC
 40
1.0
  9
$DIMGAP
 40
0.05
  9
$LUNITS
 70
     2
  9
$LUPREC
 70
     4
  9
$SKETCHINC
 40
0.1
  9
$FILLETRAD
 40
0.0
  9
$AUNITS
 70
     0
  9
$AUPREC
 70
     0
  9
$MENU
  1
.
  9
$ELEVATION
 40
0.0
  9
$PELEVATION
 40
0.0
  9
$THICKNESS
 40
0.0
  9
$LIMCHECK
 70
     0
  9
$CHAMFERA
 40
1.0
  9
$CHAMFERB
 40
1.0
  9
$SKPOLY
 70
     0
  9
$TDCREATE
 40
2453353.508792488
  9
$TDUPDATE
 40
2457253.613251018
  9
$TDINDWG
 40
0.2007921991
  9
$TDUSRTIMER
 40
2457253.821342546
  9
$USRTIMER
 70
     1
  9
$ANGBASE
 50
0.0
  9
$ANGDIR
 70
     0
  9
$PDMODE
 70
    65
  9
$PDSIZE
 40
-2.0
  9
$PLINEWID
 40
0.0
  9
$COORDS
 70
     2
  9
$SPLFRAME
 70
     0
  9
$SPLINETYPE
 70
     6
  9
$SPLINESEGS
 70
     8
  9
$ATTDIA
 70
     0
  9
$ATTREQ
 70
     1
  9
$HANDLING
 70
     1
  9
$HANDSEED
  5
12B5
  9
$SURFTAB1
 70
     6
  9
$SURFTAB2
 70
     6
  9
$SURFTYPE
 70
     6
  9
$SURFU
 70
     6
  9
$SURFV
 70
     6
  9
$UCSNAME
  2

  9
$UCSORG
 10
0.0
 20
0.0
 30
0.0
  9
$UCSXDIR
 10
1.0
 20
0.0
 30
0.0
  9
$UCSYDIR
 10
0.0
 20
1.0
 30
0.0
  9
$PUCSNAME
  2

  9
$PUCSORG
 10
0.0
 20
0.0
 30
0.0
  9
$PUCSXDIR
 10
1.0
 20
0.0
 30
0.0
  9
$PUCSYDIR
 10
0.0
 20
1.0
 30
0.0
  9
$USERI1
 70
     0
  9
$USERI2
 70
     0
  9
$USERI3
 70
     0
  9
$USERI4
 70
     0
  9
$USERI5
 70
     0
  9
$USERR1
 40
0.0
  9
$USERR2
 40
0.0
  9
$USERR3
 40
0.0
  9
$USERR4
 40
0.0
  9
$USERR5
 40
0.0
  9
$WORLDVIEW
 70
     1
  9
$SHADEDGE
 70
     3
  9
$SHADEDIF
 70
    70
  9
$TILEMODE
 70
     1
  9
$MAXACTVP
 70
    16
  9
$PLIMCHECK
 70
     0
  9
$PEXTMIN
 10
0.0
 20
0.0
 30
0.0
  9
$PEXTMAX
 10
0.0
 20
0.0
 30
0.0
  9
$PLIMMIN
 10
0.0
 20
0.0
  9
$PLIMMAX
 10
229.0
 20
162.0
  9
$UNITMODE
 70
     0
  9
$VISRETAIN
 70
     0
  9
$PLINEGEN
 70
     0
  9
$PSLTSCALE
 70
     1
  0
ENDSEC
  0
SECTION
  2
TABLES
  0
TABLE
  2
VPORT
 70
     1
  0
VPORT
  2
*ACTIVE
 70
     0
 10
0.0
 20
0.0
 11
1.0
 21
1.0
 12
80.59061062762136
 22
86.72216354685804
 13
0.0
 23
0.0
 14
1.0
 24
1.0
 15
0.0
 25
0.0
 16
0.0
 26
0.0
 36
1.0
 17
0.0
 27
0.0
 37
0.0
 40
127.919628
 41
1.342896174863388
 42
50.0
 43
0.0
 44
0.0
 50
0.0
 51
0.0
 71
    16
 72
  1000
 73
     1
 74
     0
 75
     0
 76
     0
 77
     0
 78
     0
  0
ENDTAB
  0
TABLE
  2
LTYPE
 70
     4
  0
LTYPE
  2
CONTINUOUS
 70
     0
  3
Solid line
 72
    65
 73
     0
 40
0.0
  0
LTYPE
  2
HIDDEN
 70
     0
  3
__ __ __ __ __ __ __ __ __ __ __ __ __ __ __ __
 72
    65
 73
     2
 40
0.375
 49
0.25
 49
-0.125
  0
LTYPE
  2
PHANTOM
 70
     0
  3
______  __  __  ______  __  __  ______  __  __ 
 72
    65
 73
     6
 40
2.5
 49
1.25
 49
-0.25
 49
0.25
 49
-0.25
 49
0.25
 49
-0.25
  0
LTYPE
  2
CENTER
 70
     0
  3
____ _ ____ _ ____ _ ____ _ ____ _ ____ _ ____
 72
    65
 73
     4
 40
2.0
 49
1.25
 49
-0.25
 49
0.25
 49
-0.25
  0
ENDTAB
  0
TABLE
  2
LAYER
 70
    11
  0
LAYER
  2
0
 70
     0
 62
     7
  6
CONTINUOUS
  0
LAYER
  2
LINE
 70
     0
 62
     3
  6
CONTINUOUS
  0
LAYER
  2
HIDDEN
 70
     0
 62
     2
  6
HIDDEN
  0
LAYER
  2
DIM
 70
     0
 62
     7
  6
CONTINUOUS
  0
LAYER
  2
HATCH
 70
     0
 62
     6
  6
CONTINUOUS
  0
LAYER
  2
PHAN
 70
     0
 62
     2
  6
PHANTOM
  0
LAYER
  2
CTRL
 70
     0
 62
     1
  6
CENTER
  0
LAYER
  2
INSERT
 70
     0
 62
     4
  6
CONTINUOUS
  0
LAYER
  2
DEFPOINTS
 70
     0
 62
     7
  6
CONTINUOUS
  0
LAYER
  2
BORDER
 70
     0
 62
     3
  6
CONTINUOUS
  0
LAYER
  2
FRAME
 70
     0
 62
     4
  6
CONTINUOUS
  0
ENDTAB
  0
TABLE
  2
STYLE
 70
     3
  0
STYLE
  2
STANDARD
 70
     0
 40
0.0
 41
1.0
 50
0.0
 71
     0
 42
0.2
  3
txt
  4

  0
STYLE
  2
ROMANS
 70
     0
 40
0.0
 41
1.0
 50
0.0
 71
     0
 42
2.0
  3
romans
  4

  0
STYLE
  2
STYLE1
 70
     0
 40
0.0
 41
1.0
 50
0.0
 71
     0
 42
0.2
  3
Italic.shx
  4

  0
ENDTAB
  0
TABLE
  2
VIEW
 70
     0
  0
ENDTAB
  0
TABLE
  2
UCS
 70
     0
  0
ENDTAB
  0
TABLE
  2
APPID
 70
     1
  0
APPID
  2
ACAD
 70
     0
  0
ENDTAB
  0
TABLE
  2
DIMSTYLE
 70
     1
  0
DIMSTYLE
  2
STANDARD
 70
     0
  3

  4

  5

  6

  7

 40
1.0
 41
0.18
 42
0.0625
 43
0.38
 44
0.18
 45
0.0
 46
0.0
 47
0.0
 48
0.0
140
0.18
141
0.09
142
0.0
143
25.4
144
1.0
145
0.0
146
1.0
147
0.09
 71
     0
 72
     0
 73
     1
 74
     1
 75
     0
 76
     0
 77
     0
 78
     0
170
     0
171
     2
172
     0
173
     0
174
     0
175
     0
176
     0
177
     0
178
     0
  0
ENDTAB
  0
ENDSEC
  0
SECTION
  2
BLOCKS
  0
BLOCK
  8
0
  2
$MODEL_SPACE
 70
     0
 10
0.0
 20
0.0
 30
0.0
  3
$MODEL_SPACE
  1

  0
ENDBLK
  5
21
  8
0
  0
BLOCK
 67
     1
  8
0
  2
$PAPER_SPACE
 70
     0
 10
0.0
 20
0.0
 30
0.0
  3
$PAPER_SPACE
  1

  0
ENDBLK
  5
76
 67
     1
  8
0
  0
BLOCK
  8
0
  2
*D0
 70
     1
 10
0.0
 20
0.0
 30
0.0
  3
*D0
  1

  0
LINE
  5
4BA
  8
0
  6
BYBLOCK
 62
     0
 10
60.20124192968882
 20
105.1682747466843
 30
0.0
 11
60.20124192968882
 21
124.2055873052997
 31
0.0
  0
LINE
  5
4BB
  8
0
  6
BYBLOCK
 62
     0
 10
109.2012419296888
 20
107.4425864464709
 30
0.0
 11
109.2012419296888
 21
124.2055873052997
 31
0.0
  0
LINE
  5
4BC
  8
0
  6
BYBLOCK
 62
     0
 10
62.00124192968882
 20
123.2680873052997
 30
0.0
 11
107.4012419296888
 21
123.2680873052997
 31
0.0
  0
SOLID
  5
4BD
  8
0
  6
BYBLOCK
 62
     0
 10
62.00124192968882
 20
123.5680873052997
 30
0.0
 11
62.00124192968882
 21
122.9680873052997
 31
0.0
 12
60.20124192968882
 22
123.2680873052997
 32
0.0
 13
60.20124192968882
 23
123.2680873052997
 33
0.0
  0
SOLID
  5
4BE
  8
0
  6
BYBLOCK
 62
     0
 10
107.4012419296888
 20
123.5680873052997
 30
0.0
 11
107.4012419296888
 21
122.9680873052997
 31
0.0
 12
109.2012419296888
 22
123.2680873052997
 32
0.0
 13
109.2012419296888
 23
123.2680873052997
 33
0.0
  0
TEXT
  5
4BF
  8
0
  6
CONTINUOUS
 62
     0
 10
83.6194123792944
 20
124.0180873052997
 30
0.0
 40
1.875
  1
49
  7
ROMANS
  0
POINT
  5
4C0
  8
DEFPOINTS
  6
BYBLOCK
 62
     0
 10
60.20124192968882
 20
104.2307747466843
 30
0.0
  0
POINT
  5
4C1
  8
DEFPOINTS
  6
BYBLOCK
 62
     0
 10
109.2012419296888
 20
106.5050864464709
 30
0.0
  0
POINT
  5
4C2
  8
DEFPOINTS
  6
BYBLOCK
 62
     0
 10
109.2012419296888
 20
123.2680873052997
 30
0.0
  0
ENDBLK
  5
1184
  8
0
  0
BLOCK
  8
0
  2
*D1
 70
     1
 10
0.0
 20
0.0
 30
0.0
  3
*D1
  1

  0
LINE
  5
4DA
  8
0
  6
BYBLOCK
 62
     0
 10
109.8131407457367
 20
106.3827466079847
 30
0.0
 11
117.2059659585845
 21
102.1144969812751
 31
0.0
  0
ARC
  5
4DB
  8
0
  6
BYBLOCK
 62
     0
 10
100.5639406956613
 20
111.7227747466844
 30
0.0
 40
18.2790555308185
 50
335.6443900108532
 51
354.3556099891467
  0
SOLID
  5
4DC
  8
0
  6
BYBLOCK
 62
     0
 10
117.4831011928322
 20
104.047489050503
 30
0.0
 11
116.9493451676612
 21
104.321541063073
 31
0.0
 12
116.3940671425366
 22
102.5832469812751
 32
0.0
 13
116.3940671425366
 23
102.5832469812751
 33
0.0
  0
SOLID
  5
4DD
  8
0
  6
BYBLOCK
 62
     0
 10
118.4547340615021
 20
109.939728900037
 30
0.0
 11
119.0540063450082
 21
109.9101868922954
 31
0.0
 12
118.8429962264798
 22
111.7227747466844
 32
0.0
 13
118.8429962264798
 23
111.7227747466844
 33
0.0
  0
TEXT
  5
4DE
  8
0
  6
CONTINUOUS
 62
     0
 10
117.173763881764
 20
105.7234954031023
 30
0.0
 40
1.875
  1
30°
 50
77.12393438566393
  7
ROMANS
  0
POINT
  5
4DF
  8
DEFPOINTS
  6
BYBLOCK
 62
     0
 10
117.7406342929073
 20
105.470969554176
 30
0.0
  0
POINT
  5
4E0
  8
DEFPOINTS
  6
BYBLOCK
 62
     0
 10
101.3942610186889
 20
111.7227747466844
 30
0.0
  0
POINT
  5
4E1
  8
DEFPOINTS
  6
BYBLOCK
 62
     0
 10
109.0012419296888
 20
106.8514966079847
 30
0.0
  0
POINT
  5
4E2
  8
DEFPOINTS
  6
BYBLOCK
 62
     0
 10
100.6567610186889
 20
111.6691849081982
 30
0.0
  0
POINT
  5
4E3
  8
DEFPOINTS
  6
BYBLOCK
 62
     0
 10
123.3910997306481
 20
111.7227747466844
 30
0.0
  0
ENDBLK
  5
1186
  8
0
  0
BLOCK
  8
0
  2
KAISERA
 70
     2
 10
0.0
 20
0.0
 30
0.0
  3
KAISERA
  1

  0
LINE
  5
64B
  8
BORDER
 10
10.74
 20
0.0
 30
0.0
 11
21.0
 21
0.0
 31
0.0
  0
LINE
  5
64C
  8
BORDER
 10
21.0
 20
0.0
 30
0.0
 11
21.0
 21
7.720000000000001
 31
0.0
  0
LINE
  5
64D
  8
BORDER
 10
15.5
 20
0.0
 30
0.0
 11
15.5
 21
2.0
 31
0.0
  0
LINE
  5
64E
  8
BORDER
 10
15.5
 20
2.0
 30
0.0
 11
21.0
 21
2.0
 31
0.0
  0
LINE
  5
64F
  8
BORDER
 10
15.5
 20
1.45
 30
0.0
 11
21.0
 21
1.45
 31
0.0
  0
LINE
  5
650
  8
BORDER
 10
15.5
 20
0.9500000000000002
 30
0.0
 11
21.0
 21
0.9500000000000002
 31
0.0
  0
LINE
  5
651
  8
BORDER
 10
15.5
 20
0.4500000000000002
 30
0.0
 11
21.0
 21
0.4500000000000002
 31
0.0
  0
LINE
  5
652
  8
BORDER
 10
19.54
 20
0.0
 30
0.0
 11
19.54
 21
0.4500000000000002
 31
0.0
  0
LINE
  5
653
  8
BORDER
 10
19.54
 20
0.9500000000000002
 30
0.0
 11
19.54
 21
1.45
 31
0.0
  0
LINE
  5
654
  8
BORDER
 10
15.5
 20
1.19
 30
0.0
 11
17.02
 21
1.19
 31
0.0
  0
LINE
  5
655
  8
BORDER
 10
17.02
 20
0.9500000000000002
 30
0.0
 11
17.02
 21
1.45
 31
0.0
  0
LINE
  5
656
  8
BORDER
 10
19.54
 20
1.19
 30
0.0
 11
21.0
 21
1.19
 31
0.0
  0
TEXT
  5
657
  8
BORDER
 10
19.62
 20
0.3400000000000002
 30
0.0
 40
0.06
  1
DRAWING NUMBER
  0
TEXT
  5
658
  8
BORDER
 10
19.62
 20
1.025
 30
0.0
 40
0.06
  1
REVISED
  0
TEXT
  5
659
  8
BORDER
 10
19.6
 20
1.29
 30
0.0
 40
0.06
  1
DRAWN BY
  0
TEXT
  5
65A
  8
BORDER
 10
17.09
 20
1.33
 30
0.0
 40
0.06
  1
APPROVED BY
  0
TEXT
  5
65B
  8
BORDER
 10
15.58
 20
1.29
 30
0.0
 40
0.06
  1
SCALE:
  0
TEXT
  5
65C
  8
BORDER
 10
15.58
 20
1.03
 30
0.0
 40
0.06
  1
DATE:
  0
TEXT
  5
65D
  8
DIM
 10
18.30854429236822
 20
1.804803234994252
 30
0.0
 40
0.1
  1
641 FARGO
  0
TEXT
  5
65E
  8
DIM
 10
18.30854429236822
 20
1.638136568327585
 30
0.0
 40
0.1
  1
ELK GROVE VILLAGE, IL
  0
TEXT
  5
65F
  8
DIM
 10
19.81956348698446
 20
1.487756832761487
 30
0.0
 40
0.1
  1
 60007
  0
ATTDEF
  5
660
  8
DIM
 10
15.91902556599834
 20
0.5882298310778304
 30
0.0
 40
0.2
  1

  3

  2
NAME
 70
     0
  0
ATTDEF
  5
661
  8
DIM
 10
15.97524953603057
 20
1.266561668413047
 30
0.0
 40
0.1
  1

  3

  2
SCALE
 70
     0
  0
ATTDEF
  5
662
  8
DIM
 10
15.95416554726849
 20
1.023246987629763
 30
0.0
 40
0.1
  1

  3

  2
DATE
 70
     0
  0
ATTDEF
  5
663
  8
DIM
 10
20.13582331841577
 20
1.281308012702943
 30
0.0
 40
0.1
  1
J.B.
  3

  2
NAME
 70
     0
  0
ATTDEF
  5
664
  8
DIM
 10
20.07959934838354
 20
1.023246987629763
 30
0.0
 40
0.1
  1

  3

  2
REVISED
 70
     0
  0
TEXT
  5
665
  8
DIM
 10
15.59573773831301
 20
0.2785566009900141
 30
0.0
 40
0.1
  1
MATERIAL:
  0
TEXT
  5
666
  8
DIM
 10
15.59573773831301
 20
0.1045167621783995
 30
0.0
 40
0.1
  1
HEAT TREAT:
  0
TEXT
  5
667
  8
DIM
 10
17.92200449839662
 20
0.271183428845066
 30
0.0
 40
0.1
  1
FINISH:
  0
ATTDEF
  5
668
  8
DIM
 10
16.43206929254246
 20
0.2785566009900141
 30
0.0
 40
0.1
  1

  3

  2
MATERIAL
 70
     0
  0
ATTDEF
  5
669
  8
DIM
 10
16.64993717641736
 20
0.1016004695112617
 30
0.0
 40
0.1
  1

  3

  2
HEATTREAT
 70
     0
  0
ATTDEF
  5
66A
  8
DIM
 10
18.51235618373506
 20
0.2638102567001179
 30
0.0
 40
0.1
  1

  3

  2
FINISH
 70
     0
  0
ATTDEF
  5
66B
  8
DIM
 10
19.58061161434747
 20
0.1089736416562099
 30
0.0
 40
0.15
  1

  3

  2
DRAWINGNO.
 70
     0
  0
LINE
  5
66C
  8
LINE
 10
13.01778291634846
 20
0.4500000000000002
 30
0.0
 11
12.51778291634846
 21
0.4500000000000002
 31
0.0
  0
LINE
  5
66D
  8
LINE
 10
12.51778291634846
 20
0.4500000000000002
 30
0.0
 11
12.51778291634846
 21
0.0
 31
0.0
  0
TEXT
  5
66E
  8
DIM
 10
12.6145329206254
 20
0.3006761174248581
 30
0.0
 40
0.1
  1
REV.
  0
ATTDEF
  5
66F
  8
DIM
 10
12.67778488691166
 20
0.1237199859461057
 30
0.0
 40
0.15
  1
A
  3

  2
REV.
 70
     0
  0
TEXT
  5
670
  8
DIM
 10
11.9943702101711
 20
7.35567745037055
 30
0.0
 40
0.06
  1
THIS DOCUMENT CONTAINS PROPRIETARY INFORMATION OF KAISER PRECISION TOOLING, INC. AND IS SUBJECT TO BEING RETURNED UPON REQUEST.
  0
TEXT
  5
671
  8
DIM
 10
11.9943702101711
 20
7.25567745037055
 30
0.0
 40
0.06
  1
IT IS NOT TO BE REPRODUCED WITHOUT WRITTEN CONSENT OF KAISER PRECISION TOOLING, INC. ANY REPRODUCTION MUST INCLUDE THIS ENTIRE LEGEND.
  0
LINE
  5
672
  8
LINE
 10
13.01778291634846
 20
2.0
 30
0.0
 11
15.5
 21
2.0
 31
0.0
  0
LINE
  5
673
  8
LINE
 10
13.01778291634846
 20
2.0
 30
0.0
 11
13.01778291634846
 21
0.0
 31
0.0
  0
TEXT
  5
674
  8
DIM
 10
13.2846517690308
 20
1.847932127646515
 30
0.0
 40
0.08
  1
UNLESS OTHERWISE SPECIFIED
  0
TEXT
  5
675
  8
DIM
 10
13.2846517690308
 20
1.714598794313182
 30
0.0
 40
0.08
  1
BREAK ALL EDGES .015x45%%D
  0
TEXT
  5
676
  8
DIM
 10
13.2846517690308
 20
1.581265460979848
 30
0.0
 40
0.08
  1
SURFACE FINISH=64 OR BETTER
  0
TEXT
  5
677
  8
DIM
 10
13.2846517690308
 20
1.447932127646515
 30
0.0
 40
0.08
  1
DECIMAL: .XX=%%P.015
  0
TEXT
  5
678
  8
DIM
 10
13.2846517690308
 20
1.314598794313182
 30
0.0
 40
0.08
  1
        .XXX=%%P.005
  0
TEXT
  5
679
  8
DIM
 10
13.2846517690308
 20
1.181265460979849
 30
0.0
 40
0.08
  1
        .XXXX=%%P.0005
  0
TEXT
  5
67A
  8
DIM
 10
13.2846517690308
 20
1.047932127646515
 30
0.0
 40
0.08
  1
ANGULAR: DEGREE=%%P1%%D
  0
TEXT
  5
67B
  8
DIM
 10
13.2846517690308
 20
0.9145987943131819
 30
0.0
 40
0.08
  1
        MINUTES=%%P15'
  0
TEXT
  5
67C
  8
DIM
 10
13.27289272387865
 20
0.560597969831885
 30
0.0
 40
0.1
  1
DO NOT SCALE DRAWING
  0
TEXT
  5
67D
  8
DIM
 10
16.72730843827956
 20
1.553756424222531
 30
0.0
 40
0.072
  1
PRECISION TOOLING,INC.
 50
359.9394791519117
 41
1.034257277458628
  7
ROMANS
 72
     5
 11
18.06844978691984
 21
1.552339792095294
 31
0.0
  0
ARC
  5
67E
  8
DIM
 10
18.07878305046467
 20
1.672226935313698
 30
0.0
 40
0.06
 50
180.0
 51
194.366235341689
  0
ARC
  5
67F
  8
DIM
 10
18.09978305046467
 20
1.675066229854647
 30
0.0
 40
0.036
 50
180.0
 51
209.4985180895017
  0
ARC
  5
680
  8
DIM
 10
17.99178305046467
 20
1.752589792095294
 30
0.0
 40
0.027
 50
0.0
 51
90.0
  0
ARC
  5
681
  8
DIM
 10
18.02628305046467
 20
1.760839792095294
 30
0.0
 40
0.0375
 50
0.0
 51
89.99999999999861
  0
ARC
  5
682
  8
DIM
 10
18.02628305046467
 20
1.835839792095293
 30
0.0
 40
0.0375
 50
270.0
 51
0.0
  0
LINE
  5
683
  8
DIM
 10
18.02065927764503
 20
1.657339792095293
 30
0.0
 11
18.06844978691984
 21
1.657339792095293
 31
0.0
  0
LINE
  5
684
  8
DIM
 10
18.01878305046467
 20
1.752589792095294
 30
0.0
 11
18.01878305046467
 21
1.672226935313698
 31
0.0
  0
LINE
  5
685
  8
DIM
 10
18.06378305046467
 20
1.892539792095294
 30
0.0
 11
18.06378305046467
 21
1.835839792095293
 31
0.0
  0
ARC
  5
686
  8
DIM
 10
18.00078305046467
 20
1.835089792095295
 30
0.0
 40
0.018
 50
270.0
 51
0.0
  0
ARC
  5
687
  8
DIM
 10
18.00078305046467
 20
1.883839792095293
 30
0.0
 40
0.018
 50
0.0
 51
90.0
  0
LINE
  5
688
  8
DIM
 10
18.01878305046467
 20
1.835089792095295
 30
0.0
 11
18.01878305046467
 21
1.883839792095293
 31
0.0
  0
LINE
  5
689
  8
DIM
 10
17.97078305046466
 20
1.817089792095294
 30
0.0
 11
17.97078305046467
 21
1.901839792095294
 31
0.0
  0
LINE
  5
68A
  8
DIM
 10
17.92578305046467
 20
1.657339792095293
 30
0.0
 11
17.97078305046467
 21
1.657339792095293
 31
0.0
  0
LINE
  5
68B
  8
DIM
 10
17.99178305046467
 20
1.779589792095294
 30
0.0
 11
17.97078305046467
 21
1.779589792095294
 31
0.0
  0
LINE
  5
68C
  8
DIM
 10
18.00078305046467
 20
1.817089792095295
 30
0.0
 11
17.97078305046467
 21
1.817089792095294
 31
0.0
  0
LINE
  5
68D
  8
DIM
 10
17.97078305046467
 20
1.657339792095293
 30
0.0
 11
17.97078305046467
 21
1.779589792095294
 31
0.0
  0
LINE
  5
68E
  8
DIM
 10
17.97078305046467
 20
1.901839792095294
 30
0.0
 11
18.00078305046467
 21
1.901839792095293
 31
0.0
  0
ARC
  5
68F
  8
DIM
 10
18.01698305046467
 20
1.892539792095294
 30
0.0
 40
0.0468
 50
0.0
 51
90.0
  0
LINE
  5
690
  8
DIM
 10
18.06378305046467
 20
1.675066229854647
 30
0.0
 11
18.06378305046467
 21
1.760839792095294
 31
0.0
  0
LINE
  5
691
  8
DIM
 10
17.92578305046467
 20
1.939339792095294
 30
0.0
 11
18.01698305046467
 21
1.939339792095294
 31
0.0
  0
LINE
  5
692
  8
DIM
 10
17.92578305046467
 20
1.657339792095293
 30
0.0
 11
17.92578305046467
 21
1.939339792095294
 31
0.0
  0
LINE
  5
693
  8
DIM
 10
17.83578305046467
 20
1.817089792095294
 30
0.0
 11
17.83578305046467
 21
1.901839792095294
 31
0.0
  0
LINE
  5
694
  8
DIM
 10
17.89878305046467
 20
1.779589792095294
 30
0.0
 11
17.89878305046467
 21
1.817089792095294
 31
0.0
  0
LINE
  5
695
  8
DIM
 10
17.89878305046467
 20
1.779589792095294
 30
0.0
 11
17.83578305046467
 21
1.779589792095294
 31
0.0
  0
LINE
  5
696
  8
DIM
 10
17.89878305046467
 20
1.817089792095294
 30
0.0
 11
17.83578305046467
 21
1.817089792095294
 31
0.0
  0
LINE
  5
697
  8
DIM
 10
17.89878305046467
 20
1.901839792095294
 30
0.0
 11
17.89878305046467
 21
1.939339792095294
 31
0.0
  0
LINE
  5
698
  8
DIM
 10
17.83578305046467
 20
1.901839792095294
 30
0.0
 11
17.89878305046467
 21
1.901839792095294
 31
0.0
  0
LINE
  5
699
  8
DIM
 10
17.83578305046467
 20
1.694839792095293
 30
0.0
 11
17.89878305046467
 21
1.694839792095293
 31
0.0
  0
LINE
  5
69A
  8
DIM
 10
17.83578305046467
 20
1.694839792095293
 30
0.0
 11
17.83578305046467
 21
1.779589792095294
 31
0.0
  0
LINE
  5
69B
  8
DIM
 10
17.79078305046467
 20
1.939339792095294
 30
0.0
 11
17.89878305046467
 21
1.939339792095294
 31
0.0
  0
LINE
  5
69C
  8
DIM
 10
17.79078305046467
 20
1.657339792095293
 30
0.0
 11
17.79078305046467
 21
1.939339792095294
 31
0.0
  0
LINE
  5
69D
  8
DIM
 10
17.89878305046467
 20
1.657339792095293
 30
0.0
 11
17.89878305046467
 21
1.694839792095293
 31
0.0
  0
LINE
  5
69E
  8
DIM
 10
17.79078305046467
 20
1.657339792095293
 30
0.0
 11
17.89878305046467
 21
1.657339792095293
 31
0.0
  0
ARC
  5
69F
  8
DIM
 10
17.68906498828673
 20
1.892539792095293
 30
0.0
 40
0.0468
 50
90.0
 51
205.0000000000001
  0
LINE
  5
6A0
  8
DIM
 10
17.64078305046467
 20
1.694839792095293
 30
0.0
 11
17.64078305046467
 21
1.657339792095293
 31
0.0
  0
ARC
  5
6A1
  8
DIM
 10
17.70297739671163
 20
1.886839792095292
 30
0.0
 40
0.015
 50
90.00000000000082
 51
204.9999999999997
  0
LINE
  5
6A2
  8
DIM
 10
17.75478305046467
 20
1.939339792095293
 30
0.0
 11
17.68906498828673
 21
1.939339792095293
 31
0.0
  0
LINE
  5
6A3
  8
DIM
 10
17.75478305046467
 20
1.901839792095293
 30
0.0
 11
17.70297739671163
 21
1.901839792095292
 31
0.0
  0
LINE
  5
6A4
  8
DIM
 10
17.75478305046467
 20
1.939339792095293
 30
0.0
 11
17.75478305046467
 21
1.901839792095293
 31
0.0
  0
ARC
  5
6A5
  8
DIM
 10
17.70607064203977
 20
1.709839792095294
 30
0.0
 40
0.015
 50
270.0
 51
25.00000000000002
  0
LINE
  5
6A6
  8
DIM
 10
17.71966525884532
 20
1.716179066021404
 30
0.0
 11
17.64664978385342
 21
1.872761257445828
 31
0.0
  0
LINE
  5
6A7
  8
DIM
 10
17.76239825489798
 20
1.723918326744761
 30
0.0
 11
17.68938277990609
 21
1.880500518169181
 31
0.0
  0
ARC
  5
6A8
  8
DIM
 10
17.71998305046467
 20
1.704139792095296
 30
0.0
 40
0.0468
 50
270.0
 51
24.99999999999686
  0
LINE
  5
6A9
  8
DIM
 10
17.64078305046467
 20
1.694839792095293
 30
0.0
 11
17.70607064203977
 21
1.694839792095293
 31
0.0
  0
LINE
  5
6AA
  8
DIM
 10
17.64078305046467
 20
1.657339792095293
 30
0.0
 11
17.71998305046467
 21
1.657339792095293
 31
0.0
  0
LINE
  5
6AB
  8
DIM
 10
17.61078305046467
 20
1.939339792095293
 30
0.0
 11
17.61078305046467
 21
1.657339792095293
 31
0.0
  0
LINE
  5
6AC
  8
DIM
 10
17.56878305046467
 20
1.939339792095294
 30
0.0
 11
17.61078305046467
 21
1.939339792095293
 31
0.0
  0
LINE
  5
6AD
  8
DIM
 10
17.56878305046467
 20
1.657339792095293
 30
0.0
 11
17.56878305046467
 21
1.939339792095294
 31
0.0
  0
LINE
  5
6AE
  8
DIM
 10
17.56878305046467
 20
1.657339792095293
 30
0.0
 11
17.61078305046467
 21
1.657339792095293
 31
0.0
  0
LINE
  5
6AF
  8
DIM
 10
17.40872313781339
 20
1.694839792095291
 30
0.0
 11
17.44170198362512
 21
1.864501245758061
 31
0.0
  0
LINE
  5
6B0
  8
DIM
 10
17.40872313781339
 20
1.694839792095291
 30
0.0
 11
17.46118390544374
 21
1.694839792095291
 31
0.0
  0
LINE
  5
6B1
  8
DIM
 10
17.47123200015991
 20
1.657339792095292
 30
0.0
 11
17.46118390544374
 21
1.694839792095291
 31
0.0
  0
LINE
  5
6B2
  8
DIM
 10
17.36323200015991
 20
1.657339792095292
 30
0.0
 11
17.47123200015991
 21
1.657339792095292
 31
0.0
  0
LINE
  5
6B3
  8
DIM
 10
17.50718093525289
 20
1.657339792095292
 30
0.0
 11
17.44170198362512
 21
1.864501245758061
 31
0.0
  0
LINE
  5
6B4
  8
DIM
 10
17.5521809352529
 20
1.657339792095292
 30
0.0
 11
17.50718093525289
 21
1.657339792095292
 31
0.0
  0
LINE
  5
6B5
  8
DIM
 10
17.47661926298732
 20
1.939339792095292
 30
0.0
 11
17.5521809352529
 21
1.657339792095292
 31
0.0
  0
LINE
  5
6B6
  8
DIM
 10
17.41804724733675
 20
1.939339792095292
 30
0.0
 11
17.47661926298732
 21
1.939339792095292
 31
0.0
  0
LINE
  5
6B7
  8
DIM
 10
17.36323200015991
 20
1.657339792095292
 30
0.0
 11
17.41804724733675
 21
1.939339792095292
 31
0.0
  0
LINE
  5
6B8
  8
DIM
 10
17.28915260940612
 20
1.809285876785438
 30
0.0
 11
17.34979774608814
 21
1.939339792095293
 31
0.0
  0
LINE
  5
6B9
  8
DIM
 10
17.23724513521168
 20
1.657339792095293
 30
0.0
 11
17.23724513521168
 21
1.697969939149305
 31
0.0
  0
LINE
  5
6BA
  8
DIM
 10
17.18624513521168
 20
1.657339792095293
 30
0.0
 11
17.23724513521168
 21
1.657339792095293
 31
0.0
  0
LINE
  5
6BB
  8
DIM
 10
17.29879774608814
 20
1.657339792095293
 30
0.0
 11
17.26167299834513
 21
1.750355660692248
 31
0.0
  0
LINE
  5
6BC
  8
DIM
 10
17.29879774608814
 20
1.657339792095293
 30
0.0
 11
17.34979774608814
 21
1.657339792095293
 31
0.0
  0
LINE
  5
6BD
  8
DIM
 10
17.34979774608814
 20
1.657339792095292
 30
0.0
 11
17.28915260940612
 21
1.809285876785438
 31
0.0
  0
LINE
  5
6BE
  8
DIM
 10
17.23724513521168
 20
1.697969939149305
 30
0.0
 11
17.26167299834513
 21
1.750355660692248
 31
0.0
  0
LINE
  5
6BF
  8
DIM
 10
17.29879774608814
 20
1.939339792095293
 30
0.0
 11
17.34979774608814
 21
1.939339792095293
 31
0.0
  0
LINE
  5
6C0
  8
DIM
 10
17.23724513521168
 20
1.807339792095293
 30
0.0
 11
17.29879774608814
 21
1.939339792095294
 31
0.0
  0
LINE
  5
6C1
  8
DIM
 10
17.23724513521168
 20
1.939339792095294
 30
0.0
 11
17.23724513521168
 21
1.807339792095293
 31
0.0
  0
LINE
  5
6C2
  8
DIM
 10
17.18624513521168
 20
1.939339792095294
 30
0.0
 11
17.23724513521168
 21
1.939339792095294
 31
0.0
  0
LINE
  5
6C3
  8
DIM
 10
17.18624513521168
 20
1.939339792095294
 30
0.0
 11
17.18624513521168
 21
1.657339792095293
 31
0.0
  0
ARC
  5
6C4
  8
DIM
 10
16.95524513521168
 20
1.810339792095294
 30
0.0
 40
0.0075
 50
270.0000000000051
 51
0.0000000000005598
  0
LINE
  5
6C5
  8
DIM
 10
17.04674513521168
 20
1.694839792095293
 30
0.0
 11
17.07674513521168
 21
1.694839792095293
 31
0.0
  0
LINE
  5
6C6
  8
DIM
 10
17.03924513521168
 20
1.687339792095296
 30
0.0
 11
17.08424513521168
 21
1.687339792095295
 31
0.0
  0
LINE
  5
6C7
  8
DIM
 10
17.07674513521168
 20
1.879339792095294
 30
0.0
 11
17.07674513521168
 21
1.694839792095293
 31
0.0
  0
LINE
  5
6C8
  8
DIM
 10
17.08424513521168
 20
1.871839792095292
 30
0.0
 11
17.11124513521168
 21
1.871839792095293
 31
0.0
  0
LINE
  5
6C9
  8
DIM
 10
17.10374513521168
 20
1.879339792095292
 30
0.0
 11
17.07674513521168
 21
1.879339792095294
 31
0.0
  0
LINE
  5
6CA
  8
DIM
 10
17.04674513521168
 20
1.879339792095293
 30
0.0
 11
17.04674513521168
 21
1.694839792095293
 31
0.0
  0
LINE
  5
6CB
  8
DIM
 10
17.03924513521168
 20
1.871839792095292
 30
0.0
 11
17.03924513521168
 21
1.687339792095296
 31
0.0
  0
LINE
  5
6CC
  8
DIM
 10
17.08424513521168
 20
1.871839792095292
 30
0.0
 11
17.08424513521168
 21
1.687339792095295
 31
0.0
  0
LINE
  5
6CD
  8
DIM
 10
17.10374513521168
 20
1.901839792095295
 30
0.0
 11
17.10374513521168
 21
1.879339792095292
 31
0.0
  0
LINE
  5
6CE
  8
DIM
 10
17.11124513521168
 20
1.909339792095292
 30
0.0
 11
17.11124513521168
 21
1.871839792095293
 31
0.0
  0
LINE
  5
6CF
  8
DIM
 10
17.01974513521168
 20
1.901839792095295
 30
0.0
 11
17.10374513521168
 21
1.901839792095295
 31
0.0
  0
LINE
  5
6D0
  8
DIM
 10
17.01974513521168
 20
1.879339792095293
 30
0.0
 11
17.04674513521168
 21
1.879339792095293
 31
0.0
  0
LINE
  5
6D1
  8
DIM
 10
17.01224513521168
 20
1.871839792095293
 30
0.0
 11
17.03924513521168
 21
1.871839792095293
 31
0.0
  0
LINE
  5
6D2
  8
DIM
 10
17.01974513521168
 20
1.901839792095295
 30
0.0
 11
17.01974513521168
 21
1.879339792095293
 31
0.0
  0
LINE
  5
6D3
  8
DIM
 10
17.01224513521168
 20
1.909339792095292
 30
0.0
 11
17.01224513521168
 21
1.871839792095293
 31
0.0
  0
ARC
  5
6D4
  8
DIM
 10
16.97174513521168
 20
1.796839792095295
 30
0.0
 40
0.027
 50
270.0000000000023
 51
0.0
  0
ARC
  5
6D5
  8
DIM
 10
16.97174513521168
 20
1.796839792095297
 30
0.0
 40
0.0345
 50
270.0000000000013
 51
359.9999999999998
  0
LINE
  5
6D6
  8
DIM
 10
16.93574513521168
 20
1.769839792095294
 30
0.0
 11
16.97174513521168
 21
1.769839792095296
 31
0.0
  0
LINE
  5
6D7
  8
DIM
 10
16.94324513521168
 20
1.762339792095296
 30
0.0
 11
16.97174513521168
 21
1.762339792095297
 31
0.0
  0
LINE
  5
6D8
  8
DIM
 10
16.94324513521168
 20
1.687339792095296
 30
0.0
 11
16.94324513521168
 21
1.762339792095295
 31
0.0
  0
LINE
  5
6D9
  8
DIM
 10
16.93574513521168
 20
1.694839792095294
 30
0.0
 11
16.93574513521168
 21
1.769839792095294
 31
0.0
  0
ARC
  5
6DA
  8
DIM
 10
16.95674513521168
 20
1.808839792095294
 30
0.0
 40
0.0135
 50
270.0000000000036
 51
0.0000000000004326
  0
LINE
  5
6DB
  8
DIM
 10
16.94324513521168
 20
1.802839792095292
 30
0.0
 11
16.95524513521168
 21
1.802839792095294
 31
0.0
  0
LINE
  5
6DC
  8
DIM
 10
16.93574513521168
 20
1.795339792095293
 30
0.0
 11
16.95674513521168
 21
1.795339792095294
 31
0.0
  0
ARC
  5
6DD
  8
DIM
 10
16.95524513521168
 20
1.864339792095294
 30
0.0
 40
0.0075
 50
0.0000000000003053
 51
90.0
  0
LINE
  5
6DE
  8
DIM
 10
16.96274513521168
 20
1.864339792095294
 30
0.0
 11
16.96274513521168
 21
1.810339792095294
 31
0.0
  0
ARC
  5
6DF
  8
DIM
 10
16.95674513521168
 20
1.865839792095294
 30
0.0
 40
0.0135
 50
0.0000000000001527
 51
90.00000000000178
  0
LINE
  5
6E0
  8
DIM
 10
16.97024513521168
 20
1.865839792095294
 30
0.0
 11
16.97024513521168
 21
1.808839792095294
 31
0.0
  0
LINE
  5
6E1
  8
DIM
 10
16.94324513521168
 20
1.871839792095293
 30
0.0
 11
16.95524513521168
 21
1.871839792095293
 31
0.0
  0
LINE
  5
6E2
  8
DIM
 10
16.94324513521168
 20
1.871839792095293
 30
0.0
 11
16.94324513521168
 21
1.802839792095292
 31
0.0
  0
ARC
  5
6E3
  8
DIM
 10
16.97174513521168
 20
1.874839792095294
 30
0.0
 40
0.027
 50
0.0000000000001527
 51
89.99999999999804
  0
ARC
  5
6E4
  8
DIM
 10
16.97174513521168
 20
1.874839792095295
 30
0.0
 40
0.0345
 50
0.0
 51
90.0
  0
LINE
  5
6E5
  8
DIM
 10
17.01224513521168
 20
1.909339792095292
 30
0.0
 11
17.11124513521168
 21
1.909339792095291
 31
0.0
  0
LINE
  5
6E6
  8
DIM
 10
16.99874513521168
 20
1.874839792095294
 30
0.0
 11
16.99874513521168
 21
1.796839792095295
 31
0.0
  0
LINE
  5
6E7
  8
DIM
 10
16.93574513521168
 20
1.879339792095293
 30
0.0
 11
16.95674513521168
 21
1.879339792095294
 31
0.0
  0
LINE
  5
6E8
  8
DIM
 10
16.93574513521168
 20
1.879339792095293
 30
0.0
 11
16.93574513521168
 21
1.795339792095293
 31
0.0
  0
LINE
  5
6E9
  8
DIM
 10
17.00624513521168
 20
1.874839792095295
 30
0.0
 11
17.00624513521168
 21
1.796839792095297
 31
0.0
  0
LINE
  5
6EA
  8
DIM
 10
16.90574513521168
 20
1.694839792095294
 30
0.0
 11
16.93574513521168
 21
1.694839792095294
 31
0.0
  0
LINE
  5
6EB
  8
DIM
 10
16.90574513521168
 20
1.901839792095295
 30
0.0
 11
16.97174513521168
 21
1.901839792095294
 31
0.0
  0
LINE
  5
6EC
  8
DIM
 10
16.90574513521168
 20
1.901839792095295
 30
0.0
 11
16.90574513521168
 21
1.694839792095294
 31
0.0
  0
LINE
  5
6ED
  8
DIM
 10
16.89824513521168
 20
1.687339792095295
 30
0.0
 11
16.94324513521168
 21
1.687339792095296
 31
0.0
  0
LINE
  5
6EE
  8
DIM
 10
16.89824513521168
 20
1.909339792095293
 30
0.0
 11
16.97174513521168
 21
1.909339792095294
 31
0.0
  0
LINE
  5
6EF
  8
DIM
 10
16.89824513521168
 20
1.909339792095293
 30
0.0
 11
16.89824513521168
 21
1.687339792095295
 31
0.0
  0
LINE
  5
6F0
  8
DIM
 10
16.79774513521168
 20
1.724430399980784
 30
0.0
 11
16.79774513521168
 21
1.694839792095293
 31
0.0
  0
LINE
  5
6F1
  8
DIM
 10
16.82159149859804
 20
1.75782257941817
 30
0.0
 11
16.80524513521168
 21
1.722767690010963
 31
0.0
  0
LINE
  5
6F2
  8
DIM
 10
16.82244637073927
 20
1.777402370514837
 30
0.0
 11
16.79774513521168
 21
1.724430399980784
 31
0.0
  0
LINE
  5
6F3
  8
DIM
 10
16.80524513521168
 20
1.722767690010963
 30
0.0
 11
16.80524513521168
 21
1.687339792095294
 31
0.0
  0
LINE
  5
6F4
  8
DIM
 10
16.84724513521168
 20
1.687339792095295
 30
0.0
 11
16.89224513521168
 21
1.687339792095295
 31
0.0
  0
LINE
  5
6F5
  8
DIM
 10
16.85202316216774
 20
1.901839792095292
 30
0.0
 11
16.8804724933833
 21
1.901839792095293
 31
0.0
  0
LINE
  5
6F6
  8
DIM
 10
16.85202316216774
 20
1.901839792095292
 30
0.0
 11
16.79774513521168
 21
1.785440187656427
 31
0.0
  0
LINE
  5
6F7
  8
DIM
 10
16.84724513521168
 20
1.909339792095293
 30
0.0
 11
16.80524513521168
 21
1.819270501433893
 31
0.0
  0
LINE
  5
6F8
  8
DIM
 10
16.84724513521168
 20
1.909339792095293
 30
0.0
 11
16.89224513521168
 21
1.909339792095293
 31
0.0
  0
LINE
  5
6F9
  8
DIM
 10
16.8804724933833
 20
1.901839792095293
 30
0.0
 11
16.8387545623296
 21
1.812375400241287
 31
0.0
  0
LINE
  5
6FA
  8
DIM
 10
16.89224513521168
 20
1.909339792095293
 30
0.0
 11
16.84686477735027
 21
1.812021300606294
 31
0.0
  0
LINE
  5
6FB
  8
DIM
 10
16.85249669174825
 20
1.694839792095294
 30
0.0
 11
16.82244637073927
 21
1.777402370514838
 31
0.0
  0
LINE
  5
6FC
  8
DIM
 10
16.84724513521168
 20
1.687339792095295
 30
0.0
 11
16.82159149859804
 21
1.75782257941817
 31
0.0
  0
LINE
  5
6FD
  8
DIM
 10
16.88153402516112
 20
1.694839792095294
 30
0.0
 11
16.8387545623296
 21
1.812375400241288
 31
0.0
  0
LINE
  5
6FE
  8
DIM
 10
16.89224513521168
 20
1.687339792095295
 30
0.0
 11
16.84686477735027
 21
1.812021300606294
 31
0.0
  0
LINE
  5
6FF
  8
DIM
 10
16.88153402516112
 20
1.694839792095293
 30
0.0
 11
16.85249669174825
 21
1.694839792095294
 31
0.0
  0
LINE
  5
700
  8
DIM
 10
16.77074513521168
 20
1.694839792095293
 30
0.0
 11
16.79774513521168
 21
1.694839792095293
 31
0.0
  0
LINE
  5
701
  8
DIM
 10
16.77074513521168
 20
1.901839792095294
 30
0.0
 11
16.79774513521168
 21
1.901839792095293
 31
0.0
  0
LINE
  5
702
  8
DIM
 10
16.79774513521168
 20
1.901839792095294
 30
0.0
 11
16.79774513521168
 21
1.785440187656427
 31
0.0
  0
LINE
  5
703
  8
DIM
 10
16.80524513521168
 20
1.909339792095293
 30
0.0
 11
16.80524513521168
 21
1.819270501433893
 31
0.0
  0
LINE
  5
704
  8
DIM
 10
16.77074513521168
 20
1.901839792095294
 30
0.0
 11
16.77074513521168
 21
1.694839792095293
 31
0.0
  0
LINE
  5
705
  8
DIM
 10
16.76324513521168
 20
1.909339792095293
 30
0.0
 11
16.80524513521168
 21
1.909339792095293
 31
0.0
  0
LINE
  5
706
  8
DIM
 10
16.76324513521168
 20
1.687339792095294
 30
0.0
 11
16.80524513521168
 21
1.687339792095295
 31
0.0
  0
LINE
  5
707
  8
DIM
 10
16.76324513521168
 20
1.909339792095293
 30
0.0
 11
16.76324513521168
 21
1.687339792095294
 31
0.0
  0
LINE
  5
708
  8
DIM
 10
17.14124513521168
 20
1.939339792095294
 30
0.0
 11
17.14124513521168
 21
1.657339792095293
 31
0.0
  0
LINE
  5
709
  8
DIM
 10
16.72724513521168
 20
1.939339792095294
 30
0.0
 11
16.72724513521168
 21
1.657339792095293
 31
0.0
  0
LINE
  5
70A
  8
DIM
 10
16.72724513521168
 20
1.939339792095294
 30
0.0
 11
17.14124513521168
 21
1.939339792095294
 31
0.0
  0
LINE
  5
70B
  8
DIM
 10
16.72724513521168
 20
1.657339792095293
 30
0.0
 11
17.14124513521168
 21
1.657339792095293
 31
0.0
  0
LINE
  5
70C
  8
BORDER
 10
10.74
 20
7.720000000000001
 30
0.0
 11
21.0
 21
7.72
 31
0.0
  0
LINE
  5
70D
  8
BORDER
 10
10.74
 20
0.0
 30
0.0
 11
10.74
 21
7.720000000000001
 31
0.0
  0
ENDBLK
  5
1188
  8
0
  0
BLOCK
  8
0
  2
*D3
 70
     1
 10
0.0
 20
0.0
 30
0.0
  3
*D3
  1

  0
LINE
  5
71E
  8
0
  6
BYBLOCK
 62
     0
 10
100.4567610186889
 20
112.6602747466844
 30
0.0
 11
100.4567610186889
 21
118.2860468441095
 31
0.0
  0
LINE
  5
71F
  8
0
  6
BYBLOCK
 62
     0
 10
62.00124192968882
 20
117.3485468441095
 30
0.0
 11
98.6567610186889
 21
117.3485468441095
 31
0.0
  0
SOLID
  5
720
  8
0
  6
BYBLOCK
 62
     0
 10
62.00124192968882
 20
117.6485468441095
 30
0.0
 11
62.00124192968882
 21
117.0485468441095
 31
0.0
 12
60.20124192968882
 22
117.3485468441095
 32
0.0
 13
60.20124192968882
 23
117.3485468441095
 33
0.0
  0
SOLID
  5
721
  8
0
  6
BYBLOCK
 62
     0
 10
98.6567610186889
 20
117.6485468441095
 30
0.0
 11
98.6567610186889
 21
117.0485468441095
 31
0.0
 12
100.4567610186889
 22
117.3485468441095
 32
0.0
 13
100.4567610186889
 23
117.3485468441095
 33
0.0
  0
TEXT
  5
722
  8
0
  6
CONTINUOUS
 62
     0
 10
76.8715774193864
 20
118.0985468441095
 30
0.0
 40
1.875
  1
40.3
  7
ROMANS
  0
POINT
  5
723
  8
DEFPOINTS
  6
BYBLOCK
 62
     0
 10
60.20124192968882
 20
104.2307747466843
 30
0.0
  0
POINT
  5
724
  8
DEFPOINTS
  6
BYBLOCK
 62
     0
 10
100.4567610186889
 20
111.7227747466844
 30
0.0
  0
POINT
  5
725
  8
DEFPOINTS
  6
BYBLOCK
 62
     0
 10
100.4567610186889
 20
117.3485468441095
 30
0.0
  0
ENDBLK
  5
118A
  8
0
  0
BLOCK
  8
0
  2
*D4
 70
     1
 10
0.0
 20
0.0
 30
0.0
  3
*D4
  1

  0
LINE
  5
72A
  8
0
  6
BYBLOCK
 62
     0
 10
102.2567610186889
 20
117.3485468441095
 30
0.0
 11
107.4012419296888
 21
117.3485468441095
 31
0.0
  0
SOLID
  5
72B
  8
0
  6
BYBLOCK
 62
     0
 10
102.2567610186889
 20
117.6485468441095
 30
0.0
 11
102.2567610186889
 21
117.0485468441095
 31
0.0
 12
100.4567610186889
 22
117.3485468441095
 32
0.0
 13
100.4567610186889
 23
117.3485468441095
 33
0.0
  0
SOLID
  5
72C
  8
0
  6
BYBLOCK
 62
     0
 10
107.4012419296888
 20
117.6485468441095
 30
0.0
 11
107.4012419296888
 21
117.0485468441095
 31
0.0
 12
109.2012419296888
 22
117.3485468441095
 32
0.0
 13
109.2012419296888
 23
117.3485468441095
 33
0.0
  0
TEXT
  5
72D
  8
0
  6
CONTINUOUS
 62
     0
 10
101.346858617046
 20
118.9021182726809
 30
0.0
 40
1.875
  1
(8.7)
  7
ROMANS
  0
POINT
  5
72E
  8
DEFPOINTS
  6
BYBLOCK
 62
     0
 10
100.4567610186889
 20
111.7227747466844
 30
0.0
  0
POINT
  5
72F
  8
DEFPOINTS
  6
BYBLOCK
 62
     0
 10
109.2012419296888
 20
106.5050864464709
 30
0.0
  0
POINT
  5
730
  8
DEFPOINTS
  6
BYBLOCK
 62
     0
 10
109.2012419296888
 20
117.3485468441095
 30
0.0
  0
ENDBLK
  5
118C
  8
0
  0
BLOCK
  8
0
  2
*D5
 70
     1
 10
0.0
 20
0.0
 30
0.0
  3
*D5
  1

  0
LINE
  5
890
  8
0
  6
BYBLOCK
 62
     0
 10
75.67502837791596
 20
-22.78602707837228
 30
0.0
 11
86.04683674039119
 21
-22.78602707837231
 31
0.0
  0
LINE
  5
891
  8
0
  6
BYBLOCK
 62
     0
 10
81.23733626590713
 20
-20.53403117690301
 30
0.0
 11
85.38364804833068
 21
-19.02489710611358
 31
0.0
  0
ARC
  5
892
  8
0
  6
BYBLOCK
 62
     0
 10
75.05002837791596
 20
-22.78602707837229
 30
0.0
 40
10.37180836247522
 50
346.7345521280756
 51
353.3672760640377
  0
ARC
  5
893
  8
0
  6
BYBLOCK
 62
     0
 10
75.05002837791596
 20
-22.78602707837229
 30
0.0
 40
10.37180836247522
 50
26.63272393596218
 51
33.26544787192427
  0
ARC
  5
894
  8
0
  6
BYBLOCK
 62
     0
 10
75.05002837791596
 20
-22.78602707837229
 30
0.0
 40
10.37180836247522
 50
359.9999999999998
 51
20.00000000000009
  0
SOLID
  5
895
  8
0
  6
BYBLOCK
 62
     0
 10
85.15275272737121
 20
-23.97244765891578
 30
0.0
 11
85.55208286230531
 21
-23.99558730743342
 31
0.0
 12
85.42183674039119
 22
-22.78602707837232
 32
0.0
 13
85.42183674039119
 23
-22.78602707837232
 33
0.0
  0
SOLID
  5
896
  8
0
  6
BYBLOCK
 62
     0
 10
84.50503751708368
 20
-18.05749807676262
 30
0.0
 11
84.13770416193118
 21
-18.21582118370664
 31
0.0
 12
84.7963401603395
 22
-19.23865969569213
 32
0.0
 13
84.7963401603395
 23
-19.23865969569213
 33
0.0
  0
TEXT
  5
897
  8
0
  6
CONTINUOUS
 62
     0
 10
85.4512501103026
 20
-19.31333365762276
 30
0.0
 40
1.25
  1
20°
 50
280.9624887914105
  7
ROMANS
  0
POINT
  5
898
  8
DEFPOINTS
  6
BYBLOCK
 62
     0
 10
85.351706282675
 20
-21.58193362082412
 30
0.0
  0
POINT
  5
899
  8
DEFPOINTS
  6
BYBLOCK
 62
     0
 10
75.05002837791594
 20
-22.78602707837229
 30
0.0
  0
POINT
  5
89A
  8
DEFPOINTS
  6
BYBLOCK
 62
     0
 10
75.05002837791594
 20
-22.78602707837229
 30
0.0
  0
POINT
  5
89B
  8
DEFPOINTS
  6
BYBLOCK
 62
     0
 10
80.65002837791594
 20
-20.74779376648154
 30
0.0
  0
POINT
  5
89C
  8
DEFPOINTS
  6
BYBLOCK
 62
     0
 10
72.95002837791596
 20
-22.78602707837228
 30
0.0
  0
ENDBLK
  5
118E
  8
0
  0
BLOCK
  8
0
  2
*D6
 70
     1
 10
0.0
 20
0.0
 30
0.0
  3
*D6
  1

  0
LINE
  5
A5C
  8
0
  6
BYBLOCK
 62
     0
 10
68.49632473648526
 20
-49.89416125765568
 30
0.0
 11
59.57594844506726
 21
-47.5039536341885
 31
0.0
  0
LINE
  5
A5D
  8
0
  6
BYBLOCK
 62
     0
 10
61.37333953855727
 20
-51.08752755170454
 30
0.0
 11
59.10416198853723
 21
-51.08752755170443
 31
0.0
  0
ARC
  5
A5E
  8
0
  6
BYBLOCK
 62
     0
 10
72.95002837791598
 20
-51.08752755170458
 30
0.0
 40
13.22086638937876
 50
154.595453647767
 51
159.7977268238836
  0
ARC
  5
A5F
  8
0
  6
BYBLOCK
 62
     0
 10
72.95002837791598
 20
-51.08752755170458
 30
0.0
 40
13.22086638937876
 50
185.2022731761161
 51
190.4045463522327
  0
ARC
  5
A60
  8
0
  6
BYBLOCK
 62
     0
 10
72.95002837791598
 20
-51.08752755170458
 30
0.0
 40
13.22086638937876
 50
165.0000000000001
 51
179.9999999999995
  0
SOLID
  5
A61
  8
0
  6
BYBLOCK
 62
     0
 10
60.73315557957861
 20
-46.58237169392459
 30
0.0
 11
60.35188171180572
 21
-46.46141617419318
 31
0.0
 12
60.17965208649792
 22
-47.66571553737757
 32
0.0
 13
60.17965208649792
 23
-47.66571553737757
 33
0.0
  0
SOLID
  5
A62
  8
0
  6
BYBLOCK
 62
     0
 10
59.58382742047716
 20
-52.29536771634827
 30
0.0
 11
59.98341528836489
 21
-52.27721459438701
 31
0.0
 12
59.72916198853724
 22
-51.08752755170446
 32
0.0
 13
59.72916198853724
 23
-51.08752755170446
 33
0.0
  0
TEXT
  5
A63
  8
0
  6
CONTINUOUS
 62
     0
 10
59.15719788553513
 20
-50.52339240847033
 30
0.0
 40
1.25
  1
15°
 50
81.3529256727699
  7
ROMANS
  0
POINT
  5
A64
  8
DEFPOINTS
  6
BYBLOCK
 62
     0
 10
59.77947137663752
 20
-49.93525312177066
 30
0.0
  0
POINT
  5
A65
  8
DEFPOINTS
  6
BYBLOCK
 62
     0
 10
72.95002837791594
 20
-51.08752755170457
 30
0.0
  0
POINT
  5
A66
  8
DEFPOINTS
  6
BYBLOCK
 62
     0
 10
72.20002837791594
 20
-51.08752755170456
 30
0.0
  0
POINT
  5
A67
  8
DEFPOINTS
  6
BYBLOCK
 62
     0
 10
61.99833953855728
 20
-51.08752755170457
 30
0.0
  0
POINT
  5
A68
  8
DEFPOINTS
  6
BYBLOCK
 62
     0
 10
69.10002837791595
 20
-50.05592316084475
 30
0.0
  0
ENDBLK
  5
1190
  8
0
  0
BLOCK
  8
0
  2
*D7
 70
     1
 10
0.0
 20
0.0
 30
0.0
  3
*D7
  1

  0
LINE
  5
AA3
  8
0
  6
BYBLOCK
 62
     0
 10
20.71330617063866
 20
-9.092410243880877
 30
0.0
 11
12.05360569064828
 21
-9.092410243880876
 31
0.0
  0
LINE
  5
AA4
  8
0
  6
BYBLOCK
 62
     0
 10
20.71330617063871
 20
-19.09241024388086
 30
0.0
 11
12.05360569064828
 21
-19.09241024388086
 31
0.0
  0
LINE
  5
AA5
  8
0
  6
BYBLOCK
 62
     0
 10
12.67860569064828
 20
-10.29241024388087
 30
0.0
 11
12.67860569064828
 21
-17.89241024388086
 31
0.0
  0
SOLID
  5
AA6
  8
0
  6
BYBLOCK
 62
     0
 10
12.47860569064828
 20
-10.29241024388087
 30
0.0
 11
12.87860569064828
 21
-10.29241024388087
 31
0.0
 12
12.67860569064828
 22
-9.092410243880876
 32
0.0
 13
12.67860569064828
 23
-9.092410243880876
 33
0.0
  0
SOLID
  5
AA7
  8
0
  6
BYBLOCK
 62
     0
 10
12.47860569064828
 20
-17.89241024388086
 30
0.0
 11
12.87860569064828
 21
-17.89241024388086
 31
0.0
 12
12.67860569064828
 22
-19.09241024388086
 32
0.0
 13
12.67860569064828
 23
-19.09241024388086
 33
0.0
  0
TEXT
  5
AA8
  8
0
  6
CONTINUOUS
 62
     0
 10
12.17860569064828
 20
-14.68213892964726
 30
0.0
 40
1.25
  1
5
 50
90.0
  7
ROMANS
  0
POINT
  5
AA9
  8
DEFPOINTS
  6
BYBLOCK
 62
     0
 10
21.33830617063866
 20
-9.092410243880877
 30
0.0
  0
POINT
  5
AAA
  8
DEFPOINTS
  6
BYBLOCK
 62
     0
 10
21.33830617063871
 20
-19.09241024388086
 30
0.0
  0
POINT
  5
AAB
  8
DEFPOINTS
  6
BYBLOCK
 62
     0
 10
12.67860569064828
 20
-19.09241024388086
 30
0.0
  0
ENDBLK
  5
1192
  8
0
  0
BLOCK
  8
0
  2
*D8
 70
     1
 10
0.0
 20
0.0
 30
0.0
  3
*D8
  1

  0
LINE
  5
B6C
  8
0
  6
BYBLOCK
 62
     0
 10
20.53830617063863
 20
1.932589756119243
 30
0.0
 11
20.53830617063863
 21
3.407181923973778
 31
0.0
  0
LINE
  5
B6D
  8
0
  6
BYBLOCK
 62
     0
 10
20.09636443239704
 20
-7.850468505639276
 30
0.0
 11
12.26544521163154
 21
-0.0195492848738841
 31
0.0
  0
ARC
  5
B6E
  8
0
  6
BYBLOCK
 62
     0
 10
20.53830617063863
 20
-8.292410243880868
 30
0.0
 40
11.07459216785464
 50
96.21139040744791
 51
128.7886095925525
  0
SOLID
  5
B6F
  8
0
  6
BYBLOCK
 62
     0
 10
19.32923300922741
 20
2.91687450118227
 30
0.0
 11
19.35090423615499
 21
2.517461985199792
 31
0.0
 12
20.53830617063863
 22
2.782181923973777
 32
0.0
 13
20.53830617063863
 23
2.782181923973777
 33
0.0
  0
SOLID
  5
B70
  8
0
  6
BYBLOCK
 62
     0
 10
13.73419217356291
 20
0.1909436729295706
 30
0.0
 11
13.46708874653804
 21
0.488694842988685
 31
0.0
 12
12.70738694987313
 22
-0.4614910231154727
 32
0.0
 13
12.70738694987313
 23
-0.4614910231154727
 33
0.0
  0
TEXT
  5
B71
  8
0
  6
CONTINUOUS
 62
     0
 10
15.09163748673859
 20
2.020386668227273
 30
0.0
 40
1.25
  1
45°
 50
20.79098165682214
  7
ROMANS
  0
POINT
  5
B72
  8
DEFPOINTS
  6
BYBLOCK
 62
     0
 10
15.00101008671127
 20
1.298467910033407
 30
0.0
  0
POINT
  5
B73
  8
DEFPOINTS
  6
BYBLOCK
 62
     0
 10
20.53830617063863
 20
1.307589756119242
 30
0.0
  0
POINT
  5
B74
  8
DEFPOINTS
  6
BYBLOCK
 62
     0
 10
20.53830617063863
 20
-8.292410243880866
 30
0.0
  0
POINT
  5
B75
  8
DEFPOINTS
  6
BYBLOCK
 62
     0
 10
21.33830617063864
 20
-9.092410243880863
 30
0.0
  0
POINT
  5
B76
  8
DEFPOINTS
  6
BYBLOCK
 62
     0
 10
20.53830617063863
 20
-8.292410243880866
 30
0.0
  0
ENDBLK
  5
1194
  8
0
  0
BLOCK
  8
0
  2
*D9
 70
     1
 10
0.0
 20
0.0
 30
0.0
  3
*D9
  1

  0
LINE
  5
B13
  8
0
  6
BYBLOCK
 62
     0
 10
26.56330617063868
 20
-9.092410243880892
 30
0.0
 11
44.40853443512128
 21
-9.092410243880895
 31
0.0
  0
LINE
  5
B14
  8
0
  6
BYBLOCK
 62
     0
 10
26.43387084633127
 20
-19.09241024388086
 30
0.0
 11
44.40853443512128
 21
-19.09241024388087
 31
0.0
  0
LINE
  5
B15
  8
0
  6
BYBLOCK
 62
     0
 10
43.78353443512128
 20
-10.29241024388089
 30
0.0
 11
43.78353443512128
 21
-17.89241024388087
 31
0.0
  0
SOLID
  5
B16
  8
0
  6
BYBLOCK
 62
     0
 10
43.58353443512128
 20
-10.29241024388089
 30
0.0
 11
43.98353443512129
 21
-10.29241024388089
 31
0.0
 12
43.78353443512128
 22
-9.092410243880895
 32
0.0
 13
43.78353443512128
 23
-9.092410243880895
 33
0.0
  0
SOLID
  5
B17
  8
0
  6
BYBLOCK
 62
     0
 10
43.58353443512128
 20
-17.89241024388087
 30
0.0
 11
43.98353443512129
 21
-17.89241024388087
 31
0.0
 12
43.78353443512128
 22
-19.09241024388087
 32
0.0
 13
43.78353443512128
 23
-19.09241024388087
 33
0.0
  0
TEXT
  5
B18
  8
0
  6
CONTINUOUS
 62
     0
 10
43.28353443512128
 20
-15.35971470767957
 30
0.0
 40
1.25
  1
ø5
 50
90.0
  7
ROMANS
  0
POINT
  5
B19
  8
DEFPOINTS
  6
BYBLOCK
 62
     0
 10
25.93830617063868
 20
-9.092410243880892
 30
0.0
  0
POINT
  5
B1A
  8
DEFPOINTS
  6
BYBLOCK
 62
     0
 10
25.80887084633127
 20
-19.09241024388086
 30
0.0
  0
POINT
  5
B1B
  8
DEFPOINTS
  6
BYBLOCK
 62
     0
 10
43.78353443512128
 20
-19.09241024388087
 30
0.0
  0
ENDBLK
  5
1196
  8
0
  0
BLOCK
  8
0
  2
*D10
 70
     1
 10
0.0
 20
0.0
 30
0.0
  3
*D10
  1

  0
LINE
  5
B1E
  8
0
  6
BYBLOCK
 62
     0
 10
34.3633061706387
 20
-5.092410243880877
 30
0.0
 11
50.04675475506781
 21
-5.092410243880879
 31
0.0
  0
LINE
  5
B1F
  8
0
  6
BYBLOCK
 62
     0
 10
34.36330617063866
 20
-23.09241024388088
 30
0.0
 11
50.04675475506781
 21
-23.09241024388088
 31
0.0
  0
LINE
  5
B20
  8
0
  6
BYBLOCK
 62
     0
 10
49.42175475506781
 20
-6.292410243880879
 30
0.0
 11
49.42175475506781
 21
-21.89241024388088
 31
0.0
  0
SOLID
  5
B21
  8
0
  6
BYBLOCK
 62
     0
 10
49.22175475506781
 20
-6.292410243880879
 30
0.0
 11
49.62175475506781
 21
-6.292410243880879
 31
0.0
 12
49.42175475506781
 22
-5.092410243880879
 32
0.0
 13
49.42175475506781
 23
-5.092410243880879
 33
0.0
  0
SOLID
  5
B22
  8
0
  6
BYBLOCK
 62
     0
 10
49.22175475506781
 20
-21.89241024388088
 30
0.0
 11
49.62175475506781
 21
-21.89241024388088
 31
0.0
 12
49.42175475506781
 22
-23.09241024388088
 32
0.0
 13
49.42175475506781
 23
-23.09241024388088
 33
0.0
  0
TEXT
  5
B23
  8
0
  6
CONTINUOUS
 62
     0
 10
48.92175475506781
 20
-15.1990904576742
 30
0.0
 40
1.25
  1
ø9
 50
90.0
  7
ROMANS
  0
POINT
  5
B24
  8
DEFPOINTS
  6
BYBLOCK
 62
     0
 10
33.7383061706387
 20
-5.092410243880877
 30
0.0
  0
POINT
  5
B25
  8
DEFPOINTS
  6
BYBLOCK
 62
     0
 10
33.73830617063866
 20
-23.09241024388088
 30
0.0
  0
POINT
  5
B26
  8
DEFPOINTS
  6
BYBLOCK
 62
     0
 10
49.42175475506781
 20
-23.09241024388088
 30
0.0
  0
ENDBLK
  5
1198
  8
0
  0
BLOCK
  8
0
  2
*D11
 70
     1
 10
0.0
 20
0.0
 30
0.0
  3
*D11
  1

  0
LINE
  5
B43
  8
0
  6
BYBLOCK
 62
     0
 10
25.93830617063868
 20
-8.467410243880892
 30
0.0
 11
25.93830617063868
 21
5.54225894847923
 31
0.0
  0
LINE
  5
B44
  8
0
  6
BYBLOCK
 62
     0
 10
26.73830617063868
 20
-8.467410243880892
 30
0.0
 11
26.73830617063868
 21
5.54225894847923
 31
0.0
  0
LINE
  5
B45
  8
0
  6
BYBLOCK
 62
     0
 10
24.73830617063868
 20
4.91725894847923
 30
0.0
 11
23.53830617063868
 21
4.91725894847923
 31
0.0
  0
LINE
  5
B46
  8
0
  6
BYBLOCK
 62
     0
 10
27.93830617063868
 20
4.91725894847923
 30
0.0
 11
36.62640140873392
 21
4.91725894847923
 31
0.0
  0
LINE
  5
B47
  8
0
  6
BYBLOCK
 62
     0
 10
25.93830617063868
 20
4.91725894847923
 30
0.0
 11
26.73830617063868
 21
4.91725894847923
 31
0.0
  0
SOLID
  5
B48
  8
0
  6
BYBLOCK
 62
     0
 10
24.73830617063868
 20
5.11725894847923
 30
0.0
 11
24.73830617063868
 21
4.71725894847923
 31
0.0
 12
25.93830617063868
 22
4.91725894847923
 32
0.0
 13
25.93830617063868
 23
4.91725894847923
 33
0.0
  0
SOLID
  5
B49
  8
0
  6
BYBLOCK
 62
     0
 10
27.93830617063868
 20
5.11725894847923
 30
0.0
 11
27.93830617063868
 21
4.71725894847923
 31
0.0
 12
26.73830617063868
 22
4.91725894847923
 32
0.0
 13
26.73830617063868
 23
4.91725894847923
 33
0.0
  0
TEXT
  5
B4A
  8
0
  6
CONTINUOUS
 62
     0
 10
29.45694456349582
 20
5.41725894847923
 30
0.0
 40
1.25
  1
0.4x45°
  7
ROMANS
  0
POINT
  5
B4B
  8
DEFPOINTS
  6
BYBLOCK
 62
     0
 10
25.93830617063868
 20
-9.092410243880892
 30
0.0
  0
POINT
  5
B4C
  8
DEFPOINTS
  6
BYBLOCK
 62
     0
 10
26.73830617063868
 20
-9.092410243880892
 30
0.0
  0
POINT
  5
B4D
  8
DEFPOINTS
  6
BYBLOCK
 62
     0
 10
26.73830617063868
 20
4.91725894847923
 30
0.0
  0
ENDBLK
  5
119A
  8
0
  0
BLOCK
  8
0
  2
*D12
 70
     1
 10
0.0
 20
0.0
 30
0.0
  3
*D12
  1

  0
LINE
  5
B07
  8
0
  6
BYBLOCK
 62
     0
 10
20.53830617063863
 20
1.932589756119242
 30
0.0
 11
20.53830617063863
 21
10.67781449400786
 31
0.0
  0
LINE
  5
B08
  8
0
  6
BYBLOCK
 62
     0
 10
26.73830617063869
 20
-4.467410243880877
 30
0.0
 11
26.73830617063869
 21
10.67781449400786
 31
0.0
  0
LINE
  5
B09
  8
0
  6
BYBLOCK
 62
     0
 10
21.73830617063863
 20
10.05281449400786
 30
0.0
 11
25.53830617063869
 21
10.05281449400786
 31
0.0
  0
SOLID
  5
B0A
  8
0
  6
BYBLOCK
 62
     0
 10
21.73830617063863
 20
10.25281449400786
 30
0.0
 11
21.73830617063863
 21
9.852814494007863
 31
0.0
 12
20.53830617063863
 22
10.05281449400786
 32
0.0
 13
20.53830617063863
 23
10.05281449400786
 33
0.0
  0
SOLID
  5
B0B
  8
0
  6
BYBLOCK
 62
     0
 10
25.53830617063869
 20
10.25281449400786
 30
0.0
 11
25.53830617063869
 21
9.852814494007863
 31
0.0
 12
26.73830617063869
 22
10.05281449400786
 32
0.0
 13
26.73830617063869
 23
10.05281449400786
 33
0.0
  0
TEXT
  5
B0C
  8
0
  6
CONTINUOUS
 62
     0
 10
22.22767376357426
 20
10.55281449400786
 30
0.0
 40
1.25
  1
3.1
  7
ROMANS
  0
POINT
  5
B0D
  8
DEFPOINTS
  6
BYBLOCK
 62
     0
 10
20.53830617063863
 20
1.307589756119242
 30
0.0
  0
POINT
  5
B0E
  8
DEFPOINTS
  6
BYBLOCK
 62
     0
 10
26.73830617063869
 20
-5.092410243880877
 30
0.0
  0
POINT
  5
B0F
  8
DEFPOINTS
  6
BYBLOCK
 62
     0
 10
26.73830617063869
 20
10.05281449400786
 30
0.0
  0
ENDBLK
  5
119C
  8
0
  0
BLOCK
  8
0
  2
*D13
 70
     1
 10
0.0
 20
0.0
 30
0.0
  3
*D13
  1

  0
LINE
  5
B5E
  8
0
  6
BYBLOCK
 62
     0
 10
20.53830617063863
 20
-7.667410243880866
 30
0.0
 11
20.53830617063863
 21
5.511846267476926
 31
0.0
  0
LINE
  5
B5F
  8
0
  6
BYBLOCK
 62
     0
 10
21.33830617063866
 20
-8.467410243880877
 30
0.0
 11
21.33830617063866
 21
5.511846267476926
 31
0.0
  0
LINE
  5
B60
  8
0
  6
BYBLOCK
 62
     0
 10
22.53830617063866
 20
4.886846267476926
 30
0.0
 11
23.73830617063866
 21
4.886846267476926
 31
0.0
  0
LINE
  5
B61
  8
0
  6
BYBLOCK
 62
     0
 10
19.33830617063863
 20
4.886846267476926
 30
0.0
 11
14.45973474206721
 21
4.886846267476926
 31
0.0
  0
LINE
  5
B62
  8
0
  6
BYBLOCK
 62
     0
 10
21.33830617063866
 20
4.886846267476926
 30
0.0
 11
20.53830617063863
 21
4.886846267476926
 31
0.0
  0
SOLID
  5
B63
  8
0
  6
BYBLOCK
 62
     0
 10
22.53830617063866
 20
5.086846267476926
 30
0.0
 11
22.53830617063866
 21
4.686846267476926
 31
0.0
 12
21.33830617063866
 22
4.886846267476926
 32
0.0
 13
21.33830617063866
 23
4.886846267476926
 33
0.0
  0
SOLID
  5
B64
  8
0
  6
BYBLOCK
 62
     0
 10
19.33830617063863
 20
5.086846267476926
 30
0.0
 11
19.33830617063863
 21
4.686846267476926
 31
0.0
 12
20.53830617063863
 22
4.886846267476926
 32
0.0
 13
20.53830617063863
 23
4.886846267476926
 33
0.0
  0
TEXT
  5
B65
  8
0
  6
CONTINUOUS
 62
     0
 10
14.78116331349578
 20
5.386846267476926
 30
0.0
 40
1.25
  1
0.4
  7
ROMANS
  0
POINT
  5
B66
  8
DEFPOINTS
  6
BYBLOCK
 62
     0
 10
20.53830617063863
 20
-8.292410243880866
 30
0.0
  0
POINT
  5
B67
  8
DEFPOINTS
  6
BYBLOCK
 62
     0
 10
21.33830617063866
 20
-9.092410243880877
 30
0.0
  0
POINT
  5
B68
  8
DEFPOINTS
  6
BYBLOCK
 62
     0
 10
21.33830617063866
 20
4.886846267476926
 30
0.0
  0
ENDBLK
  5
119E
  8
0
  0
BLOCK
  8
0
  2
*D14
 70
     1
 10
0.0
 20
0.0
 30
0.0
  3
*D14
  1

  0
LINE
  5
1067
  8
0
  6
BYBLOCK
 62
     0
 10
65.25002837791595
 20
-55.64086741530598
 30
0.0
 11
65.25002837791595
 21
-39.5223761981631
 31
0.0
  0
LINE
  5
1068
  8
0
  6
BYBLOCK
 62
     0
 10
80.65002837791594
 20
-55.64086741530598
 30
0.0
 11
80.65002837791594
 21
-39.5223761981631
 31
0.0
  0
LINE
  5
1069
  8
0
  6
BYBLOCK
 62
     0
 10
66.45002837791596
 20
-40.1473761981631
 30
0.0
 11
79.45002837791594
 21
-40.1473761981631
 31
0.0
  0
SOLID
  5
106A
  8
0
  6
BYBLOCK
 62
     0
 10
66.45002837791596
 20
-39.9473761981631
 30
0.0
 11
66.45002837791596
 21
-40.3473761981631
 31
0.0
 12
65.25002837791595
 22
-40.1473761981631
 32
0.0
 13
65.25002837791595
 23
-40.1473761981631
 33
0.0
  0
SOLID
  5
106B
  8
0
  6
BYBLOCK
 62
     0
 10
79.45002837791594
 20
-39.9473761981631
 30
0.0
 11
79.45002837791594
 21
-40.3473761981631
 31
0.0
 12
80.65002837791594
 22
-40.1473761981631
 32
0.0
 13
80.65002837791594
 23
-40.1473761981631
 33
0.0
  0
TEXT
  5
106C
  8
0
  6
CONTINUOUS
 62
     0
 10
70.78404015386482
 20
-39.6473761981631
 30
0.0
 40
1.25
  1
15.4
  7
ROMANS
  0
POINT
  5
106D
  8
DEFPOINTS
  6
BYBLOCK
 62
     0
 10
65.25002837791595
 20
-56.26586741530598
 30
0.0
  0
POINT
  5
106E
  8
DEFPOINTS
  6
BYBLOCK
 62
     0
 10
80.65002837791594
 20
-56.26586741530598
 30
0.0
  0
POINT
  5
106F
  8
DEFPOINTS
  6
BYBLOCK
 62
     0
 10
80.65002837791594
 20
-40.1473761981631
 30
0.0
  0
ENDBLK
  5
11A0
  8
0
  0
BLOCK
  8
0
  2
*D15
 70
     1
 10
0.0
 20
0.0
 30
0.0
  3
*D15
  1

  0
LINE
  5
B87
  8
0
  6
BYBLOCK
 62
     0
 10
72.32502837791594
 20
-35.68752755170456
 30
0.0
 11
55.45730282713703
 21
-35.68752755170456
 31
0.0
  0
LINE
  5
B88
  8
0
  6
BYBLOCK
 62
     0
 10
72.32502837791594
 20
-51.08752755170457
 30
0.0
 11
55.45730282713703
 21
-51.08752755170456
 31
0.0
  0
LINE
  5
B89
  8
0
  6
BYBLOCK
 62
     0
 10
56.08230282713703
 20
-36.88752755170456
 30
0.0
 11
56.08230282713703
 21
-49.88752755170456
 31
0.0
  0
SOLID
  5
B8A
  8
0
  6
BYBLOCK
 62
     0
 10
55.88230282713702
 20
-36.88752755170456
 30
0.0
 11
56.28230282713703
 21
-36.88752755170456
 31
0.0
 12
56.08230282713703
 22
-35.68752755170456
 32
0.0
 13
56.08230282713703
 23
-35.68752755170456
 33
0.0
  0
SOLID
  5
B8B
  8
0
  6
BYBLOCK
 62
     0
 10
55.88230282713702
 20
-49.88752755170456
 30
0.0
 11
56.28230282713703
 21
-49.88752755170456
 31
0.0
 12
56.08230282713703
 22
-51.08752755170456
 32
0.0
 13
56.08230282713703
 23
-51.08752755170456
 33
0.0
  0
TEXT
  5
B8C
  8
0
  6
CONTINUOUS
 62
     0
 10
55.58230282713703
 20
-45.66033681130788
 30
0.0
 40
1.25
  1
15.4
 50
90.0
  7
ROMANS
  0
POINT
  5
B8D
  8
DEFPOINTS
  6
BYBLOCK
 62
     0
 10
72.95002837791594
 20
-35.68752755170456
 30
0.0
  0
POINT
  5
B8E
  8
DEFPOINTS
  6
BYBLOCK
 62
     0
 10
72.95002837791594
 20
-51.08752755170457
 30
0.0
  0
POINT
  5
B8F
  8
DEFPOINTS
  6
BYBLOCK
 62
     0
 10
56.08230282713703
 20
-51.08752755170456
 30
0.0
  0
ENDBLK
  5
11A2
  8
0
  0
BLOCK
  8
0
  2
*D16
 70
     1
 10
0.0
 20
0.0
 30
0.0
  3
*D16
  1

  0
LINE
  5
BA4
  8
0
  6
BYBLOCK
 62
     0
 10
72.95002837791594
 20
-62.31252755151614
 30
0.0
 11
72.95002837791594
 21
-66.35986668563845
 31
0.0
  0
LINE
  5
BA5
  8
0
  6
BYBLOCK
 62
     0
 10
75.05002837791594
 20
-62.31252755151615
 30
0.0
 11
75.05002837791594
 21
-66.35986668563845
 31
0.0
  0
LINE
  5
BA6
  8
0
  6
BYBLOCK
 62
     0
 10
76.25002837791594
 20
-65.73486668563845
 30
0.0
 11
77.45002837791594
 21
-65.73486668563845
 31
0.0
  0
LINE
  5
BA7
  8
0
  6
BYBLOCK
 62
     0
 10
71.75002837791594
 20
-65.73486668563845
 30
0.0
 11
67.28812361601118
 21
-65.73486668563845
 31
0.0
  0
LINE
  5
BA8
  8
0
  6
BYBLOCK
 62
     0
 10
75.05002837791594
 20
-65.73486668563845
 30
0.0
 11
72.95002837791594
 21
-65.73486668563845
 31
0.0
  0
SOLID
  5
BA9
  8
0
  6
BYBLOCK
 62
     0
 10
76.25002837791594
 20
-65.53486668563845
 30
0.0
 11
76.25002837791594
 21
-65.93486668563845
 31
0.0
 12
75.05002837791594
 22
-65.73486668563845
 32
0.0
 13
75.05002837791594
 23
-65.73486668563845
 33
0.0
  0
SOLID
  5
BAA
  8
0
  6
BYBLOCK
 62
     0
 10
71.75002837791594
 20
-65.53486668563845
 30
0.0
 11
71.75002837791594
 21
-65.93486668563845
 31
0.0
 12
72.95002837791594
 22
-65.73486668563845
 32
0.0
 13
72.95002837791594
 23
-65.73486668563845
 33
0.0
  0
TEXT
  5
BAB
  8
0
  6
CONTINUOUS
 62
     0
 10
67.60955218743975
 20
-65.23486668563845
 30
0.0
 40
1.25
  1
2.1
  7
ROMANS
  0
POINT
  5
BAC
  8
DEFPOINTS
  6
BYBLOCK
 62
     0
 10
72.95002837791594
 20
-61.68752755151614
 30
0.0
  0
POINT
  5
BAD
  8
DEFPOINTS
  6
BYBLOCK
 62
     0
 10
75.05002837791594
 20
-61.68752755151615
 30
0.0
  0
POINT
  5
BAE
  8
DEFPOINTS
  6
BYBLOCK
 62
     0
 10
75.05002837791594
 20
-65.73486668563845
 30
0.0
  0
ENDBLK
  5
11A4
  8
0
  0
BLOCK
  8
0
  2
*D17
 70
     1
 10
0.0
 20
0.0
 30
0.0
  3
*D17
  1

  0
LINE
  5
107C
  8
0
  6
BYBLOCK
 62
     0
 10
80.65002837791593
 20
-74.5032738740613
 30
0.0
 11
80.65002837791593
 21
-84.22015539689346
 31
0.0
  0
LINE
  5
107D
  8
0
  6
BYBLOCK
 62
     0
 10
72.95002837791594
 20
-74.50327387406129
 30
0.0
 11
72.95002837791594
 21
-84.22015539689346
 31
0.0
  0
LINE
  5
107E
  8
0
  6
BYBLOCK
 62
     0
 10
74.15002837791594
 20
-83.59515539689346
 30
0.0
 11
79.45002837791593
 21
-83.59515539689346
 31
0.0
  0
LINE
  5
107F
  8
0
  6
BYBLOCK
 62
     0
 10
80.65002837791593
 20
-83.59515539689346
 30
0.0
 11
85.46907599696355
 21
-83.59515539689346
 31
0.0
  0
SOLID
  5
1080
  8
0
  6
BYBLOCK
 62
     0
 10
74.15002837791594
 20
-83.39515539689346
 30
0.0
 11
74.15002837791594
 21
-83.79515539689346
 31
0.0
 12
72.95002837791594
 22
-83.59515539689346
 32
0.0
 13
72.95002837791594
 23
-83.59515539689346
 33
0.0
  0
SOLID
  5
1081
  8
0
  6
BYBLOCK
 62
     0
 10
79.45002837791593
 20
-83.39515539689346
 30
0.0
 11
79.45002837791593
 21
-83.79515539689346
 31
0.0
 12
80.65002837791593
 22
-83.59515539689346
 32
0.0
 13
80.65002837791593
 23
-83.59515539689346
 33
0.0
  0
TEXT
  5
1082
  8
0
  6
CONTINUOUS
 62
     0
 10
82.16773671124926
 20
-83.09515539689346
 30
0.0
 40
1.25
  1
7.7
  7
ROMANS
  0
POINT
  5
1083
  8
DEFPOINTS
  6
BYBLOCK
 62
     0
 10
80.65002837791593
 20
-73.8782738740613
 30
0.0
  0
POINT
  5
1084
  8
DEFPOINTS
  6
BYBLOCK
 62
     0
 10
72.95002837791594
 20
-73.87827387406129
 30
0.0
  0
POINT
  5
1085
  8
DEFPOINTS
  6
BYBLOCK
 62
     0
 10
72.95002837791594
 20
-83.59515539689346
 30
0.0
  0
ENDBLK
  5
11A6
  8
0
  0
BLOCK
  8
0
  2
*D18
 70
     1
 10
0.0
 20
0.0
 30
0.0
  3
*D18
  1

  0
LINE
  5
BC1
  8
0
  6
BYBLOCK
 62
     0
 10
81.27036972269181
 20
-60.92376567083168
 30
0.0
 11
88.20073360734966
 21
-60.07282398435663
 31
0.0
  0
ARC
  5
BC2
  8
0
  6
BYBLOCK
 62
     0
 10
80.65002837791599
 20
-60.9999340104599
 30
0.0
 40
6.982409707797942
 50
340.2819269756277
 51
350.1409634878142
  0
ARC
  5
BC3
  8
0
  6
BYBLOCK
 62
     0
 10
80.65002837791599
 20
-60.9999340104599
 30
0.0
 40
6.982409707797942
 50
16.85903651218619
 51
26.71807302437263
  0
ARC
  5
BC4
  8
0
  6
BYBLOCK
 62
     0
 10
80.65002837791599
 20
-60.9999340104599
 30
0.0
 40
6.982409707797942
 50
0.0000000000006107
 51
6.999999999999755
  0
SOLID
  5
BC5
  8
0
  6
BYBLOCK
 62
     0
 10
87.33006159052134
 20
-62.17830935607556
 30
0.0
 11
87.72858205370443
 21
-62.21268144394258
 31
0.0
 12
87.63243808571394
 22
-60.99993401045981
 32
0.0
 13
87.63243808571394
 23
-60.99993401045981
 33
0.0
  0
SOLID
  5
BC6
  8
0
  6
BYBLOCK
 62
     0
 10
87.52802285457149
 20
-58.93356752371727
 30
0.0
 11
87.13666180626862
 21
-59.0162508344352
 31
0.0
 12
87.58039226257384
 22
-60.14899232398485
 32
0.0
 13
87.58039226257384
 23
-60.14899232398485
 33
0.0
  0
TEXT
  5
BC7
  8
0
  6
CONTINUOUS
 62
     0
 10
88.02515615215688
 20
-59.4856527036581
 30
0.0
 40
1.25
  1
7°
 50
275.2267920727514
  7
ROMANS
  0
POINT
  5
BC8
  8
DEFPOINTS
  6
BYBLOCK
 62
     0
 10
87.62664881823513
 20
-60.7156585115648
 30
0.0
  0
POINT
  5
BC9
  8
DEFPOINTS
  6
BYBLOCK
 62
     0
 10
75.05002837791592
 20
-61.68752755151614
 30
0.0
  0
POINT
  5
BCA
  8
DEFPOINTS
  6
BYBLOCK
 62
     0
 10
81.40002837791593
 20
-60.99993401045987
 30
0.0
  0
POINT
  5
BCB
  8
DEFPOINTS
  6
BYBLOCK
 62
     0
 10
90.55216380222602
 20
-60.99993401045988
 30
0.0
  0
POINT
  5
BCC
  8
DEFPOINTS
  6
BYBLOCK
 62
     0
 10
80.65002837791594
 20
-60.9999340104599
 30
0.0
  0
ENDBLK
  5
11A8
  8
0
  0
BLOCK
  8
0
  2
*D19
 70
     1
 10
0.0
 20
0.0
 30
0.0
  3
*D19
  1

  0
LINE
  5
BE0
  8
0
  6
BYBLOCK
 62
     0
 10
80.13505756181941
 20
-61.13990482655642
 30
0.0
 11
85.74718927651747
 21
-61.13990482655642
 31
0.0
  0
LINE
  5
BE1
  8
0
  6
BYBLOCK
 62
     0
 10
81.27502837791594
 20
-59.99993401045989
 30
0.0
 11
85.74718927651747
 21
-59.99993401045989
 31
0.0
  0
LINE
  5
BE2
  8
0
  6
BYBLOCK
 62
     0
 10
85.12218927651747
 20
-62.33990482655643
 30
0.0
 11
85.12218927651747
 21
-63.53990482655642
 31
0.0
  0
LINE
  5
BE3
  8
0
  6
BYBLOCK
 62
     0
 10
85.12218927651747
 20
-58.79993401045989
 30
0.0
 11
85.12218927651747
 21
-52.07612448665036
 31
0.0
  0
LINE
  5
BE4
  8
0
  6
BYBLOCK
 62
     0
 10
85.12218927651747
 20
-61.13990482655642
 30
0.0
 11
85.12218927651747
 21
-59.99993401045989
 31
0.0
  0
SOLID
  5
BE5
  8
0
  6
BYBLOCK
 62
     0
 10
84.92218927651747
 20
-62.33990482655643
 30
0.0
 11
85.32218927651748
 21
-62.33990482655643
 31
0.0
 12
85.12218927651747
 22
-61.13990482655642
 32
0.0
 13
85.12218927651747
 23
-61.13990482655642
 33
0.0
  0
SOLID
  5
BE6
  8
0
  6
BYBLOCK
 62
     0
 10
84.92218927651747
 20
-58.79993401045989
 30
0.0
 11
85.32218927651748
 21
-58.79993401045989
 31
0.0
 12
85.12218927651747
 22
-59.99993401045989
 32
0.0
 13
85.12218927651747
 23
-59.99993401045989
 33
0.0
  0
TEXT
  5
BE7
  8
0
  6
CONTINUOUS
 62
     0
 10
84.62218927651747
 20
-57.45521674855513
 30
0.0
 40
1.25
  1
1x45°
 50
90.0
  7
ROMANS
  0
POINT
  5
BE8
  8
DEFPOINTS
  6
BYBLOCK
 62
     0
 10
79.51005756181941
 20
-61.13990482655642
 30
0.0
  0
POINT
  5
BE9
  8
DEFPOINTS
  6
BYBLOCK
 62
     0
 10
80.65002837791594
 20
-59.99993401045989
 30
0.0
  0
POINT
  5
BEA
  8
DEFPOINTS
  6
BYBLOCK
 62
     0
 10
85.12218927651747
 20
-59.99993401045989
 30
0.0
  0
ENDBLK
  5
11AA
  8
0
  0
BLOCK
  8
0
  2
*D20
 70
     1
 10
0.0
 20
0.0
 30
0.0
  3
*D20
  1

  0
LINE
  5
C72
  8
0
  6
BYBLOCK
 62
     0
 10
29.86547256163527
 20
-66.40241460953597
 30
0.0
 11
29.86547256163527
 21
-81.8000537299518
 31
0.0
  0
LINE
  5
C73
  8
0
  6
BYBLOCK
 62
     0
 10
29.06939106780945
 20
-67.95162238777816
 30
0.0
 11
29.06939106780945
 21
-81.8000537299518
 31
0.0
  0
LINE
  5
C74
  8
0
  6
BYBLOCK
 62
     0
 10
31.06547256163527
 20
-81.1750537299518
 30
0.0
 11
32.26547256163527
 21
-81.1750537299518
 31
0.0
  0
LINE
  5
C75
  8
0
  6
BYBLOCK
 62
     0
 10
27.86939106780945
 20
-81.1750537299518
 30
0.0
 11
23.05034344876183
 21
-81.1750537299518
 31
0.0
  0
LINE
  5
C76
  8
0
  6
BYBLOCK
 62
     0
 10
29.86547256163527
 20
-81.1750537299518
 30
0.0
 11
29.06939106780945
 21
-81.1750537299518
 31
0.0
  0
SOLID
  5
C77
  8
0
  6
BYBLOCK
 62
     0
 10
31.06547256163527
 20
-80.9750537299518
 30
0.0
 11
31.06547256163527
 21
-81.3750537299518
 31
0.0
 12
29.86547256163527
 22
-81.1750537299518
 32
0.0
 13
29.86547256163527
 23
-81.1750537299518
 33
0.0
  0
SOLID
  5
C78
  8
0
  6
BYBLOCK
 62
     0
 10
27.86939106780945
 20
-80.9750537299518
 30
0.0
 11
27.86939106780945
 21
-81.3750537299518
 31
0.0
 12
29.06939106780945
 22
-81.1750537299518
 32
0.0
 13
29.06939106780945
 23
-81.1750537299518
 33
0.0
  0
TEXT
  5
C79
  8
0
  6
CONTINUOUS
 62
     0
 10
23.36805178209516
 20
-80.6750537299518
 30
0.0
 40
1.25
  1
0.8
  7
ROMANS
  0
POINT
  5
C7A
  8
DEFPOINTS
  6
BYBLOCK
 62
     0
 10
29.86547256163527
 20
-65.77741460953597
 30
0.0
  0
POINT
  5
C7B
  8
DEFPOINTS
  6
BYBLOCK
 62
     0
 10
29.06939106780945
 20
-67.32662238777816
 30
0.0
  0
POINT
  5
C7C
  8
DEFPOINTS
  6
BYBLOCK
 62
     0
 10
29.06939106780945
 20
-81.1750537299518
 30
0.0
  0
ENDBLK
  5
11AC
  8
0
  0
BLOCK
  8
0
  2
*D21
 70
     1
 10
0.0
 20
0.0
 30
0.0
  3
*D21
  1

  0
LINE
  5
CA1
  8
0
  6
BYBLOCK
 62
     0
 10
29.86547256163524
 20
-67.73831299439813
 30
0.0
 11
29.86547256163524
 21
-85.6839548549587
 31
0.0
  0
LINE
  5
CA2
  8
0
  6
BYBLOCK
 62
     0
 10
33.54778426293389
 20
-85.0589548549587
 30
0.0
 11
31.06547256163524
 21
-85.0589548549587
 31
0.0
  0
LINE
  5
CA3
  8
0
  6
BYBLOCK
 62
     0
 10
29.86547256163524
 20
-85.0589548549587
 30
0.0
 11
23.85594875211143
 21
-85.0589548549587
 31
0.0
  0
SOLID
  5
CA4
  8
0
  6
BYBLOCK
 62
     0
 10
33.54778426293389
 20
-84.8589548549587
 30
0.0
 11
33.54778426293389
 21
-85.2589548549587
 31
0.0
 12
34.74778426293389
 22
-85.0589548549587
 32
0.0
 13
34.74778426293389
 23
-85.0589548549587
 33
0.0
  0
SOLID
  5
CA5
  8
0
  6
BYBLOCK
 62
     0
 10
31.06547256163524
 20
-84.8589548549587
 30
0.0
 11
31.06547256163524
 21
-85.2589548549587
 31
0.0
 12
29.86547256163524
 22
-85.0589548549587
 32
0.0
 13
29.86547256163524
 23
-85.0589548549587
 33
0.0
  0
TEXT
  5
CA6
  8
0
  6
CONTINUOUS
 62
     0
 10
24.17365708544477
 20
-84.5589548549587
 30
0.0
 40
1.25
  1
4.88
  7
ROMANS
  0
POINT
  5
CA7
  8
DEFPOINTS
  6
BYBLOCK
 62
     0
 10
29.86547256163524
 20
-67.11331299439813
 30
0.0
  0
POINT
  5
CA8
  8
DEFPOINTS
  6
BYBLOCK
 62
     0
 10
34.74778426293389
 20
-85.0589548549587
 30
0.0
  0
POINT
  5
CA9
  8
DEFPOINTS
  6
BYBLOCK
 62
     0
 10
34.74778426293389
 20
-85.0589548549587
 30
0.0
  0
ENDBLK
  5
11AE
  8
0
  0
BLOCK
  8
0
  2
*D22
 70
     1
 10
0.0
 20
0.0
 30
0.0
  3
*D22
  1

  0
LINE
  5
10AD
  8
0
  6
BYBLOCK
 62
     0
 10
26.90887095136907
 20
-57.46586741530598
 30
0.0
 11
26.90887095136907
 21
-67.60288013868644
 31
0.0
  0
SOLID
  5
10AE
  8
0
  6
BYBLOCK
 62
     0
 10
26.70887095136907
 20
-57.46586741530598
 30
0.0
 11
27.10887095136907
 21
-57.46586741530598
 31
0.0
 12
26.90887095136907
 22
-56.26586741530598
 32
0.0
 13
26.90887095136907
 23
-56.26586741530598
 33
0.0
  0
SOLID
  5
10AF
  8
0
  6
BYBLOCK
 62
     0
 10
26.70887095136907
 20
-67.60288013868644
 30
0.0
 11
27.10887095136907
 21
-67.60288013868644
 31
0.0
 12
26.90887095136907
 22
-68.80288013868645
 32
0.0
 13
26.90887095136907
 23
-68.80288013868645
 33
0.0
  0
TEXT
  5
10B0
  8
0
  6
CONTINUOUS
 62
     0
 10
26.40887095136907
 20
-65.10934687954267
 30
0.0
 40
1.25
  1
12.54
 50
90.0
  7
ROMANS
  0
POINT
  5
10B1
  8
DEFPOINTS
  6
BYBLOCK
 62
     0
 10
26.90887095136907
 20
-56.26586741530598
 30
0.0
  0
POINT
  5
10B2
  8
DEFPOINTS
  6
BYBLOCK
 62
     0
 10
26.90887095136907
 20
-68.80288013868645
 30
0.0
  0
POINT
  5
10B3
  8
DEFPOINTS
  6
BYBLOCK
 62
     0
 10
26.90887095136907
 20
-68.80288013868645
 30
0.0
  0
ENDBLK
  5
11B0
  8
0
  0
BLOCK
  8
0
  2
*D23
 70
     1
 10
0.0
 20
0.0
 30
0.0
  3
*D23
  1

  0
LINE
  5
108D
  8
0
  6
BYBLOCK
 62
     0
 10
15.26164040417581
 20
-48.5658674153059
 30
0.0
 11
32.70958921681825
 21
-48.5658674153059
 31
0.0
  0
LINE
  5
108E
  8
0
  6
BYBLOCK
 62
     0
 10
14.5439521054744
 20
-74.76586741530588
 30
0.0
 11
32.70958921681824
 21
-74.76586741530588
 31
0.0
  0
LINE
  5
108F
  8
0
  6
BYBLOCK
 62
     0
 10
32.08458921681825
 20
-49.76586741530591
 30
0.0
 11
32.08458921681824
 21
-73.56586741530587
 31
0.0
  0
SOLID
  5
1090
  8
0
  6
BYBLOCK
 62
     0
 10
31.88458921681825
 20
-49.76586741530591
 30
0.0
 11
32.28458921681825
 21
-49.76586741530591
 31
0.0
 12
32.08458921681825
 22
-48.5658674153059
 32
0.0
 13
32.08458921681825
 23
-48.5658674153059
 33
0.0
  0
SOLID
  5
1091
  8
0
  6
BYBLOCK
 62
     0
 10
31.88458921681825
 20
-73.56586741530587
 30
0.0
 11
32.28458921681825
 21
-73.56586741530587
 31
0.0
 12
32.08458921681824
 22
-74.76586741530588
 32
0.0
 13
32.08458921681824
 23
-74.76586741530588
 33
0.0
  0
TEXT
  5
1092
  8
0
  6
CONTINUOUS
 62
     0
 10
31.58458921681825
 20
-65.00453966364928
 30
0.0
 40
1.25
  1
26.2
 50
90.0
  7
ROMANS
  0
POINT
  5
1093
  8
DEFPOINTS
  6
BYBLOCK
 62
     0
 10
14.63664040417581
 20
-48.5658674153059
 30
0.0
  0
POINT
  5
1094
  8
DEFPOINTS
  6
BYBLOCK
 62
     0
 10
13.9189521054744
 20
-74.76586741530588
 30
0.0
  0
POINT
  5
1095
  8
DEFPOINTS
  6
BYBLOCK
 62
     0
 10
32.08458921681824
 20
-74.76586741530588
 30
0.0
  0
ENDBLK
  5
11B2
  8
0
  0
BLOCK
  8
0
  2
*D24
 70
     1
 10
0.0
 20
0.0
 30
0.0
  3
*D24
  1

  0
LINE
  5
C7F
  8
0
  6
BYBLOCK
 62
     0
 10
29.86547256163527
 20
-66.40241460953597
 30
0.0
 11
29.86547256163527
 21
-90.51108871538264
 31
0.0
  0
LINE
  5
C80
  8
0
  6
BYBLOCK
 62
     0
 10
39.96547256163525
 20
-68.45793369853592
 30
0.0
 11
39.96547256163525
 21
-90.51108871538264
 31
0.0
  0
LINE
  5
C81
  8
0
  6
BYBLOCK
 62
     0
 10
31.06547256163527
 20
-89.88608871538264
 30
0.0
 11
38.76547256163524
 21
-89.88608871538264
 31
0.0
  0
SOLID
  5
C82
  8
0
  6
BYBLOCK
 62
     0
 10
31.06547256163527
 20
-89.68608871538264
 30
0.0
 11
31.06547256163527
 21
-90.08608871538264
 31
0.0
 12
29.86547256163527
 22
-89.88608871538264
 32
0.0
 13
29.86547256163527
 23
-89.88608871538264
 33
0.0
  0
SOLID
  5
C83
  8
0
  6
BYBLOCK
 62
     0
 10
38.76547256163524
 20
-89.68608871538264
 30
0.0
 11
38.76547256163524
 21
-90.08608871538264
 31
0.0
 12
39.96547256163525
 22
-89.88608871538264
 32
0.0
 13
39.96547256163525
 23
-89.88608871538264
 33
0.0
  0
TEXT
  5
C84
  8
0
  6
CONTINUOUS
 62
     0
 10
32.76920647092241
 20
-89.38608871538264
 30
0.0
 40
1.25
  1
10.1
  7
ROMANS
  0
POINT
  5
C85
  8
DEFPOINTS
  6
BYBLOCK
 62
     0
 10
29.86547256163527
 20
-65.77741460953597
 30
0.0
  0
POINT
  5
C86
  8
DEFPOINTS
  6
BYBLOCK
 62
     0
 10
39.96547256163525
 20
-67.83293369853592
 30
0.0
  0
POINT
  5
C87
  8
DEFPOINTS
  6
BYBLOCK
 62
     0
 10
39.96547256163525
 20
-89.88608871538264
 30
0.0
  0
ENDBLK
  5
11B4
  8
0
  0
BLOCK
  8
0
  2
*D25
 70
     1
 10
0.0
 20
0.0
 30
0.0
  3
*D25
  1

  0
LINE
  5
D32
  8
0
  6
BYBLOCK
 62
     0
 10
29.24047256163524
 20
-67.11331299439814
 30
0.0
 11
21.5678835151607
 21
-67.11331299439814
 31
0.0
  0
LINE
  5
D33
  8
0
  6
BYBLOCK
 62
     0
 10
22.1928835151607
 20
-59.27741460953592
 30
0.0
 11
22.1928835151607
 21
-65.91331299439814
 31
0.0
  0
SOLID
  5
D34
  8
0
  6
BYBLOCK
 62
     0
 10
21.9928835151607
 20
-59.27741460953592
 30
0.0
 11
22.3928835151607
 21
-59.27741460953592
 31
0.0
 12
22.1928835151607
 22
-58.07741460953592
 32
0.0
 13
22.1928835151607
 23
-58.07741460953592
 33
0.0
  0
SOLID
  5
D35
  8
0
  6
BYBLOCK
 62
     0
 10
21.9928835151607
 20
-65.91331299439814
 30
0.0
 11
22.3928835151607
 21
-65.91331299439814
 31
0.0
 12
22.1928835151607
 22
-67.11331299439814
 32
0.0
 13
22.1928835151607
 23
-67.11331299439814
 33
0.0
  0
TEXT
  5
D36
  8
0
  6
CONTINUOUS
 62
     0
 10
21.6928835151607
 20
-63.9591777356863
 30
0.0
 40
1.25
  1
9.0
 50
90.0
  7
ROMANS
  0
POINT
  5
D37
  8
DEFPOINTS
  6
BYBLOCK
 62
     0
 10
22.1928835151607
 20
-58.07741460953592
 30
0.0
  0
POINT
  5
D38
  8
DEFPOINTS
  6
BYBLOCK
 62
     0
 10
29.86547256163524
 20
-67.11331299439814
 30
0.0
  0
POINT
  5
D39
  8
DEFPOINTS
  6
BYBLOCK
 62
     0
 10
22.1928835151607
 20
-67.11331299439814
 30
0.0
  0
ENDBLK
  5
11B6
  8
0
  0
BLOCK
  8
0
  2
*D26
 70
     1
 10
0.0
 20
0.0
 30
0.0
  3
*D26
  1

  0
LINE
  5
D18
  8
0
  6
BYBLOCK
 62
     0
 10
24.02820968216474
 20
-67.11331299439814
 30
0.0
 11
16.36359044333788
 21
-67.1133129943981
 31
0.0
  0
LINE
  5
D19
  8
0
  6
BYBLOCK
 62
     0
 10
28.46568742637878
 20
-67.48838429096725
 30
0.0
 11
16.8236559200614
 21
-70.60785723134319
 31
0.0
  0
ARC
  5
D1A
  8
0
  6
BYBLOCK
 62
     0
 10
29.8654725616351
 20
-67.11331299439816
 30
0.0
 40
12.87688211829723
 50
169.3173148334966
 51
174.6586574167482
  0
ARC
  5
D1B
  8
0
  6
BYBLOCK
 62
     0
 10
29.8654725616351
 20
-67.11331299439816
 30
0.0
 40
12.87688211829723
 50
200.3413425832539
 51
205.6826851665054
  0
ARC
  5
D1C
  8
0
  6
BYBLOCK
 62
     0
 10
29.8654725616351
 20
-67.11331299439816
 30
0.0
 40
12.87688211829723
 50
179.9999999999997
 51
195.0000000000023
  0
SOLID
  5
D1D
  8
0
  6
BYBLOCK
 62
     0
 10
17.24428737109569
 20
-65.92393539197941
 30
0.0
 11
16.84472182827029
 21
-65.90529733986438
 31
0.0
 12
16.98859044333788
 22
-67.1133129943981
 32
0.0
 13
16.98859044333788
 23
-67.1133129943981
 33
0.0
  0
SOLID
  5
D1E
  8
0
  6
BYBLOCK
 62
     0
 10
17.6010506087812
 20
-71.65018478500171
 30
0.0
 11
17.98217740304047
 21
-71.52876663686212
 31
0.0
 12
17.42735956149206
 22
-70.44609532815409
 32
0.0
 13
17.42735956149206
 23
-70.44609532815409
 33
0.0
  0
TEXT
  5
D1F
  8
0
  6
CONTINUOUS
 62
     0
 10
17.39659906668511
 20
-67.22579282974223
 30
0.0
 40
1.25
  1
15°
 50
277.5000000000012
  7
ROMANS
  0
POINT
  5
D20
  8
DEFPOINTS
  6
BYBLOCK
 62
     0
 10
17.03759086743501
 20
-68.23560721969253
 30
0.0
  0
POINT
  5
D21
  8
DEFPOINTS
  6
BYBLOCK
 62
     0
 10
24.65320968216474
 20
-67.11331299439814
 30
0.0
  0
POINT
  5
D22
  8
DEFPOINTS
  6
BYBLOCK
 62
     0
 10
29.86547256163524
 20
-67.11331299439814
 30
0.0
  0
POINT
  5
D23
  8
DEFPOINTS
  6
BYBLOCK
 62
     0
 10
29.06939106780944
 20
-67.32662238777814
 30
0.0
  0
POINT
  5
D24
  8
DEFPOINTS
  6
BYBLOCK
 62
     0
 10
25.27820968216474
 20
-67.11331299439814
 30
0.0
  0
ENDBLK
  5
11B8
  8
0
  0
BLOCK
  8
0
  2
KAISERB
 70
     2
 10
0.0
 20
0.0
 30
0.0
  3
KAISERB
  1

  0
LINE
  5
EA5
  8
BORDER
 10
0.0
 20
0.0
 30
0.0
 11
406.4
 21
0.0
 31
0.0
  0
LINE
  5
EA6
  8
BORDER
 10
406.4
 20
0.0
 30
0.0
 11
406.4
 21
254.0
 31
0.0
  0
LINE
  5
EA7
  8
BORDER
 10
266.7
 20
0.0
 30
0.0
 11
266.7
 21
50.8
 31
0.0
  0
LINE
  5
EA8
  8
BORDER
 10
266.7
 20
50.8
 30
0.0
 11
406.4
 21
50.8
 31
0.0
  0
LINE
  5
EA9
  8
BORDER
 10
266.7
 20
36.83000000000001
 30
0.0
 11
406.4
 21
36.83000000000001
 31
0.0
  0
LINE
  5
EAA
  8
BORDER
 10
266.7
 20
24.13
 30
0.0
 11
406.4
 21
24.13
 31
0.0
  0
LINE
  5
EAB
  8
BORDER
 10
266.7
 20
11.43
 30
0.0
 11
406.4
 21
11.43
 31
0.0
  0
LINE
  5
EAC
  8
BORDER
 10
369.316
 20
0.0
 30
0.0
 11
369.316
 21
11.43
 31
0.0
  0
LINE
  5
EAD
  8
BORDER
 10
369.316
 20
24.13
 30
0.0
 11
369.316
 21
36.83000000000001
 31
0.0
  0
LINE
  5
EAE
  8
BORDER
 10
266.7
 20
30.226
 30
0.0
 11
305.308
 21
30.226
 31
0.0
  0
LINE
  5
EAF
  8
BORDER
 10
305.308
 20
24.13
 30
0.0
 11
305.308
 21
36.83000000000001
 31
0.0
  0
TEXT
  5
EB0
  8
BORDER
 10
371.3479999999999
 20
8.636000000000005
 30
0.0
 40
1.524
  1
DRAWING NUMBER
  7
ROMANS
  0
TEXT
  5
EB1
  8
BORDER
 10
381.309717962926
 20
32.76600000000001
 30
0.0
 40
1.524
  1
DRAWN BY
  7
ROMANS
  0
TEXT
  5
EB2
  8
BORDER
 10
307.086
 20
33.782
 30
0.0
 40
1.524
  1
APPROVED BY
  7
ROMANS
  0
TEXT
  5
EB3
  8
BORDER
 10
268.732
 20
32.76600000000001
 30
0.0
 40
1.524
  1
SCALE:
  7
ROMANS
  0
TEXT
  5
EB4
  8
BORDER
 10
268.732
 20
26.16200000000001
 30
0.0
 40
1.524
  1
DATE:
  7
ROMANS
  0
TEXT
  5
EB5
  8
DIM
 10
338.0370250261527
 20
45.84200216885399
 30
0.0
 40
2.54
  1
641 FARGO
  7
ROMANS
  0
TEXT
  5
EB6
  8
DIM
 10
338.0370250261527
 20
41.60866883552065
 30
0.0
 40
2.54
  1
ELK GROVE VILLAGE, IL
  7
ROMANS
  0
TEXT
  5
EB7
  8
DIM
 10
376.4169125694053
 20
37.78902355214178
 30
0.0
 40
2.54
  1
 60007
  7
ROMANS
  0
ATTDEF
  5
EB8
  8
DIM
 10
277.3432493763579
 20
14.94103770937689
 30
0.0
 40
5.08
  1

  7
ROMANS
  3

  2
NAME
 70
     0
  0
ATTDEF
  5
EB9
  8
DIM
 10
278.7713382151766
 20
32.1706663776914
 30
0.0
 40
2.54
  1

  7
ROMANS
  3

  2
SCALE
 70
     0
  0
ATTDEF
  5
EBA
  8
DIM
 10
278.2358049006196
 20
25.99047348579597
 30
0.0
 40
2.54
  1

  7
ROMANS
  3

  2
DATE
 70
     0
  0
TEXT
  5
EBB
  8
DIM
 10
269.1317385531503
 20
7.075337665146358
 30
0.0
 40
2.54
  1
MATERIAL:
  7
ROMANS
  0
TEXT
  5
EBC
  8
DIM
 10
269.1317385531503
 20
2.654725759331347
 30
0.0
 40
2.54
  1
HEAT TREAT:
  7
ROMANS
  0
TEXT
  5
EBD
  8
DIM
 10
328.2189142592742
 20
6.888059092664675
 30
0.0
 40
2.54
  1
FINISH:
  7
ROMANS
  0
ATTDEF
  5
EBE
  8
DIM
 10
290.3745600305785
 20
7.075337665146358
 30
0.0
 40
2.54
  1

  7
ROMANS
  3

  2
MATERIAL
 70
     0
  0
ATTDEF
  5
EBF
  8
DIM
 10
295.908404281001
 20
2.580651925586048
 30
0.0
 40
2.54
  1

  7
ROMANS
  3

  2
HEATTREAT
 70
     0
  0
ATTDEF
  5
EC0
  8
DIM
 10
343.2138470668705
 20
6.700780520182994
 30
0.0
 40
2.54
  1

  7
ROMANS
  3

  2
FINISH
 70
     0
  0
ATTDEF
  5
EC1
  8
DIM
 10
370.3475350044258
 20
2.76793049806773
 30
0.0
 40
3.81
  1

  7
ROMANS
  3

  2
DRAWINGNO.
 70
     0
  0
TEXT
  5
EC2
  8
DIM
 10
210.4301549333823
 20
46.93747604222148
 30
0.0
 40
2.032
  1
UNLESS OTHERWISE SPECIFIED
  7
ROMANS
  0
TEXT
  5
EC3
  8
DIM
 10
210.4301549333823
 20
43.55080937555481
 30
0.0
 40
2.032
  1
BREAK ALL EDGES 0.2x45%%D
  7
ROMANS
  0
TEXT
  5
EC4
  8
DIM
 10
210.4301549333823
 20
40.16414270888815
 30
0.0
 40
2.032
  1
SURFACE FINISH=3.2 OR BETTER
  7
ROMANS
  0
TEXT
  5
EC5
  8
DIM
 10
210.1314751865177
 20
14.23918843372988
 30
0.0
 40
2.54
  1
DO NOT SCALE DRAWING
  7
ROMANS
  0
TEXT
  5
EC6
  8
DIM
 10
297.8736343323009
 20
39.46541317525228
 30
0.0
 40
1.8288
  1
PRECISION TOOLING,INC.
 50
359.9394791519117
 41
1.034257277458628
  7
ROMANS
 72
     5
 11
331.938624587764
 21
39.42943071922047
 31
0.0
  0
ARC
  5
EC7
  8
DIM
 10
332.2010894818026
 20
42.47456415696792
 30
0.0
 40
1.524
 50
180.0
 51
194.366235341689
  0
ARC
  5
EC8
  8
DIM
 10
332.7344894818026
 20
42.54668223830804
 30
0.0
 40
0.9143999999999999
 50
180.0
 51
209.4985180895017
  0
ARC
  5
EC9
  8
DIM
 10
329.9912894818026
 20
44.51578071922047
 30
0.0
 40
0.6858
 50
0.0
 51
90.0
  0
ARC
  5
ECA
  8
DIM
 10
330.8675894818026
 20
44.72533071922047
 30
0.0
 40
0.9524999999999999
 50
0.0
 51
89.99999999999861
  0
ARC
  5
ECB
  8
DIM
 10
330.8675894818026
 20
46.63033071922045
 30
0.0
 40
0.9524999999999999
 50
270.0
 51
0.0
  0
LINE
  5
ECC
  8
DIM
 10
330.7247456521839
 20
42.09643071922045
 30
0.0
 11
331.9386245877639
 21
42.09643071922045
 31
0.0
  0
LINE
  5
ECD
  8
DIM
 10
330.6770894818026
 20
44.51578071922047
 30
0.0
 11
330.6770894818026
 21
42.47456415696792
 31
0.0
  0
LINE
  5
ECE
  8
DIM
 10
331.8200894818025
 20
48.07051071922047
 30
0.0
 11
331.8200894818025
 21
46.63033071922045
 31
0.0
  0
ARC
  5
ECF
  8
DIM
 10
330.2198894818026
 20
46.61128071922049
 30
0.0
 40
0.4571999999999999
 50
270.0
 51
0.0
  0
ARC
  5
ED0
  8
DIM
 10
330.2198894818026
 20
47.84953071922045
 30
0.0
 40
0.4571999999999999
 50
0.0
 51
90.0
  0
LINE
  5
ED1
  8
DIM
 10
330.6770894818026
 20
46.61128071922049
 30
0.0
 11
330.6770894818026
 21
47.84953071922045
 31
0.0
  0
LINE
  5
ED2
  8
DIM
 10
329.4578894818025
 20
46.15408071922047
 30
0.0
 11
329.4578894818026
 21
48.30673071922046
 31
0.0
  0
LINE
  5
ED3
  8
DIM
 10
328.3148894818026
 20
42.09643071922045
 30
0.0
 11
329.4578894818026
 21
42.09643071922045
 31
0.0
  0
LINE
  5
ED4
  8
DIM
 10
329.9912894818026
 20
45.20158071922047
 30
0.0
 11
329.4578894818026
 21
45.20158071922047
 31
0.0
  0
LINE
  5
ED5
  8
DIM
 10
330.2198894818026
 20
46.1540807192205
 30
0.0
 11
329.4578894818026
 21
46.15408071922047
 31
0.0
  0
LINE
  5
ED6
  8
DIM
 10
329.4578894818026
 20
42.09643071922045
 30
0.0
 11
329.4578894818026
 21
45.20158071922047
 31
0.0
  0
LINE
  5
ED7
  8
DIM
 10
329.4578894818026
 20
48.30673071922046
 30
0.0
 11
330.2198894818026
 21
48.30673071922043
 31
0.0
  0
ARC
  5
ED8
  8
DIM
 10
330.6313694818026
 20
48.07051071922047
 30
0.0
 40
1.18872
 50
0.0
 51
90.0
  0
LINE
  5
ED9
  8
DIM
 10
331.8200894818025
 20
42.54668223830804
 30
0.0
 11
331.8200894818025
 21
44.72533071922047
 31
0.0
  0
LINE
  5
EDA
  8
DIM
 10
328.3148894818026
 20
49.25923071922045
 30
0.0
 11
330.6313694818026
 21
49.25923071922045
 31
0.0
  0
LINE
  5
EDB
  8
DIM
 10
328.3148894818026
 20
42.09643071922045
 30
0.0
 11
328.3148894818026
 21
49.25923071922045
 31
0.0
  0
LINE
  5
EDC
  8
DIM
 10
326.0288894818025
 20
46.15408071922047
 30
0.0
 11
326.0288894818025
 21
48.30673071922046
 31
0.0
  0
LINE
  5
EDD
  8
DIM
 10
327.6290894818026
 20
45.20158071922047
 30
0.0
 11
327.6290894818026
 21
46.15408071922047
 31
0.0
  0
LINE
  5
EDE
  8
DIM
 10
327.6290894818026
 20
45.20158071922047
 30
0.0
 11
326.0288894818026
 21
45.20158071922047
 31
0.0
  0
LINE
  5
EDF
  8
DIM
 10
327.6290894818026
 20
46.15408071922047
 30
0.0
 11
326.0288894818026
 21
46.15408071922047
 31
0.0
  0
LINE
  5
EE0
  8
DIM
 10
327.6290894818026
 20
48.30673071922046
 30
0.0
 11
327.6290894818026
 21
49.25923071922045
 31
0.0
  0
LINE
  5
EE1
  8
DIM
 10
326.0288894818025
 20
48.30673071922046
 30
0.0
 11
327.6290894818026
 21
48.30673071922046
 31
0.0
  0
LINE
  5
EE2
  8
DIM
 10
326.0288894818025
 20
43.04893071922045
 30
0.0
 11
327.6290894818026
 21
43.04893071922045
 31
0.0
  0
LINE
  5
EE3
  8
DIM
 10
326.0288894818025
 20
43.04893071922045
 30
0.0
 11
326.0288894818025
 21
45.20158071922047
 31
0.0
  0
LINE
  5
EE4
  8
DIM
 10
324.8858894818026
 20
49.25923071922045
 30
0.0
 11
327.6290894818026
 21
49.25923071922045
 31
0.0
  0
LINE
  5
EE5
  8
DIM
 10
324.8858894818026
 20
42.09643071922045
 30
0.0
 11
324.8858894818026
 21
49.25923071922045
 31
0.0
  0
LINE
  5
EE6
  8
DIM
 10
327.6290894818026
 20
42.09643071922045
 30
0.0
 11
327.6290894818026
 21
43.04893071922045
 31
0.0
  0
LINE
  5
EE7
  8
DIM
 10
324.8858894818026
 20
42.09643071922045
 30
0.0
 11
327.6290894818026
 21
42.09643071922045
 31
0.0
  0
ARC
  5
EE8
  8
DIM
 10
322.3022507024829
 20
48.07051071922044
 30
0.0
 40
1.18872
 50
90.0
 51
205.0000000000001
  0
LINE
  5
EE9
  8
DIM
 10
321.0758894818026
 20
43.04893071922045
 30
0.0
 11
321.0758894818026
 21
42.09643071922045
 31
0.0
  0
ARC
  5
EEA
  8
DIM
 10
322.6556258764755
 20
47.9257307192204
 30
0.0
 40
0.3809999999999999
 50
90.00000000000082
 51
204.9999999999997
  0
LINE
  5
EEB
  8
DIM
 10
323.9714894818026
 20
49.25923071922043
 30
0.0
 11
322.3022507024829
 21
49.25923071922043
 31
0.0
  0
LINE
  5
EEC
  8
DIM
 10
323.9714894818026
 20
48.30673071922043
 30
0.0
 11
322.6556258764755
 21
48.3067307192204
 31
0.0
  0
LINE
  5
EED
  8
DIM
 10
323.9714894818026
 20
49.25923071922043
 30
0.0
 11
323.9714894818026
 21
48.30673071922043
 31
0.0
  0
ARC
  5
EEE
  8
DIM
 10
322.7341943078101
 20
43.42993071922046
 30
0.0
 40
0.3809999999999999
 50
270.0
 51
25.00000000000002
  0
LINE
  5
EEF
  8
DIM
 10
323.0794975746711
 20
43.59094827694366
 30
0.0
 11
321.2249045098769
 21
47.56813593912403
 31
0.0
  0
LINE
  5
EF0
  8
DIM
 10
324.1649156744088
 20
43.78752549931693
 30
0.0
 11
322.3103226096146
 21
47.76471316149719
 31
0.0
  0
ARC
  5
EF1
  8
DIM
 10
323.0875694818026
 20
43.28515071922052
 30
0.0
 40
1.18872
 50
270.0
 51
24.99999999999686
  0
LINE
  5
EF2
  8
DIM
 10
321.0758894818026
 20
43.04893071922045
 30
0.0
 11
322.7341943078101
 21
43.04893071922045
 31
0.0
  0
LINE
  5
EF3
  8
DIM
 10
321.0758894818026
 20
42.09643071922045
 30
0.0
 11
323.0875694818026
 21
42.09643071922045
 31
0.0
  0
LINE
  5
EF4
  8
DIM
 10
320.3138894818026
 20
49.25923071922043
 30
0.0
 11
320.3138894818026
 21
42.09643071922045
 31
0.0
  0
LINE
  5
EF5
  8
DIM
 10
319.2470894818026
 20
49.25923071922045
 30
0.0
 11
320.3138894818026
 21
49.25923071922043
 31
0.0
  0
LINE
  5
EF6
  8
DIM
 10
319.2470894818026
 20
42.09643071922045
 30
0.0
 11
319.2470894818026
 21
49.25923071922045
 31
0.0
  0
LINE
  5
EF7
  8
DIM
 10
319.2470894818025
 20
42.09643071922045
 30
0.0
 11
320.3138894818026
 21
42.09643071922045
 31
0.0
  0
LINE
  5
EF8
  8
DIM
 10
315.1815677004602
 20
43.0489307192204
 30
0.0
 11
316.019230384078
 21
47.35833164225473
 31
0.0
  0
LINE
  5
EF9
  8
DIM
 10
315.1815677004602
 20
43.0489307192204
 30
0.0
 11
316.514071198271
 21
43.0489307192204
 31
0.0
  0
LINE
  5
EFA
  8
DIM
 10
316.7692928040618
 20
42.09643071922042
 30
0.0
 11
316.514071198271
 21
43.0489307192204
 31
0.0
  0
LINE
  5
EFB
  8
DIM
 10
314.0260928040617
 20
42.09643071922042
 30
0.0
 11
316.7692928040618
 21
42.09643071922042
 31
0.0
  0
LINE
  5
EFC
  8
DIM
 10
317.6823957554235
 20
42.09643071922042
 30
0.0
 11
316.019230384078
 21
47.35833164225473
 31
0.0
  0
LINE
  5
EFD
  8
DIM
 10
318.8253957554235
 20
42.09643071922042
 30
0.0
 11
317.6823957554235
 21
42.09643071922042
 31
0.0
  0
LINE
  5
EFE
  8
DIM
 10
316.9061292798779
 20
49.2592307192204
 30
0.0
 11
318.8253957554235
 21
42.09643071922042
 31
0.0
  0
LINE
  5
EFF
  8
DIM
 10
315.4184000823534
 20
49.2592307192204
 30
0.0
 11
316.9061292798779
 21
49.2592307192204
 31
0.0
  0
LINE
  5
F00
  8
DIM
 10
314.0260928040617
 20
42.09643071922042
 30
0.0
 11
315.4184000823534
 21
49.2592307192204
 31
0.0
  0
LINE
  5
F01
  8
DIM
 10
312.1444762789154
 20
45.95586127035011
 30
0.0
 11
313.6848627506388
 21
49.25923071922043
 31
0.0
  0
LINE
  5
F02
  8
DIM
 10
310.8260264343767
 20
42.09643071922045
 30
0.0
 11
310.8260264343767
 21
43.12843645439236
 31
0.0
  0
LINE
  5
F03
  8
DIM
 10
309.5306264343767
 20
42.09643071922045
 30
0.0
 11
310.8260264343767
 21
42.09643071922045
 31
0.0
  0
LINE
  5
F04
  8
DIM
 10
312.3894627506389
 20
42.09643071922045
 30
0.0
 11
311.4464941579664
 21
44.45903378158309
 31
0.0
  0
LINE
  5
F05
  8
DIM
 10
312.3894627506389
 20
42.09643071922045
 30
0.0
 11
313.6848627506388
 21
42.09643071922045
 31
0.0
  0
LINE
  5
F06
  8
DIM
 10
313.6848627506388
 20
42.09643071922042
 30
0.0
 11
312.1444762789154
 21
45.95586127035011
 31
0.0
  0
LINE
  5
F07
  8
DIM
 10
310.8260264343767
 20
43.12843645439234
 30
0.0
 11
311.4464941579664
 21
44.45903378158309
 31
0.0
  0
LINE
  5
F08
  8
DIM
 10
312.3894627506389
 20
49.25923071922043
 30
0.0
 11
313.6848627506388
 21
49.25923071922043
 31
0.0
  0
LINE
  5
F09
  8
DIM
 10
310.8260264343767
 20
45.90643071922045
 30
0.0
 11
312.3894627506388
 21
49.25923071922045
 31
0.0
  0
LINE
  5
F0A
  8
DIM
 10
310.8260264343767
 20
49.25923071922045
 30
0.0
 11
310.8260264343767
 21
45.90643071922045
 31
0.0
  0
LINE
  5
F0B
  8
DIM
 10
309.5306264343767
 20
49.25923071922045
 30
0.0
 11
310.8260264343767
 21
49.25923071922045
 31
0.0
  0
LINE
  5
F0C
  8
DIM
 10
309.5306264343767
 20
49.25923071922045
 30
0.0
 11
309.5306264343767
 21
42.09643071922045
 31
0.0
  0
ARC
  5
F0D
  8
DIM
 10
303.6632264343767
 20
45.98263071922047
 30
0.0
 40
0.1905
 50
270.0000000000051
 51
0.0000000000005598
  0
LINE
  5
F0E
  8
DIM
 10
305.9873264343767
 20
43.04893071922045
 30
0.0
 11
306.7493264343767
 21
43.04893071922045
 31
0.0
  0
LINE
  5
F0F
  8
DIM
 10
305.7968264343767
 20
42.85843071922051
 30
0.0
 11
306.9398264343767
 21
42.85843071922049
 31
0.0
  0
LINE
  5
F10
  8
DIM
 10
306.7493264343767
 20
47.73523071922047
 30
0.0
 11
306.7493264343767
 21
43.04893071922045
 31
0.0
  0
LINE
  5
F11
  8
DIM
 10
306.9398264343767
 20
47.54473071922042
 30
0.0
 11
307.6256264343767
 21
47.54473071922045
 31
0.0
  0
LINE
  5
F12
  8
DIM
 10
307.4351264343767
 20
47.73523071922041
 30
0.0
 11
306.7493264343767
 21
47.73523071922047
 31
0.0
  0
LINE
  5
F13
  8
DIM
 10
305.9873264343767
 20
47.73523071922044
 30
0.0
 11
305.9873264343767
 21
43.04893071922045
 31
0.0
  0
LINE
  5
F14
  8
DIM
 10
305.7968264343767
 20
47.54473071922042
 30
0.0
 11
305.7968264343767
 21
42.85843071922051
 31
0.0
  0
LINE
  5
F15
  8
DIM
 10
306.9398264343767
 20
47.54473071922042
 30
0.0
 11
306.9398264343767
 21
42.85843071922049
 31
0.0
  0
LINE
  5
F16
  8
DIM
 10
307.4351264343767
 20
48.30673071922049
 30
0.0
 11
307.4351264343767
 21
47.73523071922041
 31
0.0
  0
LINE
  5
F17
  8
DIM
 10
307.6256264343767
 20
48.49723071922043
 30
0.0
 11
307.6256264343767
 21
47.54473071922045
 31
0.0
  0
LINE
  5
F18
  8
DIM
 10
305.3015264343767
 20
48.30673071922049
 30
0.0
 11
307.4351264343767
 21
48.30673071922049
 31
0.0
  0
LINE
  5
F19
  8
DIM
 10
305.3015264343767
 20
47.73523071922044
 30
0.0
 11
305.9873264343767
 21
47.73523071922044
 31
0.0
  0
LINE
  5
F1A
  8
DIM
 10
305.1110264343767
 20
47.54473071922045
 30
0.0
 11
305.7968264343767
 21
47.54473071922045
 31
0.0
  0
LINE
  5
F1B
  8
DIM
 10
305.3015264343767
 20
48.30673071922049
 30
0.0
 11
305.3015264343767
 21
47.73523071922044
 31
0.0
  0
LINE
  5
F1C
  8
DIM
 10
305.1110264343767
 20
48.49723071922043
 30
0.0
 11
305.1110264343767
 21
47.54473071922045
 31
0.0
  0
ARC
  5
F1D
  8
DIM
 10
304.0823264343767
 20
45.6397307192205
 30
0.0
 40
0.6858
 50
270.0000000000023
 51
0.0
  0
ARC
  5
F1E
  8
DIM
 10
304.0823264343767
 20
45.63973071922053
 30
0.0
 40
0.8763000000000001
 50
270.0000000000013
 51
359.9999999999998
  0
LINE
  5
F1F
  8
DIM
 10
303.1679264343767
 20
44.95393071922047
 30
0.0
 11
304.0823264343767
 21
44.9539307192205
 31
0.0
  0
LINE
  5
F20
  8
DIM
 10
303.3584264343766
 20
44.76343071922052
 30
0.0
 11
304.0823264343767
 21
44.76343071922054
 31
0.0
  0
LINE
  5
F21
  8
DIM
 10
303.3584264343767
 20
42.85843071922051
 30
0.0
 11
303.3584264343766
 21
44.76343071922049
 31
0.0
  0
LINE
  5
F22
  8
DIM
 10
303.1679264343767
 20
43.04893071922048
 30
0.0
 11
303.1679264343767
 21
44.95393071922047
 31
0.0
  0
ARC
  5
F23
  8
DIM
 10
303.7013264343767
 20
45.94453071922047
 30
0.0
 40
0.3429
 50
270.0000000000036
 51
0.0000000000004326
  0
LINE
  5
F24
  8
DIM
 10
303.3584264343767
 20
45.79213071922042
 30
0.0
 11
303.6632264343767
 21
45.79213071922047
 31
0.0
  0
LINE
  5
F25
  8
DIM
 10
303.1679264343767
 20
45.60163071922043
 30
0.0
 11
303.7013264343768
 21
45.60163071922045
 31
0.0
  0
ARC
  5
F26
  8
DIM
 10
303.6632264343767
 20
47.35423071922046
 30
0.0
 40
0.1905
 50
0.0000000000003053
 51
90.0
  0
LINE
  5
F27
  8
DIM
 10
303.8537264343767
 20
47.35423071922046
 30
0.0
 11
303.8537264343767
 21
45.98263071922047
 31
0.0
  0
ARC
  5
F28
  8
DIM
 10
303.7013264343767
 20
47.39233071922045
 30
0.0
 40
0.3429
 50
0.0000000000001527
 51
90.00000000000178
  0
LINE
  5
F29
  8
DIM
 10
304.0442264343766
 20
47.39233071922045
 30
0.0
 11
304.0442264343766
 21
45.94453071922047
 31
0.0
  0
LINE
  5
F2A
  8
DIM
 10
303.3584264343767
 20
47.54473071922045
 30
0.0
 11
303.6632264343767
 21
47.54473071922045
 31
0.0
  0
LINE
  5
F2B
  8
DIM
 10
303.3584264343767
 20
47.54473071922045
 30
0.0
 11
303.3584264343767
 21
45.79213071922042
 31
0.0
  0
ARC
  5
F2C
  8
DIM
 10
304.0823264343767
 20
47.62093071922046
 30
0.0
 40
0.6858
 50
0.0000000000001527
 51
89.99999999999804
  0
ARC
  5
F2D
  8
DIM
 10
304.0823264343767
 20
47.62093071922049
 30
0.0
 40
0.8763000000000001
 50
0.0
 51
90.0
  0
LINE
  5
F2E
  8
DIM
 10
305.1110264343767
 20
48.49723071922043
 30
0.0
 11
307.6256264343767
 21
48.4972307192204
 31
0.0
  0
LINE
  5
F2F
  8
DIM
 10
304.7681264343767
 20
47.62093071922046
 30
0.0
 11
304.7681264343767
 21
45.6397307192205
 31
0.0
  0
LINE
  5
F30
  8
DIM
 10
303.1679264343767
 20
47.73523071922044
 30
0.0
 11
303.7013264343767
 21
47.73523071922047
 31
0.0
  0
LINE
  5
F31
  8
DIM
 10
303.1679264343767
 20
47.73523071922044
 30
0.0
 11
303.1679264343767
 21
45.60163071922043
 31
0.0
  0
LINE
  5
F32
  8
DIM
 10
304.9586264343767
 20
47.62093071922049
 30
0.0
 11
304.9586264343767
 21
45.63973071922053
 31
0.0
  0
LINE
  5
F33
  8
DIM
 10
302.4059264343767
 20
43.04893071922048
 30
0.0
 11
303.1679264343767
 21
43.04893071922048
 31
0.0
  0
LINE
  5
F34
  8
DIM
 10
302.4059264343767
 20
48.30673071922049
 30
0.0
 11
304.0823264343767
 21
48.30673071922046
 31
0.0
  0
LINE
  5
F35
  8
DIM
 10
302.4059264343767
 20
48.30673071922049
 30
0.0
 11
302.4059264343767
 21
43.04893071922048
 31
0.0
  0
LINE
  5
F36
  8
DIM
 10
302.2154264343767
 20
42.85843071922049
 30
0.0
 11
303.3584264343767
 21
42.85843071922051
 31
0.0
  0
LINE
  5
F37
  8
DIM
 10
302.2154264343767
 20
48.49723071922045
 30
0.0
 11
304.0823264343767
 21
48.49723071922048
 31
0.0
  0
LINE
  5
F38
  8
DIM
 10
302.2154264343767
 20
48.49723071922045
 30
0.0
 11
302.2154264343767
 21
42.85843071922049
 31
0.0
  0
LINE
  5
F39
  8
DIM
 10
299.6627264343767
 20
43.80053215951192
 30
0.0
 11
299.6627264343767
 21
43.04893071922045
 31
0.0
  0
LINE
  5
F3A
  8
DIM
 10
300.2684240643902
 20
44.64869351722152
 30
0.0
 11
299.8532264343767
 21
43.75829932627845
 31
0.0
  0
LINE
  5
F3B
  8
DIM
 10
300.2901378167775
 20
45.14602021107686
 30
0.0
 11
299.6627264343767
 21
43.80053215951192
 31
0.0
  0
LINE
  5
F3C
  8
DIM
 10
299.8532264343767
 20
43.75829932627845
 30
0.0
 11
299.8532264343767
 21
42.85843071922046
 31
0.0
  0
LINE
  5
F3D
  8
DIM
 10
300.9200264343767
 20
42.85843071922049
 30
0.0
 11
302.0630264343767
 21
42.85843071922049
 31
0.0
  0
LINE
  5
F3E
  8
DIM
 10
301.0413883190605
 20
48.3067307192204
 30
0.0
 11
301.7640013319358
 21
48.30673071922043
 31
0.0
  0
LINE
  5
F3F
  8
DIM
 10
301.0413883190605
 20
48.3067307192204
 30
0.0
 11
299.6627264343767
 21
45.35018076647324
 31
0.0
  0
LINE
  5
F40
  8
DIM
 10
300.9200264343767
 20
48.49723071922045
 30
0.0
 11
299.8532264343767
 21
46.20947073642087
 31
0.0
  0
LINE
  5
F41
  8
DIM
 10
300.9200264343767
 20
48.49723071922045
 30
0.0
 11
302.0630264343767
 21
48.49723071922045
 31
0.0
  0
LINE
  5
F42
  8
DIM
 10
301.7640013319358
 20
48.30673071922043
 30
0.0
 11
300.7043658831718
 21
46.03433516612868
 31
0.0
  0
LINE
  5
F43
  8
DIM
 10
302.0630264343767
 20
48.49723071922045
 30
0.0
 11
300.9103653446969
 21
46.02534103539985
 31
0.0
  0
LINE
  5
F44
  8
DIM
 10
301.0534159704056
 20
43.04893071922048
 30
0.0
 11
300.2901378167775
 21
45.14602021107688
 31
0.0
  0
LINE
  5
F45
  8
DIM
 10
300.9200264343767
 20
42.85843071922049
 30
0.0
 11
300.2684240643902
 21
44.64869351722152
 31
0.0
  0
LINE
  5
F46
  8
DIM
 10
301.7909642390923
 20
43.04893071922048
 30
0.0
 11
300.7043658831718
 21
46.0343351661287
 31
0.0
  0
LINE
  5
F47
  8
DIM
 10
302.0630264343767
 20
42.85843071922049
 30
0.0
 11
300.9103653446969
 21
46.02534103539985
 31
0.0
  0
LINE
  5
F48
  8
DIM
 10
301.7909642390923
 20
43.04893071922045
 30
0.0
 11
301.0534159704056
 21
43.04893071922048
 31
0.0
  0
LINE
  5
F49
  8
DIM
 10
298.9769264343767
 20
43.04893071922045
 30
0.0
 11
299.6627264343767
 21
43.04893071922045
 31
0.0
  0
LINE
  5
F4A
  8
DIM
 10
298.9769264343767
 20
48.30673071922046
 30
0.0
 11
299.6627264343767
 21
48.30673071922043
 31
0.0
  0
LINE
  5
F4B
  8
DIM
 10
299.6627264343767
 20
48.30673071922046
 30
0.0
 11
299.6627264343767
 21
45.35018076647324
 31
0.0
  0
LINE
  5
F4C
  8
DIM
 10
299.8532264343767
 20
48.49723071922045
 30
0.0
 11
299.8532264343767
 21
46.20947073642087
 31
0.0
  0
LINE
  5
F4D
  8
DIM
 10
298.9769264343767
 20
48.30673071922046
 30
0.0
 11
298.9769264343768
 21
43.04893071922045
 31
0.0
  0
LINE
  5
F4E
  8
DIM
 10
298.7864264343767
 20
48.49723071922045
 30
0.0
 11
299.8532264343767
 21
48.49723071922045
 31
0.0
  0
LINE
  5
F4F
  8
DIM
 10
298.7864264343767
 20
42.85843071922046
 30
0.0
 11
299.8532264343767
 21
42.85843071922049
 31
0.0
  0
LINE
  5
F50
  8
DIM
 10
298.7864264343767
 20
48.49723071922045
 30
0.0
 11
298.7864264343767
 21
42.85843071922046
 31
0.0
  0
LINE
  5
F51
  8
DIM
 10
308.3876264343767
 20
49.25923071922045
 30
0.0
 11
308.3876264343767
 21
42.09643071922045
 31
0.0
  0
LINE
  5
F52
  8
DIM
 10
297.8720264343767
 20
49.25923071922045
 30
0.0
 11
297.8720264343767
 21
42.09643071922045
 31
0.0
  0
LINE
  5
F53
  8
DIM
 10
297.8720264343767
 20
49.25923071922045
 30
0.0
 11
308.3876264343767
 21
49.25923071922045
 31
0.0
  0
LINE
  5
F54
  8
DIM
 10
297.8720264343767
 20
42.09643071922045
 30
0.0
 11
308.3876264343767
 21
42.09643071922045
 31
0.0
  0
LINE
  5
F55
  8
BORDER
 10
0.0
 20
254.0
 30
0.0
 11
406.4
 21
254.0
 31
0.0
  0
LINE
  5
F56
  8
BORDER
 10
0.0
 20
0.0
 30
0.0
 11
0.0
 21
254.0
 31
0.0
  0
TEXT
  5
F57
  8
DIM
 10
50.20133678897969
 20
239.700899097274
 30
0.0
 40
1.524
  1
IT IS NOT TO BE REPRODUCED WITHOUT WRITTEN CONSENT OF KAISER PRECISION TOOLS, INC. ANY REPRODUCTION MUST INCLUDE THIS ENTIRE LEGEND.
  7
ROMANS
  0
TEXT
  5
F58
  8
DIM
 10
50.20133678897969
 20
242.240899097274
 30
0.0
 40
1.524
  1
THIS DOCUMENT CONTAINS PROPRIETARY INFORMATION OF KAISER PRECISION TOOLING, INC. AND IS SUBJECT TO BEING RETURNED UPON REQUEST.
  7
ROMANS
  0
TEXT
  5
F59
  8
DIM
 10
210.4405976890357
 20
36.66924567628036
 30
0.0
 40
2.032
  1
LENGTH TOLERANCES
  7
ROMANS
  0
TEXT
  5
F5A
  8
DIM
 10
210.4405976890357
 20
33.2825790096137
 30
0.0
 40
2.032
  1
                 0-6=0.1
  7
ROMANS
  0
TEXT
  5
F5B
  8
DIM
 10
210.4405976890357
 20
29.89591234294703
 30
0.0
 40
2.032
  1
                 6-30=0.2
  7
ROMANS
  0
TEXT
  5
F5C
  8
DIM
 10
210.4405976890357
 20
26.50924567628037
 30
0.0
 40
2.032
  1
                 30-120=0.3
  7
ROMANS
  0
TEXT
  5
F5D
  8
DIM
 10
210.4405976890357
 20
23.1225790096137
 30
0.0
 40
2.032
  1
                 120-400=0.5
  7
ROMANS
  0
TRACE
  5
F5E
  8
LINE
 10
266.7
 20
50.26179950034588
 30
0.0
 11
266.7
 21
50.86179950034587
 31
0.0
 12
204.0
 22
50.26179950034588
 32
0.0
 13
203.4
 23
50.86179950034587
 33
0.0
  0
TRACE
  5
F5F
  8
LINE
 10
204.0
 20
50.26179950034588
 30
0.0
 11
203.4
 21
50.86179950034587
 31
0.0
 12
204.0
 22
-0.0000000000000003
 32
0.0
 13
203.4
 23
0.0000000000000003
 33
0.0
  0
ATTDEF
  5
F60
  8
DIM
 10
378.8517540953111
 20
27.6235851811691
 30
0.0
 40
2.5
  1

  7
ROMANS
  3
drawnby
  2
DRAWNBY
 70
     0
  0
LINE
  5
F61
  8
LINE
 10
406.4
 20
247.5460862712933
 30
0.0
 11
337.6923119085843
 21
247.5460862712933
 31
0.0
  0
LINE
  5
F62
  8
LINE
 10
406.4
 20
241.0921725425867
 30
0.0
 11
337.6923119085843
 21
241.0921725425867
 31
0.0
  0
LINE
  5
F63
  8
LINE
 10
337.6923119085842
 20
254.0
 30
0.0
 11
337.6923119085842
 21
228.1843450851734
 31
0.0
  0
LINE
  5
F64
  8
LINE
 10
350.3006846434488
 20
254.0
 30
0.0
 11
350.3006846434489
 21
228.1843450851734
 31
0.0
  0
TEXT
  5
F65
  8
DIM
 10
342.8839940309018
 20
242.6049653529213
 30
0.0
 40
2.5
  1
A
  0
TEXT
  5
F66
  8
DIM
 10
353.5145818040249
 20
242.6049653529213
 30
0.0
 40
2.5
  1
RELEASED
  0
LINE
  5
F67
  8
LINE
 10
406.4
 20
234.63825881388
 30
0.0
 11
337.6923119085843
 21
234.63825881388
 31
0.0
  0
LINE
  5
F68
  8
LINE
 10
406.4
 20
228.1843450851734
 30
0.0
 11
337.6923119085843
 21
228.1843450851734
 31
0.0
  0
LINE
  5
F69
  8
LINE
 10
390.3508069833873
 20
254.0
 30
0.0
 11
390.3508069833874
 21
228.1843450851734
 31
0.0
  0
TEXT
  5
F6A
  8
DIM
 10
340.0224013861325
 20
248.7494962176098
 30
0.0
 40
2.5
  1
REV.
  7
ROMANS
  0
TEXT
  5
F6B
  8
DIM
 10
352.4132698233384
 20
248.7494962176098
 30
0.0
 40
2.5
  1
REVISION HISTORY
  7
ROMANS
  0
TEXT
  5
F6C
  8
DIM
 10
392.5767732214515
 20
248.7494962176098
 30
0.0
 40
2.5
  1
DATE
  7
ROMANS
  0
ATTDEF
  5
F6D
  8
DIM
 10
391.3913056151728
 20
242.5485668679052
 30
0.0
 40
2.5
  1

 41
0.8834655717342874
  7
ROMANS
 72
     5
 11
405.0639870824891
 21
242.5485668679052
 31
0.0
  3
REVDATE
  2
REVDATE
 70
     0
  0
ENDBLK
  5
11BA
  8
0
  0
BLOCK
  8
0
  2
*D28
 70
     1
 10
0.0
 20
0.0
 30
0.0
  3
*D28
  1

  0
LINE
  5
1014
  8
0
  6
BYBLOCK
 62
     0
 10
133.2754095650952
 20
-74.19086741511755
 30
0.0
 11
133.2754095650952
 21
-81.44731454992086
 31
0.0
  0
LINE
  5
1015
  8
0
  6
BYBLOCK
 62
     0
 10
122.6087100441723
 20
-71.38101257005587
 30
0.0
 11
122.6087100441723
 21
-81.44731454992086
 31
0.0
  0
LINE
  5
1016
  8
0
  6
BYBLOCK
 62
     0
 10
132.0754095650952
 20
-80.82231454992086
 30
0.0
 11
123.8087100441723
 21
-80.82231454992086
 31
0.0
  0
SOLID
  5
1017
  8
0
  6
BYBLOCK
 62
     0
 10
132.0754095650952
 20
-80.62231454992086
 30
0.0
 11
132.0754095650952
 21
-81.02231454992086
 31
0.0
 12
133.2754095650952
 22
-80.82231454992086
 32
0.0
 13
133.2754095650952
 23
-80.82231454992086
 33
0.0
  0
SOLID
  5
1018
  8
0
  6
BYBLOCK
 62
     0
 10
123.8087100441723
 20
-80.62231454992086
 30
0.0
 11
123.8087100441723
 21
-81.02231454992086
 31
0.0
 12
122.6087100441723
 22
-80.82231454992086
 32
0.0
 13
122.6087100441723
 23
-80.82231454992086
 33
0.0
  0
TEXT
  5
1019
  8
0
  6
CONTINUOUS
 62
     0
 10
125.5117847665959
 20
-79.78660026420658
 30
0.0
 40
1.25
  1
(10.7)
  7
ROMANS
  0
POINT
  5
101A
  8
DEFPOINTS
  6
BYBLOCK
 62
     0
 10
133.2754095650952
 20
-73.56586741511755
 30
0.0
  0
POINT
  5
101B
  8
DEFPOINTS
  6
BYBLOCK
 62
     0
 10
122.6087100441723
 20
-70.75601257005587
 30
0.0
  0
POINT
  5
101C
  8
DEFPOINTS
  6
BYBLOCK
 62
     0
 10
122.6087100441723
 20
-80.82231454992086
 30
0.0
  0
ENDBLK
  5
11BC
  8
0
  0
BLOCK
  8
0
  2
*D29
 70
     1
 10
0.0
 20
0.0
 30
0.0
  3
*D29
  1

  0
LINE
  5
FA9
  8
0
  6
BYBLOCK
 62
     0
 10
127.9112410748224
 20
-75.10713329248281
 30
0.0
 11
128.7738348818518
 21
-76.60118959255199
 31
0.0
  0
ARC
  5
FAA
  8
0
  6
BYBLOCK
 62
     0
 10
122.6087100441723
 20
-65.92288013868651
 30
0.0
 40
11.7052496753588
 50
275.876429961006
 51
294.1235700389933
  0
SOLID
  5
FAB
  8
0
  6
BYBLOCK
 62
     0
 10
123.8173843233852
 20
-77.76635602996863
 30
0.0
 11
123.7968807026461
 21
-77.36688187368742
 31
0.0
 12
122.608710044172
 22
-77.6281298140453
 32
0.0
 13
122.608710044172
 23
-77.6281298140453
 33
0.0
  0
SOLID
  5
FAC
  8
0
  6
BYBLOCK
 62
     0
 10
127.301724937403
 20
-76.42776169138749
 30
0.0
 11
127.483705359114
 21
-76.78396826925193
 31
0.0
 12
128.4613348818518
 22
-76.05992371518674
 32
0.0
 13
128.4613348818518
 23
-76.05992371518674
 33
0.0
  0
TEXT
  5
FAD
  8
0
  6
CONTINUOUS
 62
     0
 10
124.3792386225344
 20
-77.07956624571372
 30
0.0
 40
1.25
  1
30°
 50
16.29700326059408
  7
ROMANS
  0
POINT
  5
FAE
  8
DEFPOINTS
  6
BYBLOCK
 62
     0
 10
124.6413053194346
 20
-77.45030076992352
 30
0.0
  0
POINT
  5
FAF
  8
DEFPOINTS
  6
BYBLOCK
 62
     0
 10
127.5987410748224
 20
-74.56586741511757
 30
0.0
  0
POINT
  5
FB0
  8
DEFPOINTS
  6
BYBLOCK
 62
     0
 10
122.6087100441723
 20
-66.54788013868645
 30
0.0
  0
POINT
  5
FB1
  8
DEFPOINTS
  6
BYBLOCK
 62
     0
 10
122.6087100441723
 20
-82.73703469371742
 30
0.0
  0
POINT
  5
FB2
  8
DEFPOINTS
  6
BYBLOCK
 62
     0
 10
122.6069853422365
 20
-65.91989286730589
 30
0.0
  0
ENDBLK
  5
11BE
  8
0
  0
BLOCK
  8
0
  2
*D30
 70
     1
 10
0.0
 20
0.0
 30
0.0
  3
*D30
  1

  0
LINE
  5
FB7
  8
0
  6
BYBLOCK
 62
     0
 10
122.294485342234
 20
-66.4611587446697
 30
0.0
 11
116.4299388211202
 21
-76.61885128248196
 31
0.0
  0
ARC
  5
FB8
  8
0
  6
BYBLOCK
 62
     0
 10
122.6087100441723
 20
-65.9169055959253
 30
0.0
 40
11.73254244600541
 50
245.8627479898626
 51
264.137252009874
  0
SOLID
  5
FB9
  8
0
  6
BYBLOCK
 62
     0
 10
117.71998188762
 20
-76.80174668076265
 30
0.0
 11
117.9020048382886
 21
-76.44556183348544
 31
0.0
 12
116.7424388211227
 22
-76.07758540511813
 32
0.0
 13
116.7424388211227
 23
-76.07758540511813
 33
0.0
  0
SOLID
  5
FBA
  8
0
  6
BYBLOCK
 62
     0
 10
121.4205082017592
 20
-77.38834196830226
 30
0.0
 11
121.4000522774696
 21
-77.78781856982161
 31
0.0
 12
122.6087100441725
 22
-77.64944804193071
 32
0.0
 13
122.6087100441725
 23
-77.64944804193071
 33
0.0
  0
TEXT
  5
FBB
  8
0
  6
CONTINUOUS
 62
     0
 10
118.6390367631354
 20
-76.52164509737169
 30
0.0
 40
1.25
  1
30°
 50
346.7396676122011
  7
ROMANS
  0
POINT
  5
FBC
  8
DEFPOINTS
  6
BYBLOCK
 62
     0
 10
118.5959441951812
 20
-76.9418891554817
 30
0.0
  0
POINT
  5
FBD
  8
DEFPOINTS
  6
BYBLOCK
 62
     0
 10
122.6069853422365
 20
-65.91989286730588
 30
0.0
  0
POINT
  5
FBE
  8
DEFPOINTS
  6
BYBLOCK
 62
     0
 10
122.6087100441723
 20
-66.54788013868647
 30
0.0
  0
POINT
  5
FBF
  8
DEFPOINTS
  6
BYBLOCK
 62
     0
 10
122.6087100441723
 20
-82.73703469371742
 30
0.0
  0
POINT
  5
FC0
  8
DEFPOINTS
  6
BYBLOCK
 62
     0
 10
125.8793280712693
 20
-60.25202900084251
 30
0.0
  0
ENDBLK
  5
11C0
  8
0
  0
BLOCK
  8
0
  2
*D31
 70
     1
 10
0.0
 20
0.0
 30
0.0
  3
*D31
  1

  0
LINE
  5
FFC
  8
0
  6
BYBLOCK
 62
     0
 10
125.8793280712693
 20
-48.9408674153059
 30
0.0
 11
125.8793280712693
 21
-41.98194756653675
 31
0.0
  0
LINE
  5
FFD
  8
0
  6
BYBLOCK
 62
     0
 10
132.4793280712693
 20
-47.9408674153059
 30
0.0
 11
132.4793280712693
 21
-41.98194756653675
 31
0.0
  0
LINE
  5
FFE
  8
0
  6
BYBLOCK
 62
     0
 10
127.0793280712693
 20
-42.60694756653675
 30
0.0
 11
131.2793280712693
 21
-42.60694756653675
 31
0.0
  0
SOLID
  5
FFF
  8
0
  6
BYBLOCK
 62
     0
 10
127.0793280712693
 20
-42.40694756653674
 30
0.0
 11
127.0793280712693
 21
-42.80694756653675
 31
0.0
 12
125.8793280712693
 22
-42.60694756653675
 32
0.0
 13
125.8793280712693
 23
-42.60694756653675
 33
0.0
  0
SOLID
  5
1000
  8
0
  6
BYBLOCK
 62
     0
 10
131.2793280712693
 20
-42.40694756653674
 30
0.0
 11
131.2793280712693
 21
-42.80694756653675
 31
0.0
 12
132.4793280712693
 22
-42.60694756653675
 32
0.0
 13
132.4793280712693
 23
-42.60694756653675
 33
0.0
  0
TEXT
  5
1001
  8
0
  6
CONTINUOUS
 62
     0
 10
127.9485059180479
 20
-42.10694756653675
 30
0.0
 40
1.25
  1
6.6
  7
ROMANS
  0
POINT
  5
1002
  8
DEFPOINTS
  6
BYBLOCK
 62
     0
 10
125.8793280712693
 20
-49.5658674153059
 30
0.0
  0
POINT
  5
1003
  8
DEFPOINTS
  6
BYBLOCK
 62
     0
 10
132.4793280712693
 20
-48.5658674153059
 30
0.0
  0
POINT
  5
1004
  8
DEFPOINTS
  6
BYBLOCK
 62
     0
 10
132.4793280712693
 20
-42.60694756653675
 30
0.0
  0
ENDBLK
  5
11C2
  8
0
  0
BLOCK
  8
0
  2
*D32
 70
     1
 10
0.0
 20
0.0
 30
0.0
  3
*D32
  1

  0
LINE
  5
1007
  8
0
  6
BYBLOCK
 62
     0
 10
125.8793280712693
 20
-48.9408674153059
 30
0.0
 11
125.8793280712693
 21
-45.17133112589693
 31
0.0
  0
LINE
  5
1008
  8
0
  6
BYBLOCK
 62
     0
 10
126.8793280712693
 20
-47.9408674153059
 30
0.0
 11
126.8793280712693
 21
-45.17133112589693
 31
0.0
  0
LINE
  5
1009
  8
0
  6
BYBLOCK
 62
     0
 10
128.0793280712693
 20
-45.79633112589693
 30
0.0
 11
129.2793280712693
 21
-45.79633112589693
 31
0.0
  0
LINE
  5
100A
  8
0
  6
BYBLOCK
 62
     0
 10
124.6793280712693
 20
-45.79633112589693
 30
0.0
 11
116.1698042617455
 21
-45.79633112589693
 31
0.0
  0
LINE
  5
100B
  8
0
  6
BYBLOCK
 62
     0
 10
126.8793280712693
 20
-45.79633112589693
 30
0.0
 11
125.8793280712693
 21
-45.79633112589693
 31
0.0
  0
SOLID
  5
100C
  8
0
  6
BYBLOCK
 62
     0
 10
128.0793280712693
 20
-45.59633112589692
 30
0.0
 11
128.0793280712693
 21
-45.99633112589693
 31
0.0
 12
126.8793280712693
 22
-45.79633112589693
 32
0.0
 13
126.8793280712693
 23
-45.79633112589693
 33
0.0
  0
SOLID
  5
100D
  8
0
  6
BYBLOCK
 62
     0
 10
124.6793280712693
 20
-45.59633112589692
 30
0.0
 11
124.6793280712693
 21
-45.99633112589693
 31
0.0
 12
125.8793280712693
 22
-45.79633112589693
 32
0.0
 13
125.8793280712693
 23
-45.79633112589693
 33
0.0
  0
TEXT
  5
100E
  8
0
  6
CONTINUOUS
 62
     0
 10
116.3145215236502
 20
-45.29633112589693
 30
0.0
 40
1.25
  1
1.0x45°
  7
ROMANS
  0
POINT
  5
100F
  8
DEFPOINTS
  6
BYBLOCK
 62
     0
 10
125.8793280712693
 20
-49.5658674153059
 30
0.0
  0
POINT
  5
1010
  8
DEFPOINTS
  6
BYBLOCK
 62
     0
 10
126.8793280712693
 20
-48.5658674153059
 30
0.0
  0
POINT
  5
1011
  8
DEFPOINTS
  6
BYBLOCK
 62
     0
 10
126.8793280712693
 20
-45.79633112589693
 30
0.0
  0
ENDBLK
  5
11C4
  8
0
  0
BLOCK
  8
0
  2
*D33
 70
     1
 10
0.0
 20
0.0
 30
0.0
  3
*D33
  1

  0
LINE
  5
FEE
  8
0
  6
BYBLOCK
 62
     0
 10
132.4793280712693
 20
-47.9408674153059
 30
0.0
 11
132.4793280712693
 21
-44.01854177001513
 31
0.0
  0
LINE
  5
FEF
  8
0
  6
BYBLOCK
 62
     0
 10
130.3793280712693
 20
-53.43509818453674
 30
0.0
 11
130.3793280712693
 21
-44.01854177001513
 31
0.0
  0
LINE
  5
FF0
  8
0
  6
BYBLOCK
 62
     0
 10
129.1793280712693
 20
-44.64354177001513
 30
0.0
 11
127.9793280712693
 21
-44.64354177001513
 31
0.0
  0
LINE
  5
FF1
  8
0
  6
BYBLOCK
 62
     0
 10
133.6793280712693
 20
-44.64354177001513
 30
0.0
 11
139.0174024592899
 21
-44.64354177001513
 31
0.0
  0
LINE
  5
FF2
  8
0
  6
BYBLOCK
 62
     0
 10
130.3793280712693
 20
-44.64354177001513
 30
0.0
 11
132.4793280712693
 21
-44.64354177001513
 31
0.0
  0
SOLID
  5
FF3
  8
0
  6
BYBLOCK
 62
     0
 10
129.1793280712693
 20
-44.44354177001513
 30
0.0
 11
129.1793280712693
 21
-44.84354177001514
 31
0.0
 12
130.3793280712693
 22
-44.64354177001513
 32
0.0
 13
130.3793280712693
 23
-44.64354177001513
 33
0.0
  0
SOLID
  5
FF4
  8
0
  6
BYBLOCK
 62
     0
 10
133.6793280712693
 20
-44.44354177001513
 30
0.0
 11
133.6793280712693
 21
-44.84354177001514
 31
0.0
 12
132.4793280712693
 22
-44.64354177001513
 32
0.0
 13
132.4793280712693
 23
-44.64354177001513
 33
0.0
  0
TEXT
  5
FF5
  8
0
  6
CONTINUOUS
 62
     0
 10
136.0769262688137
 20
-44.14354177001513
 30
0.0
 40
1.25
  1
2.1
  7
ROMANS
  0
POINT
  5
FF6
  8
DEFPOINTS
  6
BYBLOCK
 62
     0
 10
132.4793280712693
 20
-48.5658674153059
 30
0.0
  0
POINT
  5
FF7
  8
DEFPOINTS
  6
BYBLOCK
 62
     0
 10
130.3793280712693
 20
-54.06009818453674
 30
0.0
  0
POINT
  5
FF8
  8
DEFPOINTS
  6
BYBLOCK
 62
     0
 10
130.3793280712693
 20
-44.64354177001513
 30
0.0
  0
ENDBLK
  5
11C6
  8
0
  0
BLOCK
  8
0
  2
*D34
 70
     1
 10
0.0
 20
0.0
 30
0.0
  3
*D34
  1

  0
LINE
  5
1044
  8
0
  6
BYBLOCK
 62
     0
 10
133.1043280712693
 20
-48.5658674153059
 30
0.0
 11
147.069544404473
 21
-48.5658674153059
 31
0.0
  0
LINE
  5
1045
  8
0
  6
BYBLOCK
 62
     0
 10
132.9004095650952
 20
-74.56586741511755
 30
0.0
 11
147.069544404473
 21
-74.56586741511755
 31
0.0
  0
LINE
  5
1046
  8
0
  6
BYBLOCK
 62
     0
 10
146.444544404473
 20
-49.76586741530591
 30
0.0
 11
146.444544404473
 21
-73.36586741511755
 31
0.0
  0
SOLID
  5
1047
  8
0
  6
BYBLOCK
 62
     0
 10
146.2445444044731
 20
-49.76586741530591
 30
0.0
 11
146.644544404473
 21
-49.76586741530591
 31
0.0
 12
146.444544404473
 22
-48.5658674153059
 32
0.0
 13
146.444544404473
 23
-48.5658674153059
 33
0.0
  0
SOLID
  5
1048
  8
0
  6
BYBLOCK
 62
     0
 10
146.2445444044731
 20
-73.36586741511755
 30
0.0
 11
146.644544404473
 21
-73.36586741511755
 31
0.0
 12
146.444544404473
 22
-74.56586741511755
 32
0.0
 13
146.444544404473
 23
-74.56586741511755
 33
0.0
  0
TEXT
  5
1049
  8
0
  6
CONTINUOUS
 62
     0
 10
145.4088301187588
 20
-64.62825558947222
 30
0.0
 40
1.25
  1
(26.0)
 50
90.0
  7
ROMANS
  0
POINT
  5
104A
  8
DEFPOINTS
  6
BYBLOCK
 62
     0
 10
132.4793280712693
 20
-48.5658674153059
 30
0.0
  0
POINT
  5
104B
  8
DEFPOINTS
  6
BYBLOCK
 62
     0
 10
132.2754095650952
 20
-74.56586741511755
 30
0.0
  0
POINT
  5
104C
  8
DEFPOINTS
  6
BYBLOCK
 62
     0
 10
146.444544404473
 20
-74.56586741511755
 30
0.0
  0
ENDBLK
  5
11C8
  8
0
  0
BLOCK
  8
0
  2
*D35
 70
     1
 10
0.0
 20
0.0
 30
0.0
  3
*D35
  1

  0
LINE
  5
1038
  8
0
  6
BYBLOCK
 62
     0
 10
126.2625633320254
 20
-48.55763215454979
 30
0.0
 11
117.4620823330035
 21
-48.55763215454979
 31
0.0
  0
LINE
  5
1039
  8
0
  6
BYBLOCK
 62
     0
 10
125.2543280712693
 20
-60.25202900084256
 30
0.0
 11
117.4620823330035
 21
-60.25202900084256
 31
0.0
  0
LINE
  5
103A
  8
0
  6
BYBLOCK
 62
     0
 10
118.0870823330035
 20
-49.7576321545498
 30
0.0
 11
118.0870823330035
 21
-59.05202900084256
 31
0.0
  0
SOLID
  5
103B
  8
0
  6
BYBLOCK
 62
     0
 10
117.8870823330035
 20
-49.7576321545498
 30
0.0
 11
118.2870823330035
 21
-49.7576321545498
 31
0.0
 12
118.0870823330035
 22
-48.55763215454979
 32
0.0
 13
118.0870823330035
 23
-48.55763215454979
 33
0.0
  0
SOLID
  5
103C
  8
0
  6
BYBLOCK
 62
     0
 10
117.8870823330035
 20
-59.05202900084256
 30
0.0
 11
118.2870823330035
 21
-59.05202900084256
 31
0.0
 12
118.0870823330035
 22
-60.25202900084256
 32
0.0
 13
118.0870823330035
 23
-60.25202900084256
 33
0.0
  0
TEXT
  5
103D
  8
0
  6
CONTINUOUS
 62
     0
 10
117.5870823330035
 20
-56.9755055588173
 30
0.0
 40
1.25
  1
11.7
 50
90.0
  7
ROMANS
  0
POINT
  5
103E
  8
DEFPOINTS
  6
BYBLOCK
 62
     0
 10
126.8875633320254
 20
-48.55763215454979
 30
0.0
  0
POINT
  5
103F
  8
DEFPOINTS
  6
BYBLOCK
 62
     0
 10
125.8793280712693
 20
-60.25202900084256
 30
0.0
  0
POINT
  5
1040
  8
DEFPOINTS
  6
BYBLOCK
 62
     0
 10
118.0870823330035
 20
-60.25202900084256
 30
0.0
  0
ENDBLK
  5
11CA
  8
0
  0
BLOCK
  8
0
  2
*D36
 70
     1
 10
0.0
 20
0.0
 30
0.0
  3
*D36
  1

  0
LINE
  5
105C
  8
0
  6
BYBLOCK
 62
     0
 10
135.3686024411684
 20
-56.26586741530598
 30
0.0
 11
139.9547689452271
 21
-56.26586741530598
 31
0.0
  0
LINE
  5
105D
  8
0
  6
BYBLOCK
 62
     0
 10
135.3686024411684
 20
-74.56586741511755
 30
0.0
 11
139.9547689452271
 21
-74.56586741511755
 31
0.0
  0
LINE
  5
105E
  8
0
  6
BYBLOCK
 62
     0
 10
139.3297689452271
 20
-57.46586741530598
 30
0.0
 11
139.3297689452271
 21
-73.36586741511755
 31
0.0
  0
SOLID
  5
105F
  8
0
  6
BYBLOCK
 62
     0
 10
139.1297689452271
 20
-57.46586741530598
 30
0.0
 11
139.5297689452271
 21
-57.46586741530598
 31
0.0
 12
139.3297689452271
 22
-56.26586741530598
 32
0.0
 13
139.3297689452271
 23
-56.26586741530598
 33
0.0
  0
SOLID
  5
1060
  8
0
  6
BYBLOCK
 62
     0
 10
139.1297689452271
 20
-73.36586741511755
 30
0.0
 11
139.5297689452271
 21
-73.36586741511755
 31
0.0
 12
139.3297689452271
 22
-74.56586741511755
 32
0.0
 13
139.3297689452271
 23
-74.56586741511755
 33
0.0
  0
TEXT
  5
1061
  8
0
  6
CONTINUOUS
 62
     0
 10
138.2940546595128
 20
-67.87897243686896
 30
0.0
 40
1.25
  1
(18.3)
 50
90.0
  7
ROMANS
  0
POINT
  5
1062
  8
DEFPOINTS
  6
BYBLOCK
 62
     0
 10
134.7436024411684
 20
-56.26586741530598
 30
0.0
  0
POINT
  5
1063
  8
DEFPOINTS
  6
BYBLOCK
 62
     0
 10
134.7436024411684
 20
-74.56586741511755
 30
0.0
  0
POINT
  5
1064
  8
DEFPOINTS
  6
BYBLOCK
 62
     0
 10
139.3297689452271
 20
-74.56586741511755
 30
0.0
  0
ENDBLK
  5
11CC
  8
0
  0
BLOCK
  8
0
  2
*D37
 70
     1
 10
0.0
 20
0.0
 30
0.0
  3
*D37
  1

  0
LINE
  5
10DA
  8
0
  6
BYBLOCK
 62
     0
 10
33.40322942334752
 20
-41.41810914936892
 30
0.0
 11
35.8253227445767
 21
-37.22292045632673
 31
0.0
  0
LINE
  5
10DB
  8
0
  6
BYBLOCK
 62
     0
 10
33.80085879650704
 20
-40.00831060908696
 30
0.0
 11
34.96130142267597
 21
-36.82002069711523
 31
0.0
  0
ARC
  5
10DC
  8
0
  6
BYBLOCK
 62
     0
 10
33.09072942334752
 20
-41.95937502673419
 30
0.0
 40
4.844186642458356
 50
31.54033768028177
 51
45.77016884014083
  0
ARC
  5
10DD
  8
0
  6
BYBLOCK
 62
     0
 10
33.09072942334752
 20
-41.95937502673419
 30
0.0
 40
4.844186642458356
 50
84.22983115985882
 51
98.45966231971794
  0
ARC
  5
10DE
  8
0
  6
BYBLOCK
 62
     0
 10
33.09072942334752
 20
-41.95937502673419
 30
0.0
 40
4.844186642458356
 50
59.99999999999999
 51
69.99999999999972
  0
SOLID
  5
10DF
  8
0
  6
BYBLOCK
 62
     0
 10
36.34905187006135
 20
-38.64777042685529
 30
0.0
 11
36.59041810970973
 21
-38.328799678419
 31
0.0
 12
35.5128227445767
 22
-37.76418633369201
 32
0.0
 13
35.5128227445767
 23
-37.76418633369201
 33
0.0
  0
SOLID
  5
10E0
  8
0
  6
BYBLOCK
 62
     0
 10
33.62235496889534
 20
-36.94476910596967
 30
0.0
 11
33.53315642778084
 21
-37.33469681755611
 31
0.0
 12
34.74753883309743
 22
-37.40732858510641
 32
0.0
 13
34.74753883309743
 23
-37.40732858510641
 33
0.0
  0
TEXT
  5
10E1
  8
0
  6
CONTINUOUS
 62
     0
 10
34.124381271662
 20
-36.50134042606467
 30
0.0
 40
1.25
  1
10°
 50
333.4390650879182
  7
ROMANS
  0
POINT
  5
10E2
  8
DEFPOINTS
  6
BYBLOCK
 62
     0
 10
35.00941373534245
 20
-37.51136482689466
 30
0.0
 50
300.0000000000002
  0
POINT
  5
10E3
  8
DEFPOINTS
  6
BYBLOCK
 62
     0
 10
31.89072942334749
 20
-44.03783599581689
 30
0.0
 50
300.0000000000002
  0
POINT
  5
10E4
  8
DEFPOINTS
  6
BYBLOCK
 62
     0
 10
33.0907294233475
 20
-41.95937502673424
 30
0.0
 50
300.0000000000002
  0
POINT
  5
10E5
  8
DEFPOINTS
  6
BYBLOCK
 62
     0
 10
33.58709620692849
 20
-40.59561849707815
 30
0.0
 50
300.0000000000002
  0
POINT
  5
10E6
  8
DEFPOINTS
  6
BYBLOCK
 62
     0
 10
33.0907294233475
 20
-41.95937502673424
 30
0.0
 50
300.0000000000002
  0
ENDBLK
  5
11CE
  8
0
  0
BLOCK
  8
0
  2
*D38
 70
     1
 10
0.0
 20
0.0
 30
0.0
  3
*D38
  1

  0
LINE
  5
10EA
  8
0
  6
BYBLOCK
 62
     0
 10
32.43199530071276
 20
-44.35033599581689
 30
0.0
 11
37.11740945394006
 21
-47.05546111844758
 31
0.0
  0
LINE
  5
10EB
  8
0
  6
BYBLOCK
 62
     0
 10
33.63199530071277
 20
-42.27187502673424
 30
0.0
 11
38.31740945394007
 21
-44.97700014936493
 31
0.0
  0
LINE
  5
10EC
  8
0
  6
BYBLOCK
 62
     0
 10
35.97614357657478
 20
-47.7821916029889
 30
0.0
 11
35.37614357657478
 21
-48.82142208753022
 31
0.0
  0
LINE
  5
10ED
  8
0
  6
BYBLOCK
 62
     0
 10
38.37614357657479
 20
-43.62526966482359
 30
0.0
 11
40.81542929086052
 21
-39.4003028735038
 31
0.0
  0
LINE
  5
10EE
  8
0
  6
BYBLOCK
 62
     0
 10
36.57614357657478
 20
-46.74296111844757
 30
0.0
 11
37.77614357657479
 21
-44.66450014936492
 31
0.0
  0
SOLID
  5
10EF
  8
0
  6
BYBLOCK
 62
     0
 10
35.80293849581789
 20
-47.68219160298889
 30
0.0
 11
36.14934865733166
 21
-47.8821916029889
 31
0.0
 12
36.57614357657478
 22
-46.74296111844757
 32
0.0
 13
36.57614357657478
 23
-46.74296111844757
 33
0.0
  0
SOLID
  5
10F0
  8
0
  6
BYBLOCK
 62
     0
 10
38.2029384958179
 20
-43.5252696648236
 30
0.0
 11
38.54934865733168
 21
-43.7252696648236
 31
0.0
 12
37.77614357657479
 22
-44.66450014936492
 32
0.0
 13
37.77614357657479
 23
-44.66450014936492
 33
0.0
  0
TEXT
  5
10F1
  8
0
  6
CONTINUOUS
 62
     0
 10
38.70384516039687
 20
-42.05767387192299
 30
0.0
 40
1.25
  1
2.4
 50
59.99999999999979
  7
ROMANS
  0
POINT
  5
10F2
  8
DEFPOINTS
  6
BYBLOCK
 62
     0
 10
31.89072942334749
 20
-44.03783599581689
 30
0.0
 50
300.0000000000002
  0
POINT
  5
10F3
  8
DEFPOINTS
  6
BYBLOCK
 62
     0
 10
33.0907294233475
 20
-41.95937502673424
 30
0.0
 50
300.0000000000002
  0
POINT
  5
10F4
  8
DEFPOINTS
  6
BYBLOCK
 62
     0
 10
37.77614357657479
 20
-44.66450014936492
 30
0.0
 50
300.0000000000002
  0
ENDBLK
  5
11D0
  8
0
  0
ENDSEC
  0
SECTION
  2
ENTITIES
  0
LINE
  5
385
  8
HIDDEN
 10
36.20124192968888
 20
80.47277474668442
 30
0.0
 11
59.20124192968888
 21
80.47277474668442
 31
0.0
  0
LINE
  5
386
  8
LINE
 10
40.70124192968888
 20
74.97277474668442
 30
0.0
 11
50.11124192968855
 21
74.97277474668441
 31
0.0
  0
LINE
  5
387
  8
HIDDEN
 10
36.20124192968888
 20
91.47277474668442
 30
0.0
 11
59.20124192968888
 21
91.47277474668442
 31
0.0
  0
LINE
  5
388
  8
LINE
 10
40.70124192968888
 20
96.97277474668442
 30
0.0
 11
50.11124192968917
 21
96.97277474668442
 31
0.0
  0
LINE
  5
389
  8
CTRL
 10
33.85982299283018
 20
85.97277474668442
 30
0.0
 11
104.6006034897886
 21
85.9727747466844
 31
0.0
  0
LINE
  5
38A
  8
LINE
 10
36.20124192968888
 20
85.97277474668442
 30
0.0
 11
36.20124192968888
 21
96.36277474668441
 31
0.0
  0
LINE
  5
38B
  8
LINE
 10
40.70124192968888
 20
85.97277474668442
 30
0.0
 11
40.70124192968888
 21
96.97277474668442
 31
0.0
  0
LINE
  5
38C
  8
LINE
 10
36.20124192968888
 20
85.97277474668442
 30
0.0
 11
36.20124192968888
 21
75.58277474668441
 31
0.0
  0
LINE
  5
38D
  8
LINE
 10
40.70124192968888
 20
85.97277474668442
 30
0.0
 11
40.70124192968888
 21
74.97277474668442
 31
0.0
  0
LINE
  5
38E
  8
LINE
 10
36.81124209884318
 20
74.97277474668442
 30
0.0
 11
38.97590474922973
 21
75.27699824241884
 31
0.0
  0
ARC
  5
38F
  8
LINE
 10
36.81124192968888
 20
75.58277474668441
 30
0.0
 40
0.61
 50
180.0
 51
270.0
  0
LINE
  5
390
  8
LINE
 10
40.70124192968888
 20
74.97277474668442
 30
0.0
 11
38.97590474922973
 21
75.27699824241884
 31
0.0
  0
POINT
  5
391
  8
DEFPOINTS
  6
BYBLOCK
 62
     0
 10
40.70124192968888
 20
74.97277474668442
 30
0.0
  0
LINE
  5
392
  8
LINE
 10
36.81124209884318
 20
96.97277474668442
 30
0.0
 11
38.97590474922973
 21
96.66855125095
 31
0.0
  0
ARC
  5
393
  8
LINE
 10
36.81124192968888
 20
96.36277474668441
 30
0.0
 40
0.61
 50
90.0
 51
180.0
  0
LINE
  5
394
  8
LINE
 10
40.70124192968888
 20
96.97277474668442
 30
0.0
 11
38.97590474922973
 21
96.66855125095
 31
0.0
  0
POINT
  5
395
  8
DEFPOINTS
  6
BYBLOCK
 62
     0
 10
40.70124192968888
 20
96.97277474668442
 30
0.0
  0
CIRCLE
  5
396
  8
LINE
 10
50.55124192968887
 20
85.97277474668442
 30
0.0
 40
3.0
  0
POLYLINE
  5
397
  8
LINE
 66
     1
 10
0.0
 20
0.0
 30
0.0
 70
     1
  0
VERTEX
  5
127B
  8
LINE
 10
54.67554307408867
 20
85.97277474668442
 30
0.0
 42
0.1244221799445328
  0
VERTEX
  5
127C
  8
LINE
 10
54.38105284990968
 20
87.13788556865214
 30
0.0
 42
0.1057245435363058
  0
VERTEX
  5
127D
  8
LINE
 10
53.46756323654941
 20
88.20971649469732
 30
0.0
 42
0.0868893055637331
  0
VERTEX
  5
127E
  8
LINE
 10
52.17419366729999
 20
88.88466399009616
 30
0.0
 42
0.0770601789445748
  0
VERTEX
  5
127F
  8
LINE
 10
50.55124192968887
 20
89.13628810496286
 30
0.0
 42
0.0770601789445744
  0
VERTEX
  5
1280
  8
LINE
 10
48.92829019207775
 20
88.88466399009616
 30
0.0
 42
0.0868893055637335
  0
VERTEX
  5
1281
  8
LINE
 10
47.63492062282835
 20
88.20971649469732
 30
0.0
 42
0.1057245435363049
  0
VERTEX
  5
1282
  8
LINE
 10
46.72143100946806
 20
87.13788556865214
 30
0.0
 42
0.1244221799445327
  0
VERTEX
  5
1283
  8
LINE
 10
46.42694078528908
 20
85.97277474668442
 30
0.0
 42
0.124422179944533
  0
VERTEX
  5
1284
  8
LINE
 10
46.72143100946806
 20
84.80766392471669
 30
0.0
 42
0.1057245435363053
  0
VERTEX
  5
1285
  8
LINE
 10
47.63492062282835
 20
83.7358329986715
 30
0.0
 42
0.0868893055637333
  0
VERTEX
  5
1286
  8
LINE
 10
48.92829019207775
 20
83.06088550327266
 30
0.0
 42
0.0770601789445746
  0
VERTEX
  5
1287
  8
LINE
 10
50.55124192968887
 20
82.80926138840599
 30
0.0
 42
0.0770601789445746
  0
VERTEX
  5
1288
  8
LINE
 10
52.17419366729999
 20
83.06088550327266
 30
0.0
 42
0.0868893055637332
  0
VERTEX
  5
1289
  8
LINE
 10
53.46756323654941
 20
83.7358329986715
 30
0.0
 42
0.1057245435363056
  0
VERTEX
  5
128A
  8
LINE
 10
54.38105284990968
 20
84.80766392471669
 30
0.0
 42
0.1244221799445327
  0
SEQEND
  5
12B2
  8
LINE
  0
LINE
  5
3A9
  8
HIDDEN
 10
59.20124192968888
 20
91.47277474668442
 30
0.0
 11
62.37666841023182
 21
85.97277474668442
 31
0.0
  0
LINE
  5
3AA
  8
LINE
 10
50.11124192968887
 20
88.94033266524303
 30
0.0
 11
50.11124192968887
 21
83.00521682812578
 31
0.0
  0
LINE
  5
3AB
  8
LINE
 10
60.20124192968882
 20
104.2307747466843
 30
0.0
 11
60.20124192968888
 21
85.97277474668442
 31
0.0
  0
LINE
  5
3AC
  8
HIDDEN
 10
59.20124192968888
 20
85.97277474668442
 30
0.0
 11
59.20124192968888
 21
91.47277474668442
 31
0.0
  0
LINE
  5
3AD
  8
LINE
 10
60.20124192968888
 20
96.97277474668442
 30
0.0
 11
60.20124192968888
 21
85.97277474668442
 31
0.0
  0
LINE
  5
3AE
  8
LINE
 10
70.38869705731713
 20
104.9927747466844
 30
0.0
 11
70.3886970573173
 21
66.9527747466844
 31
0.0
  0
LINE
  5
3AF
  8
LINE
 10
103.2612419296889
 20
96.78657960077419
 30
0.0
 11
103.2612419296889
 21
85.97277474668459
 31
0.0
  0
LINE
  5
3B1
  8
HIDDEN
 10
91.76958261161523
 20
95.10048651607126
 30
0.0
 11
62.00478643679394
 21
86.6168932190978
 31
0.0
  0
ARC
  5
3B2
  8
DIM
 10
90.70124192968882
 20
85.9727747466844
 30
0.0
 40
3.0
 50
89.99999999999919
 51
0.0
  0
LINE
  5
3B5
  8
LINE
 10
60.96324192968888
 20
66.95277474668441
 30
0.0
 11
79.06099622040588
 21
66.9527747466844
 31
0.0
  0
ARC
  5
3B6
  8
LINE
 10
54.36124192968887
 20
60.94795347725589
 30
0.0
 40
14.6546276527047
 50
73.14139857799093
 51
106.858601422009
  0
LINE
  5
3B7
  8
LINE
 10
58.61124192968887
 20
74.97277474668451
 30
0.0
 11
57.42767387785014
 21
72.92277474668451
 31
0.0
  0
ARC
  5
3B8
  8
LINE
 10
51.64122014304138
 20
73.12277474668451
 30
0.0
 40
0.4
 50
210.0000000000001
 51
270.0
  0
LINE
  5
3B9
  8
LINE
 10
50.11124192968887
 20
74.97277474668451
 30
0.0
 11
51.29480998152761
 21
72.92277474668451
 31
0.0
  0
LINE
  5
3BA
  8
LINE
 10
51.64122014304138
 20
72.72277474668451
 30
0.0
 11
57.08126371633637
 21
72.72277474668451
 31
0.0
  0
ARC
  5
3BB
  8
LINE
 10
57.08126371633637
 20
73.12277474668451
 30
0.0
 40
0.4
 50
270.0
 51
329.9999999999999
  0
LINE
  5
3BC
  8
LINE
 10
60.20124192968888
 20
74.97277474668442
 30
0.0
 11
60.20124192968888
 21
85.97277474668442
 31
0.0
  0
LINE
  5
3BD
  8
LINE
 10
60.20124192968882
 20
67.7147747466844
 30
0.0
 11
60.20124192968888
 21
85.97277474668442
 31
0.0
  0
TEXT
  5
3BE
  8
DIM
 10
69.54196809268993
 20
68.32747611951962
 30
0.0
 40
3.0
  1
11.380.323
 50
90.0
 41
0.6666497902250026
  7
ROMANS
 72
     5
 11
69.54196809268993
 21
85.16704982060318
 31
0.0
  0
TEXT
  5
3BF
  8
DIM
 10
64.68482523554707
 20
68.32747611951962
 30
0.0
 40
3.0
  1
10.310.411
 50
90.0
 41
0.6904294260386866
  7
ROMANS
 72
     5
 11
64.68482523554707
 21
85.16704982060318
 31
0.0
  0
LINE
  5
3C0
  8
LINE
 10
60.20124192968882
 20
67.7147747466844
 30
0.0
 11
60.96324192968888
 21
66.95277474668441
 31
0.0
  0
LINE
  5
3C1
  8
LINE
 10
58.70124192968888
 20
74.97277474668442
 30
0.0
 11
60.20124192968888
 21
75.3746985353311
 31
0.0
  0
LINE
  5
3C2
  8
LINE
 10
58.61124192968887
 20
74.97277474668442
 30
0.0
 11
58.70124192968888
 21
74.97277474668442
 31
0.0
  0
LINE
  5
3C3
  8
LINE
 10
58.61124192968887
 20
74.97277474668442
 30
0.0
 11
58.70124192968888
 21
74.97277474668442
 31
0.0
  0
LINE
  5
3C4
  8
LINE
 10
58.61124192968887
 20
74.97277474668451
 30
0.0
 11
58.70124192968888
 21
74.97277474668451
 31
0.0
  0
LINE
  5
3C5
  8
LINE
 10
58.61124192968887
 20
74.97277474668451
 30
0.0
 11
58.70124192968888
 21
74.97277474668451
 31
0.0
  0
LINE
  5
3C6
  8
LINE
 10
58.6112419296892
 20
74.97277474668441
 30
0.0
 11
58.70124192968888
 21
74.97277474668441
 31
0.0
  0
LINE
  5
3C7
  8
HIDDEN
 10
59.20124192968888
 20
85.97277474668442
 30
0.0
 11
59.20124192968888
 21
80.47277474668442
 31
0.0
  0
LINE
  5
3C8
  8
HIDDEN
 10
59.20124192968888
 20
80.47277474668442
 30
0.0
 11
62.37666841023182
 21
85.97277474668442
 31
0.0
  0
CIRCLE
  5
3CC
  8
LINE
 10
90.70124192968888
 20
85.97277474668442
 30
0.0
 40
2.169370578087708
  0
POLYLINE
  5
3CD
  8
LINE
 66
     1
 10
0.0
 20
0.0
 30
0.0
 70
     1
  0
VERTEX
  5
128B
  8
LINE
 10
89.83521652590443
 20
87.47277474668444
 30
0.0
  0
VERTEX
  5
128C
  8
LINE
 10
88.96919112211998
 20
85.97277474668442
 30
0.0
  0
VERTEX
  5
128D
  8
LINE
 10
89.83521652590443
 20
84.47277474668442
 30
0.0
  0
VERTEX
  5
128E
  8
LINE
 10
91.5672673334733
 20
84.47277474668442
 30
0.0
  0
VERTEX
  5
128F
  8
LINE
 10
92.43329273725774
 20
85.97277474668442
 30
0.0
  0
VERTEX
  5
1290
  8
LINE
 10
91.5672673334733
 20
87.47277474668442
 30
0.0
  0
SEQEND
  5
12B3
  8
LINE
  0
LINE
  5
3CE
  8
LINE
 10
103.2612419296888
 20
71.7227747466844
 30
0.0
 11
103.2612419296889
 21
85.97277474668425
 31
0.0
  0
LINE
  5
3CF
  8
LINE
 10
102.1475268549373
 20
69.79376365205935
 30
0.0
 11
103.2612419296888
 21
71.7227747466844
 31
0.0
  0
LINE
  5
3D1
  8
LINE
 10
93.42624192968887
 20
101.6227747466844
 30
0.0
 11
98.70124192968888
 21
101.6227747466844
 31
0.0
  0
LINE
  5
3D3
  8
LINE
 10
60.96324192968888
 20
104.9927747466844
 30
0.0
 11
70.38869705731713
 21
104.9927747466844
 31
0.0
  0
LINE
  5
3D4
  8
HIDDEN
 10
90.85456076641634
 20
97.88111100638807
 30
0.0
 11
60.49694477551727
 21
89.22855158619805
 31
0.0
  0
ARC
  5
3D5
  8
LINE
 10
54.36124192968887
 20
110.9975960161131
 30
0.0
 40
14.6546276527047
 50
253.141398577991
 51
286.8586014220091
  0
LINE
  5
3D6
  8
LINE
 10
58.61124192968887
 20
96.97277474668452
 30
0.0
 11
57.42767387785014
 21
99.02277474668452
 31
0.0
  0
ARC
  5
3D7
  8
LINE
 10
51.64122014304138
 20
98.82277474668452
 30
0.0
 40
0.4
 50
89.99999999999999
 51
150.0
  0
LINE
  5
3D8
  8
LINE
 10
50.11124192968887
 20
96.97277474668452
 30
0.0
 11
51.29480998152761
 21
99.02277474668452
 31
0.0
  0
LINE
  5
3D9
  8
LINE
 10
51.64122014304138
 20
99.22277474668451
 30
0.0
 11
57.08126371633637
 21
99.22277474668451
 31
0.0
  0
ARC
  5
3DA
  8
LINE
 10
57.08126371633637
 20
98.82277474668452
 30
0.0
 40
0.4
 50
30.00000000000007
 51
89.99999999999997
  0
LINE
  5
3DB
  8
LINE
 10
58.70124192968888
 20
96.97277474668442
 30
0.0
 11
60.20124192968888
 21
96.57085095803774
 31
0.0
  0
LINE
  5
3DC
  8
LINE
 10
58.61124192968887
 20
96.97277474668442
 30
0.0
 11
58.70124192968888
 21
96.97277474668442
 31
0.0
  0
LINE
  5
3DD
  8
LINE
 10
58.61124192968887
 20
96.97277474668452
 30
0.0
 11
58.70124192968888
 21
96.97277474668452
 31
0.0
  0
LINE
  5
3DE
  8
LINE
 10
58.61124192968857
 20
96.97277474668442
 30
0.0
 11
58.70124192968888
 21
96.97277474668442
 31
0.0
  0
LINE
  5
3DF
  8
LINE
 10
60.20124192968882
 20
104.2307747466843
 30
0.0
 11
60.96324192968888
 21
104.9927747466844
 31
0.0
  0
LINE
  5
3E1
  8
LINE
 10
72.47870503178358
 20
101.3727747466844
 30
0.0
 11
86.05107990329242
 21
101.3727747466844
 31
0.0
  0
LINE
  5
3E2
  8
LINE
 10
82.70124192968888
 20
101.6227747466844
 30
0.0
 11
87.97624192968887
 21
101.6227747466844
 31
0.0
  0
LINE
  5
3E3
  8
LINE
 10
70.38869705731713
 20
104.9927747466844
 30
0.0
 11
72.47870503178358
 21
101.3727747466844
 31
0.0
  0
POLYLINE
  5
3E5
  8
LINE
 66
     1
 10
0.0
 20
0.0
 30
0.0
 70
     1
  0
VERTEX
  5
1291
  8
LINE
 10
94.54622397178076
 20
97.27484257825716
 30
0.0
  0
VERTEX
  5
1292
  8
LINE
 10
94.41926813872831
 20
97.53735493414283
 30
0.0
  0
VERTEX
  5
1293
  8
LINE
 10
94.17724635835947
 20
97.76077580770011
 30
0.0
  0
VERTEX
  5
1294
  8
LINE
 10
93.82945939196641
 20
97.93651926005406
 30
0.0
  0
VERTEX
  5
1295
  8
LINE
 10
93.3892724976265
 20
98.05783156888879
 30
0.0
  0
VERTEX
  5
1296
  8
LINE
 10
92.8736018108295
 20
98.1200507702085
 30
0.0
  0
VERTEX
  5
1297
  8
LINE
 10
92.30226426687761
 20
98.12078581499941
 30
0.0
  0
VERTEX
  5
1298
  8
LINE
 10
91.6972160471751
 20
98.0600084559024
 30
0.0
  0
VERTEX
  5
1299
  8
LINE
 10
91.0817088154902
 20
97.94005433274327
 30
0.0
  0
VERTEX
  5
129A
  8
LINE
 10
90.47939616955613
 20
97.76553321520394
 30
0.0
  0
VERTEX
  5
129B
  8
LINE
 10
89.91342464657527
 20
97.54315185195892
 30
0.0
  0
VERTEX
  5
129C
  8
LINE
 10
89.40554421477533
 20
97.28145623408479
 30
0.0
  0
VERTEX
  5
129D
  8
LINE
 10
88.97527243432775
 20
96.99050317741583
 30
0.0
  0
VERTEX
  5
129E
  8
LINE
 10
88.63914440845592
 20
96.68147384475152
 30
0.0
  0
VERTEX
  5
129F
  8
LINE
 10
88.41007734869135
 20
96.36624406004047
 30
0.0
  0
VERTEX
  5
12A0
  8
LINE
 10
88.29687417367848
 20
96.05692792712625
 30
0.0
  0
VERTEX
  5
12A1
  8
LINE
 10
88.303885217948
 20
95.76541229153025
 30
0.0
  0
VERTEX
  5
12A2
  8
LINE
 10
88.43084105100044
 20
95.50289993564459
 30
0.0
  0
VERTEX
  5
12A3
  8
LINE
 10
88.6728628313693
 20
95.2794790620873
 30
0.0
  0
VERTEX
  5
12A4
  8
LINE
 10
89.02064979776235
 20
95.10373560973336
 30
0.0
  0
VERTEX
  5
12A5
  8
LINE
 10
89.46083669210228
 20
94.98242330089863
 30
0.0
  0
VERTEX
  5
12A6
  8
LINE
 10
89.97650737889926
 20
94.92020409957892
 30
0.0
  0
VERTEX
  5
12A7
  8
LINE
 10
90.54784492285116
 20
94.91946905478801
 30
0.0
  0
VERTEX
  5
12A8
  8
LINE
 10
91.15289314255365
 20
94.980246413885
 30
0.0
  0
VERTEX
  5
12A9
  8
LINE
 10
91.76840037423857
 20
95.10020053704415
 30
0.0
  0
VERTEX
  5
12AA
  8
LINE
 10
92.37071302017264
 20
95.27472165458347
 30
0.0
  0
VERTEX
  5
12AB
  8
LINE
 10
92.93668454315349
 20
95.4971030178285
 30
0.0
  0
VERTEX
  5
12AC
  8
LINE
 10
93.44456497495344
 20
95.75879863570263
 30
0.0
  0
VERTEX
  5
12AD
  8
LINE
 10
93.874836755401
 20
96.04975169237159
 30
0.0
  0
VERTEX
  5
12AE
  8
LINE
 10
94.21096478127282
 20
96.35878102503591
 30
0.0
  0
VERTEX
  5
12AF
  8
LINE
 10
94.44003184103741
 20
96.67401080974695
 30
0.0
  0
VERTEX
  5
12B0
  8
LINE
 10
94.55323501605028
 20
96.98332694266117
 30
0.0
  0
SEQEND
  5
12B4
  8
LINE
  0
LINE
  5
3E6
  8
LINE
 10
88.20124192968886
 20
102.9227747466844
 30
0.0
 11
93.20124192968888
 21
102.9227747466844
 31
0.0
  0
LINE
  5
3E7
  8
LINE
 10
88.27552372418302
 20
103.3519584482062
 30
0.0
 11
93.12696013519472
 21
103.3519584482062
 31
0.0
  0
LINE
  5
3E8
  8
LINE
 10
83.0012419296888
 20
101.6227747466844
 30
0.0
 11
83.0012419296888
 21
107.2227747466845
 31
0.0
  0
LINE
  5
3E9
  8
LINE
 10
87.97624192968887
 20
101.6227747466844
 30
0.0
 11
88.27552372418302
 21
103.3519584482062
 31
0.0
  0
LINE
  5
3EB
  8
LINE
 10
93.42624192968887
 20
101.6227747466844
 30
0.0
 11
93.12696013519472
 21
103.3519584482062
 31
0.0
  0
LINE
  5
3EC
  8
LINE
 10
98.70124192968888
 20
98.00173665933497
 30
0.0
 11
98.70124192968888
 21
101.6227747466844
 31
0.0
  0
LINE
  5
3ED
  8
LINE
 10
100.6567610132609
 20
101.3409879876589
 30
0.0
 11
109.0012419295005
 21
106.1586762848484
 31
0.0
  0
LINE
  5
3EE
  8
LINE
 10
109.0012419296888
 20
106.8514966079847
 30
0.0
 11
100.6567610186889
 21
111.6691849081982
 31
0.0
  0
ARC
  5
3F1
  8
LINE
 10
108.8012419296888
 20
106.5050864464709
 30
0.0
 40
0.4
 50
299.9999999688492
 51
59.99999999999986
  0
LINE
  5
3F3
  8
LINE
 10
100.0567610186889
 20
111.3227747469019
 30
0.0
 11
100.0567610134493
 21
101.6873981494989
 31
0.0
  0
ARC
  5
3FA
  8
LINE
 10
100.4567610134493
 20
101.6873981492814
 30
0.0
 40
0.4000000000000019
 50
179.9999999688436
 51
299.9999999688491
  0
LINE
  5
3FB
  8
LINE
 10
98.40124192968894
 20
101.6227747466844
 30
0.0
 11
98.40124192968894
 21
103.1598609338283
 31
0.0
  0
LINE
  5
3FC
  8
LINE
 10
84.0012419296888
 20
108.2227747466845
 30
0.0
 11
97.40124192968894
 21
108.2227747466844
 31
0.0
  0
CIRCLE
  5
3FD
  8
LINE
 10
103.2382546530694
 20
106.505086447983
 30
0.0
 40
1.6361967276
  0
ARC
  5
3FE
  8
LINE
 10
100.4567610186889
 20
111.3227747466844
 30
0.0
 40
0.4
 50
59.99999999999986
 51
179.9999999688432
  0
LINE
  5
406
  8
LINE
 10
84.0012419296888
 20
108.2227747466845
 30
0.0
 11
83.0012419296888
 21
107.2227747466845
 31
0.0
  0
LINE
  5
407
  8
LINE
 10
98.40124192968895
 20
101.6227747466844
 30
0.0
 11
98.40124192968894
 21
107.2227747466844
 31
0.0
  0
LINE
  5
408
  8
LINE
 10
98.40124192968894
 20
107.2227747466844
 30
0.0
 11
97.40124192968894
 21
108.2227747466844
 31
0.0
  0
LINE
  5
429
  8
LINE
 10
80.70124192968886
 20
69.79376365205937
 30
0.0
 11
87.32624192968888
 21
67.48517154770356
 31
0.0
  0
LINE
  5
42A
  8
LINE
 10
80.70124192968886
 20
69.79376365205935
 30
0.0
 11
102.1475268549373
 21
69.79376365205935
 31
0.0
  0
LINE
  5
42B
  8
LINE
 10
94.07624192968888
 20
67.48517154770356
 30
0.0
 11
100.7012419296888
 21
69.79376365205935
 31
0.0
  0
LINE
  5
42C
  8
LINE
 10
87.32624192968888
 20
67.48517154770356
 30
0.0
 11
94.07624192968888
 21
67.48517154770356
 31
0.0
  0
LINE
  5
42F
  8
LINE
 10
80.70124192968886
 20
69.79376365205937
 30
0.0
 11
79.06099622040588
 21
66.95277474668438
 31
0.0
  0
LINE
  5
439
  8
LINE
 10
100.5072811456544
 20
69.79376365205935
 30
0.0
 11
100.5072811456544
 21
97.52046005816872
 31
0.0
  0
LINE
  5
43B
  8
HIDDEN
 10
98.73116144743409
 20
97.99376365205936
 30
0.0
 11
103.2612419296889
 21
95.37832046617889
 31
0.0
  0
LINE
  5
43F
  8
LINE
 10
98.70124192968888
 20
101.6227747466844
 30
0.0
 11
99.7371403145511
 21
101.6227747466844
 31
0.0
  0
LINE
  5
440
  8
LINE
 10
99.7371403145511
 20
101.6227747466844
 30
0.0
 11
99.9504497079311
 21
100.8266932528586
 31
0.0
  0
LINE
  5
441
  8
LINE
 10
99.9504497079311
 20
100.8266932528586
 30
0.0
 11
108.0012419295004
 21
100.8266932528586
 31
0.0
  0
LINE
  5
442
  8
LINE
 10
103.2612419296889
 20
96.78657960077419
 30
0.0
 11
86.05107990329242
 21
101.3727747466844
 31
0.0
  0
LINE
  5
443
  8
LINE
 10
109.0012419295005
 20
106.1586762848484
 30
0.0
 11
109.0012419295004
 21
101.8266932528586
 31
0.0
  0
LINE
  5
444
  8
LINE
 10
109.0012419295004
 20
101.8266932528586
 30
0.0
 11
108.0012419295004
 21
100.8266932528586
 31
0.0
  0
LINE
  5
448
  8
LINE
 10
83.0012419296888
 20
107.2227747466845
 30
0.0
 11
98.40124192968894
 21
107.2227747466844
 31
0.0
  0
LINE
  5
471
  8
LINE
 10
100.0567610186889
 20
111.3227747466844
 30
0.0
 11
94.6874035152254
 21
108.2227747466844
 31
0.0
  0
LINE
  5
47F
  8
LINE
 10
82.70124192968889
 20
101.3727747466844
 30
0.0
 11
82.70124192968888
 21
101.6227747466844
 31
0.0
  0
DIMENSION
  5
4C4
  8
DIM
  2
*D0
 10
109.2012419296888
 20
123.2680873052997
 30
0.0
 11
85.36187889715154
 21
123.2680873052997
 31
0.0
 70
    32
  1
49
  3
STANDARD
 13
60.20124192968882
 23
104.2307747466843
 33
0.0
 14
109.2012419296888
 24
106.5050864464709
 34
0.0
1001
ACAD
1000
DSTYLE
1002
{
1070
   288
1070
     1
1070
   140
1040
0.125
1070
   340
1005
1CA
1070
    74
1070
     0
1070
   172
1070
     1
1070
    73
1070
     0
1070
    77
1070
     1
1070
    40
1040
15.0
1070
   147
1040
0.05
1070
    44
1040
0.0625
1070
   141
1040
0.0
1070
    41
1040
0.12
1002
}
  0
LINE
  5
4D0
  8
0
  6
BYBLOCK
 62
     0
 10
101.3942610186889
 20
111.7227747466844
 30
0.0
 11
123.3910997306481
 21
111.7227747466844
 31
0.0
  0
LINE
  5
4D1
  8
0
  6
BYBLOCK
 62
     0
 10
122.4535997306481
 20
109.9227747466844
 30
0.0
 11
122.4535997306481
 21
89.8651320522211
 31
0.0
  0
SOLID
  5
4D2
  8
0
  6
BYBLOCK
 62
     0
 10
122.1535997306481
 20
109.9227747466844
 30
0.0
 11
122.7535997306481
 21
109.9227747466844
 31
0.0
 12
122.4535997306481
 22
111.7227747466844
 32
0.0
 13
122.4535997306481
 23
111.7227747466844
 33
0.0
  0
TEXT
  5
4D3
  8
0
  6
CONTINUOUS
 62
     0
 10
121.7035997306481
 20
90.18040987916191
 30
0.0
 40
1.875
  1
ø45Min.
 50
90.0
  7
ROMANS
  0
POINT
  5
4D4
  8
DEFPOINTS
  6
BYBLOCK
 62
     0
 10
104.6006034897886
 20
85.9727747466844
 30
0.0
  0
POINT
  5
4D5
  8
DEFPOINTS
  6
BYBLOCK
 62
     0
 10
100.4567610186889
 20
111.7227747466844
 30
0.0
  0
POINT
  5
4D6
  8
DEFPOINTS
  6
BYBLOCK
 62
     0
 10
122.4535997306481
 20
111.7227747466844
 30
0.0
  0
TEXT
  5
4D7
  8
0
  6
CONTINUOUS
 62
     0
 10
124.9860528148659
 20
90.43487057289298
 30
0.0
 40
1.875
  1
ø58Max.
 50
90.0
  7
ROMANS
  0
DIMENSION
  5
4E5
  8
DIM
  2
*D1
 10
123.3910997306481
 20
111.7227747466844
 30
0.0
 11
118.3833578276712
 21
107.6494168966816
 31
0.0
 70
    34
  1
30%%d
  3
STANDARD
 13
109.0012419296888
 23
106.8514966079847
 33
0.0
 14
100.6567610186889
 24
111.6691849081982
 34
0.0
 15
101.3942610186889
 25
111.7227747466844
 35
0.0
 16
117.7406342929073
 26
105.470969554176
 36
0.0
1001
ACAD
1000
DSTYLE
1002
{
1070
   288
1070
     1
1070
   140
1040
0.125
1070
   340
1005
1CA
1070
    74
1070
     0
1070
   172
1070
     1
1070
    73
1070
     0
1070
    77
1070
     1
1070
    75
1070
     1
1070
    40
1040
15.0
1070
   147
1040
0.05
1070
    44
1040
0.0625
1070
   141
1040
0.0
1070
    41
1040
0.12
1002
}
  0
LINE
  5
4E6
  8
DIM
 10
103.2382546530694
 20
106.505086447983
 30
0.0
 11
112.8031873881338
 21
79.89018357099835
 31
0.0
  0
LINE
  5
4E7
  8
DIM
 10
112.8031873881338
 20
79.89018357099835
 30
0.0
 11
131.5455094915857
 21
79.89018357099835
 31
0.0
  0
TEXT
  5
4E8
  8
DIM
 10
113.6619036591024
 20
80.65675494845684
 30
0.0
 40
1.88
  1
TCMT110204
  7
ROMANS
  0
INSERT
  5
710
  8
DIM
 66
     1
  2
KAISERA
 10
-177.2175393723786
 20
24.01646354685803
 30
0.0
 41
16.245
 42
16.245
 43
16.245
  0
ATTRIB
  5
711
  8
DIM
 10
81.38703094726444
 20
33.57225715271739
 30
0.0
 40
3.249
  1
Insert Holder ENH41/30 TC11
  2
NAME
 70
     0
  0
ATTRIB
  5
712
  8
DIM
 10
82.30038934043802
 20
44.59175785022798
 30
0.0
 40
1.6245
  1
NONE
  2
SCALE
 70
     0
  0
ATTRIB
  5
713
  8
DIM
 10
81.95787994299792
 20
40.63911086090354
 30
0.0
 40
1.6245
  1
3/27/00
  2
DATE
 70
     0
  0
ATTRIB
  5
714
  8
DIM
 10
149.8889104352855
 20
44.83131221321734
 30
0.0
 40
1.6245
  1
J.B.
  2
NAME
 70
     0
  0
ATTRIB
  5
715
  8
DIM
 10
148.9755520421119
 20
40.63911086090354
 30
0.0
 40
1.6245
  1

  2
REVISED
 70
     0
  0
ATTRIB
  5
716
  8
DIM
 10
89.7214262849736
 20
28.5416155299408
 30
0.0
 40
1.6245
  1

  2
MATERIAL
 70
     0
  0
ATTRIB
  5
717
  8
DIM
 10
93.26069005852139
 20
25.66696317406847
 30
0.0
 40
1.6245
  1

  2
HEATTREAT
 70
     0
  0
ATTRIB
  5
718
  8
DIM
 10
123.5156868323973
 20
28.30206116695145
 30
0.0
 40
1.6245
  1

  2
FINISH
 70
     0
  0
ATTRIB
  5
719
  8
DIM
 10
140.869496302696
 20
25.78674035556315
 30
0.0
 40
2.43675
  1
11.380.323
  2
DRAWINGNO.
 70
     0
  0
ATTRIB
  5
71A
  8
DIM
 10
28.73307611550136
 20
26.02629471855253
 30
0.0
 40
2.43675
  1
A
  2
REV.
 70
     0
  0
SEQEND
  5
11D1
  8
DIM
  0
DIMENSION
  5
727
  8
DIM
  2
*D3
 10
100.4567610186889
 20
117.3485468441095
 30
0.0
 11
80.00215777652926
 21
117.3485468441095
 31
0.0
 70
    32
  1
40.3
  3
STANDARD
 13
60.20124192968882
 23
104.2307747466843
 33
0.0
 14
100.4567610186889
 24
111.7227747466844
 34
0.0
1001
ACAD
1000
DSTYLE
1002
{
1070
   288
1070
     1
1070
   140
1040
0.125
1070
   340
1005
1CA
1070
    74
1070
     0
1070
   172
1070
     1
1070
    73
1070
     0
1070
    77
1070
     1
1070
    75
1070
     1
1070
    40
1040
15.0
1070
   147
1040
0.05
1070
    44
1040
0.0625
1070
   141
1040
0.0
1070
    41
1040
0.12
1002
}
  0
DIMENSION
  5
732
  8
DIM
  2
*D4
 10
109.2012419296888
 20
117.3485468441095
 30
0.0
 11
104.8290014741888
 21
117.3485468441095
 31
0.0
 70
    32
  1
(8.7)
  3
STANDARD
 13
100.4567610186889
 23
111.7227747466844
 33
0.0
 14
109.2012419296888
 24
106.5050864464709
 34
0.0
1001
ACAD
1000
DSTYLE
1002
{
1070
   288
1070
     1
1070
   140
1040
0.125
1070
   340
1005
1CA
1070
    74
1070
     0
1070
   172
1070
     1
1070
    73
1070
     0
1070
    77
1070
     1
1070
    76
1070
     1
1070
    75
1070
     1
1070
    40
1040
15.0
1070
   147
1040
0.05
1070
    44
1040
0.0625
1070
   141
1040
0.0
1070
    41
1040
0.12
1002
}
  0
ENDSEC
  0
EOF
