  0
SECTION
  2
HEADER
  9
$ACADVER
  1
AC1009
  9
$DWGCODEPAGE
  3
ansi_1252
  9
$INSBASE
 10
0.0
 20
0.0
 30
0.0
  9
$EXTMIN
 10
15.53816805945463
 20
51.8043935746067
 30
0.0
  9
$EXTMAX
 10
114.0341680594546
 20
125.9163935746067
 30
0.0
  9
$LIMMIN
 10
0.0
 20
0.0
  9
$LIMMAX
 10
12.0
 20
9.0
  9
$ORTHOMODE
 70
     1
  9
$REGENMODE
 70
     1
  9
$FILLMODE
 70
     1
  9
$QTEXTMODE
 70
     0
  9
$MIRRTEXT
 70
     1
  9
$DRAGMODE
 70
     2
  9
$LTSCALE
 40
20.0
  9
$OSMODE
 70
   511
  9
$ATTMODE
 70
     1
  9
$TEXTSIZE
 40
1.25
  9
$TRACEWID
 40
0.05
  9
$TEXTSTYLE
  7
ROMANS
  9
$CLAYER
  8
DIM
  9
$CELTYPE
  6
BYLAYER
  9
$CECOLOR
 62
   256
  9
$DIMSCALE
 40
10.0
  9
$DIMASZ
 40
0.12
  9
$DIMEXO
 40
0.0625
  9
$DIMDLI
 40
0.38
  9
$DIMRND
 40
0.0
  9
$DIMDLE
 40
0.0
  9
$DIMEXE
 40
0.0625
  9
$DIMTP
 40
0.0
  9
$DIMTM
 40
0.0
  9
$DIMTXT
 40
0.125
  9
$DIMCEN
 40
0.0
  9
$DIMTSZ
 40
0.0
  9
$DIMTOL
 70
     0
  9
$DIMLIM
 70
     0
  9
$DIMTIH
 70
     0
  9
$DIMTOH
 70
     0
  9
$DIMSE1
 70
     0
  9
$DIMSE2
 70
     0
  9
$DIMTAD
 70
     1
  9
$DIMZIN
 70
     0
  9
$DIMBLK
  1

  9
$DIMASO
 70
     1
  9
$DIMSHO
 70
     1
  9
$DIMPOST
  1

  9
$DIMAPOST
  1

  9
$DIMALT
 70
     0
  9
$DIMALTD
 70
     2
  9
$DIMALTF
 40
25.4
  9
$DIMLFAC
 40
1.0
  9
$DIMTOFL
 70
     1
  9
$DIMTVP
 40
0.0
  9
$DIMTIX
 70
     0
  9
$DIMSOXD
 70
     0
  9
$DIMSAH
 70
     0
  9
$DIMBLK1
  1

  9
$DIMBLK2
  1

  9
$DIMSTYLE
  2
STANDARD
  9
$DIMCLRD
 70
     0
  9
$DIMCLRE
 70
     0
  9
$DIMCLRT
 70
     0
  9
$DIMTFAC
 40
1.0
  9
$DIMGAP
 40
0.05
  9
$LUNITS
 70
     2
  9
$LUPREC
 70
     4
  9
$SKETCHINC
 40
0.1
  9
$FILLETRAD
 40
0.0
  9
$AUNITS
 70
     0
  9
$AUPREC
 70
     0
  9
$MENU
  1
.
  9
$ELEVATION
 40
0.0
  9
$PELEVATION
 40
0.0
  9
$THICKNESS
 40
0.0
  9
$LIMCHECK
 70
     0
  9
$CHAMFERA
 40
1.0
  9
$CHAMFERB
 40
1.0
  9
$SKPOLY
 70
     0
  9
$TDCREATE
 40
2453353.508792488
  9
$TDUPDATE
 40
2457253.613438472
  9
$TDINDWG
 40
0.0983250694
  9
$TDUSRTIMER
 40
2457253.821595347
  9
$USRTIMER
 70
     1
  9
$ANGBASE
 50
0.0
  9
$ANGDIR
 70
     0
  9
$PDMODE
 70
    65
  9
$PDSIZE
 40
-2.0
  9
$PLINEWID
 40
0.0
  9
$COORDS
 70
     2
  9
$SPLFRAME
 70
     0
  9
$SPLINETYPE
 70
     6
  9
$SPLINESEGS
 70
     8
  9
$ATTDIA
 70
     0
  9
$ATTREQ
 70
     1
  9
$HANDLING
 70
     1
  9
$HANDSEED
  5
9A0
  9
$SURFTAB1
 70
     6
  9
$SURFTAB2
 70
     6
  9
$SURFTYPE
 70
     6
  9
$SURFU
 70
     6
  9
$SURFV
 70
     6
  9
$UCSNAME
  2

  9
$UCSORG
 10
0.0
 20
0.0
 30
0.0
  9
$UCSXDIR
 10
1.0
 20
0.0
 30
0.0
  9
$UCSYDIR
 10
0.0
 20
1.0
 30
0.0
  9
$PUCSNAME
  2

  9
$PUCSORG
 10
0.0
 20
0.0
 30
0.0
  9
$PUCSXDIR
 10
1.0
 20
0.0
 30
0.0
  9
$PUCSYDIR
 10
0.0
 20
1.0
 30
0.0
  9
$USERI1
 70
     0
  9
$USERI2
 70
     0
  9
$USERI3
 70
     0
  9
$USERI4
 70
     0
  9
$USERI5
 70
     0
  9
$USERR1
 40
0.0
  9
$USERR2
 40
0.0
  9
$USERR3
 40
0.0
  9
$USERR4
 40
0.0
  9
$USERR5
 40
0.0
  9
$WORLDVIEW
 70
     1
  9
$SHADEDGE
 70
     3
  9
$SHADEDIF
 70
    70
  9
$TILEMODE
 70
     1
  9
$MAXACTVP
 70
    16
  9
$PLIMCHECK
 70
     0
  9
$PEXTMIN
 10
0.0
 20
0.0
 30
0.0
  9
$PEXTMAX
 10
0.0
 20
0.0
 30
0.0
  9
$PLIMMIN
 10
0.0
 20
0.0
  9
$PLIMMAX
 10
229.0
 20
162.0
  9
$UNITMODE
 70
     0
  9
$VISRETAIN
 70
     0
  9
$PLINEGEN
 70
     0
  9
$PSLTSCALE
 70
     1
  0
ENDSEC
  0
SECTION
  2
TABLES
  0
TABLE
  2
VPORT
 70
     1
  0
VPORT
  2
*ACTIVE
 70
     0
 10
0.0
 20
0.0
 11
1.0
 21
1.0
 12
64.78616805945464
 22
88.86039357460672
 13
0.0
 23
0.0
 14
1.0
 24
1.0
 15
0.0
 25
0.0
 16
0.0
 26
0.0
 36
1.0
 17
0.0
 27
0.0
 37
0.0
 40
75.59424000000003
 41
1.342896174863388
 42
50.0
 43
0.0
 44
0.0
 50
0.0
 51
0.0
 71
    16
 72
  1000
 73
     1
 74
     0
 75
     0
 76
     0
 77
     0
 78
     0
  0
ENDTAB
  0
TABLE
  2
LTYPE
 70
     4
  0
LTYPE
  2
CONTINUOUS
 70
     0
  3
Solid line
 72
    65
 73
     0
 40
0.0
  0
LTYPE
  2
HIDDEN
 70
     0
  3
__ __ __ __ __ __ __ __ __ __ __ __ __ __ __ __
 72
    65
 73
     2
 40
0.375
 49
0.25
 49
-0.125
  0
LTYPE
  2
PHANTOM
 70
     0
  3
______  __  __  ______  __  __  ______  __  __ 
 72
    65
 73
     6
 40
2.5
 49
1.25
 49
-0.25
 49
0.25
 49
-0.25
 49
0.25
 49
-0.25
  0
LTYPE
  2
CENTER
 70
     0
  3
____ _ ____ _ ____ _ ____ _ ____ _ ____ _ ____
 72
    65
 73
     4
 40
2.0
 49
1.25
 49
-0.25
 49
0.25
 49
-0.25
  0
ENDTAB
  0
TABLE
  2
LAYER
 70
     8
  0
LAYER
  2
0
 70
     0
 62
     7
  6
CONTINUOUS
  0
LAYER
  2
LINE
 70
     0
 62
     3
  6
CONTINUOUS
  0
LAYER
  2
HIDDEN
 70
     0
 62
     2
  6
HIDDEN
  0
LAYER
  2
DIM
 70
     0
 62
     7
  6
CONTINUOUS
  0
LAYER
  2
CTRL
 70
     0
 62
     1
  6
CENTER
  0
LAYER
  2
BORDER
 70
     0
 62
     3
  6
CONTINUOUS
  0
LAYER
  2
FRAME
 70
     0
 62
     4
  6
CONTINUOUS
  0
LAYER
  2
DEFPOINTS
 70
     0
 62
     7
  6
CONTINUOUS
  0
ENDTAB
  0
TABLE
  2
STYLE
 70
     2
  0
STYLE
  2
STANDARD
 70
     0
 40
0.0
 41
1.0
 50
0.0
 71
     0
 42
0.2
  3
txt
  4

  0
STYLE
  2
ROMANS
 70
     0
 40
0.0
 41
1.0
 50
0.0
 71
     0
 42
1.25
  3
romans
  4

  0
ENDTAB
  0
TABLE
  2
VIEW
 70
     0
  0
ENDTAB
  0
TABLE
  2
UCS
 70
     0
  0
ENDTAB
  0
TABLE
  2
APPID
 70
     1
  0
APPID
  2
ACAD
 70
     0
  0
ENDTAB
  0
TABLE
  2
DIMSTYLE
 70
     1
  0
DIMSTYLE
  2
STANDARD
 70
     0
  3

  4

  5

  6

  7

 40
1.0
 41
0.18
 42
0.0625
 43
0.38
 44
0.18
 45
0.0
 46
0.0
 47
0.0
 48
0.0
140
0.18
141
0.09
142
0.0
143
25.4
144
1.0
145
0.0
146
1.0
147
0.09
 71
     0
 72
     0
 73
     1
 74
     1
 75
     0
 76
     0
 77
     0
 78
     0
170
     0
171
     2
172
     0
173
     0
174
     0
175
     0
176
     0
177
     0
178
     0
  0
ENDTAB
  0
ENDSEC
  0
SECTION
  2
BLOCKS
  0
BLOCK
  8
0
  2
$MODEL_SPACE
 70
     0
 10
0.0
 20
0.0
 30
0.0
  3
$MODEL_SPACE
  1

  0
ENDBLK
  5
21
  8
0
  0
BLOCK
 67
     1
  8
0
  2
$PAPER_SPACE
 70
     0
 10
0.0
 20
0.0
 30
0.0
  3
$PAPER_SPACE
  1

  0
ENDBLK
  5
76
 67
     1
  8
0
  0
BLOCK
  8
0
  2
KAISERA
 70
     2
 10
0.0
 20
0.0
 30
0.0
  3
KAISERA
  1

  0
LINE
  5
55D
  8
BORDER
 10
10.74
 20
0.0
 30
0.0
 11
21.0
 21
0.0
 31
0.0
  0
LINE
  5
55E
  8
BORDER
 10
21.0
 20
0.0
 30
0.0
 11
21.0
 21
7.720000000000001
 31
0.0
  0
LINE
  5
55F
  8
BORDER
 10
15.5
 20
0.0
 30
0.0
 11
15.5
 21
2.0
 31
0.0
  0
LINE
  5
560
  8
BORDER
 10
15.5
 20
2.0
 30
0.0
 11
21.0
 21
2.0
 31
0.0
  0
LINE
  5
561
  8
BORDER
 10
15.5
 20
1.45
 30
0.0
 11
21.0
 21
1.45
 31
0.0
  0
LINE
  5
562
  8
BORDER
 10
15.5
 20
0.9500000000000002
 30
0.0
 11
21.0
 21
0.9500000000000002
 31
0.0
  0
LINE
  5
563
  8
BORDER
 10
15.5
 20
0.4500000000000002
 30
0.0
 11
21.0
 21
0.4500000000000002
 31
0.0
  0
LINE
  5
564
  8
BORDER
 10
19.54
 20
0.0
 30
0.0
 11
19.54
 21
0.4500000000000002
 31
0.0
  0
LINE
  5
565
  8
BORDER
 10
19.54
 20
0.9500000000000002
 30
0.0
 11
19.54
 21
1.45
 31
0.0
  0
LINE
  5
566
  8
BORDER
 10
15.5
 20
1.19
 30
0.0
 11
17.02
 21
1.19
 31
0.0
  0
LINE
  5
567
  8
BORDER
 10
17.02
 20
0.9500000000000002
 30
0.0
 11
17.02
 21
1.45
 31
0.0
  0
LINE
  5
568
  8
BORDER
 10
19.54
 20
1.19
 30
0.0
 11
21.0
 21
1.19
 31
0.0
  0
TEXT
  5
569
  8
BORDER
 10
19.62
 20
0.3400000000000002
 30
0.0
 40
0.06
  1
DRAWING NUMBER
  0
TEXT
  5
56A
  8
BORDER
 10
19.62
 20
1.025
 30
0.0
 40
0.06
  1
REVISED
  0
TEXT
  5
56B
  8
BORDER
 10
19.6
 20
1.29
 30
0.0
 40
0.06
  1
DRAWN BY
  0
TEXT
  5
56C
  8
BORDER
 10
17.09
 20
1.33
 30
0.0
 40
0.06
  1
APPROVED BY
  0
TEXT
  5
56D
  8
BORDER
 10
15.58
 20
1.29
 30
0.0
 40
0.06
  1
SCALE:
  0
TEXT
  5
56E
  8
BORDER
 10
15.58
 20
1.03
 30
0.0
 40
0.06
  1
DATE:
  0
TEXT
  5
56F
  8
DIM
 10
18.30854429236822
 20
1.804803234994252
 30
0.0
 40
0.1
  1
641 FARGO
  0
TEXT
  5
570
  8
DIM
 10
18.30854429236822
 20
1.638136568327585
 30
0.0
 40
0.1
  1
ELK GROVE VILLAGE, IL
  0
TEXT
  5
571
  8
DIM
 10
19.81956348698446
 20
1.487756832761487
 30
0.0
 40
0.1
  1
 60007
  0
ATTDEF
  5
572
  8
DIM
 10
15.91902556599834
 20
0.5882298310778304
 30
0.0
 40
0.2
  1

  3

  2
NAME
 70
     0
  0
ATTDEF
  5
573
  8
DIM
 10
15.97524953603057
 20
1.266561668413047
 30
0.0
 40
0.1
  1

  3

  2
SCALE
 70
     0
  0
ATTDEF
  5
574
  8
DIM
 10
15.95416554726849
 20
1.023246987629763
 30
0.0
 40
0.1
  1

  3

  2
DATE
 70
     0
  0
ATTDEF
  5
575
  8
DIM
 10
20.13582331841577
 20
1.281308012702943
 30
0.0
 40
0.1
  1
J.B.
  3

  2
NAME
 70
     0
  0
ATTDEF
  5
576
  8
DIM
 10
20.07959934838354
 20
1.023246987629763
 30
0.0
 40
0.1
  1

  3

  2
REVISED
 70
     0
  0
TEXT
  5
577
  8
DIM
 10
15.59573773831301
 20
0.2785566009900141
 30
0.0
 40
0.1
  1
MATERIAL:
  0
TEXT
  5
578
  8
DIM
 10
15.59573773831301
 20
0.1045167621783995
 30
0.0
 40
0.1
  1
HEAT TREAT:
  0
TEXT
  5
579
  8
DIM
 10
17.92200449839662
 20
0.271183428845066
 30
0.0
 40
0.1
  1
FINISH:
  0
ATTDEF
  5
57A
  8
DIM
 10
16.43206929254246
 20
0.2785566009900141
 30
0.0
 40
0.1
  1

  3

  2
MATERIAL
 70
     0
  0
ATTDEF
  5
57B
  8
DIM
 10
16.64993717641736
 20
0.1016004695112617
 30
0.0
 40
0.1
  1

  3

  2
HEATTREAT
 70
     0
  0
ATTDEF
  5
57C
  8
DIM
 10
18.51235618373506
 20
0.2638102567001179
 30
0.0
 40
0.1
  1

  3

  2
FINISH
 70
     0
  0
ATTDEF
  5
57D
  8
DIM
 10
19.58061161434747
 20
0.1089736416562099
 30
0.0
 40
0.15
  1

  3

  2
DRAWINGNO.
 70
     0
  0
LINE
  5
57E
  8
LINE
 10
13.01778291634846
 20
0.4500000000000002
 30
0.0
 11
12.51778291634846
 21
0.4500000000000002
 31
0.0
  0
LINE
  5
57F
  8
LINE
 10
12.51778291634846
 20
0.4500000000000002
 30
0.0
 11
12.51778291634846
 21
0.0
 31
0.0
  0
TEXT
  5
580
  8
DIM
 10
12.6145329206254
 20
0.3006761174248581
 30
0.0
 40
0.1
  1
REV.
  0
ATTDEF
  5
581
  8
DIM
 10
12.67778488691166
 20
0.1237199859461057
 30
0.0
 40
0.15
  1
A
  3

  2
REV.
 70
     0
  0
TEXT
  5
582
  8
DIM
 10
11.9943702101711
 20
7.35567745037055
 30
0.0
 40
0.06
  1
THIS DOCUMENT CONTAINS PROPRIETARY INFORMATION OF KAISER PRECISION TOOLING, INC. AND IS SUBJECT TO BEING RETURNED UPON REQUEST.
  0
TEXT
  5
583
  8
DIM
 10
11.9943702101711
 20
7.25567745037055
 30
0.0
 40
0.06
  1
IT IS NOT TO BE REPRODUCED WITHOUT WRITTEN CONSENT OF KAISER PRECISION TOOLING, INC. ANY REPRODUCTION MUST INCLUDE THIS ENTIRE LEGEND.
  0
LINE
  5
584
  8
LINE
 10
13.01778291634846
 20
2.0
 30
0.0
 11
15.5
 21
2.0
 31
0.0
  0
LINE
  5
585
  8
LINE
 10
13.01778291634846
 20
2.0
 30
0.0
 11
13.01778291634846
 21
0.0
 31
0.0
  0
TEXT
  5
586
  8
DIM
 10
13.2846517690308
 20
1.847932127646515
 30
0.0
 40
0.08
  1
UNLESS OTHERWISE SPECIFIED
  0
TEXT
  5
587
  8
DIM
 10
13.2846517690308
 20
1.714598794313182
 30
0.0
 40
0.08
  1
BREAK ALL EDGES .015x45%%D
  0
TEXT
  5
588
  8
DIM
 10
13.2846517690308
 20
1.581265460979848
 30
0.0
 40
0.08
  1
SURFACE FINISH=64 OR BETTER
  0
TEXT
  5
589
  8
DIM
 10
13.2846517690308
 20
1.447932127646515
 30
0.0
 40
0.08
  1
DECIMAL: .XX=%%P.015
  0
TEXT
  5
58A
  8
DIM
 10
13.2846517690308
 20
1.314598794313182
 30
0.0
 40
0.08
  1
        .XXX=%%P.005
  0
TEXT
  5
58B
  8
DIM
 10
13.2846517690308
 20
1.181265460979849
 30
0.0
 40
0.08
  1
        .XXXX=%%P.0005
  0
TEXT
  5
58C
  8
DIM
 10
13.2846517690308
 20
1.047932127646515
 30
0.0
 40
0.08
  1
ANGULAR: DEGREE=%%P1%%D
  0
TEXT
  5
58D
  8
DIM
 10
13.2846517690308
 20
0.9145987943131819
 30
0.0
 40
0.08
  1
        MINUTES=%%P15'
  0
TEXT
  5
58E
  8
DIM
 10
13.27289272387865
 20
0.560597969831885
 30
0.0
 40
0.1
  1
DO NOT SCALE DRAWING
  0
TEXT
  5
58F
  8
DIM
 10
16.72730843827956
 20
1.553756424222531
 30
0.0
 40
0.072
  1
PRECISION TOOLING,INC.
 50
359.9394791519117
 41
1.034257277458628
  7
ROMANS
 72
     5
 11
18.06844978691984
 21
1.552339792095294
 31
0.0
  0
ARC
  5
590
  8
DIM
 10
18.07878305046467
 20
1.672226935313698
 30
0.0
 40
0.06
 50
180.0
 51
194.366235341689
  0
ARC
  5
591
  8
DIM
 10
18.09978305046467
 20
1.675066229854647
 30
0.0
 40
0.036
 50
180.0
 51
209.4985180895017
  0
ARC
  5
592
  8
DIM
 10
17.99178305046467
 20
1.752589792095294
 30
0.0
 40
0.027
 50
0.0
 51
90.0
  0
ARC
  5
593
  8
DIM
 10
18.02628305046467
 20
1.760839792095294
 30
0.0
 40
0.0375
 50
0.0
 51
89.99999999999861
  0
ARC
  5
594
  8
DIM
 10
18.02628305046467
 20
1.835839792095293
 30
0.0
 40
0.0375
 50
270.0
 51
0.0
  0
LINE
  5
595
  8
DIM
 10
18.02065927764503
 20
1.657339792095293
 30
0.0
 11
18.06844978691984
 21
1.657339792095293
 31
0.0
  0
LINE
  5
596
  8
DIM
 10
18.01878305046467
 20
1.752589792095294
 30
0.0
 11
18.01878305046467
 21
1.672226935313698
 31
0.0
  0
LINE
  5
597
  8
DIM
 10
18.06378305046467
 20
1.892539792095294
 30
0.0
 11
18.06378305046467
 21
1.835839792095293
 31
0.0
  0
ARC
  5
598
  8
DIM
 10
18.00078305046467
 20
1.835089792095295
 30
0.0
 40
0.018
 50
270.0
 51
0.0
  0
ARC
  5
599
  8
DIM
 10
18.00078305046467
 20
1.883839792095293
 30
0.0
 40
0.018
 50
0.0
 51
90.0
  0
LINE
  5
59A
  8
DIM
 10
18.01878305046467
 20
1.835089792095295
 30
0.0
 11
18.01878305046467
 21
1.883839792095293
 31
0.0
  0
LINE
  5
59B
  8
DIM
 10
17.97078305046466
 20
1.817089792095294
 30
0.0
 11
17.97078305046467
 21
1.901839792095294
 31
0.0
  0
LINE
  5
59C
  8
DIM
 10
17.92578305046467
 20
1.657339792095293
 30
0.0
 11
17.97078305046467
 21
1.657339792095293
 31
0.0
  0
LINE
  5
59D
  8
DIM
 10
17.99178305046467
 20
1.779589792095294
 30
0.0
 11
17.97078305046467
 21
1.779589792095294
 31
0.0
  0
LINE
  5
59E
  8
DIM
 10
18.00078305046467
 20
1.817089792095295
 30
0.0
 11
17.97078305046467
 21
1.817089792095294
 31
0.0
  0
LINE
  5
59F
  8
DIM
 10
17.97078305046467
 20
1.657339792095293
 30
0.0
 11
17.97078305046467
 21
1.779589792095294
 31
0.0
  0
LINE
  5
5A0
  8
DIM
 10
17.97078305046467
 20
1.901839792095294
 30
0.0
 11
18.00078305046467
 21
1.901839792095293
 31
0.0
  0
ARC
  5
5A1
  8
DIM
 10
18.01698305046467
 20
1.892539792095294
 30
0.0
 40
0.0468
 50
0.0
 51
90.0
  0
LINE
  5
5A2
  8
DIM
 10
18.06378305046467
 20
1.675066229854647
 30
0.0
 11
18.06378305046467
 21
1.760839792095294
 31
0.0
  0
LINE
  5
5A3
  8
DIM
 10
17.92578305046467
 20
1.939339792095294
 30
0.0
 11
18.01698305046467
 21
1.939339792095294
 31
0.0
  0
LINE
  5
5A4
  8
DIM
 10
17.92578305046467
 20
1.657339792095293
 30
0.0
 11
17.92578305046467
 21
1.939339792095294
 31
0.0
  0
LINE
  5
5A5
  8
DIM
 10
17.83578305046467
 20
1.817089792095294
 30
0.0
 11
17.83578305046467
 21
1.901839792095294
 31
0.0
  0
LINE
  5
5A6
  8
DIM
 10
17.89878305046467
 20
1.779589792095294
 30
0.0
 11
17.89878305046467
 21
1.817089792095294
 31
0.0
  0
LINE
  5
5A7
  8
DIM
 10
17.89878305046467
 20
1.779589792095294
 30
0.0
 11
17.83578305046467
 21
1.779589792095294
 31
0.0
  0
LINE
  5
5A8
  8
DIM
 10
17.89878305046467
 20
1.817089792095294
 30
0.0
 11
17.83578305046467
 21
1.817089792095294
 31
0.0
  0
LINE
  5
5A9
  8
DIM
 10
17.89878305046467
 20
1.901839792095294
 30
0.0
 11
17.89878305046467
 21
1.939339792095294
 31
0.0
  0
LINE
  5
5AA
  8
DIM
 10
17.83578305046467
 20
1.901839792095294
 30
0.0
 11
17.89878305046467
 21
1.901839792095294
 31
0.0
  0
LINE
  5
5AB
  8
DIM
 10
17.83578305046467
 20
1.694839792095293
 30
0.0
 11
17.89878305046467
 21
1.694839792095293
 31
0.0
  0
LINE
  5
5AC
  8
DIM
 10
17.83578305046467
 20
1.694839792095293
 30
0.0
 11
17.83578305046467
 21
1.779589792095294
 31
0.0
  0
LINE
  5
5AD
  8
DIM
 10
17.79078305046467
 20
1.939339792095294
 30
0.0
 11
17.89878305046467
 21
1.939339792095294
 31
0.0
  0
LINE
  5
5AE
  8
DIM
 10
17.79078305046467
 20
1.657339792095293
 30
0.0
 11
17.79078305046467
 21
1.939339792095294
 31
0.0
  0
LINE
  5
5AF
  8
DIM
 10
17.89878305046467
 20
1.657339792095293
 30
0.0
 11
17.89878305046467
 21
1.694839792095293
 31
0.0
  0
LINE
  5
5B0
  8
DIM
 10
17.79078305046467
 20
1.657339792095293
 30
0.0
 11
17.89878305046467
 21
1.657339792095293
 31
0.0
  0
ARC
  5
5B1
  8
DIM
 10
17.68906498828673
 20
1.892539792095293
 30
0.0
 40
0.0468
 50
90.0
 51
205.0000000000001
  0
LINE
  5
5B2
  8
DIM
 10
17.64078305046467
 20
1.694839792095293
 30
0.0
 11
17.64078305046467
 21
1.657339792095293
 31
0.0
  0
ARC
  5
5B3
  8
DIM
 10
17.70297739671163
 20
1.886839792095292
 30
0.0
 40
0.015
 50
90.00000000000082
 51
204.9999999999997
  0
LINE
  5
5B4
  8
DIM
 10
17.75478305046467
 20
1.939339792095293
 30
0.0
 11
17.68906498828673
 21
1.939339792095293
 31
0.0
  0
LINE
  5
5B5
  8
DIM
 10
17.75478305046467
 20
1.901839792095293
 30
0.0
 11
17.70297739671163
 21
1.901839792095292
 31
0.0
  0
LINE
  5
5B6
  8
DIM
 10
17.75478305046467
 20
1.939339792095293
 30
0.0
 11
17.75478305046467
 21
1.901839792095293
 31
0.0
  0
ARC
  5
5B7
  8
DIM
 10
17.70607064203977
 20
1.709839792095294
 30
0.0
 40
0.015
 50
270.0
 51
25.00000000000002
  0
LINE
  5
5B8
  8
DIM
 10
17.71966525884532
 20
1.716179066021404
 30
0.0
 11
17.64664978385342
 21
1.872761257445828
 31
0.0
  0
LINE
  5
5B9
  8
DIM
 10
17.76239825489798
 20
1.723918326744761
 30
0.0
 11
17.68938277990609
 21
1.880500518169181
 31
0.0
  0
ARC
  5
5BA
  8
DIM
 10
17.71998305046467
 20
1.704139792095296
 30
0.0
 40
0.0468
 50
270.0
 51
24.99999999999686
  0
LINE
  5
5BB
  8
DIM
 10
17.64078305046467
 20
1.694839792095293
 30
0.0
 11
17.70607064203977
 21
1.694839792095293
 31
0.0
  0
LINE
  5
5BC
  8
DIM
 10
17.64078305046467
 20
1.657339792095293
 30
0.0
 11
17.71998305046467
 21
1.657339792095293
 31
0.0
  0
LINE
  5
5BD
  8
DIM
 10
17.61078305046467
 20
1.939339792095293
 30
0.0
 11
17.61078305046467
 21
1.657339792095293
 31
0.0
  0
LINE
  5
5BE
  8
DIM
 10
17.56878305046467
 20
1.939339792095294
 30
0.0
 11
17.61078305046467
 21
1.939339792095293
 31
0.0
  0
LINE
  5
5BF
  8
DIM
 10
17.56878305046467
 20
1.657339792095293
 30
0.0
 11
17.56878305046467
 21
1.939339792095294
 31
0.0
  0
LINE
  5
5C0
  8
DIM
 10
17.56878305046467
 20
1.657339792095293
 30
0.0
 11
17.61078305046467
 21
1.657339792095293
 31
0.0
  0
LINE
  5
5C1
  8
DIM
 10
17.40872313781339
 20
1.694839792095291
 30
0.0
 11
17.44170198362512
 21
1.864501245758061
 31
0.0
  0
LINE
  5
5C2
  8
DIM
 10
17.40872313781339
 20
1.694839792095291
 30
0.0
 11
17.46118390544374
 21
1.694839792095291
 31
0.0
  0
LINE
  5
5C3
  8
DIM
 10
17.47123200015991
 20
1.657339792095292
 30
0.0
 11
17.46118390544374
 21
1.694839792095291
 31
0.0
  0
LINE
  5
5C4
  8
DIM
 10
17.36323200015991
 20
1.657339792095292
 30
0.0
 11
17.47123200015991
 21
1.657339792095292
 31
0.0
  0
LINE
  5
5C5
  8
DIM
 10
17.50718093525289
 20
1.657339792095292
 30
0.0
 11
17.44170198362512
 21
1.864501245758061
 31
0.0
  0
LINE
  5
5C6
  8
DIM
 10
17.5521809352529
 20
1.657339792095292
 30
0.0
 11
17.50718093525289
 21
1.657339792095292
 31
0.0
  0
LINE
  5
5C7
  8
DIM
 10
17.47661926298732
 20
1.939339792095292
 30
0.0
 11
17.5521809352529
 21
1.657339792095292
 31
0.0
  0
LINE
  5
5C8
  8
DIM
 10
17.41804724733675
 20
1.939339792095292
 30
0.0
 11
17.47661926298732
 21
1.939339792095292
 31
0.0
  0
LINE
  5
5C9
  8
DIM
 10
17.36323200015991
 20
1.657339792095292
 30
0.0
 11
17.41804724733675
 21
1.939339792095292
 31
0.0
  0
LINE
  5
5CA
  8
DIM
 10
17.28915260940612
 20
1.809285876785438
 30
0.0
 11
17.34979774608814
 21
1.939339792095293
 31
0.0
  0
LINE
  5
5CB
  8
DIM
 10
17.23724513521168
 20
1.657339792095293
 30
0.0
 11
17.23724513521168
 21
1.697969939149305
 31
0.0
  0
LINE
  5
5CC
  8
DIM
 10
17.18624513521168
 20
1.657339792095293
 30
0.0
 11
17.23724513521168
 21
1.657339792095293
 31
0.0
  0
LINE
  5
5CD
  8
DIM
 10
17.29879774608814
 20
1.657339792095293
 30
0.0
 11
17.26167299834513
 21
1.750355660692248
 31
0.0
  0
LINE
  5
5CE
  8
DIM
 10
17.29879774608814
 20
1.657339792095293
 30
0.0
 11
17.34979774608814
 21
1.657339792095293
 31
0.0
  0
LINE
  5
5CF
  8
DIM
 10
17.34979774608814
 20
1.657339792095292
 30
0.0
 11
17.28915260940612
 21
1.809285876785438
 31
0.0
  0
LINE
  5
5D0
  8
DIM
 10
17.23724513521168
 20
1.697969939149305
 30
0.0
 11
17.26167299834513
 21
1.750355660692248
 31
0.0
  0
LINE
  5
5D1
  8
DIM
 10
17.29879774608814
 20
1.939339792095293
 30
0.0
 11
17.34979774608814
 21
1.939339792095293
 31
0.0
  0
LINE
  5
5D2
  8
DIM
 10
17.23724513521168
 20
1.807339792095293
 30
0.0
 11
17.29879774608814
 21
1.939339792095294
 31
0.0
  0
LINE
  5
5D3
  8
DIM
 10
17.23724513521168
 20
1.939339792095294
 30
0.0
 11
17.23724513521168
 21
1.807339792095293
 31
0.0
  0
LINE
  5
5D4
  8
DIM
 10
17.18624513521168
 20
1.939339792095294
 30
0.0
 11
17.23724513521168
 21
1.939339792095294
 31
0.0
  0
LINE
  5
5D5
  8
DIM
 10
17.18624513521168
 20
1.939339792095294
 30
0.0
 11
17.18624513521168
 21
1.657339792095293
 31
0.0
  0
ARC
  5
5D6
  8
DIM
 10
16.95524513521168
 20
1.810339792095294
 30
0.0
 40
0.0075
 50
270.0000000000051
 51
0.0000000000005598
  0
LINE
  5
5D7
  8
DIM
 10
17.04674513521168
 20
1.694839792095293
 30
0.0
 11
17.07674513521168
 21
1.694839792095293
 31
0.0
  0
LINE
  5
5D8
  8
DIM
 10
17.03924513521168
 20
1.687339792095296
 30
0.0
 11
17.08424513521168
 21
1.687339792095295
 31
0.0
  0
LINE
  5
5D9
  8
DIM
 10
17.07674513521168
 20
1.879339792095294
 30
0.0
 11
17.07674513521168
 21
1.694839792095293
 31
0.0
  0
LINE
  5
5DA
  8
DIM
 10
17.08424513521168
 20
1.871839792095292
 30
0.0
 11
17.11124513521168
 21
1.871839792095293
 31
0.0
  0
LINE
  5
5DB
  8
DIM
 10
17.10374513521168
 20
1.879339792095292
 30
0.0
 11
17.07674513521168
 21
1.879339792095294
 31
0.0
  0
LINE
  5
5DC
  8
DIM
 10
17.04674513521168
 20
1.879339792095293
 30
0.0
 11
17.04674513521168
 21
1.694839792095293
 31
0.0
  0
LINE
  5
5DD
  8
DIM
 10
17.03924513521168
 20
1.871839792095292
 30
0.0
 11
17.03924513521168
 21
1.687339792095296
 31
0.0
  0
LINE
  5
5DE
  8
DIM
 10
17.08424513521168
 20
1.871839792095292
 30
0.0
 11
17.08424513521168
 21
1.687339792095295
 31
0.0
  0
LINE
  5
5DF
  8
DIM
 10
17.10374513521168
 20
1.901839792095295
 30
0.0
 11
17.10374513521168
 21
1.879339792095292
 31
0.0
  0
LINE
  5
5E0
  8
DIM
 10
17.11124513521168
 20
1.909339792095292
 30
0.0
 11
17.11124513521168
 21
1.871839792095293
 31
0.0
  0
LINE
  5
5E1
  8
DIM
 10
17.01974513521168
 20
1.901839792095295
 30
0.0
 11
17.10374513521168
 21
1.901839792095295
 31
0.0
  0
LINE
  5
5E2
  8
DIM
 10
17.01974513521168
 20
1.879339792095293
 30
0.0
 11
17.04674513521168
 21
1.879339792095293
 31
0.0
  0
LINE
  5
5E3
  8
DIM
 10
17.01224513521168
 20
1.871839792095293
 30
0.0
 11
17.03924513521168
 21
1.871839792095293
 31
0.0
  0
LINE
  5
5E4
  8
DIM
 10
17.01974513521168
 20
1.901839792095295
 30
0.0
 11
17.01974513521168
 21
1.879339792095293
 31
0.0
  0
LINE
  5
5E5
  8
DIM
 10
17.01224513521168
 20
1.909339792095292
 30
0.0
 11
17.01224513521168
 21
1.871839792095293
 31
0.0
  0
ARC
  5
5E6
  8
DIM
 10
16.97174513521168
 20
1.796839792095295
 30
0.0
 40
0.027
 50
270.0000000000023
 51
0.0
  0
ARC
  5
5E7
  8
DIM
 10
16.97174513521168
 20
1.796839792095297
 30
0.0
 40
0.0345
 50
270.0000000000013
 51
359.9999999999998
  0
LINE
  5
5E8
  8
DIM
 10
16.93574513521168
 20
1.769839792095294
 30
0.0
 11
16.97174513521168
 21
1.769839792095296
 31
0.0
  0
LINE
  5
5E9
  8
DIM
 10
16.94324513521168
 20
1.762339792095296
 30
0.0
 11
16.97174513521168
 21
1.762339792095297
 31
0.0
  0
LINE
  5
5EA
  8
DIM
 10
16.94324513521168
 20
1.687339792095296
 30
0.0
 11
16.94324513521168
 21
1.762339792095295
 31
0.0
  0
LINE
  5
5EB
  8
DIM
 10
16.93574513521168
 20
1.694839792095294
 30
0.0
 11
16.93574513521168
 21
1.769839792095294
 31
0.0
  0
ARC
  5
5EC
  8
DIM
 10
16.95674513521168
 20
1.808839792095294
 30
0.0
 40
0.0135
 50
270.0000000000036
 51
0.0000000000004326
  0
LINE
  5
5ED
  8
DIM
 10
16.94324513521168
 20
1.802839792095292
 30
0.0
 11
16.95524513521168
 21
1.802839792095294
 31
0.0
  0
LINE
  5
5EE
  8
DIM
 10
16.93574513521168
 20
1.795339792095293
 30
0.0
 11
16.95674513521168
 21
1.795339792095294
 31
0.0
  0
ARC
  5
5EF
  8
DIM
 10
16.95524513521168
 20
1.864339792095294
 30
0.0
 40
0.0075
 50
0.0000000000003053
 51
90.0
  0
LINE
  5
5F0
  8
DIM
 10
16.96274513521168
 20
1.864339792095294
 30
0.0
 11
16.96274513521168
 21
1.810339792095294
 31
0.0
  0
ARC
  5
5F1
  8
DIM
 10
16.95674513521168
 20
1.865839792095294
 30
0.0
 40
0.0135
 50
0.0000000000001527
 51
90.00000000000178
  0
LINE
  5
5F2
  8
DIM
 10
16.97024513521168
 20
1.865839792095294
 30
0.0
 11
16.97024513521168
 21
1.808839792095294
 31
0.0
  0
LINE
  5
5F3
  8
DIM
 10
16.94324513521168
 20
1.871839792095293
 30
0.0
 11
16.95524513521168
 21
1.871839792095293
 31
0.0
  0
LINE
  5
5F4
  8
DIM
 10
16.94324513521168
 20
1.871839792095293
 30
0.0
 11
16.94324513521168
 21
1.802839792095292
 31
0.0
  0
ARC
  5
5F5
  8
DIM
 10
16.97174513521168
 20
1.874839792095294
 30
0.0
 40
0.027
 50
0.0000000000001527
 51
89.99999999999804
  0
ARC
  5
5F6
  8
DIM
 10
16.97174513521168
 20
1.874839792095295
 30
0.0
 40
0.0345
 50
0.0
 51
90.0
  0
LINE
  5
5F7
  8
DIM
 10
17.01224513521168
 20
1.909339792095292
 30
0.0
 11
17.11124513521168
 21
1.909339792095291
 31
0.0
  0
LINE
  5
5F8
  8
DIM
 10
16.99874513521168
 20
1.874839792095294
 30
0.0
 11
16.99874513521168
 21
1.796839792095295
 31
0.0
  0
LINE
  5
5F9
  8
DIM
 10
16.93574513521168
 20
1.879339792095293
 30
0.0
 11
16.95674513521168
 21
1.879339792095294
 31
0.0
  0
LINE
  5
5FA
  8
DIM
 10
16.93574513521168
 20
1.879339792095293
 30
0.0
 11
16.93574513521168
 21
1.795339792095293
 31
0.0
  0
LINE
  5
5FB
  8
DIM
 10
17.00624513521168
 20
1.874839792095295
 30
0.0
 11
17.00624513521168
 21
1.796839792095297
 31
0.0
  0
LINE
  5
5FC
  8
DIM
 10
16.90574513521168
 20
1.694839792095294
 30
0.0
 11
16.93574513521168
 21
1.694839792095294
 31
0.0
  0
LINE
  5
5FD
  8
DIM
 10
16.90574513521168
 20
1.901839792095295
 30
0.0
 11
16.97174513521168
 21
1.901839792095294
 31
0.0
  0
LINE
  5
5FE
  8
DIM
 10
16.90574513521168
 20
1.901839792095295
 30
0.0
 11
16.90574513521168
 21
1.694839792095294
 31
0.0
  0
LINE
  5
5FF
  8
DIM
 10
16.89824513521168
 20
1.687339792095295
 30
0.0
 11
16.94324513521168
 21
1.687339792095296
 31
0.0
  0
LINE
  5
600
  8
DIM
 10
16.89824513521168
 20
1.909339792095293
 30
0.0
 11
16.97174513521168
 21
1.909339792095294
 31
0.0
  0
LINE
  5
601
  8
DIM
 10
16.89824513521168
 20
1.909339792095293
 30
0.0
 11
16.89824513521168
 21
1.687339792095295
 31
0.0
  0
LINE
  5
602
  8
DIM
 10
16.79774513521168
 20
1.724430399980784
 30
0.0
 11
16.79774513521168
 21
1.694839792095293
 31
0.0
  0
LINE
  5
603
  8
DIM
 10
16.82159149859804
 20
1.75782257941817
 30
0.0
 11
16.80524513521168
 21
1.722767690010963
 31
0.0
  0
LINE
  5
604
  8
DIM
 10
16.82244637073927
 20
1.777402370514837
 30
0.0
 11
16.79774513521168
 21
1.724430399980784
 31
0.0
  0
LINE
  5
605
  8
DIM
 10
16.80524513521168
 20
1.722767690010963
 30
0.0
 11
16.80524513521168
 21
1.687339792095294
 31
0.0
  0
LINE
  5
606
  8
DIM
 10
16.84724513521168
 20
1.687339792095295
 30
0.0
 11
16.89224513521168
 21
1.687339792095295
 31
0.0
  0
LINE
  5
607
  8
DIM
 10
16.85202316216774
 20
1.901839792095292
 30
0.0
 11
16.8804724933833
 21
1.901839792095293
 31
0.0
  0
LINE
  5
608
  8
DIM
 10
16.85202316216774
 20
1.901839792095292
 30
0.0
 11
16.79774513521168
 21
1.785440187656427
 31
0.0
  0
LINE
  5
609
  8
DIM
 10
16.84724513521168
 20
1.909339792095293
 30
0.0
 11
16.80524513521168
 21
1.819270501433893
 31
0.0
  0
LINE
  5
60A
  8
DIM
 10
16.84724513521168
 20
1.909339792095293
 30
0.0
 11
16.89224513521168
 21
1.909339792095293
 31
0.0
  0
LINE
  5
60B
  8
DIM
 10
16.8804724933833
 20
1.901839792095293
 30
0.0
 11
16.8387545623296
 21
1.812375400241287
 31
0.0
  0
LINE
  5
60C
  8
DIM
 10
16.89224513521168
 20
1.909339792095293
 30
0.0
 11
16.84686477735027
 21
1.812021300606294
 31
0.0
  0
LINE
  5
60D
  8
DIM
 10
16.85249669174825
 20
1.694839792095294
 30
0.0
 11
16.82244637073927
 21
1.777402370514838
 31
0.0
  0
LINE
  5
60E
  8
DIM
 10
16.84724513521168
 20
1.687339792095295
 30
0.0
 11
16.82159149859804
 21
1.75782257941817
 31
0.0
  0
LINE
  5
60F
  8
DIM
 10
16.88153402516112
 20
1.694839792095294
 30
0.0
 11
16.8387545623296
 21
1.812375400241288
 31
0.0
  0
LINE
  5
610
  8
DIM
 10
16.89224513521168
 20
1.687339792095295
 30
0.0
 11
16.84686477735027
 21
1.812021300606294
 31
0.0
  0
LINE
  5
611
  8
DIM
 10
16.88153402516112
 20
1.694839792095293
 30
0.0
 11
16.85249669174825
 21
1.694839792095294
 31
0.0
  0
LINE
  5
612
  8
DIM
 10
16.77074513521168
 20
1.694839792095293
 30
0.0
 11
16.79774513521168
 21
1.694839792095293
 31
0.0
  0
LINE
  5
613
  8
DIM
 10
16.77074513521168
 20
1.901839792095294
 30
0.0
 11
16.79774513521168
 21
1.901839792095293
 31
0.0
  0
LINE
  5
614
  8
DIM
 10
16.79774513521168
 20
1.901839792095294
 30
0.0
 11
16.79774513521168
 21
1.785440187656427
 31
0.0
  0
LINE
  5
615
  8
DIM
 10
16.80524513521168
 20
1.909339792095293
 30
0.0
 11
16.80524513521168
 21
1.819270501433893
 31
0.0
  0
LINE
  5
616
  8
DIM
 10
16.77074513521168
 20
1.901839792095294
 30
0.0
 11
16.77074513521168
 21
1.694839792095293
 31
0.0
  0
LINE
  5
617
  8
DIM
 10
16.76324513521168
 20
1.909339792095293
 30
0.0
 11
16.80524513521168
 21
1.909339792095293
 31
0.0
  0
LINE
  5
618
  8
DIM
 10
16.76324513521168
 20
1.687339792095294
 30
0.0
 11
16.80524513521168
 21
1.687339792095295
 31
0.0
  0
LINE
  5
619
  8
DIM
 10
16.76324513521168
 20
1.909339792095293
 30
0.0
 11
16.76324513521168
 21
1.687339792095294
 31
0.0
  0
LINE
  5
61A
  8
DIM
 10
17.14124513521168
 20
1.939339792095294
 30
0.0
 11
17.14124513521168
 21
1.657339792095293
 31
0.0
  0
LINE
  5
61B
  8
DIM
 10
16.72724513521168
 20
1.939339792095294
 30
0.0
 11
16.72724513521168
 21
1.657339792095293
 31
0.0
  0
LINE
  5
61C
  8
DIM
 10
16.72724513521168
 20
1.939339792095294
 30
0.0
 11
17.14124513521168
 21
1.939339792095294
 31
0.0
  0
LINE
  5
61D
  8
DIM
 10
16.72724513521168
 20
1.657339792095293
 30
0.0
 11
17.14124513521168
 21
1.657339792095293
 31
0.0
  0
LINE
  5
61E
  8
BORDER
 10
10.74
 20
7.720000000000001
 30
0.0
 11
21.0
 21
7.72
 31
0.0
  0
LINE
  5
61F
  8
BORDER
 10
10.74
 20
0.0
 30
0.0
 11
10.74
 21
7.720000000000001
 31
0.0
  0
ENDBLK
  5
95C
  8
0
  0
BLOCK
  8
0
  2
*D1
 70
     1
 10
0.0
 20
0.0
 30
0.0
  3
*D1
  1

  0
LINE
  5
8D2
  8
0
  6
BYBLOCK
 62
     0
 10
96.10274924656967
 20
104.9115391010875
 30
0.0
 11
102.7580616378513
 21
101.0690926952553
 31
0.0
  0
ARC
  5
8D3
  8
0
  6
BYBLOCK
 62
     0
 10
87.1241821352954
 20
110.0953172467135
 30
0.0
 40
17.42744908464733
 50
333.945989139967
 51
356.054010826565
  0
SOLID
  5
8D4
  8
0
  6
BYBLOCK
 62
     0
 10
102.95720621262
 20
102.346886621089
 30
0.0
 11
102.6041157258602
 21
102.5348416906129
 31
0.0
 12
102.2167957606686
 22
101.3815926955715
 32
0.0
 13
102.2167957606686
 23
101.3815926955715
 33
0.0
  0
SOLID
  5
8D5
  8
0
  6
BYBLOCK
 62
     0
 10
104.3104356509744
 20
108.9029143376666
 30
0.0
 11
104.7101985170969
 21
108.8891429590309
 31
0.0
 12
104.5516312199427
 22
110.0953172467162
 32
0.0
 13
104.5516312199427
 23
110.0953172467162
 33
0.0
  0
TEXT
  5
8D6
  8
0
  6
CONTINUOUS
 62
     0
 10
103.3458211588168
 20
105.0509385977324
 30
0.0
 40
1.25
  1
30°
 50
77.55943477891603
  7
ROMANS
  0
POINT
  5
8D7
  8
DEFPOINTS
  6
BYBLOCK
 62
     0
 10
103.5006274369392
 20
104.1347786066035
 30
0.0
  0
POINT
  5
8D8
  8
DEFPOINTS
  6
BYBLOCK
 62
     0
 10
87.01700245819777
 20
110.0953172467135
 30
0.0
  0
POINT
  5
8D9
  8
DEFPOINTS
  6
BYBLOCK
 62
     0
 10
95.56148336938698
 20
105.2240391014038
 30
0.0
  0
POINT
  5
8DA
  8
DEFPOINTS
  6
BYBLOCK
 62
     0
 10
87.21700245840016
 20
110.0417274081104
 30
0.0
  0
POINT
  5
8DB
  8
DEFPOINTS
  6
BYBLOCK
 62
     0
 10
107.550099546875
 20
110.0953172467135
 30
0.0
  0
ENDBLK
  5
95E
  8
0
  0
BLOCK
  8
0
  2
*D2
 70
     1
 10
0.0
 20
0.0
 30
0.0
  3
*D2
  1

  0
LINE
  5
8BC
  8
0
  6
BYBLOCK
 62
     0
 10
88.21700245819777
 20
111.6414459690778
 30
0.0
 11
94.56148336919863
 21
111.6414459690778
 31
0.0
  0
LINE
  5
8BD
  8
0
  6
BYBLOCK
 62
     0
 10
95.76148336919863
 20
111.6414459690778
 30
0.0
 11
104.019816702532
 21
111.6414459690778
 31
0.0
  0
SOLID
  5
8BE
  8
0
  6
BYBLOCK
 62
     0
 10
88.21700245819777
 20
111.8414459690778
 30
0.0
 11
88.21700245819777
 21
111.4414459690778
 31
0.0
 12
87.01700245819777
 22
111.6414459690778
 32
0.0
 13
87.01700245819777
 23
111.6414459690778
 33
0.0
  0
SOLID
  5
8BF
  8
0
  6
BYBLOCK
 62
     0
 10
94.56148336919863
 20
111.8414459690778
 30
0.0
 11
94.56148336919863
 21
111.4414459690778
 31
0.0
 12
95.76148336919863
 22
111.6414459690778
 32
0.0
 13
95.76148336919863
 23
111.6414459690778
 33
0.0
  0
TEXT
  5
8C0
  8
0
  6
CONTINUOUS
 62
     0
 10
99.11505479777006
 20
112.6771602547921
 30
0.0
 40
1.25
  1
(8.7)
  7
ROMANS
  0
POINT
  5
8C1
  8
DEFPOINTS
  6
BYBLOCK
 62
     0
 10
87.01700245819777
 20
110.0953172467135
 30
0.0
  0
POINT
  5
8C2
  8
DEFPOINTS
  6
BYBLOCK
 62
     0
 10
95.76148336919863
 20
104.8776289399987
 30
0.0
  0
POINT
  5
8C3
  8
DEFPOINTS
  6
BYBLOCK
 62
     0
 10
95.76148336919863
 20
111.6414459690778
 30
0.0
  0
ENDBLK
  5
960
  8
0
  0
BLOCK
  8
0
  2
*D3
 70
     1
 10
0.0
 20
0.0
 30
0.0
  3
*D3
  1

  0
LINE
  5
8FB
  8
0
  6
BYBLOCK
 62
     0
 10
54.76824776371535
 20
104.4564247304265
 30
0.0
 11
54.76824776371535
 21
119.0188374845757
 31
0.0
  0
LINE
  5
8FC
  8
0
  6
BYBLOCK
 62
     0
 10
96.76148336919863
 20
105.5026289399987
 30
0.0
 11
96.76148336919863
 21
119.0188374845757
 31
0.0
  0
LINE
  5
8FD
  8
0
  6
BYBLOCK
 62
     0
 10
55.96824776371535
 20
118.3938374845757
 30
0.0
 11
95.56148336919863
 21
118.3938374845757
 31
0.0
  0
SOLID
  5
8FE
  8
0
  6
BYBLOCK
 62
     0
 10
55.96824776371535
 20
118.5938374845757
 30
0.0
 11
55.96824776371535
 21
118.1938374845757
 31
0.0
 12
54.76824776371535
 22
118.3938374845757
 32
0.0
 13
54.76824776371535
 23
118.3938374845757
 33
0.0
  0
SOLID
  5
8FF
  8
0
  6
BYBLOCK
 62
     0
 10
95.56148336919863
 20
118.5938374845757
 30
0.0
 11
95.56148336919863
 21
118.1938374845757
 31
0.0
 12
96.76148336919863
 22
118.3938374845757
 32
0.0
 13
96.76148336919863
 23
118.3938374845757
 33
0.0
  0
TEXT
  5
900
  8
0
  6
CONTINUOUS
 62
     0
 10
74.81735938297591
 20
118.8938374845757
 30
0.0
 40
1.25
  1
42
  7
ROMANS
  0
POINT
  5
901
  8
DEFPOINTS
  6
BYBLOCK
 62
     0
 10
54.76824776371535
 20
103.8314247304265
 30
0.0
  0
POINT
  5
902
  8
DEFPOINTS
  6
BYBLOCK
 62
     0
 10
96.76148336919863
 20
104.8776289399987
 30
0.0
  0
POINT
  5
903
  8
DEFPOINTS
  6
BYBLOCK
 62
     0
 10
96.76148336919863
 20
118.3938374845757
 30
0.0
  0
ENDBLK
  5
962
  8
0
  0
BLOCK
  8
0
  2
*D4
 70
     1
 10
0.0
 20
0.0
 30
0.0
  3
*D4
  1

  0
LINE
  5
907
  8
0
  6
BYBLOCK
 62
     0
 10
88.01700245819777
 20
110.7203172467135
 30
0.0
 11
88.01700245819777
 21
115.0399601651706
 31
0.0
  0
LINE
  5
908
  8
0
  6
BYBLOCK
 62
     0
 10
55.96824776371535
 20
114.4149601651706
 30
0.0
 11
86.81700245819776
 21
114.4149601651706
 31
0.0
  0
SOLID
  5
909
  8
0
  6
BYBLOCK
 62
     0
 10
55.96824776371535
 20
114.6149601651706
 30
0.0
 11
55.96824776371535
 21
114.2149601651706
 31
0.0
 12
54.76824776371535
 22
114.4149601651706
 32
0.0
 13
54.76824776371535
 23
114.4149601651706
 33
0.0
  0
SOLID
  5
90A
  8
0
  6
BYBLOCK
 62
     0
 10
86.81700245819776
 20
114.6149601651706
 30
0.0
 11
86.81700245819776
 21
114.2149601651706
 31
0.0
 12
88.01700245819777
 22
114.4149601651706
 32
0.0
 13
88.01700245819777
 23
114.4149601651706
 33
0.0
  0
TEXT
  5
90B
  8
0
  6
CONTINUOUS
 62
     0
 10
70.70750154035476
 20
114.9149601651706
 30
0.0
 40
1.25
  1
33.3
  7
ROMANS
  0
POINT
  5
90C
  8
DEFPOINTS
  6
BYBLOCK
 62
     0
 10
54.76824776371535
 20
103.8314247304265
 30
0.0
  0
POINT
  5
90D
  8
DEFPOINTS
  6
BYBLOCK
 62
     0
 10
88.01700245819777
 20
110.0953172467135
 30
0.0
  0
POINT
  5
90E
  8
DEFPOINTS
  6
BYBLOCK
 62
     0
 10
88.01700245819777
 20
114.4149601651706
 30
0.0
  0
ENDBLK
  5
964
  8
0
  0
ENDSEC
  0
SECTION
  2
ENTITIES
  0
LINE
  5
35B
  8
CTRL
 10
30.5274672667569
 20
89.5934247304266
 30
0.0
 11
101.2682477637154
 21
89.59342473042658
 31
0.0
  0
LINE
  5
35C
  8
HIDDEN
 10
71.35961730653035
 20
96.14037557768715
 30
0.0
 11
57.53875036856648
 21
91.48263768851243
 31
0.0
  0
LINE
  5
35D
  8
LINE
 10
63.76824776371534
 20
104.5934247304266
 30
0.0
 11
63.76824776371545
 21
74.59342473042659
 31
0.0
  0
LINE
  5
35E
  8
LINE
 10
89.76824776371541
 20
77.56182262882348
 30
0.0
 11
89.76824776371541
 21
98.61212029206732
 31
0.0
  0
LINE
  5
35F
  8
HIDDEN
 10
56.03141176712055
 20
94.09342473042658
 30
0.0
 11
58.62948797847386
 21
89.59342473042659
 31
0.0
  0
LINE
  5
360
  8
HIDDEN
 10
56.03141176712055
 20
94.09342473042659
 30
0.0
 11
56.03141176712055
 21
85.0934247304266
 31
0.0
  0
LINE
  5
361
  8
LINE
 10
34.76824776371541
 20
98.29978633227807
 30
0.0
 11
34.76824776371541
 21
89.59342473042659
 31
0.0
  0
LINE
  5
362
  8
LINE
 10
37.26824776371541
 20
98.59772473042663
 30
0.0
 11
37.26824776371541
 21
80.58912473042655
 31
0.0
  0
POLYLINE
  5
363
  8
LINE
 66
     1
 10
0.0
 20
0.0
 30
0.0
 70
     1
  0
VERTEX
  5
987
  8
LINE
 10
43.07419570361117
 20
89.59342473042659
 30
0.0
 42
-0.1171140427110635
  0
VERTEX
  5
988
  8
LINE
 10
43.33930282397851
 20
90.7097340339431
 30
0.0
 42
-0.1043555384268855
  0
VERTEX
  5
989
  8
LINE
 10
44.14098663322503
 20
91.71276517499865
 30
0.0
 42
-0.0902545617377738
  0
VERTEX
  5
98A
  8
LINE
 10
45.29240634568561
 20
92.35459596245887
 30
0.0
 42
-0.0823113820561539
  0
VERTEX
  5
98B
  8
LINE
 10
46.71644776371541
 20
92.59062473042646
 30
0.0
 42
-0.0823113820561487
  0
VERTEX
  5
98C
  8
LINE
 10
48.14048918174517
 20
92.35459596245887
 30
0.0
 42
-0.0902545617377748
  0
VERTEX
  5
98D
  8
LINE
 10
49.29190889420578
 20
91.71276517499865
 30
0.0
 42
-0.104355538426877
  0
VERTEX
  5
98E
  8
LINE
 10
50.09359270345234
 20
90.7097340339431
 30
0.0
 42
-0.1171140427110464
  0
VERTEX
  5
98F
  8
LINE
 10
50.35869982381963
 20
89.59342473042659
 30
0.0
 42
-0.1171140427110442
  0
VERTEX
  5
990
  8
LINE
 10
50.09359270345234
 20
88.47711542691006
 30
0.0
 42
-0.1043555384268713
  0
VERTEX
  5
991
  8
LINE
 10
49.29190889420578
 20
87.47408428585452
 30
0.0
 42
-0.09025456173778
  0
VERTEX
  5
992
  8
LINE
 10
48.1404891817451
 20
86.8322534983943
 30
0.0
 42
-0.0823113820561448
  0
VERTEX
  5
993
  8
LINE
 10
46.71644776371541
 20
86.59622473042671
 30
0.0
 42
-0.0823113820561461
  0
VERTEX
  5
994
  8
LINE
 10
45.29240634568561
 20
86.8322534983943
 30
0.0
 42
-0.0902545617377663
  0
VERTEX
  5
995
  8
LINE
 10
44.14098663322503
 20
87.47408428585452
 30
0.0
 42
-0.1043555384268826
  0
VERTEX
  5
996
  8
LINE
 10
43.33930282397847
 20
88.47711542691006
 30
0.0
 42
-0.1171140427110487
  0
SEQEND
  5
99E
  8
LINE
  0
LINE
  5
364
  8
LINE
 10
54.76824776371535
 20
103.8314247304265
 30
0.0
 11
54.76824776371541
 21
89.5934247304266
 31
0.0
  0
LINE
  5
365
  8
LINE
 10
89.38894281724646
 20
76.90484718997708
 30
0.0
 11
71.72635321619944
 21
76.90484718997708
 31
0.0
  0
LINE
  5
366
  8
LINE
 10
82.51849143290772
 20
75.12870694962706
 30
0.0
 11
87.76849143290772
 21
76.90484718997708
 31
0.0
  0
TEXT
  5
367
  8
DIM
 10
58.86383336754949
 20
75.20226003854945
 30
0.0
 40
2.6
  1
10.310.311
 50
90.0
 41
0.5973310730641312
  7
ROMANS
 72
     5
 11
58.86383336754949
 21
87.82864426097906
 31
0.0
  0
LINE
  5
368
  8
LINE
 10
55.53024776371541
 20
74.59342473042659
 30
0.0
 11
69.41493075664893
 21
74.59342473042659
 31
0.0
  0
LINE
  5
369
  8
LINE
 10
46.36824776371547
 20
80.58912473042655
 30
0.0
 11
37.26824776371541
 21
80.58912473042655
 31
0.0
  0
CIRCLE
  5
36A
  8
LINE
 10
46.71644776371541
 20
89.59342473042659
 30
0.0
 40
2.4765
  0
LINE
  5
36B
  8
HIDDEN
 10
34.76824776371541
 20
85.0934247304266
 30
0.0
 11
56.03141176712055
 21
85.0934247304266
 31
0.0
  0
LINE
  5
36C
  8
LINE
 10
34.76824776371541
 20
80.88706312857511
 30
0.0
 11
34.76824776371541
 21
89.59342473042659
 31
0.0
  0
LINE
  5
36D
  8
LINE
 10
37.26824776371541
 20
80.58912473042655
 30
0.0
 11
36.01824776371539
 21
80.80953345631214
 31
0.0
  0
LINE
  5
36E
  8
LINE
 10
35.06165980813213
 20
80.64086119032206
 30
0.0
 11
36.01824776371539
 21
80.80953345631214
 31
0.0
  0
ARC
  5
36F
  8
LINE
 10
35.01824776371541
 20
80.88706312857511
 30
0.0
 40
0.25
 50
180.0
 51
280.0000000000002
  0
LINE
  5
370
  8
LINE
 10
53.31824776371541
 20
80.58912473042653
 30
0.0
 11
52.10829480457474
 21
78.49342473042657
 31
0.0
  0
LINE
  5
371
  8
LINE
 10
46.3682477637154
 20
80.58912473042653
 30
0.0
 11
47.57820072285608
 21
78.49342473042657
 31
0.0
  0
LINE
  5
372
  8
LINE
 10
54.76824776371535
 20
75.35542473042662
 30
0.0
 11
54.76824776371541
 21
89.5934247304266
 31
0.0
  0
LINE
  5
373
  8
LINE
 10
47.57820072285608
 20
78.49342473042657
 30
0.0
 11
52.10829480457474
 21
78.49342473042657
 31
0.0
  0
LINE
  5
374
  8
LINE
 10
54.76824776371535
 20
75.35542473042662
 30
0.0
 11
55.53024776371541
 21
74.59342473042665
 31
0.0
  0
ARC
  5
375
  8
LINE
 10
49.84324776371541
 20
71.21232490319335
 30
0.0
 40
10.0
 50
69.66552002781391
 51
110.3344799721861
  0
LINE
  5
376
  8
LINE
 10
46.36824776371543
 20
92.04532379237835
 30
0.0
 11
46.36824776371543
 21
87.14152566847481
 31
0.0
  0
LINE
  5
377
  8
HIDDEN
 10
56.03141176712055
 20
85.09342473042659
 30
0.0
 11
58.62948797847386
 21
89.59342473042659
 31
0.0
  0
LINE
  5
378
  8
LINE
 10
54.35030390384898
 20
80.58912473042655
 30
0.0
 11
53.31824776371535
 21
80.58912473042655
 31
0.0
  0
LINE
  5
379
  8
LINE
 10
54.35030390384898
 20
80.58912473042655
 30
0.0
 11
54.76824776371541
 21
80.83042473042657
 31
0.0
  0
LINE
  5
37A
  8
LINE
 10
71.72635321619944
 20
76.90484718997708
 30
0.0
 11
69.41493075664893
 21
74.59342473042659
 31
0.0
  0
TEXT
  5
37B
  8
DIM
 10
63.07335717707331
 20
75.20226003854945
 30
0.0
 40
2.6
  1
11.380.322
 50
90.0
 41
0.576757912590426
  7
ROMANS
 72
     5
 11
63.07335717707331
 21
87.82864426097906
 31
0.0
  0
LINE
  5
37C
  8
LINE
 10
77.01849143290772
 20
75.12870694962706
 30
0.0
 11
82.51849143290772
 21
75.12870694962706
 31
0.0
  0
LINE
  5
37D
  8
LINE
 10
77.01849143290772
 20
75.12870694962706
 30
0.0
 11
71.76849143290772
 21
76.90484718997708
 31
0.0
  0
ARC
  5
37E
  8
DIM
 10
79.76849143290772
 20
89.59342473042658
 30
0.0
 40
2.5
 50
90.0
 51
0.0000000000000814
  0
CIRCLE
  5
37F
  8
LINE
 10
79.76849143290772
 20
89.59342473042658
 30
0.0
 40
2.062186497338843
  0
POLYLINE
  5
380
  8
LINE
 66
     1
 10
0.0
 20
0.0
 30
0.0
 70
     1
  0
VERTEX
  5
997
  8
LINE
 10
79.04680359642069
 20
90.84342473042658
 30
0.0
  0
VERTEX
  5
998
  8
LINE
 10
78.32511575993365
 20
89.59342473042658
 30
0.0
  0
VERTEX
  5
999
  8
LINE
 10
79.04680359642069
 20
88.34342473042658
 30
0.0
  0
VERTEX
  5
99A
  8
LINE
 10
80.49017926939476
 20
88.34342473042658
 30
0.0
  0
VERTEX
  5
99B
  8
LINE
 10
81.2118671058818
 20
89.59342473042658
 30
0.0
  0
VERTEX
  5
99C
  8
LINE
 10
80.49017926939476
 20
90.84342473042658
 30
0.0
  0
SEQEND
  5
99F
  8
LINE
  0
LINE
  5
381
  8
LINE
 10
89.76824776371541
 20
77.56182262882349
 30
0.0
 11
89.38894281724646
 21
76.90484718997708
 31
0.0
  0
LINE
  5
382
  8
LINE
 10
75.06849143290772
 20
106.2953172467135
 30
0.0
 11
84.45447530548957
 21
106.2953172467135
 31
0.0
  0
LINE
  5
383
  8
LINE
 10
82.14326993504298
 20
100.6953172467135
 30
0.0
 11
85.76849143290774
 21
100.6953172467135
 31
0.0
  0
LINE
  5
385
  8
HIDDEN
 10
69.2526324007556
 20
97.37400818924246
 30
0.0
 11
56.59933629051179
 21
93.10975060104863
 31
0.0
  0
LINE
  5
386
  8
LINE
 10
55.53024776371541
 20
104.5934247304266
 30
0.0
 11
63.76824776371534
 21
104.5934247304266
 31
0.0
  0
LINE
  5
387
  8
LINE
 10
46.3682477637154
 20
98.59772473042663
 30
0.0
 11
37.26824776371538
 21
98.59772473042663
 31
0.0
  0
LINE
  5
388
  8
HIDDEN
 10
34.76824776371541
 20
94.09342473042659
 30
0.0
 11
56.03141176712055
 21
94.09342473042659
 31
0.0
  0
LINE
  5
389
  8
LINE
 10
37.26824776371541
 20
98.59772473042663
 30
0.0
 11
36.01824776371539
 21
98.37731600454104
 31
0.0
  0
LINE
  5
38A
  8
LINE
 10
35.06165980813213
 20
98.54598827053113
 30
0.0
 11
36.01824776371539
 21
98.37731600454104
 31
0.0
  0
ARC
  5
38B
  8
LINE
 10
35.01824776371541
 20
98.29978633227807
 30
0.0
 40
0.25
 50
79.99999999999977
 51
180.0
  0
ARC
  5
38C
  8
LINE
 10
49.84324776371541
 20
107.9745245576598
 30
0.0
 40
10.0
 50
249.6655200278138
 51
290.3344799721861
  0
LINE
  5
38D
  8
LINE
 10
53.31824776371541
 20
98.59772473042663
 30
0.0
 11
52.10829480457474
 21
100.6934247304266
 31
0.0
  0
LINE
  5
38E
  8
LINE
 10
46.3682477637154
 20
98.59772473042663
 30
0.0
 11
47.57820072285608
 21
100.6934247304266
 31
0.0
  0
LINE
  5
38F
  8
LINE
 10
47.57820072285608
 20
100.6934247304266
 30
0.0
 11
52.10829480457474
 21
100.6934247304266
 31
0.0
  0
LINE
  5
390
  8
LINE
 10
54.35030390384898
 20
98.59772473042663
 30
0.0
 11
53.31824776371542
 21
98.59772473042663
 31
0.0
  0
LINE
  5
391
  8
LINE
 10
54.35030390384898
 20
98.59772473042663
 30
0.0
 11
54.76824776371541
 21
98.3564247304266
 31
0.0
  0
LINE
  5
392
  8
LINE
 10
54.76824776371535
 20
103.8314247304265
 30
0.0
 11
55.53024776371541
 21
104.5934247304266
 31
0.0
  0
LINE
  5
393
  8
LINE
 10
65.6735036520411
 20
101.2934247304266
 30
0.0
 11
79.76148336919863
 21
101.2934247304266
 31
0.0
  0
LINE
  5
394
  8
LINE
 10
63.76824776371534
 20
104.5934247304266
 30
0.0
 11
65.6735036520411
 21
101.2934247304266
 31
0.0
  0
LINE
  5
395
  8
LINE
 10
74.06849143290773
 20
101.2934247304266
 30
0.0
 11
74.06849143290772
 21
105.2953172467135
 31
0.0
  0
LINE
  5
396
  8
LINE
 10
81.91245086515613
 20
102.028938539393
 30
0.0
 11
77.61051587324113
 21
102.028938539393
 31
0.0
  0
LINE
  5
397
  8
LINE
 10
77.66849143290773
 20
102.379241109549
 30
0.0
 11
81.86849143290772
 21
102.379241109549
 31
0.0
  0
LINE
  5
399
  8
LINE
 10
77.48321540630462
 20
101.2934247304266
 30
0.0
 11
77.67114516422967
 21
102.379241109549
 31
0.0
  0
LINE
  5
39A
  8
LINE
 10
82.14326993504298
 20
100.6953172467135
 30
0.0
 11
81.85182157416759
 21
102.379241109549
 31
0.0
  0
LINE
  5
3A4
  8
LINE
 10
85.76849143290774
 20
99.68385177082851
 30
0.0
 11
85.76849143290772
 21
100.6953172467135
 31
0.0
  0
LINE
  5
3AC
  8
CTRL
 10
79.76148336919863
 20
96.9568805705914
 30
0.0
 11
79.76148336919863
 21
109.3498057123143
 31
0.0
  0
LINE
  5
3BD
  8
HIDDEN
 10
85.76849143290772
 20
97.65484718997708
 30
0.0
 11
89.76824776371541
 21
95.34558679569233
 31
0.0
  0
LINE
  5
3F2
  8
LINE
 10
96.56148336899619
 20
104.5312187783681
 30
0.0
 11
96.5614833689962
 21
100.8087105806351
 31
0.0
  0
LINE
  5
3F3
  8
LINE
 10
96.5614833689962
 20
100.8087105806351
 30
0.0
 11
95.44809003507461
 21
99.6953172467135
 31
0.0
  0
LINE
  5
3F7
  8
LINE
 10
85.45447530548952
 20
100.6953172467135
 30
0.0
 11
85.45447530548954
 21
105.2953172467135
 31
0.0
  0
LINE
  5
3F8
  8
LINE
 10
75.06849143290772
 20
106.2953172467135
 30
0.0
 11
74.06849143290772
 21
105.2953172467135
 31
0.0
  0
LINE
  5
3F9
  8
LINE
 10
84.45447530548954
 20
106.2953172467135
 30
0.0
 11
85.45447530548954
 21
105.2953172467135
 31
0.0
  0
LINE
  5
3FA
  8
LINE
 10
79.76148336919863
 20
101.2934247304266
 30
0.0
 11
89.76824776371541
 21
98.61212029206732
 31
0.0
  0
INSERT
  5
622
  8
LINE
 66
     1
  2
KAISERA
 10
-87.56583194054537
 20
51.8043935746067
 30
0.0
 41
9.6
 42
9.6
 43
9.6
  0
ATTRIB
  5
623
  8
DIM
 10
65.25681349303872
 20
57.45139995295386
 30
0.0
 40
1.92
  1
Insert Holder ENH31/30 TC11
  2
NAME
 70
     0
  0
ATTRIB
  5
624
  8
DIM
 10
65.79656360534814
 20
63.96338559137195
 30
0.0
 40
0.9600000000000002
  1
NONE
  2
SCALE
 70
     0
  0
ATTRIB
  5
625
  8
DIM
 10
65.5941573132321
 20
61.62756465585242
 30
0.0
 40
0.9600000000000002
  1
3/23/00
  2
DATE
 70
     0
  0
ATTRIB
  5
626
  8
DIM
 10
105.738071916246
 20
64.10495049655495
 30
0.0
 40
0.9600000000000002
  1
J.B.
  2
NAME
 70
     0
  0
ATTRIB
  5
627
  8
DIM
 10
105.1983218039366
 20
61.62756465585242
 30
0.0
 40
0.9600000000000002
  1

  2
REVISED
 70
     0
  0
ATTRIB
  5
628
  8
DIM
 10
70.18203326786225
 20
54.47853694411082
 30
0.0
 40
0.9600000000000002
  1

  2
MATERIAL
 70
     0
  0
ATTRIB
  5
629
  8
DIM
 10
72.27356495306131
 20
52.77975808191481
 30
0.0
 40
0.9600000000000002
  1

  2
HEATTREAT
 70
     0
  0
ATTRIB
  5
62A
  8
DIM
 10
90.15278742331118
 20
54.33697203892783
 30
0.0
 40
0.9600000000000002
  1

  2
FINISH
 70
     0
  0
ATTRIB
  5
62B
  8
DIM
 10
100.4080395571903
 20
52.85054053450631
 30
0.0
 40
1.44
  1
11.380.322
  2
DRAWINGNO.
 70
     0
  0
ATTRIB
  5
62C
  8
DIM
 10
34.14090297380662
 20
52.99210543968932
 30
0.0
 40
1.44
  1
A
  2
REV.
 70
     0
  0
SEQEND
  5
965
  8
LINE
  0
LINE
  5
63A
  8
0
  6
BYBLOCK
 62
     0
 10
88.01700245819777
 20
110.0953172467135
 30
0.0
 11
108.550099546875
 21
110.0953172467135
 31
0.0
  0
LINE
  5
63B
  8
0
  6
BYBLOCK
 62
     0
 10
107.925099546875
 20
108.8953172467135
 30
0.0
 11
107.925099546875
 21
92.50629186967186
 31
0.0
  0
SOLID
  5
63C
  8
0
  6
BYBLOCK
 62
     0
 10
107.725099546875
 20
108.8953172467135
 30
0.0
 11
108.125099546875
 21
108.8953172467135
 31
0.0
 12
107.925099546875
 22
110.0953172467135
 32
0.0
 13
107.925099546875
 23
110.0953172467135
 33
0.0
  0
TEXT
  5
63D
  8
0
  6
CONTINUOUS
 62
     0
 10
107.425099546875
 20
92.79888859586232
 30
0.0
 40
1.25
  1
ø36MIN.
 50
90.0
  7
ROMANS
  0
POINT
  5
63E
  8
DEFPOINTS
  6
BYBLOCK
 62
     0
 10
89.38894281724646
 20
76.90484718997708
 30
0.0
  0
POINT
  5
640
  8
DEFPOINTS
  6
BYBLOCK
 62
     0
 10
107.925099546875
 20
110.0953172467135
 30
0.0
  0
TEXT
  5
641
  8
0
  6
CONTINUOUS
 62
     0
 10
109.7363307016602
 20
92.79888859586232
 30
0.0
 40
1.25
  1
ø46MIN.
 50
90.0
  7
ROMANS
  0
LINE
  5
669
  8
DIM
 10
90.7984960951979
 20
104.8776289434587
 30
0.0
 11
93.43631636523224
 21
77.4815540612569
 31
0.0
  0
LINE
  5
66A
  8
DIM
 10
93.43631636523224
 20
77.4815540612569
 30
0.0
 11
108.0071217957032
 21
77.4815540612569
 31
0.0
  0
TEXT
  5
66B
  8
DIM
 10
94.54168865166372
 20
77.98380958264815
 30
0.0
 40
1.25
  1
TCMT110204
  7
ROMANS
  0
CIRCLE
  5
814
  8
LINE
 10
90.7984960951979
 20
104.8776289434587
 30
0.0
 40
2.29522040955
  0
CIRCLE
  5
815
  8
LINE
 10
90.7984960951979
 20
104.8776289434587
 30
0.0
 40
1.6361967276
  0
LINE
  5
817
  8
LINE
 10
96.56148336938698
 20
105.2240391014037
 30
0.0
 11
88.21700245840016
 21
110.0417274081104
 31
0.0
  0
LINE
  5
819
  8
LINE
 10
87.61700245819776
 20
109.6953172467135
 30
0.0
 11
87.61700245819776
 21
100.0599406462865
 31
0.0
  0
LINE
  5
81B
  8
LINE
 10
88.21700245799533
 20
99.71353048465586
 30
0.0
 11
96.56148336901026
 21
104.5312187783762
 31
0.0
  0
ARC
  5
81D
  8
LINE
 10
96.36148336919862
 20
104.8776289399987
 30
0.0
 40
0.4
 50
299.9999999688433
 51
59.99999996884929
  0
ARC
  5
81E
  8
LINE
 10
88.01700245819777
 20
109.6953172467135
 30
0.0
 40
0.4
 50
59.99999996652313
 51
180.0
  0
ARC
  5
81F
  8
LINE
 10
88.01700245819775
 20
100.0599406462865
 30
0.0
 40
0.4
 50
180.0
 51
299.9999999665173
  0
LINE
  5
830
  8
LINE
 10
87.61700245819776
 20
109.6953172467135
 30
0.0
 11
81.72802971246358
 21
106.2953172467135
 31
0.0
  0
LINE
  5
831
  8
LINE
 10
74.06849143290772
 20
105.2953172467135
 30
0.0
 11
85.45447530548954
 21
105.2953172467135
 31
0.0
  0
DIMENSION
  5
85A
  8
DIM
  2
*D1
 10
108.550099546875
 20
110.0953172467135
 30
0.0
 11
105.1424347444929
 21
106.3409784597208
 31
0.0
 12
1.0
 22
0.0
 32
0.0
 70
    34
  1
30%%D
  3
STANDARD
 13
96.56148336938698
 23
105.2240391014037
 33
0.0
 14
88.21700245840016
 24
110.0417274081104
 34
0.0
 15
88.01700245819777
 25
110.0953172467135
 35
0.0
 16
104.5006274369392
 26
104.1347786066035
 36
0.0
1001
ACAD
1000
DSTYLE
1002
{
1070
   288
1070
     1
1070
   140
1040
0.125
1070
   340
1005
1CA
1070
    74
1070
     0
1070
   172
1070
     1
1070
    73
1070
     0
1070
    77
1070
     1
1070
    75
1070
     1
1070
    40
1040
10.0
1070
   147
1040
0.05
1070
    44
1040
0.0625
1070
   141
1040
0.0
1070
    41
1040
0.12
1002
}
  0
DIMENSION
  5
872
  8
DIM
  2
*D2
 10
96.76148336919863
 20
114.4212096619737
 30
0.0
 11
102.4364833691986
 21
114.4212096619737
 31
0.0
 12
1.0
 22
2.779763692895926
 32
0.0
 70
    32
  1
(8.7)
  3
STANDARD
 13
88.01700245819777
 23
112.8750809396094
 33
0.0
 14
96.76148336919863
 24
107.6573926328947
 34
0.0
1001
ACAD
1000
DSTYLE
1002
{
1070
   288
1070
     1
1070
   140
1040
0.125
1070
   340
1005
1CA
1070
    74
1070
     0
1070
   172
1070
     1
1070
    73
1070
     0
1070
    77
1070
     1
1070
    76
1070
     1
1070
    75
1070
     1
1070
    40
1040
10.0
1070
   147
1040
0.05
1070
    44
1040
0.0625
1070
   141
1040
0.0
1070
    41
1040
0.12
1002
}
  0
LINE
  5
875
  8
LINE
 10
85.76849143290774
 20
100.6953172467135
 30
0.0
 11
86.26849143290774
 21
100.6953172467135
 31
0.0
  0
LINE
  5
876
  8
LINE
 10
86.26849143290774
 20
100.6953172467135
 30
0.0
 11
86.84584170209737
 21
99.69531724671347
 31
0.0
  0
LINE
  5
878
  8
LINE
 10
86.84584170209736
 20
99.69531724671346
 30
0.0
 11
86.85253429567446
 21
99.69531724671347
 31
0.0
  0
LINE
  5
87F
  8
LINE
 10
86.84337577834789
 20
99.69958835193513
 30
0.0
 11
86.84584170209736
 21
99.69531724671346
 31
0.0
  0
LINE
  5
880
  8
LINE
 10
86.84584170209737
 20
99.69531724671347
 30
0.0
 11
95.44809003507457
 21
99.69531724671346
 31
0.0
  0
DIMENSION
  5
8EE
  8
DIM
  2
*D3
 10
96.76148336919863
 20
118.3938374845757
 30
0.0
 11
76.01155581154734
 21
118.3938374845757
 31
0.0
 70
    32
  1
42
  3
STANDARD
 13
54.76824776371535
 23
103.8314247304265
 33
0.0
 14
96.76148336919863
 24
104.8776289399987
 34
0.0
1001
ACAD
1000
DSTYLE
1002
{
1070
   288
1070
     1
1070
   140
1040
0.125
1070
   340
1005
1CA
1070
    74
1070
     0
1070
   172
1070
     1
1070
    73
1070
     0
1070
    77
1070
     1
1070
    40
1040
10.0
1070
   147
1040
0.05
1070
    44
1040
0.0625
1070
   141
1040
0.0
1070
    41
1040
0.12
1002
}
  0
DIMENSION
  5
910
  8
DIM
  2
*D4
 10
88.01700245819777
 20
114.4149601651706
 30
0.0
 11
72.79455511178332
 21
114.4149601651706
 31
0.0
 70
    32
  1
33.3
  3
STANDARD
 13
54.76824776371535
 23
103.8314247304265
 33
0.0
 14
88.01700245819777
 24
110.0953172467135
 34
0.0
1001
ACAD
1000
DSTYLE
1002
{
1070
   288
1070
     1
1070
   140
1040
0.125
1070
   340
1005
1CA
1070
    74
1070
     0
1070
   172
1070
     1
1070
    73
1070
     0
1070
    77
1070
     1
1070
    75
1070
     1
1070
    40
1040
10.0
1070
   147
1040
0.05
1070
    44
1040
0.0625
1070
   141
1040
0.0
1070
    41
1040
0.12
1002
}
  0
VIEWPORT
  5
953
 67
     1
  8
0
 10
7.8
 20
4.5
 30
0.0
 40
15.64
 41
9.0
 68
     1
 69
     1
1001
ACAD
1000
MVIEW
1002
{
1070
    16
1010
0.0
1020
0.0
1030
0.0
1020
0.0
1030
0.0
1010
0.0
1020
0.0
1030
1.0
1020
0.0
1030
1.0
1040
0.0
1040
12.0
1040
6.0
1040
4.5
1040
50.0
1040
0.0
1040
0.0
1070
    16
1070
   100
1070
     0
1070
     3
1070
     0
1070
     0
1070
     0
1070
     0
1040
0.0
1040
0.0
1040
0.0
1040
0.5
1040
0.5
1040
0.5
1040
0.5
1070
     0
1002
{
1002
}
1002
}
  0
ENDSEC
  0
EOF
