  0
SECTION
  2
HEADER
  9
$ACADVER
  1
AC1009
  9
$DWGCODEPAGE
  3
ansi_1252
  9
$INSBASE
 10
0.0
 20
0.0
 30
0.0
  9
$EXTMIN
 10
73.44162910504659
 20
108.2997189893338
 30
0.0
  9
$EXTMAX
 10
157.8044791050466
 20
171.7774189893338
 30
0.0
  9
$LIMMIN
 10
0.0
 20
0.0
  9
$LIMMAX
 10
12.0
 20
9.0
  9
$ORTHOMODE
 70
     1
  9
$REGENMODE
 70
     1
  9
$FILLMODE
 70
     1
  9
$QTEXTMODE
 70
     0
  9
$MIRRTEXT
 70
     1
  9
$DRAGMODE
 70
     2
  9
$LTSCALE
 40
5.0
  9
$OSMODE
 70
   511
  9
$ATTMODE
 70
     1
  9
$TEXTSIZE
 40
1.0
  9
$TRACEWID
 40
0.05
  9
$TEXTSTYLE
  7
ROMANS
  9
$CLAYER
  8
DIM
  9
$CELTYPE
  6
BYLAYER
  9
$CECOLOR
 62
   256
  9
$DIMSCALE
 40
8.0
  9
$DIMASZ
 40
0.12
  9
$DIMEXO
 40
0.0625
  9
$DIMDLI
 40
0.38
  9
$DIMRND
 40
0.0
  9
$DIMDLE
 40
0.0
  9
$DIMEXE
 40
0.0625
  9
$DIMTP
 40
0.0
  9
$DIMTM
 40
0.0
  9
$DIMTXT
 40
0.125
  9
$DIMCEN
 40
0.0
  9
$DIMTSZ
 40
0.0
  9
$DIMTOL
 70
     0
  9
$DIMLIM
 70
     0
  9
$DIMTIH
 70
     0
  9
$DIMTOH
 70
     0
  9
$DIMSE1
 70
     0
  9
$DIMSE2
 70
     0
  9
$DIMTAD
 70
     1
  9
$DIMZIN
 70
     0
  9
$DIMBLK
  1

  9
$DIMASO
 70
     1
  9
$DIMSHO
 70
     1
  9
$DIMPOST
  1

  9
$DIMAPOST
  1

  9
$DIMALT
 70
     0
  9
$DIMALTD
 70
     2
  9
$DIMALTF
 40
25.4
  9
$DIMLFAC
 40
1.0
  9
$DIMTOFL
 70
     1
  9
$DIMTVP
 40
0.0
  9
$DIMTIX
 70
     0
  9
$DIMSOXD
 70
     0
  9
$DIMSAH
 70
     0
  9
$DIMBLK1
  1

  9
$DIMBLK2
  1

  9
$DIMSTYLE
  2
STANDARD
  9
$DIMCLRD
 70
     0
  9
$DIMCLRE
 70
     0
  9
$DIMCLRT
 70
     0
  9
$DIMTFAC
 40
1.0
  9
$DIMGAP
 40
0.05
  9
$LUNITS
 70
     2
  9
$LUPREC
 70
     4
  9
$SKETCHINC
 40
0.1
  9
$FILLETRAD
 40
0.0
  9
$AUNITS
 70
     0
  9
$AUPREC
 70
     0
  9
$MENU
  1
.
  9
$ELEVATION
 40
0.0
  9
$PELEVATION
 40
0.0
  9
$THICKNESS
 40
0.0
  9
$LIMCHECK
 70
     0
  9
$CHAMFERA
 40
0.5
  9
$CHAMFERB
 40
0.5
  9
$SKPOLY
 70
     0
  9
$TDCREATE
 40
2453353.508792488
  9
$TDUPDATE
 40
2457253.608989803
  9
$TDINDWG
 40
0.4608504745
  9
$TDUSRTIMER
 40
2457253.816262465
  9
$USRTIMER
 70
     1
  9
$ANGBASE
 50
0.0
  9
$ANGDIR
 70
     0
  9
$PDMODE
 70
    65
  9
$PDSIZE
 40
-2.0
  9
$PLINEWID
 40
0.0
  9
$COORDS
 70
     2
  9
$SPLFRAME
 70
     0
  9
$SPLINETYPE
 70
     6
  9
$SPLINESEGS
 70
     8
  9
$ATTDIA
 70
     0
  9
$ATTREQ
 70
     1
  9
$HANDLING
 70
     1
  9
$HANDSEED
  5
CD3
  9
$SURFTAB1
 70
     6
  9
$SURFTAB2
 70
     6
  9
$SURFTYPE
 70
     6
  9
$SURFU
 70
     6
  9
$SURFV
 70
     6
  9
$UCSNAME
  2

  9
$UCSORG
 10
0.0
 20
0.0
 30
0.0
  9
$UCSXDIR
 10
1.0
 20
0.0
 30
0.0
  9
$UCSYDIR
 10
0.0
 20
1.0
 30
0.0
  9
$PUCSNAME
  2

  9
$PUCSORG
 10
0.0
 20
0.0
 30
0.0
  9
$PUCSXDIR
 10
1.0
 20
0.0
 30
0.0
  9
$PUCSYDIR
 10
0.0
 20
1.0
 30
0.0
  9
$USERI1
 70
     0
  9
$USERI2
 70
     0
  9
$USERI3
 70
     0
  9
$USERI4
 70
     0
  9
$USERI5
 70
     0
  9
$USERR1
 40
0.0
  9
$USERR2
 40
0.0
  9
$USERR3
 40
0.0
  9
$USERR4
 40
0.0
  9
$USERR5
 40
0.0
  9
$WORLDVIEW
 70
     1
  9
$SHADEDGE
 70
     3
  9
$SHADEDIF
 70
    70
  9
$TILEMODE
 70
     1
  9
$MAXACTVP
 70
    16
  9
$PLIMCHECK
 70
     0
  9
$PEXTMIN
 10
1.000000000000000E+20
 20
1.000000000000000E+20
 30
1.000000000000000E+20
  9
$PEXTMAX
 10
-1.000000000000000E+20
 20
-1.000000000000000E+20
 30
-1.000000000000000E+20
  9
$PLIMMIN
 10
0.0
 20
0.0
  9
$PLIMMAX
 10
0.0
 20
0.0
  9
$UNITMODE
 70
     0
  9
$VISRETAIN
 70
     0
  9
$PLINEGEN
 70
     0
  9
$PSLTSCALE
 70
     1
  0
ENDSEC
  0
SECTION
  2
TABLES
  0
TABLE
  2
VPORT
 70
     1
  0
VPORT
  2
*ACTIVE
 70
     0
 10
0.0
 20
0.0
 11
1.0
 21
1.0
 12
-112.9976135539708
 22
7.211584232035364
 13
0.0
 23
0.0
 14
1.0
 24
1.0
 15
0.0
 25
0.0
 16
0.0
 26
0.0
 36
1.0
 17
228.6206676590174
 27
132.8269847572984
 37
0.0
 40
64.74725400000001
 41
1.342896174863388
 42
50.0
 43
0.0
 44
0.0
 50
0.0
 51
0.0
 71
    16
 72
  1000
 73
     1
 74
     0
 75
     0
 76
     0
 77
     0
 78
     0
  0
ENDTAB
  0
TABLE
  2
LTYPE
 70
    17
  0
LTYPE
  2
CONTINUOUS
 70
     0
  3
Solid line
 72
    65
 73
     0
 40
0.0
  0
LTYPE
  2
HIDDEN
 70
     0
  3
__ __ __ __ __ __ __ __ __ __ __ __ __ __ __ __
 72
    65
 73
     2
 40
0.375
 49
0.25
 49
-0.125
  0
LTYPE
  2
PHANTOM
 70
     0
  3
______  __  __  ______  __  __  ______  __  __ 
 72
    65
 73
     6
 40
2.5
 49
1.25
 49
-0.25
 49
0.25
 49
-0.25
 49
0.25
 49
-0.25
  0
LTYPE
  2
CENTER
 70
     0
  3
____ _ ____ _ ____ _ ____ _ ____ _ ____ _ ____
 72
    65
 73
     4
 40
2.0
 49
1.25
 49
-0.25
 49
0.25
 49
-0.25
  0
LTYPE
  2
PHANTOM2
 70
     0
  3
Phantom (.5x) ___ _ _ ___ _ _ ___ _ _ ___ _ _
 72
    65
 73
     6
 40
31.75
 49
15.875
 49
-3.175
 49
3.175
 49
-3.175
 49
3.175
 49
-3.175
  0
LTYPE
  2
ASULTYPE
 70
     0
  3
Solid line
 72
    65
 73
     2
 40
3.0
 49
2.5
 49
0.5
  0
LTYPE
  2
ASVLTYPE
 70
     0
  3
__ __ __ __ __ __ __ __ __ __ __ __ __ __ __ __ __ __ __ __ __
 72
    65
 73
     2
 40
0.75
 49
0.5
 49
-0.25
  0
LTYPE
  2
AM_ISO02W050
 70
     0
  3
__ __ __ __ __ __ __ __ __ __ __ __ __ __ __
 72
    65
 73
     2
 40
7.5
 49
6.0
 49
-1.5
  0
LTYPE
  2
AM_ISO08W050
 70
     0
  3
____ . ____ . ____ . ____ . ____ . ____ . ____
 72
    65
 73
     4
 40
18.0
 49
12.0
 49
-1.5
 49
3.0
 49
-1.5
  0
LTYPE
  2
AM_ISO09W050
 70
     0
  3
_____ . . _____ . . _____ . . ____ .. ____
 72
    65
 73
     6
 40
22.5
 49
12.0
 49
-1.5
 49
3.0
 49
-1.5
 49
3.0
 49
-1.5
  0
LTYPE
  2
AMCONSTR
 70
     0
  3
_______________________
 72
    65
 73
     2
 40
9999.0
 49
9999.0
 49
0.0
  0
LTYPE
  2
AM_ISO08W050X2
 70
     0
  3
__ . __ . __ . __ . __ . __
 72
    65
 73
     4
 40
9.0
 49
6.0
 49
-0.75
 49
1.5
 49
-0.75
  0
LTYPE
  2
AM_ISO02W050X2
 70
     0
  3
 _ _ _ _ _ _ _ _ _ _ _ _
 72
    65
 73
     2
 40
3.75
 49
3.0
 49
-0.75
  0
LTYPE
  2
AMZIGZAG
 70
     0
  3
/\/-/\/-/\/-/\/-/\/-/\/
 72
    65
 73
     2
 40
11.0001
 49
0.0001
 49
-11.0
  0
LTYPE
  2
ACISOWELD
 70
     0
  3
_ _ _ _ _
 72
    65
 73
     2
 40
3.0
 49
2.0
 49
-1.0
  0
LTYPE
  2
ACISOTGB
 70
     0
  3
__ . . __ . .
 72
    65
 73
     6
 40
9.0
 49
4.0
 49
-1.0
 49
1.0
 49
-1.0
 49
1.0
 49
-1.0
  0
LTYPE
  2
ACISOTGL
 70
     0
  3
_ _ _ _ _
 72
    65
 73
     2
 40
3.0
 49
2.0
 49
-1.0
  0
ENDTAB
  0
TABLE
  2
LAYER
 70
    11
  0
LAYER
  2
0
 70
     0
 62
     7
  6
CONTINUOUS
  0
LAYER
  2
LINE
 70
     0
 62
     3
  6
CONTINUOUS
  0
LAYER
  2
HIDDEN
 70
     0
 62
     2
  6
HIDDEN
  0
LAYER
  2
DIM
 70
     0
 62
     7
  6
CONTINUOUS
  0
LAYER
  2
HATCH
 70
     0
 62
     6
  6
CONTINUOUS
  0
LAYER
  2
PHAN
 70
     0
 62
     2
  6
PHANTOM
  0
LAYER
  2
CTRL
 70
     0
 62
     1
  6
CENTER
  0
LAYER
  2
INSERT
 70
     0
 62
     4
  6
CONTINUOUS
  0
LAYER
  2
DEFPOINTS
 70
     0
 62
     7
  6
CONTINUOUS
  0
LAYER
  2
BORDER
 70
     0
 62
     3
  6
CONTINUOUS
  0
LAYER
  2
FRAME
 70
     0
 62
     4
  6
CONTINUOUS
  0
ENDTAB
  0
TABLE
  2
STYLE
 70
     6
  0
STYLE
  2
STANDARD
 70
     0
 40
0.0
 41
1.0
 50
0.0
 71
     0
 42
0.2
  3
txt
  4

  0
STYLE
  2
ROMANS
 70
     0
 40
0.0
 41
1.0
 50
0.0
 71
     0
 42
1.0
  3
romans
  4

  0
STYLE
  2
STYLE1
 70
     0
 40
0.0
 41
1.0
 50
0.0
 71
     0
 42
0.2
  3
Italic.shx
  4

  0
STYLE
  2

 70
     1
 40
0.0
 41
1.0
 50
0.0
 71
     0
 42
1.0
  3
ltypeshp.shx
  4

  0
STYLE
  2
ACISOTS
 70
     0
 40
1.0
 41
1.0
 50
0.0
 71
     0
 42
1.0
  3
isocp.shx
  4

  0
STYLE
  2
ACISOGDT
 70
     0
 40
0.0
 41
1.0
 50
0.0
 71
     0
 42
1.0
  3
amgdt.shx
  4

  0
ENDTAB
  0
TABLE
  2
VIEW
 70
     0
  0
ENDTAB
  0
TABLE
  2
UCS
 70
     0
  0
ENDTAB
  0
TABLE
  2
APPID
 70
    13
  0
APPID
  2
ACAD
 70
     0
  0
APPID
  2
GENIUS_GENDIM_13
 70
     0
  0
APPID
  2
GENIUS_GENDTOL_13
 70
     0
  0
APPID
  2
GENIUS_GE3DTOL_13
 70
     0
  0
APPID
  2
MCAD_NO_VIS
 70
     0
  0
APPID
  2
ACAD_TEMP_GRAPHIC
 70
     0
  0
APPID
  2
AD_DRAW
 70
     0
  0
APPID
  2
ACATTRIBSERVICES
 70
     0
  0
APPID
  2
ASURF_PCURVE_APPNAME
 70
     0
  0
APPID
  2
AMG_3D2D_5_0
 70
     0
  0
APPID
  2
DESIGNERASSEMBLIES
 70
     0
  0
APPID
  2
ACADM_DIM_EDIT
 70
     0
  0
APPID
  2
AMDT_DM_ADJ
 70
     0
  0
ENDTAB
  0
TABLE
  2
DIMSTYLE
 70
     8
  0
DIMSTYLE
  2
STANDARD
 70
     0
  3

  4

  5

  6

  7

 40
1.0
 41
0.18
 42
0.0625
 43
0.38
 44
0.18
 45
0.0
 46
0.0
 47
0.0
 48
0.0
140
0.18
141
0.09
142
0.0
143
25.4
144
1.0
145
0.0
146
1.0
147
0.09
 71
     0
 72
     0
 73
     1
 74
     1
 75
     0
 76
     0
 77
     0
 78
     0
170
     0
171
     2
172
     0
173
     0
174
     0
175
     0
176
     0
177
     0
178
     0
  0
DIMSTYLE
  2
AM_ISO
 70
     0
  3

  4
"
  5

  6

  7

 40
1.0
 41
2.5
 42
1.0
 43
10.0
 44
1.0
 45
0.0
 46
0.0
 47
0.1
 48
0.1
140
3.5
141
0.0
142
0.0
143
0.0393701
144
1.0
145
0.0
146
0.71
147
1.5
 71
     0
 72
     0
 73
     0
 74
     0
 75
     0
 76
     0
 77
     1
 78
     8
170
     0
171
     2
172
     1
173
     0
174
     0
175
     0
176
   256
177
   256
178
     2
  0
DIMSTYLE
  2
AM_ISO$3
 70
     0
  3

  4
"
  5

  6

  7

 40
1.0
 41
2.5
 42
1.0
 43
10.0
 44
1.0
 45
0.0
 46
0.0
 47
0.1
 48
0.1
140
3.5
141
0.0
142
0.0
143
0.0393701
144
1.0
145
0.0
146
0.71
147
1.5
 71
     0
 72
     0
 73
     0
 74
     1
 75
     0
 76
     0
 77
     1
 78
     8
170
     0
171
     2
172
     0
173
     0
174
     0
175
     0
176
   256
177
   256
178
     2
  0
DIMSTYLE
  2
AM_ISO$4
 70
     0
  3

  4
"
  5

  6

  7

 40
1.0
 41
2.5
 42
1.0
 43
10.0
 44
1.0
 45
0.0
 46
0.0
 47
0.1
 48
0.1
140
3.5
141
0.0
142
0.0
143
0.0393701
144
1.0
145
0.0
146
0.71
147
1.5
 71
     0
 72
     0
 73
     0
 74
     1
 75
     0
 76
     0
 77
     1
 78
     8
170
     0
171
     2
172
     0
173
     0
174
     0
175
     0
176
   256
177
   256
178
     2
  0
DIMSTYLE
  2
AM_ISO$6
 70
     0
  3

  4
"
  5

  6

  7

 40
1.0
 41
2.5
 42
1.0
 43
10.0
 44
1.0
 45
0.0
 46
0.0
 47
0.1
 48
0.1
140
3.5
141
0.0
142
0.0
143
0.0393701
144
1.0
145
0.0
146
0.71
147
1.5
 71
     0
 72
     0
 73
     0
 74
     0
 75
     0
 76
     0
 77
     0
 78
     8
170
     0
171
     2
172
     1
173
     0
174
     0
175
     0
176
   256
177
   256
178
     2
  0
DIMSTYLE
  2
AM_ISO$7
 70
     0
  3

  4
"
  5

  6

  7

 40
1.0
 41
2.5
 42
1.0
 43
10.0
 44
1.0
 45
0.0
 46
0.0
 47
0.1
 48
0.1
140
5.0
141
0.0
142
0.0
143
0.0393701
144
1.0
145
0.0
146
0.71
147
1.5
 71
     0
 72
     0
 73
     0
 74
     0
 75
     0
 76
     0
 77
     1
 78
     8
170
     0
171
     2
172
     1
173
     0
174
     0
175
     0
176
   256
177
   256
178
     2
  0
DIMSTYLE
  2
AM_ISO$SF
 70
     0
  3

  4
"
  5

  6

  7

 40
1.0
 41
2.5
 42
1.0
 43
10.0
 44
1.0
 45
0.0
 46
0.0
 47
0.1
 48
0.1
140
3.5
141
0.0
142
0.0
143
0.0393701
144
1.0
145
0.0
146
0.71
147
1.5
 71
     0
 72
     0
 73
     0
 74
     0
 75
     1
 76
     1
 77
     1
 78
     8
170
     0
171
     2
172
     1
173
     0
174
     0
175
     0
176
   256
177
   256
178
     2
  0
DIMSTYLE
  2
AM_ISO$SH
 70
     0
  3

  4
"
  5

  6

  7

 40
1.0
 41
2.5
 42
1.0
 43
10.0
 44
1.0
 45
0.0
 46
0.0
 47
0.1
 48
0.1
140
3.5
141
0.0
142
0.0
143
0.0393701
144
2.0
145
0.0
146
0.71
147
1.5
 71
     0
 72
     0
 73
     0
 74
     0
 75
     1
 76
     1
 77
     1
 78
     8
170
     0
171
     2
172
     1
173
     1
174
     0
175
     0
176
   256
177
   256
178
     2
  0
ENDTAB
  0
ENDSEC
  0
SECTION
  2
BLOCKS
  0
BLOCK
  8
0
  2
$MODEL_SPACE
 70
     0
 10
0.0
 20
0.0
 30
0.0
  3
$MODEL_SPACE
  1

  0
ENDBLK
  5
21
  8
0
  0
BLOCK
 67
     1
  8
0
  2
$PAPER_SPACE
 70
     0
 10
0.0
 20
0.0
 30
0.0
  3
$PAPER_SPACE
  1

  0
ENDBLK
  5
76
 67
     1
  8
0
  0
BLOCK
  8
0
  2
KAISERA
 70
     2
 10
0.0
 20
0.0
 30
0.0
  3
KAISERA
  1

  0
LINE
  5
5C8
  8
BORDER
 10
10.74
 20
0.0
 30
0.0
 11
21.0
 21
0.0
 31
0.0
  0
LINE
  5
5C9
  8
BORDER
 10
21.0
 20
0.0
 30
0.0
 11
21.0
 21
7.720000000000001
 31
0.0
  0
LINE
  5
5CA
  8
BORDER
 10
15.5
 20
0.0
 30
0.0
 11
15.5
 21
2.0
 31
0.0
  0
LINE
  5
5CB
  8
BORDER
 10
15.5
 20
2.0
 30
0.0
 11
21.0
 21
2.0
 31
0.0
  0
LINE
  5
5CC
  8
BORDER
 10
15.5
 20
1.45
 30
0.0
 11
21.0
 21
1.45
 31
0.0
  0
LINE
  5
5CD
  8
BORDER
 10
15.5
 20
0.9500000000000002
 30
0.0
 11
21.0
 21
0.9500000000000002
 31
0.0
  0
LINE
  5
5CE
  8
BORDER
 10
15.5
 20
0.4500000000000002
 30
0.0
 11
21.0
 21
0.4500000000000002
 31
0.0
  0
LINE
  5
5CF
  8
BORDER
 10
19.54
 20
0.0
 30
0.0
 11
19.54
 21
0.4500000000000002
 31
0.0
  0
LINE
  5
5D0
  8
BORDER
 10
19.54
 20
0.9500000000000002
 30
0.0
 11
19.54
 21
1.45
 31
0.0
  0
LINE
  5
5D1
  8
BORDER
 10
15.5
 20
1.19
 30
0.0
 11
17.02
 21
1.19
 31
0.0
  0
LINE
  5
5D2
  8
BORDER
 10
17.02
 20
0.9500000000000002
 30
0.0
 11
17.02
 21
1.45
 31
0.0
  0
LINE
  5
5D3
  8
BORDER
 10
19.54
 20
1.19
 30
0.0
 11
21.0
 21
1.19
 31
0.0
  0
TEXT
  5
5D4
  8
BORDER
 10
19.62
 20
0.3400000000000002
 30
0.0
 40
0.06
  1
DRAWING NUMBER
  0
TEXT
  5
5D5
  8
BORDER
 10
19.62
 20
1.025
 30
0.0
 40
0.06
  1
REVISED
  0
TEXT
  5
5D6
  8
BORDER
 10
19.6
 20
1.29
 30
0.0
 40
0.06
  1
DRAWN BY
  0
TEXT
  5
5D7
  8
BORDER
 10
17.09
 20
1.33
 30
0.0
 40
0.06
  1
APPROVED BY
  0
TEXT
  5
5D8
  8
BORDER
 10
15.58
 20
1.29
 30
0.0
 40
0.06
  1
SCALE:
  0
TEXT
  5
5D9
  8
BORDER
 10
15.58
 20
1.03
 30
0.0
 40
0.06
  1
DATE:
  0
TEXT
  5
5DA
  8
DIM
 10
18.30854429236822
 20
1.804803234994252
 30
0.0
 40
0.1
  1
641 FARGO
  0
TEXT
  5
5DB
  8
DIM
 10
18.30854429236822
 20
1.638136568327585
 30
0.0
 40
0.1
  1
ELK GROVE VILLAGE, IL
  0
TEXT
  5
5DC
  8
DIM
 10
19.81956348698446
 20
1.487756832761487
 30
0.0
 40
0.1
  1
 60007
  0
ATTDEF
  5
5DD
  8
DIM
 10
15.91902556599834
 20
0.5882298310778304
 30
0.0
 40
0.2
  1

  3

  2
NAME
 70
     0
  0
ATTDEF
  5
5DE
  8
DIM
 10
15.97524953603057
 20
1.266561668413047
 30
0.0
 40
0.1
  1

  3

  2
SCALE
 70
     0
  0
ATTDEF
  5
5DF
  8
DIM
 10
15.95416554726849
 20
1.023246987629763
 30
0.0
 40
0.1
  1

  3

  2
DATE
 70
     0
  0
ATTDEF
  5
5E0
  8
DIM
 10
20.13582331841577
 20
1.281308012702943
 30
0.0
 40
0.1
  1
J.B.
  3

  2
NAME
 70
     0
  0
ATTDEF
  5
5E1
  8
DIM
 10
20.07959934838354
 20
1.023246987629763
 30
0.0
 40
0.1
  1

  3

  2
REVISED
 70
     0
  0
TEXT
  5
5E2
  8
DIM
 10
15.59573773831301
 20
0.2785566009900141
 30
0.0
 40
0.1
  1
MATERIAL:
  0
TEXT
  5
5E3
  8
DIM
 10
15.59573773831301
 20
0.1045167621783995
 30
0.0
 40
0.1
  1
HEAT TREAT:
  0
TEXT
  5
5E4
  8
DIM
 10
17.92200449839662
 20
0.271183428845066
 30
0.0
 40
0.1
  1
FINISH:
  0
ATTDEF
  5
5E5
  8
DIM
 10
16.43206929254246
 20
0.2785566009900141
 30
0.0
 40
0.1
  1

  3

  2
MATERIAL
 70
     0
  0
ATTDEF
  5
5E6
  8
DIM
 10
16.64993717641736
 20
0.1016004695112617
 30
0.0
 40
0.1
  1

  3

  2
HEATTREAT
 70
     0
  0
ATTDEF
  5
5E7
  8
DIM
 10
18.51235618373506
 20
0.2638102567001179
 30
0.0
 40
0.1
  1

  3

  2
FINISH
 70
     0
  0
ATTDEF
  5
5E8
  8
DIM
 10
19.58061161434747
 20
0.1089736416562099
 30
0.0
 40
0.15
  1

  3

  2
DRAWINGNO.
 70
     0
  0
LINE
  5
5E9
  8
LINE
 10
13.01778291634846
 20
0.4500000000000002
 30
0.0
 11
12.51778291634846
 21
0.4500000000000002
 31
0.0
  0
LINE
  5
5EA
  8
LINE
 10
12.51778291634846
 20
0.4500000000000002
 30
0.0
 11
12.51778291634846
 21
0.0
 31
0.0
  0
TEXT
  5
5EB
  8
DIM
 10
12.6145329206254
 20
0.3006761174248581
 30
0.0
 40
0.1
  1
REV.
  0
ATTDEF
  5
5EC
  8
DIM
 10
12.67778488691166
 20
0.1237199859461057
 30
0.0
 40
0.15
  1
A
  3

  2
REV.
 70
     0
  0
TEXT
  5
5ED
  8
DIM
 10
11.9943702101711
 20
7.35567745037055
 30
0.0
 40
0.06
  1
THIS DOCUMENT CONTAINS PROPRIETARY INFORMATION OF KAISER PRECISION TOOLING, INC. AND IS SUBJECT TO BEING RETURNED UPON REQUEST.
  0
TEXT
  5
5EE
  8
DIM
 10
11.9943702101711
 20
7.25567745037055
 30
0.0
 40
0.06
  1
IT IS NOT TO BE REPRODUCED WITHOUT WRITTEN CONSENT OF KAISER PRECISION TOOLING, INC. ANY REPRODUCTION MUST INCLUDE THIS ENTIRE LEGEND.
  0
LINE
  5
5EF
  8
LINE
 10
13.01778291634846
 20
2.0
 30
0.0
 11
15.5
 21
2.0
 31
0.0
  0
LINE
  5
5F0
  8
LINE
 10
13.01778291634846
 20
2.0
 30
0.0
 11
13.01778291634846
 21
0.0
 31
0.0
  0
TEXT
  5
5F1
  8
DIM
 10
13.2846517690308
 20
1.847932127646515
 30
0.0
 40
0.08
  1
UNLESS OTHERWISE SPECIFIED
  0
TEXT
  5
5F2
  8
DIM
 10
13.2846517690308
 20
1.714598794313182
 30
0.0
 40
0.08
  1
BREAK ALL EDGES .015x45%%D
  0
TEXT
  5
5F3
  8
DIM
 10
13.2846517690308
 20
1.581265460979848
 30
0.0
 40
0.08
  1
SURFACE FINISH=64 OR BETTER
  0
TEXT
  5
5F4
  8
DIM
 10
13.2846517690308
 20
1.447932127646515
 30
0.0
 40
0.08
  1
DECIMAL: .XX=%%P.015
  0
TEXT
  5
5F5
  8
DIM
 10
13.2846517690308
 20
1.314598794313182
 30
0.0
 40
0.08
  1
        .XXX=%%P.005
  0
TEXT
  5
5F6
  8
DIM
 10
13.2846517690308
 20
1.181265460979849
 30
0.0
 40
0.08
  1
        .XXXX=%%P.0005
  0
TEXT
  5
5F7
  8
DIM
 10
13.2846517690308
 20
1.047932127646515
 30
0.0
 40
0.08
  1
ANGULAR: DEGREE=%%P1%%D
  0
TEXT
  5
5F8
  8
DIM
 10
13.2846517690308
 20
0.9145987943131819
 30
0.0
 40
0.08
  1
        MINUTES=%%P15'
  0
TEXT
  5
5F9
  8
DIM
 10
13.27289272387865
 20
0.560597969831885
 30
0.0
 40
0.1
  1
DO NOT SCALE DRAWING
  0
TEXT
  5
5FA
  8
DIM
 10
16.72730843827956
 20
1.553756424222531
 30
0.0
 40
0.072
  1
PRECISION TOOLING,INC.
 50
359.9394791519117
 41
1.034257277458628
  7
ROMANS
 72
     5
 11
18.06844978691984
 21
1.552339792095294
 31
0.0
  0
ARC
  5
5FB
  8
DIM
 10
18.07878305046467
 20
1.672226935313698
 30
0.0
 40
0.06
 50
180.0
 51
194.366235341689
  0
ARC
  5
5FC
  8
DIM
 10
18.09978305046467
 20
1.675066229854647
 30
0.0
 40
0.036
 50
180.0
 51
209.4985180895017
  0
ARC
  5
5FD
  8
DIM
 10
17.99178305046467
 20
1.752589792095294
 30
0.0
 40
0.027
 50
0.0
 51
90.0
  0
ARC
  5
5FE
  8
DIM
 10
18.02628305046467
 20
1.760839792095294
 30
0.0
 40
0.0375
 50
0.0
 51
89.99999999999861
  0
ARC
  5
5FF
  8
DIM
 10
18.02628305046467
 20
1.835839792095293
 30
0.0
 40
0.0375
 50
270.0
 51
0.0
  0
LINE
  5
600
  8
DIM
 10
18.02065927764503
 20
1.657339792095293
 30
0.0
 11
18.06844978691984
 21
1.657339792095293
 31
0.0
  0
LINE
  5
601
  8
DIM
 10
18.01878305046467
 20
1.752589792095294
 30
0.0
 11
18.01878305046467
 21
1.672226935313698
 31
0.0
  0
LINE
  5
602
  8
DIM
 10
18.06378305046467
 20
1.892539792095294
 30
0.0
 11
18.06378305046467
 21
1.835839792095293
 31
0.0
  0
ARC
  5
603
  8
DIM
 10
18.00078305046467
 20
1.835089792095295
 30
0.0
 40
0.018
 50
270.0
 51
0.0
  0
ARC
  5
604
  8
DIM
 10
18.00078305046467
 20
1.883839792095293
 30
0.0
 40
0.018
 50
0.0
 51
90.0
  0
LINE
  5
605
  8
DIM
 10
18.01878305046467
 20
1.835089792095295
 30
0.0
 11
18.01878305046467
 21
1.883839792095293
 31
0.0
  0
LINE
  5
606
  8
DIM
 10
17.97078305046466
 20
1.817089792095294
 30
0.0
 11
17.97078305046467
 21
1.901839792095294
 31
0.0
  0
LINE
  5
607
  8
DIM
 10
17.92578305046467
 20
1.657339792095293
 30
0.0
 11
17.97078305046467
 21
1.657339792095293
 31
0.0
  0
LINE
  5
608
  8
DIM
 10
17.99178305046467
 20
1.779589792095294
 30
0.0
 11
17.97078305046467
 21
1.779589792095294
 31
0.0
  0
LINE
  5
609
  8
DIM
 10
18.00078305046467
 20
1.817089792095295
 30
0.0
 11
17.97078305046467
 21
1.817089792095294
 31
0.0
  0
LINE
  5
60A
  8
DIM
 10
17.97078305046467
 20
1.657339792095293
 30
0.0
 11
17.97078305046467
 21
1.779589792095294
 31
0.0
  0
LINE
  5
60B
  8
DIM
 10
17.97078305046467
 20
1.901839792095294
 30
0.0
 11
18.00078305046467
 21
1.901839792095293
 31
0.0
  0
ARC
  5
60C
  8
DIM
 10
18.01698305046467
 20
1.892539792095294
 30
0.0
 40
0.0468
 50
0.0
 51
90.0
  0
LINE
  5
60D
  8
DIM
 10
18.06378305046467
 20
1.675066229854647
 30
0.0
 11
18.06378305046467
 21
1.760839792095294
 31
0.0
  0
LINE
  5
60E
  8
DIM
 10
17.92578305046467
 20
1.939339792095294
 30
0.0
 11
18.01698305046467
 21
1.939339792095294
 31
0.0
  0
LINE
  5
60F
  8
DIM
 10
17.92578305046467
 20
1.657339792095293
 30
0.0
 11
17.92578305046467
 21
1.939339792095294
 31
0.0
  0
LINE
  5
610
  8
DIM
 10
17.83578305046467
 20
1.817089792095294
 30
0.0
 11
17.83578305046467
 21
1.901839792095294
 31
0.0
  0
LINE
  5
611
  8
DIM
 10
17.89878305046467
 20
1.779589792095294
 30
0.0
 11
17.89878305046467
 21
1.817089792095294
 31
0.0
  0
LINE
  5
612
  8
DIM
 10
17.89878305046467
 20
1.779589792095294
 30
0.0
 11
17.83578305046467
 21
1.779589792095294
 31
0.0
  0
LINE
  5
613
  8
DIM
 10
17.89878305046467
 20
1.817089792095294
 30
0.0
 11
17.83578305046467
 21
1.817089792095294
 31
0.0
  0
LINE
  5
614
  8
DIM
 10
17.89878305046467
 20
1.901839792095294
 30
0.0
 11
17.89878305046467
 21
1.939339792095294
 31
0.0
  0
LINE
  5
615
  8
DIM
 10
17.83578305046467
 20
1.901839792095294
 30
0.0
 11
17.89878305046467
 21
1.901839792095294
 31
0.0
  0
LINE
  5
616
  8
DIM
 10
17.83578305046467
 20
1.694839792095293
 30
0.0
 11
17.89878305046467
 21
1.694839792095293
 31
0.0
  0
LINE
  5
617
  8
DIM
 10
17.83578305046467
 20
1.694839792095293
 30
0.0
 11
17.83578305046467
 21
1.779589792095294
 31
0.0
  0
LINE
  5
618
  8
DIM
 10
17.79078305046467
 20
1.939339792095294
 30
0.0
 11
17.89878305046467
 21
1.939339792095294
 31
0.0
  0
LINE
  5
619
  8
DIM
 10
17.79078305046467
 20
1.657339792095293
 30
0.0
 11
17.79078305046467
 21
1.939339792095294
 31
0.0
  0
LINE
  5
61A
  8
DIM
 10
17.89878305046467
 20
1.657339792095293
 30
0.0
 11
17.89878305046467
 21
1.694839792095293
 31
0.0
  0
LINE
  5
61B
  8
DIM
 10
17.79078305046467
 20
1.657339792095293
 30
0.0
 11
17.89878305046467
 21
1.657339792095293
 31
0.0
  0
ARC
  5
61C
  8
DIM
 10
17.68906498828673
 20
1.892539792095293
 30
0.0
 40
0.0468
 50
90.0
 51
205.0000000000001
  0
LINE
  5
61D
  8
DIM
 10
17.64078305046467
 20
1.694839792095293
 30
0.0
 11
17.64078305046467
 21
1.657339792095293
 31
0.0
  0
ARC
  5
61E
  8
DIM
 10
17.70297739671163
 20
1.886839792095292
 30
0.0
 40
0.015
 50
90.00000000000082
 51
204.9999999999997
  0
LINE
  5
61F
  8
DIM
 10
17.75478305046467
 20
1.939339792095293
 30
0.0
 11
17.68906498828673
 21
1.939339792095293
 31
0.0
  0
LINE
  5
620
  8
DIM
 10
17.75478305046467
 20
1.901839792095293
 30
0.0
 11
17.70297739671163
 21
1.901839792095292
 31
0.0
  0
LINE
  5
621
  8
DIM
 10
17.75478305046467
 20
1.939339792095293
 30
0.0
 11
17.75478305046467
 21
1.901839792095293
 31
0.0
  0
ARC
  5
622
  8
DIM
 10
17.70607064203977
 20
1.709839792095294
 30
0.0
 40
0.015
 50
270.0
 51
25.00000000000002
  0
LINE
  5
623
  8
DIM
 10
17.71966525884532
 20
1.716179066021404
 30
0.0
 11
17.64664978385342
 21
1.872761257445828
 31
0.0
  0
LINE
  5
624
  8
DIM
 10
17.76239825489798
 20
1.723918326744761
 30
0.0
 11
17.68938277990609
 21
1.880500518169181
 31
0.0
  0
ARC
  5
625
  8
DIM
 10
17.71998305046467
 20
1.704139792095296
 30
0.0
 40
0.0468
 50
270.0
 51
24.99999999999686
  0
LINE
  5
626
  8
DIM
 10
17.64078305046467
 20
1.694839792095293
 30
0.0
 11
17.70607064203977
 21
1.694839792095293
 31
0.0
  0
LINE
  5
627
  8
DIM
 10
17.64078305046467
 20
1.657339792095293
 30
0.0
 11
17.71998305046467
 21
1.657339792095293
 31
0.0
  0
LINE
  5
628
  8
DIM
 10
17.61078305046467
 20
1.939339792095293
 30
0.0
 11
17.61078305046467
 21
1.657339792095293
 31
0.0
  0
LINE
  5
629
  8
DIM
 10
17.56878305046467
 20
1.939339792095294
 30
0.0
 11
17.61078305046467
 21
1.939339792095293
 31
0.0
  0
LINE
  5
62A
  8
DIM
 10
17.56878305046467
 20
1.657339792095293
 30
0.0
 11
17.56878305046467
 21
1.939339792095294
 31
0.0
  0
LINE
  5
62B
  8
DIM
 10
17.56878305046467
 20
1.657339792095293
 30
0.0
 11
17.61078305046467
 21
1.657339792095293
 31
0.0
  0
LINE
  5
62C
  8
DIM
 10
17.40872313781339
 20
1.694839792095291
 30
0.0
 11
17.44170198362512
 21
1.864501245758061
 31
0.0
  0
LINE
  5
62D
  8
DIM
 10
17.40872313781339
 20
1.694839792095291
 30
0.0
 11
17.46118390544374
 21
1.694839792095291
 31
0.0
  0
LINE
  5
62E
  8
DIM
 10
17.47123200015991
 20
1.657339792095292
 30
0.0
 11
17.46118390544374
 21
1.694839792095291
 31
0.0
  0
LINE
  5
62F
  8
DIM
 10
17.36323200015991
 20
1.657339792095292
 30
0.0
 11
17.47123200015991
 21
1.657339792095292
 31
0.0
  0
LINE
  5
630
  8
DIM
 10
17.50718093525289
 20
1.657339792095292
 30
0.0
 11
17.44170198362512
 21
1.864501245758061
 31
0.0
  0
LINE
  5
631
  8
DIM
 10
17.5521809352529
 20
1.657339792095292
 30
0.0
 11
17.50718093525289
 21
1.657339792095292
 31
0.0
  0
LINE
  5
632
  8
DIM
 10
17.47661926298732
 20
1.939339792095292
 30
0.0
 11
17.5521809352529
 21
1.657339792095292
 31
0.0
  0
LINE
  5
633
  8
DIM
 10
17.41804724733675
 20
1.939339792095292
 30
0.0
 11
17.47661926298732
 21
1.939339792095292
 31
0.0
  0
LINE
  5
634
  8
DIM
 10
17.36323200015991
 20
1.657339792095292
 30
0.0
 11
17.41804724733675
 21
1.939339792095292
 31
0.0
  0
LINE
  5
635
  8
DIM
 10
17.28915260940612
 20
1.809285876785438
 30
0.0
 11
17.34979774608814
 21
1.939339792095293
 31
0.0
  0
LINE
  5
636
  8
DIM
 10
17.23724513521168
 20
1.657339792095293
 30
0.0
 11
17.23724513521168
 21
1.697969939149305
 31
0.0
  0
LINE
  5
637
  8
DIM
 10
17.18624513521168
 20
1.657339792095293
 30
0.0
 11
17.23724513521168
 21
1.657339792095293
 31
0.0
  0
LINE
  5
638
  8
DIM
 10
17.29879774608814
 20
1.657339792095293
 30
0.0
 11
17.26167299834513
 21
1.750355660692248
 31
0.0
  0
LINE
  5
639
  8
DIM
 10
17.29879774608814
 20
1.657339792095293
 30
0.0
 11
17.34979774608814
 21
1.657339792095293
 31
0.0
  0
LINE
  5
63A
  8
DIM
 10
17.34979774608814
 20
1.657339792095292
 30
0.0
 11
17.28915260940612
 21
1.809285876785438
 31
0.0
  0
LINE
  5
63B
  8
DIM
 10
17.23724513521168
 20
1.697969939149305
 30
0.0
 11
17.26167299834513
 21
1.750355660692248
 31
0.0
  0
LINE
  5
63C
  8
DIM
 10
17.29879774608814
 20
1.939339792095293
 30
0.0
 11
17.34979774608814
 21
1.939339792095293
 31
0.0
  0
LINE
  5
63D
  8
DIM
 10
17.23724513521168
 20
1.807339792095293
 30
0.0
 11
17.29879774608814
 21
1.939339792095294
 31
0.0
  0
LINE
  5
63E
  8
DIM
 10
17.23724513521168
 20
1.939339792095294
 30
0.0
 11
17.23724513521168
 21
1.807339792095293
 31
0.0
  0
LINE
  5
63F
  8
DIM
 10
17.18624513521168
 20
1.939339792095294
 30
0.0
 11
17.23724513521168
 21
1.939339792095294
 31
0.0
  0
LINE
  5
640
  8
DIM
 10
17.18624513521168
 20
1.939339792095294
 30
0.0
 11
17.18624513521168
 21
1.657339792095293
 31
0.0
  0
ARC
  5
641
  8
DIM
 10
16.95524513521168
 20
1.810339792095294
 30
0.0
 40
0.0075
 50
270.0000000000051
 51
0.0000000000005598
  0
LINE
  5
642
  8
DIM
 10
17.04674513521168
 20
1.694839792095293
 30
0.0
 11
17.07674513521168
 21
1.694839792095293
 31
0.0
  0
LINE
  5
643
  8
DIM
 10
17.03924513521168
 20
1.687339792095296
 30
0.0
 11
17.08424513521168
 21
1.687339792095295
 31
0.0
  0
LINE
  5
644
  8
DIM
 10
17.07674513521168
 20
1.879339792095294
 30
0.0
 11
17.07674513521168
 21
1.694839792095293
 31
0.0
  0
LINE
  5
645
  8
DIM
 10
17.08424513521168
 20
1.871839792095292
 30
0.0
 11
17.11124513521168
 21
1.871839792095293
 31
0.0
  0
LINE
  5
646
  8
DIM
 10
17.10374513521168
 20
1.879339792095292
 30
0.0
 11
17.07674513521168
 21
1.879339792095294
 31
0.0
  0
LINE
  5
647
  8
DIM
 10
17.04674513521168
 20
1.879339792095293
 30
0.0
 11
17.04674513521168
 21
1.694839792095293
 31
0.0
  0
LINE
  5
648
  8
DIM
 10
17.03924513521168
 20
1.871839792095292
 30
0.0
 11
17.03924513521168
 21
1.687339792095296
 31
0.0
  0
LINE
  5
649
  8
DIM
 10
17.08424513521168
 20
1.871839792095292
 30
0.0
 11
17.08424513521168
 21
1.687339792095295
 31
0.0
  0
LINE
  5
64A
  8
DIM
 10
17.10374513521168
 20
1.901839792095295
 30
0.0
 11
17.10374513521168
 21
1.879339792095292
 31
0.0
  0
LINE
  5
64B
  8
DIM
 10
17.11124513521168
 20
1.909339792095292
 30
0.0
 11
17.11124513521168
 21
1.871839792095293
 31
0.0
  0
LINE
  5
64C
  8
DIM
 10
17.01974513521168
 20
1.901839792095295
 30
0.0
 11
17.10374513521168
 21
1.901839792095295
 31
0.0
  0
LINE
  5
64D
  8
DIM
 10
17.01974513521168
 20
1.879339792095293
 30
0.0
 11
17.04674513521168
 21
1.879339792095293
 31
0.0
  0
LINE
  5
64E
  8
DIM
 10
17.01224513521168
 20
1.871839792095293
 30
0.0
 11
17.03924513521168
 21
1.871839792095293
 31
0.0
  0
LINE
  5
64F
  8
DIM
 10
17.01974513521168
 20
1.901839792095295
 30
0.0
 11
17.01974513521168
 21
1.879339792095293
 31
0.0
  0
LINE
  5
650
  8
DIM
 10
17.01224513521168
 20
1.909339792095292
 30
0.0
 11
17.01224513521168
 21
1.871839792095293
 31
0.0
  0
ARC
  5
651
  8
DIM
 10
16.97174513521168
 20
1.796839792095295
 30
0.0
 40
0.027
 50
270.0000000000023
 51
0.0
  0
ARC
  5
652
  8
DIM
 10
16.97174513521168
 20
1.796839792095297
 30
0.0
 40
0.0345
 50
270.0000000000013
 51
359.9999999999998
  0
LINE
  5
653
  8
DIM
 10
16.93574513521168
 20
1.769839792095294
 30
0.0
 11
16.97174513521168
 21
1.769839792095296
 31
0.0
  0
LINE
  5
654
  8
DIM
 10
16.94324513521168
 20
1.762339792095296
 30
0.0
 11
16.97174513521168
 21
1.762339792095297
 31
0.0
  0
LINE
  5
655
  8
DIM
 10
16.94324513521168
 20
1.687339792095296
 30
0.0
 11
16.94324513521168
 21
1.762339792095295
 31
0.0
  0
LINE
  5
656
  8
DIM
 10
16.93574513521168
 20
1.694839792095294
 30
0.0
 11
16.93574513521168
 21
1.769839792095294
 31
0.0
  0
ARC
  5
657
  8
DIM
 10
16.95674513521168
 20
1.808839792095294
 30
0.0
 40
0.0135
 50
270.0000000000036
 51
0.0000000000004326
  0
LINE
  5
658
  8
DIM
 10
16.94324513521168
 20
1.802839792095292
 30
0.0
 11
16.95524513521168
 21
1.802839792095294
 31
0.0
  0
LINE
  5
659
  8
DIM
 10
16.93574513521168
 20
1.795339792095293
 30
0.0
 11
16.95674513521168
 21
1.795339792095294
 31
0.0
  0
ARC
  5
65A
  8
DIM
 10
16.95524513521168
 20
1.864339792095294
 30
0.0
 40
0.0075
 50
0.0000000000003053
 51
90.0
  0
LINE
  5
65B
  8
DIM
 10
16.96274513521168
 20
1.864339792095294
 30
0.0
 11
16.96274513521168
 21
1.810339792095294
 31
0.0
  0
ARC
  5
65C
  8
DIM
 10
16.95674513521168
 20
1.865839792095294
 30
0.0
 40
0.0135
 50
0.0000000000001527
 51
90.00000000000178
  0
LINE
  5
65D
  8
DIM
 10
16.97024513521168
 20
1.865839792095294
 30
0.0
 11
16.97024513521168
 21
1.808839792095294
 31
0.0
  0
LINE
  5
65E
  8
DIM
 10
16.94324513521168
 20
1.871839792095293
 30
0.0
 11
16.95524513521168
 21
1.871839792095293
 31
0.0
  0
LINE
  5
65F
  8
DIM
 10
16.94324513521168
 20
1.871839792095293
 30
0.0
 11
16.94324513521168
 21
1.802839792095292
 31
0.0
  0
ARC
  5
660
  8
DIM
 10
16.97174513521168
 20
1.874839792095294
 30
0.0
 40
0.027
 50
0.0000000000001527
 51
89.99999999999804
  0
ARC
  5
661
  8
DIM
 10
16.97174513521168
 20
1.874839792095295
 30
0.0
 40
0.0345
 50
0.0
 51
90.0
  0
LINE
  5
662
  8
DIM
 10
17.01224513521168
 20
1.909339792095292
 30
0.0
 11
17.11124513521168
 21
1.909339792095291
 31
0.0
  0
LINE
  5
663
  8
DIM
 10
16.99874513521168
 20
1.874839792095294
 30
0.0
 11
16.99874513521168
 21
1.796839792095295
 31
0.0
  0
LINE
  5
664
  8
DIM
 10
16.93574513521168
 20
1.879339792095293
 30
0.0
 11
16.95674513521168
 21
1.879339792095294
 31
0.0
  0
LINE
  5
665
  8
DIM
 10
16.93574513521168
 20
1.879339792095293
 30
0.0
 11
16.93574513521168
 21
1.795339792095293
 31
0.0
  0
LINE
  5
666
  8
DIM
 10
17.00624513521168
 20
1.874839792095295
 30
0.0
 11
17.00624513521168
 21
1.796839792095297
 31
0.0
  0
LINE
  5
667
  8
DIM
 10
16.90574513521168
 20
1.694839792095294
 30
0.0
 11
16.93574513521168
 21
1.694839792095294
 31
0.0
  0
LINE
  5
668
  8
DIM
 10
16.90574513521168
 20
1.901839792095295
 30
0.0
 11
16.97174513521168
 21
1.901839792095294
 31
0.0
  0
LINE
  5
669
  8
DIM
 10
16.90574513521168
 20
1.901839792095295
 30
0.0
 11
16.90574513521168
 21
1.694839792095294
 31
0.0
  0
LINE
  5
66A
  8
DIM
 10
16.89824513521168
 20
1.687339792095295
 30
0.0
 11
16.94324513521168
 21
1.687339792095296
 31
0.0
  0
LINE
  5
66B
  8
DIM
 10
16.89824513521168
 20
1.909339792095293
 30
0.0
 11
16.97174513521168
 21
1.909339792095294
 31
0.0
  0
LINE
  5
66C
  8
DIM
 10
16.89824513521168
 20
1.909339792095293
 30
0.0
 11
16.89824513521168
 21
1.687339792095295
 31
0.0
  0
LINE
  5
66D
  8
DIM
 10
16.79774513521168
 20
1.724430399980784
 30
0.0
 11
16.79774513521168
 21
1.694839792095293
 31
0.0
  0
LINE
  5
66E
  8
DIM
 10
16.82159149859804
 20
1.75782257941817
 30
0.0
 11
16.80524513521168
 21
1.722767690010963
 31
0.0
  0
LINE
  5
66F
  8
DIM
 10
16.82244637073927
 20
1.777402370514837
 30
0.0
 11
16.79774513521168
 21
1.724430399980784
 31
0.0
  0
LINE
  5
670
  8
DIM
 10
16.80524513521168
 20
1.722767690010963
 30
0.0
 11
16.80524513521168
 21
1.687339792095294
 31
0.0
  0
LINE
  5
671
  8
DIM
 10
16.84724513521168
 20
1.687339792095295
 30
0.0
 11
16.89224513521168
 21
1.687339792095295
 31
0.0
  0
LINE
  5
672
  8
DIM
 10
16.85202316216774
 20
1.901839792095292
 30
0.0
 11
16.8804724933833
 21
1.901839792095293
 31
0.0
  0
LINE
  5
673
  8
DIM
 10
16.85202316216774
 20
1.901839792095292
 30
0.0
 11
16.79774513521168
 21
1.785440187656427
 31
0.0
  0
LINE
  5
674
  8
DIM
 10
16.84724513521168
 20
1.909339792095293
 30
0.0
 11
16.80524513521168
 21
1.819270501433893
 31
0.0
  0
LINE
  5
675
  8
DIM
 10
16.84724513521168
 20
1.909339792095293
 30
0.0
 11
16.89224513521168
 21
1.909339792095293
 31
0.0
  0
LINE
  5
676
  8
DIM
 10
16.8804724933833
 20
1.901839792095293
 30
0.0
 11
16.8387545623296
 21
1.812375400241287
 31
0.0
  0
LINE
  5
677
  8
DIM
 10
16.89224513521168
 20
1.909339792095293
 30
0.0
 11
16.84686477735027
 21
1.812021300606294
 31
0.0
  0
LINE
  5
678
  8
DIM
 10
16.85249669174825
 20
1.694839792095294
 30
0.0
 11
16.82244637073927
 21
1.777402370514838
 31
0.0
  0
LINE
  5
679
  8
DIM
 10
16.84724513521168
 20
1.687339792095295
 30
0.0
 11
16.82159149859804
 21
1.75782257941817
 31
0.0
  0
LINE
  5
67A
  8
DIM
 10
16.88153402516112
 20
1.694839792095294
 30
0.0
 11
16.8387545623296
 21
1.812375400241288
 31
0.0
  0
LINE
  5
67B
  8
DIM
 10
16.89224513521168
 20
1.687339792095295
 30
0.0
 11
16.84686477735027
 21
1.812021300606294
 31
0.0
  0
LINE
  5
67C
  8
DIM
 10
16.88153402516112
 20
1.694839792095293
 30
0.0
 11
16.85249669174825
 21
1.694839792095294
 31
0.0
  0
LINE
  5
67D
  8
DIM
 10
16.77074513521168
 20
1.694839792095293
 30
0.0
 11
16.79774513521168
 21
1.694839792095293
 31
0.0
  0
LINE
  5
67E
  8
DIM
 10
16.77074513521168
 20
1.901839792095294
 30
0.0
 11
16.79774513521168
 21
1.901839792095293
 31
0.0
  0
LINE
  5
67F
  8
DIM
 10
16.79774513521168
 20
1.901839792095294
 30
0.0
 11
16.79774513521168
 21
1.785440187656427
 31
0.0
  0
LINE
  5
680
  8
DIM
 10
16.80524513521168
 20
1.909339792095293
 30
0.0
 11
16.80524513521168
 21
1.819270501433893
 31
0.0
  0
LINE
  5
681
  8
DIM
 10
16.77074513521168
 20
1.901839792095294
 30
0.0
 11
16.77074513521168
 21
1.694839792095293
 31
0.0
  0
LINE
  5
682
  8
DIM
 10
16.76324513521168
 20
1.909339792095293
 30
0.0
 11
16.80524513521168
 21
1.909339792095293
 31
0.0
  0
LINE
  5
683
  8
DIM
 10
16.76324513521168
 20
1.687339792095294
 30
0.0
 11
16.80524513521168
 21
1.687339792095295
 31
0.0
  0
LINE
  5
684
  8
DIM
 10
16.76324513521168
 20
1.909339792095293
 30
0.0
 11
16.76324513521168
 21
1.687339792095294
 31
0.0
  0
LINE
  5
685
  8
DIM
 10
17.14124513521168
 20
1.939339792095294
 30
0.0
 11
17.14124513521168
 21
1.657339792095293
 31
0.0
  0
LINE
  5
686
  8
DIM
 10
16.72724513521168
 20
1.939339792095294
 30
0.0
 11
16.72724513521168
 21
1.657339792095293
 31
0.0
  0
LINE
  5
687
  8
DIM
 10
16.72724513521168
 20
1.939339792095294
 30
0.0
 11
17.14124513521168
 21
1.939339792095294
 31
0.0
  0
LINE
  5
688
  8
DIM
 10
16.72724513521168
 20
1.657339792095293
 30
0.0
 11
17.14124513521168
 21
1.657339792095293
 31
0.0
  0
LINE
  5
689
  8
BORDER
 10
10.74
 20
7.720000000000001
 30
0.0
 11
21.0
 21
7.72
 31
0.0
  0
LINE
  5
68A
  8
BORDER
 10
10.74
 20
0.0
 30
0.0
 11
10.74
 21
7.720000000000001
 31
0.0
  0
ENDBLK
  5
C03
  8
0
  0
BLOCK
  8
0
  2
*D1
 70
     1
 10
0.0
 20
0.0
 30
0.0
  3
*D1
  1

  0
LINE
  5
6B0
  8
0
  6
BYBLOCK
 62
     0
 10
100.0737543915034
 20
134.4267173629944
 30
0.0
 11
100.0737543915034
 21
142.9254896046524
 31
0.0
  0
LINE
  5
6B1
  8
0
  6
BYBLOCK
 62
     0
 10
135.5832303120801
 20
133.7590331839838
 30
0.0
 11
135.5832303120801
 21
142.9254896046524
 31
0.0
  0
LINE
  5
6B2
  8
0
  6
BYBLOCK
 62
     0
 10
101.2737543915034
 20
142.3004896046524
 30
0.0
 11
134.3832303120801
 21
142.3004896046524
 31
0.0
  0
SOLID
  5
6B3
  8
0
  6
BYBLOCK
 62
     0
 10
101.2737543915034
 20
142.5004896046524
 30
0.0
 11
101.2737543915034
 21
142.1004896046524
 31
0.0
 12
100.0737543915034
 22
142.3004896046524
 32
0.0
 13
100.0737543915034
 23
142.3004896046524
 33
0.0
  0
SOLID
  5
6B4
  8
0
  6
BYBLOCK
 62
     0
 10
134.3832303120801
 20
142.5004896046524
 30
0.0
 11
134.3832303120801
 21
142.1004896046524
 31
0.0
 12
135.5832303120801
 22
142.3004896046524
 32
0.0
 13
135.5832303120801
 23
142.3004896046524
 33
0.0
  0
TEXT
  5
6B5
  8
0
  6
CONTINUOUS
 62
     0
 10
114.8645442176784
 20
142.8004896046524
 30
0.0
 40
1.25
  1
35.5
  7
ROMANS
  0
POINT
  5
6B6
  8
DEFPOINTS
  6
BYBLOCK
 62
     0
 10
100.0737543915034
 20
133.8017173629944
 30
0.0
  0
POINT
  5
6B7
  8
DEFPOINTS
  6
BYBLOCK
 62
     0
 10
135.5832303120801
 20
133.1340331839838
 30
0.0
  0
POINT
  5
6B8
  8
DEFPOINTS
  6
BYBLOCK
 62
     0
 10
135.5832303120801
 20
142.3004896046524
 30
0.0
  0
ENDBLK
  5
C05
  8
0
  0
BLOCK
  8
0
  2
*D2
 70
     1
 10
0.0
 20
0.0
 30
0.0
  3
*D2
  1

  0
LINE
  5
6BC
  8
0
  6
BYBLOCK
 62
     0
 10
129.8832429120802
 20
137.1767173629944
 30
0.0
 11
129.8832429120802
 21
140.3840128223937
 31
0.0
  0
LINE
  5
6BD
  8
0
  6
BYBLOCK
 62
     0
 10
131.0832429120802
 20
139.7590128223937
 30
0.0
 11
134.3832303120801
 21
139.7590128223937
 31
0.0
  0
LINE
  5
6BE
  8
0
  6
BYBLOCK
 62
     0
 10
135.5832303120801
 20
139.7590128223937
 30
0.0
 11
141.9498969787468
 21
139.7590128223937
 31
0.0
  0
SOLID
  5
6BF
  8
0
  6
BYBLOCK
 62
     0
 10
131.0832429120802
 20
139.9590128223937
 30
0.0
 11
131.0832429120802
 21
139.5590128223938
 31
0.0
 12
129.8832429120802
 22
139.7590128223937
 32
0.0
 13
129.8832429120802
 23
139.7590128223937
 33
0.0
  0
SOLID
  5
6C0
  8
0
  6
BYBLOCK
 62
     0
 10
134.3832303120801
 20
139.9590128223937
 30
0.0
 11
134.3832303120801
 21
139.5590128223938
 31
0.0
 12
135.5832303120801
 22
139.7590128223937
 32
0.0
 13
135.5832303120801
 23
139.7590128223937
 33
0.0
  0
TEXT
  5
6C1
  8
0
  6
CONTINUOUS
 62
     0
 10
137.0451350739849
 20
140.794727108108
 30
0.0
 40
1.25
  1
(5.7)
  7
ROMANS
  0
POINT
  5
6C2
  8
DEFPOINTS
  6
BYBLOCK
 62
     0
 10
135.5832303120801
 20
133.1340331839838
 30
0.0
  0
POINT
  5
6C3
  8
DEFPOINTS
  6
BYBLOCK
 62
     0
 10
129.8832429120802
 20
136.5517173629944
 30
0.0
  0
POINT
  5
6C4
  8
DEFPOINTS
  6
BYBLOCK
 62
     0
 10
129.8832429120802
 20
139.7590128223937
 30
0.0
  0
ENDBLK
  5
C07
  8
0
  0
BLOCK
  8
0
  2
*D3
 70
     1
 10
0.0
 20
0.0
 30
0.0
  3
*D3
  1

  0
LINE
  5
6C9
  8
0
  6
BYBLOCK
 62
     0
 10
101.2737543915034
 20
139.7590128223937
 30
0.0
 11
128.6832429120802
 21
139.7590128223937
 31
0.0
  0
SOLID
  5
6CA
  8
0
  6
BYBLOCK
 62
     0
 10
101.2737543915034
 20
139.9590128223937
 30
0.0
 11
101.2737543915034
 21
139.5590128223938
 31
0.0
 12
100.0737543915034
 22
139.7590128223937
 32
0.0
 13
100.0737543915034
 23
139.7590128223937
 33
0.0
  0
SOLID
  5
6CB
  8
0
  6
BYBLOCK
 62
     0
 10
128.6832429120802
 20
139.9590128223937
 30
0.0
 11
128.6832429120802
 21
139.5590128223938
 31
0.0
 12
129.8832429120802
 22
139.7590128223937
 32
0.0
 13
129.8832429120802
 23
139.7590128223937
 33
0.0
  0
TEXT
  5
6CC
  8
0
  6
CONTINUOUS
 62
     0
 10
114.462986233592
 20
140.2590128223937
 30
0.0
 40
1.25
  1
29.8
  7
ROMANS
  0
POINT
  5
6CD
  8
DEFPOINTS
  6
BYBLOCK
 62
     0
 10
100.0737543915034
 20
133.8017173629944
 30
0.0
  0
POINT
  5
6CE
  8
DEFPOINTS
  6
BYBLOCK
 62
     0
 10
129.8832429120802
 20
136.5517173629944
 30
0.0
  0
POINT
  5
6CF
  8
DEFPOINTS
  6
BYBLOCK
 62
     0
 10
129.8832429120802
 20
139.7590128223937
 30
0.0
  0
ENDBLK
  5
C09
  8
0
  0
BLOCK
  8
0
  2
*D4
 70
     1
 10
0.0
 20
0.0
 30
0.0
  3
*D4
  1

  0
LINE
  5
6EF
  8
0
  6
BYBLOCK
 62
     0
 10
135.9744961894453
 20
133.0813408051191
 30
0.0
 11
142.7516832742147
 21
129.168530017379
 31
0.0
  0
ARC
  5
6F0
  8
0
  6
BYBLOCK
 62
     0
 10
129.91923819444
 20
136.5773456385482
 30
0.0
 40
14.19263124233814
 50
334.8458549157415
 51
355.1541450842593
  0
SOLID
  5
6F1
  8
0
  6
BYBLOCK
 62
     0
 10
142.9432248271467
 20
130.4521084231224
 30
0.0
 11
142.5886692668896
 21
130.6372849731786
 31
0.0
 12
142.2104173968494
 22
129.481030017379
 32
0.0
 13
142.2104173968494
 23
129.481030017379
 33
0.0
  0
SOLID
  5
6F2
  8
0
  6
BYBLOCK
 62
     0
 10
143.861317687362
 20
135.3868735385543
 30
0.0
 11
144.2609600846259
 21
135.3699633549596
 31
0.0
 12
144.1118694367781
 22
136.5773456385485
 32
0.0
 13
144.1118694367781
 23
136.5773456385485
 33
0.0
  0
TEXT
  5
6F3
  8
0
  6
CONTINUOUS
 62
     0
 10
143.0651197825501
 20
132.4880005002109
 30
0.0
 40
1.25
  1
30°
 50
78.68817732745453
  7
ROMANS
  0
POINT
  5
6F4
  8
DEFPOINTS
  6
BYBLOCK
 62
     0
 10
143.2559490424006
 20
131.7231798668753
 30
0.0
  0
POINT
  5
6F5
  8
DEFPOINTS
  6
BYBLOCK
 62
     0
 10
130.695051765023
 20
136.5773456385482
 30
0.0
  0
POINT
  5
6F6
  8
DEFPOINTS
  6
BYBLOCK
 62
     0
 10
135.4332303120801
 20
133.3938408051191
 30
0.0
  0
POINT
  5
6F7
  8
DEFPOINTS
  6
BYBLOCK
 62
     0
 10
130.0332429120802
 20
136.5115249841297
 30
0.0
  0
POINT
  5
6F8
  8
DEFPOINTS
  6
BYBLOCK
 62
     0
 10
148.6560964316877
 20
136.5773456385482
 30
0.0
  0
ENDBLK
  5
C0B
  8
0
  0
BLOCK
  8
0
  2
*D5
 70
     1
 10
0.0
 20
0.0
 30
0.0
  3
*D5
  1

  0
LINE
  5
7D5
  8
0
  6
BYBLOCK
 62
     0
 10
188.3848507361809
 20
155.2650690055166
 30
0.0
 11
176.8422290885385
 21
155.2650690055166
 31
0.0
  0
LINE
  5
7D6
  8
0
  6
BYBLOCK
 62
     0
 10
188.3848507361809
 20
144.8650690055166
 30
0.0
 11
176.8422290885385
 21
144.8650690055166
 31
0.0
  0
LINE
  5
7D7
  8
0
  6
BYBLOCK
 62
     0
 10
177.3422290885385
 20
154.3050690055165
 30
0.0
 11
177.3422290885385
 21
145.8250690055166
 31
0.0
  0
SOLID
  5
7D8
  8
0
  6
BYBLOCK
 62
     0
 10
177.1822290885385
 20
154.3050690055165
 30
0.0
 11
177.5022290885385
 21
154.3050690055165
 31
0.0
 12
177.3422290885385
 22
155.2650690055166
 32
0.0
 13
177.3422290885385
 23
155.2650690055166
 33
0.0
  0
SOLID
  5
7D9
  8
0
  6
BYBLOCK
 62
     0
 10
177.1822290885385
 20
145.8250690055166
 30
0.0
 11
177.5022290885385
 21
145.8250690055166
 31
0.0
 12
177.3422290885385
 22
144.8650690055166
 32
0.0
 13
177.3422290885385
 23
144.8650690055166
 33
0.0
  0
TEXT
  5
7DA
  8
0
  6
CONTINUOUS
 62
     0
 10
176.9422290885385
 20
147.8877097365427
 30
0.0
 40
1.0
  1
ø10.4
 50
90.0
  7
ROMANS
  0
POINT
  5
7DB
  8
DEFPOINTS
  6
BYBLOCK
 62
     0
 10
188.8848507361809
 20
155.2650690055166
 30
0.0
  0
POINT
  5
7DC
  8
DEFPOINTS
  6
BYBLOCK
 62
     0
 10
188.8848507361809
 20
144.8650690055166
 30
0.0
  0
POINT
  5
7DD
  8
DEFPOINTS
  6
BYBLOCK
 62
     0
 10
177.3422290885385
 20
144.8650690055166
 30
0.0
  0
ENDBLK
  5
C0D
  8
0
  0
BLOCK
  8
0
  2
*D6
 70
     1
 10
0.0
 20
0.0
 30
0.0
  3
*D6
  1

  0
LINE
  5
7E5
  8
0
  6
BYBLOCK
 62
     0
 10
195.092684175303
 20
152.5374297001888
 30
0.0
 11
179.7135355812106
 21
153.8829308568525
 31
0.0
  0
LINE
  5
7E6
  8
0
  6
BYBLOCK
 62
     0
 10
182.7860190911466
 20
150.0650690055166
 30
0.0
 11
179.5468441328869
 21
150.0650690055166
 31
0.0
  0
ARC
  5
7E7
  8
0
  6
BYBLOCK
 62
     0
 10
223.351896226699
 20
150.0650690055165
 30
0.0
 40
43.30505209381212
 50
176.270176850493
 51
178.7298231495071
  0
SOLID
  5
7E8
  8
0
  6
BYBLOCK
 62
     0
 10
179.9790329287312
 20
152.8943147644048
 30
0.0
 11
180.298104784297
 21
152.8699600731574
 31
0.0
 12
180.2116329302565
 22
153.8393529854787
 32
0.0
 13
180.2116329302565
 23
153.8393529854787
 33
0.0
  0
SOLID
  5
7E9
  8
0
  6
BYBLOCK
 62
     0
 10
180.2174750947039
 20
151.0232365664731
 30
0.0
 11
179.8974947526738
 21
151.0267834967405
 31
0.0
 12
180.0468441328869
 22
150.0650690055166
 32
0.0
 13
180.0468441328869
 23
150.0650690055166
 33
0.0
  0
TEXT
  5
7EA
  8
0
  6
CONTINUOUS
 62
     0
 10
179.6572544818131
 20
151.2300955830227
 30
0.0
 40
1.0
  1
5°
 50
87.59585502924021
  7
ROMANS
  0
POINT
  5
7EB
  8
DEFPOINTS
  6
BYBLOCK
 62
     0
 10
180.1201094270841
 20
152.5830338504704
 30
0.0
  0
POINT
  5
7EC
  8
DEFPOINTS
  6
BYBLOCK
 62
     0
 10
183.2860190911466
 20
150.0650690055166
 30
0.0
  0
POINT
  5
7ED
  8
DEFPOINTS
  6
BYBLOCK
 62
     0
 10
195.5907815243489
 20
152.493851828815
 30
0.0
  0
POINT
  5
7EE
  8
DEFPOINTS
  6
BYBLOCK
 62
     0
 10
200.6859031247902
 20
152.0480864494903
 30
0.0
  0
POINT
  5
7EF
  8
DEFPOINTS
  6
BYBLOCK
 62
     0
 10
204.0748337141838
 20
150.0650690055166
 30
0.0
  0
ENDBLK
  5
C0F
  8
0
  0
BLOCK
  8
0
  2
*D7
 70
     1
 10
0.0
 20
0.0
 30
0.0
  3
*D7
  1

  0
LINE
  5
7F4
  8
0
  6
BYBLOCK
 62
     0
 10
179.101204588982
 20
140.7048545938771
 30
0.0
 11
185.1274860581819
 21
146.4703213542168
 31
0.0
  0
TEXT
  5
7F5
  8
0
  6
CONTINUOUS
 62
     0
 10
178.9760811852483
 20
141.138725957988
 30
0.0
 40
1.0
  1
R5.2
 50
43.7329151235995
  7
ROMANS
  0
LINE
  5
7F6
  8
0
  6
BYBLOCK
 62
     0
 10
188.8848507361809
 20
150.0650690055166
 30
0.0
 11
185.1274860581819
 21
146.4703213542168
 31
0.0
  0
SOLID
  5
7F7
  8
0
  6
BYBLOCK
 62
     0
 10
184.3232111129728
 20
145.9222868548383
 30
0.0
 11
184.5444263530528
 21
145.6910644131153
 31
0.0
 12
185.1274860581819
 22
146.4703213542168
 32
0.0
 13
185.1274860581819
 23
146.4703213542168
 33
0.0
  0
POINT
  5
7F8
  8
DEFPOINTS
  6
BYBLOCK
 62
     0
 10
185.1274860581819
 20
146.4703213542168
 30
0.0
  0
POINT
  5
7F9
  8
DEFPOINTS
  6
BYBLOCK
 62
     0
 10
188.8848507361809
 20
150.0650690055166
 30
0.0
  0
ENDBLK
  5
C11
  8
0
  0
BLOCK
  8
0
  2
*D8
 70
     1
 10
0.0
 20
0.0
 30
0.0
  3
*D8
  1

  0
LINE
  5
7FE
  8
0
  6
BYBLOCK
 62
     0
 10
198.303761702467
 20
144.6567734281266
 30
0.0
 11
194.4043873134425
 21
149.8656033798825
 31
0.0
  0
TEXT
  5
7FF
  8
0
  6
CONTINUOUS
 62
     0
 10
196.4437128568127
 20
147.808908459059
 30
0.0
 40
1.0
  1
R1.5
 50
306.8188383115338
  7
ROMANS
  0
SOLID
  5
800
  8
0
  6
BYBLOCK
 62
     0
 10
195.107788178829
 20
149.1929762747392
 30
0.0
 11
194.8516171790319
 21
149.0012044862432
 31
0.0
 12
194.4043873134425
 22
149.8656033798825
 32
0.0
 13
194.4043873134425
 23
149.8656033798825
 33
0.0
  0
POINT
  5
801
  8
DEFPOINTS
  6
BYBLOCK
 62
     0
 10
194.4043873134425
 20
149.8656033798825
 30
0.0
  0
POINT
  5
802
  8
DEFPOINTS
  6
BYBLOCK
 62
     0
 10
195.0036741524924
 20
149.0650690055166
 30
0.0
  0
ENDBLK
  5
C13
  8
0
  0
BLOCK
  8
0
  2
*D9
 70
     1
 10
0.0
 20
0.0
 30
0.0
  3
*D9
  1

  0
LINE
  5
822
  8
0
  6
BYBLOCK
 62
     0
 10
201.1859031247902
 20
152.0480864494903
 30
0.0
 11
208.9265235343997
 21
152.0480864494903
 31
0.0
  0
LINE
  5
823
  8
0
  6
BYBLOCK
 62
     0
 10
208.4265235343997
 20
153.0080864494903
 30
0.0
 11
208.4265235343997
 21
153.9680864494903
 31
0.0
  0
LINE
  5
824
  8
0
  6
BYBLOCK
 62
     0
 10
208.4265235343997
 20
149.1050690055166
 30
0.0
 11
208.4265235343997
 21
145.4403071007546
 31
0.0
  0
LINE
  5
825
  8
0
  6
BYBLOCK
 62
     0
 10
208.4265235343997
 20
152.0480864494903
 30
0.0
 11
208.4265235343997
 21
150.0650690055166
 31
0.0
  0
SOLID
  5
826
  8
0
  6
BYBLOCK
 62
     0
 10
208.2665235343997
 20
153.0080864494903
 30
0.0
 11
208.5865235343997
 21
153.0080864494903
 31
0.0
 12
208.4265235343997
 22
152.0480864494903
 32
0.0
 13
208.4265235343997
 23
152.0480864494903
 33
0.0
  0
SOLID
  5
827
  8
0
  6
BYBLOCK
 62
     0
 10
208.2665235343997
 20
149.1050690055166
 30
0.0
 11
208.5865235343997
 21
149.1050690055166
 31
0.0
 12
208.4265235343997
 22
150.0650690055166
 32
0.0
 13
208.4265235343997
 23
150.0650690055166
 33
0.0
  0
TEXT
  5
828
  8
0
  6
CONTINUOUS
 62
     0
 10
207.5979521058283
 20
145.6498309102785
 30
0.0
 40
1.0
  1
(2)
 50
90.0
  7
ROMANS
  0
POINT
  5
829
  8
DEFPOINTS
  6
BYBLOCK
 62
     0
 10
200.8943266567576
 20
150.0650690055166
 30
0.0
  0
POINT
  5
82A
  8
DEFPOINTS
  6
BYBLOCK
 62
     0
 10
200.6859031247902
 20
152.0480864494903
 30
0.0
  0
POINT
  5
82B
  8
DEFPOINTS
  6
BYBLOCK
 62
     0
 10
208.4265235343997
 20
152.0480864494903
 30
0.0
  0
ENDBLK
  5
C15
  8
0
  0
BLOCK
  8
0
  2
*D10
 70
     1
 10
0.0
 20
0.0
 30
0.0
  3
*D10
  1

  0
LINE
  5
82F
  8
0
  6
BYBLOCK
 62
     0
 10
204.5748337141838
 20
150.0650690055166
 30
0.0
 11
217.3578836599219
 21
150.0650690055166
 31
0.0
  0
LINE
  5
830
  8
0
  6
BYBLOCK
 62
     0
 10
200.1859031247903
 20
155.2650690055166
 30
0.0
 11
217.3578836599219
 21
155.2650690055166
 31
0.0
  0
LINE
  5
831
  8
0
  6
BYBLOCK
 62
     0
 10
216.8578836599219
 20
151.0250690055166
 30
0.0
 11
216.8578836599219
 21
154.3050690055166
 31
0.0
  0
SOLID
  5
832
  8
0
  6
BYBLOCK
 62
     0
 10
216.6978836599219
 20
151.0250690055166
 30
0.0
 11
217.0178836599219
 21
151.0250690055166
 31
0.0
 12
216.8578836599219
 22
150.0650690055166
 32
0.0
 13
216.8578836599219
 23
150.0650690055166
 33
0.0
  0
SOLID
  5
833
  8
0
  6
BYBLOCK
 62
     0
 10
216.6978836599219
 20
154.3050690055166
 30
0.0
 11
217.0178836599219
 21
154.3050690055166
 31
0.0
 12
216.8578836599219
 22
155.2650690055166
 32
0.0
 13
216.8578836599219
 23
155.2650690055166
 33
0.0
  0
TEXT
  5
834
  8
0
  6
CONTINUOUS
 62
     0
 10
216.4578836599219
 20
151.1957435049198
 30
0.0
 40
1.0
  1
5.2
 50
90.0
  7
ROMANS
  0
POINT
  5
835
  8
DEFPOINTS
  6
BYBLOCK
 62
     0
 10
204.0748337141838
 20
150.0650690055166
 30
0.0
  0
POINT
  5
836
  8
DEFPOINTS
  6
BYBLOCK
 62
     0
 10
199.6859031247903
 20
155.2650690055166
 30
0.0
  0
POINT
  5
837
  8
DEFPOINTS
  6
BYBLOCK
 62
     0
 10
216.8578836599219
 20
155.2650690055166
 30
0.0
  0
ENDBLK
  5
C17
  8
0
  0
BLOCK
  8
0
  2
*D11
 70
     1
 10
0.0
 20
0.0
 30
0.0
  3
*D11
  1

  0
LINE
  5
83F
  8
0
  6
BYBLOCK
 62
     0
 10
200.6859031247902
 20
155.2650690055166
 30
0.0
 11
200.6859031247902
 21
158.3684548870629
 31
0.0
  0
LINE
  5
840
  8
0
  6
BYBLOCK
 62
     0
 10
200.1859031247902
 20
155.7650690055166
 30
0.0
 11
200.1859031247902
 21
158.3684548870629
 31
0.0
  0
LINE
  5
841
  8
0
  6
BYBLOCK
 62
     0
 10
199.2259031247902
 20
157.8684548870629
 30
0.0
 11
198.2659031247902
 21
157.8684548870629
 31
0.0
  0
LINE
  5
842
  8
0
  6
BYBLOCK
 62
     0
 10
201.6459031247902
 20
157.8684548870629
 30
0.0
 11
208.5963793152664
 21
157.8684548870629
 31
0.0
  0
LINE
  5
843
  8
0
  6
BYBLOCK
 62
     0
 10
200.1859031247902
 20
157.8684548870629
 30
0.0
 11
200.6859031247902
 21
157.8684548870629
 31
0.0
  0
SOLID
  5
844
  8
0
  6
BYBLOCK
 62
     0
 10
199.2259031247902
 20
158.0284548870628
 30
0.0
 11
199.2259031247902
 21
157.7084548870629
 31
0.0
 12
200.1859031247902
 22
157.8684548870629
 32
0.0
 13
200.1859031247902
 23
157.8684548870629
 33
0.0
  0
SOLID
  5
845
  8
0
  6
BYBLOCK
 62
     0
 10
201.6459031247902
 20
158.0284548870628
 30
0.0
 11
201.6459031247902
 21
157.7084548870629
 31
0.0
 12
200.6859031247902
 22
157.8684548870629
 32
0.0
 13
200.6859031247902
 23
157.8684548870629
 33
0.0
  0
TEXT
  5
846
  8
0
  6
CONTINUOUS
 62
     0
 10
202.8608138390759
 20
158.2684548870629
 30
0.0
 40
1.0
  1
0.5x45°
  7
ROMANS
  0
POINT
  5
847
  8
DEFPOINTS
  6
BYBLOCK
 62
     0
 10
200.6859031247902
 20
154.7650690055166
 30
0.0
  0
POINT
  5
848
  8
DEFPOINTS
  6
BYBLOCK
 62
     0
 10
200.1859031247902
 20
155.2650690055166
 30
0.0
  0
POINT
  5
849
  8
DEFPOINTS
  6
BYBLOCK
 62
     0
 10
200.1859031247902
 20
157.8684548870629
 30
0.0
  0
ENDBLK
  5
C19
  8
0
  0
BLOCK
  8
0
  2
*D12
 70
     1
 10
0.0
 20
0.0
 30
0.0
  3
*D12
  1

  0
LINE
  5
84E
  8
0
  6
BYBLOCK
 62
     0
 10
183.6848507361809
 20
133.5525103651783
 30
0.0
 11
183.6848507361809
 21
145.4574292066359
 31
0.0
  0
LINE
  5
84F
  8
0
  6
BYBLOCK
 62
     0
 10
200.6859031247902
 20
133.3404947209824
 30
0.0
 11
200.6859031247902
 21
145.4574292066359
 31
0.0
  0
LINE
  5
850
  8
0
  6
BYBLOCK
 62
     0
 10
184.6448507361809
 20
144.9574292066359
 30
0.0
 11
199.7259031247902
 21
144.9574292066359
 31
0.0
  0
SOLID
  5
851
  8
0
  6
BYBLOCK
 62
     0
 10
184.6448507361809
 20
145.1174292066359
 30
0.0
 11
184.6448507361809
 21
144.7974292066359
 31
0.0
 12
183.6848507361809
 22
144.9574292066359
 32
0.0
 13
183.6848507361809
 23
144.9574292066359
 33
0.0
  0
SOLID
  5
852
  8
0
  6
BYBLOCK
 62
     0
 10
199.7259031247902
 20
145.1174292066359
 30
0.0
 11
199.7259031247902
 21
144.7974292066359
 31
0.0
 12
200.6859031247902
 22
144.9574292066359
 32
0.0
 13
200.6859031247902
 23
144.9574292066359
 33
0.0
  0
TEXT
  5
853
  8
0
  6
CONTINUOUS
 62
     0
 10
189.6706757628979
 20
145.7860006352073
 30
0.0
 40
1.0
  1
(16.86)
  7
ROMANS
  0
POINT
  5
854
  8
DEFPOINTS
  6
BYBLOCK
 62
     0
 10
183.6848507361809
 20
133.0525103651783
 30
0.0
  0
POINT
  5
855
  8
DEFPOINTS
  6
BYBLOCK
 62
     0
 10
200.6859031247902
 20
132.8404947209824
 30
0.0
  0
POINT
  5
856
  8
DEFPOINTS
  6
BYBLOCK
 62
     0
 10
200.6859031247902
 20
144.9574292066359
 30
0.0
  0
ENDBLK
  5
C1B
  8
0
  0
BLOCK
  8
0
  2
*D13
 70
     1
 10
0.0
 20
0.0
 30
0.0
  3
*D13
  1

  0
LINE
  5
85B
  8
0
  6
BYBLOCK
 62
     0
 10
186.1348507361809
 20
134.5525103651783
 30
0.0
 11
186.1348507361809
 21
142.2080880785514
 31
0.0
  0
LINE
  5
85C
  8
0
  6
BYBLOCK
 62
     0
 10
191.6348507361809
 20
134.5525103651784
 30
0.0
 11
191.6348507361809
 21
142.2080880785514
 31
0.0
  0
LINE
  5
85D
  8
0
  6
BYBLOCK
 62
     0
 10
187.0948507361809
 20
141.7080880785514
 30
0.0
 11
190.6748507361809
 21
141.7080880785514
 31
0.0
  0
SOLID
  5
85E
  8
0
  6
BYBLOCK
 62
     0
 10
187.0948507361809
 20
141.8680880785514
 30
0.0
 11
187.0948507361809
 21
141.5480880785514
 31
0.0
 12
186.1348507361809
 22
141.7080880785514
 32
0.0
 13
186.1348507361809
 23
141.7080880785514
 33
0.0
  0
SOLID
  5
85F
  8
0
  6
BYBLOCK
 62
     0
 10
190.6748507361809
 20
141.8680880785514
 30
0.0
 11
190.6748507361809
 21
141.5480880785514
 31
0.0
 12
191.6348507361809
 22
141.7080880785514
 32
0.0
 13
191.6348507361809
 23
141.7080880785514
 33
0.0
  0
TEXT
  5
860
  8
0
  6
CONTINUOUS
 62
     0
 10
186.9193663529065
 20
142.1080880785514
 30
0.0
 40
1.0
  1
ø5.5
  7
ROMANS
  0
POINT
  5
861
  8
DEFPOINTS
  6
BYBLOCK
 62
     0
 10
186.1348507361809
 20
134.0525103651783
 30
0.0
  0
POINT
  5
862
  8
DEFPOINTS
  6
BYBLOCK
 62
     0
 10
191.6348507361809
 20
134.0525103651784
 30
0.0
  0
POINT
  5
863
  8
DEFPOINTS
  6
BYBLOCK
 62
     0
 10
191.6348507361809
 20
141.7080880785514
 30
0.0
  0
ENDBLK
  5
C1D
  8
0
  0
BLOCK
  8
0
  2
*D14
 70
     1
 10
0.0
 20
0.0
 30
0.0
  3
*D14
  1

  0
ARC
  5
896
  8
0
  6
BYBLOCK
 62
     0
 10
194.8943392567263
 20
136.1939871858357
 30
0.0
 40
12.38893165607199
 50
334.4408767759668
 51
355.5591232240325
  0
SOLID
  5
897
  8
0
  6
BYBLOCK
 62
     0
 10
206.2124565854003
 20
130.7743073828956
 30
0.0
 11
205.929337453544
 21
130.9234501238417
 31
0.0
 12
205.6234687966339
 22
129.9995213577996
 32
0.0
 13
205.6234687966339
 23
129.9995213577996
 33
0.0
  0
SOLID
  5
898
  8
0
  6
BYBLOCK
 62
     0
 10
207.0861965568828
 20
135.2409070747009
 30
0.0
 11
207.4059562878409
 21
135.228508911222
 31
0.0
 12
207.2832709127983
 22
136.1939871858355
 32
0.0
 13
207.2832709127983
 23
136.1939871858355
 33
0.0
  0
TEXT
  5
899
  8
0
  6
CONTINUOUS
 62
     0
 10
206.2639543266149
 20
132.2218888878593
 30
0.0
 40
1.0
  1
30°
 50
76.19848054174186
  7
ROMANS
  0
POINT
  5
89A
  8
DEFPOINTS
  6
BYBLOCK
 62
     0
 10
206.5361269133581
 20
131.9567230051739
 30
0.0
  0
POINT
  5
89B
  8
DEFPOINTS
  6
BYBLOCK
 62
     0
 10
195.3943392567263
 20
136.1939871858357
 30
0.0
  0
POINT
  5
89C
  8
DEFPOINTS
  6
BYBLOCK
 62
     0
 10
200.6859031247902
 20
132.85022622758
 30
0.0
  0
POINT
  5
89D
  8
DEFPOINTS
  6
BYBLOCK
 62
     0
 10
194.8943392567264
 20
136.1939871858356
 30
0.0
  0
POINT
  5
89E
  8
DEFPOINTS
  6
BYBLOCK
 62
     0
 10
211.8498068249448
 20
136.1939871858356
 30
0.0
  0
ENDBLK
  5
C1F
  8
0
  0
BLOCK
  8
0
  2
*D15
 70
     1
 10
0.0
 20
0.0
 30
0.0
  3
*D15
  1

  0
LINE
  5
8A2
  8
0
  6
BYBLOCK
 62
     0
 10
195.3273519586187
 20
136.4439871858357
 30
0.0
 11
205.026781717978
 21
142.0439555683877
 31
0.0
  0
ARC
  5
8A3
  8
0
  6
BYBLOCK
 62
     0
 10
194.8943392567264
 20
136.1939871858357
 30
0.0
 40
11.19993676510401
 50
4.912599200569019
 51
25.08740079943008
  0
SOLID
  5
8A4
  8
0
  6
BYBLOCK
 62
     0
 10
206.2129859244247
 20
137.1599623195869
 30
0.0
 11
205.8932799403651
 21
137.1462479564417
 31
0.0
 12
206.0942760218305
 22
136.1939871858355
 32
0.0
 13
206.0942760218305
 23
136.1939871858355
 33
0.0
  0
SOLID
  5
8A5
  8
0
  6
BYBLOCK
 62
     0
 10
204.8958316887787
 20
140.8687755092826
 30
0.0
 11
205.1795623742889
 21
141.016751514432
 31
0.0
 12
204.5937690160858
 22
141.7939555683877
 32
0.0
 13
204.5937690160858
 23
141.7939555683877
 33
0.0
  0
TEXT
  5
8A6
  8
0
  6
CONTINUOUS
 62
     0
 10
205.8601311596773
 20
140.1463498169522
 30
0.0
 40
1.0
  1
30°
 50
284.1828141052982
  7
ROMANS
  0
POINT
  5
8A7
  8
DEFPOINTS
  6
BYBLOCK
 62
     0
 10
205.4188371881635
 20
140.0245911634749
 30
0.0
  0
POINT
  5
8A8
  8
DEFPOINTS
  6
BYBLOCK
 62
     0
 10
195.3943392567264
 20
136.1939871858356
 30
0.0
  0
POINT
  5
8A9
  8
DEFPOINTS
  6
BYBLOCK
 62
     0
 10
194.8943392567264
 20
136.1939871858356
 30
0.0
  0
POINT
  5
8AA
  8
DEFPOINTS
  6
BYBLOCK
 62
     0
 10
191.185192600117
 20
134.0525103651784
 30
0.0
  0
POINT
  5
8AB
  8
DEFPOINTS
  6
BYBLOCK
 62
     0
 10
211.8498068249448
 20
136.1939871858356
 30
0.0
  0
ENDBLK
  5
C21
  8
0
  0
BLOCK
  8
0
  2
*D16
 70
     1
 10
0.0
 20
0.0
 30
0.0
  3
*D16
  1

  0
LINE
  5
8B0
  8
0
  6
BYBLOCK
 62
     0
 10
187.3848507361809
 20
132.4025103651784
 30
0.0
 11
187.3848507361809
 21
138.1597283088744
 31
0.0
  0
LINE
  5
8B1
  8
0
  6
BYBLOCK
 62
     0
 10
190.3848507361809
 20
132.4025103651784
 30
0.0
 11
190.3848507361809
 21
138.1597283088744
 31
0.0
  0
LINE
  5
8B2
  8
0
  6
BYBLOCK
 62
     0
 10
188.3448507361809
 20
137.6597283088744
 30
0.0
 11
189.4248507361809
 21
137.6597283088744
 31
0.0
  0
SOLID
  5
8B3
  8
0
  6
BYBLOCK
 62
     0
 10
188.3448507361809
 20
137.8197283088744
 30
0.0
 11
188.3448507361809
 21
137.4997283088744
 31
0.0
 12
187.3848507361809
 22
137.6597283088744
 32
0.0
 13
187.3848507361809
 23
137.6597283088744
 33
0.0
  0
SOLID
  5
8B4
  8
0
  6
BYBLOCK
 62
     0
 10
189.4248507361809
 20
137.8197283088744
 30
0.0
 11
189.4248507361809
 21
137.4997283088744
 31
0.0
 12
190.3848507361809
 22
137.6597283088744
 32
0.0
 13
190.3848507361809
 23
137.6597283088744
 33
0.0
  0
TEXT
  5
8B5
  8
0
  6
CONTINUOUS
 62
     0
 10
187.215207879038
 20
138.0597283088744
 30
0.0
 40
1.0
  1
ø3.0
  7
ROMANS
  0
POINT
  5
8B6
  8
DEFPOINTS
  6
BYBLOCK
 62
     0
 10
187.3848507361809
 20
131.9025103651784
 30
0.0
  0
POINT
  5
8B7
  8
DEFPOINTS
  6
BYBLOCK
 62
     0
 10
190.3848507361809
 20
131.9025103651784
 30
0.0
  0
POINT
  5
8B8
  8
DEFPOINTS
  6
BYBLOCK
 62
     0
 10
190.3848507361809
 20
137.6597283088744
 30
0.0
  0
ENDBLK
  5
C23
  8
0
  0
BLOCK
  8
0
  2
*D17
 70
     1
 10
0.0
 20
0.0
 30
0.0
  3
*D17
  1

  0
LINE
  5
8BF
  8
0
  6
BYBLOCK
 62
     0
 10
183.1848507361809
 20
129.6025103651783
 30
0.0
 11
173.2705034566981
 21
129.6025103651783
 31
0.0
  0
LINE
  5
8C0
  8
0
  6
BYBLOCK
 62
     0
 10
184.1848507361809
 20
134.0525103651783
 30
0.0
 11
173.2705034566981
 21
134.0525103651783
 31
0.0
  0
LINE
  5
8C1
  8
0
  6
BYBLOCK
 62
     0
 10
173.7705034566981
 20
130.5625103651784
 30
0.0
 11
173.7705034566981
 21
133.0925103651783
 31
0.0
  0
SOLID
  5
8C2
  8
0
  6
BYBLOCK
 62
     0
 10
173.6105034566981
 20
130.5625103651784
 30
0.0
 11
173.9305034566981
 21
130.5625103651784
 31
0.0
 12
173.7705034566981
 22
129.6025103651783
 32
0.0
 13
173.7705034566981
 23
129.6025103651783
 33
0.0
  0
SOLID
  5
8C3
  8
0
  6
BYBLOCK
 62
     0
 10
173.6105034566981
 20
133.0925103651783
 30
0.0
 11
173.9305034566981
 21
133.0925103651783
 31
0.0
 12
173.7705034566981
 22
134.0525103651783
 32
0.0
 13
173.7705034566981
 23
134.0525103651783
 33
0.0
  0
TEXT
  5
8C4
  8
0
  6
CONTINUOUS
 62
     0
 10
173.3705034566981
 20
130.1578675080355
 30
0.0
 40
1.0
  1
4.45
 50
90.0
  7
ROMANS
  0
POINT
  5
8C5
  8
DEFPOINTS
  6
BYBLOCK
 62
     0
 10
183.6848507361809
 20
129.6025103651783
 30
0.0
  0
POINT
  5
8C6
  8
DEFPOINTS
  6
BYBLOCK
 62
     0
 10
184.6848507361809
 20
134.0525103651783
 30
0.0
  0
POINT
  5
8C7
  8
DEFPOINTS
  6
BYBLOCK
 62
     0
 10
173.7705034566981
 20
134.0525103651783
 30
0.0
  0
ENDBLK
  5
C25
  8
0
  0
BLOCK
  8
0
  2
*D18
 70
     1
 10
0.0
 20
0.0
 30
0.0
  3
*D18
  1

  0
LINE
  5
8CC
  8
0
  6
BYBLOCK
 62
     0
 10
185.6348507361809
 20
131.9025103651784
 30
0.0
 11
176.7885663434421
 21
131.9025103651784
 31
0.0
  0
LINE
  5
8CD
  8
0
  6
BYBLOCK
 62
     0
 10
177.2885663434421
 20
128.6425103651783
 30
0.0
 11
177.2885663434421
 21
127.6825103651783
 31
0.0
  0
LINE
  5
8CE
  8
0
  6
BYBLOCK
 62
     0
 10
177.2885663434421
 20
132.8625103651784
 30
0.0
 11
177.2885663434421
 21
133.8225103651783
 31
0.0
  0
LINE
  5
8CF
  8
0
  6
BYBLOCK
 62
     0
 10
177.2885663434421
 20
129.6025103651783
 30
0.0
 11
177.2885663434421
 21
131.9025103651784
 31
0.0
  0
SOLID
  5
8D0
  8
0
  6
BYBLOCK
 62
     0
 10
177.1285663434421
 20
128.6425103651783
 30
0.0
 11
177.4485663434421
 21
128.6425103651783
 31
0.0
 12
177.2885663434421
 22
129.6025103651783
 32
0.0
 13
177.2885663434421
 23
129.6025103651783
 33
0.0
  0
SOLID
  5
8D1
  8
0
  6
BYBLOCK
 62
     0
 10
177.1285663434421
 20
132.8625103651784
 30
0.0
 11
177.4485663434421
 21
132.8625103651784
 31
0.0
 12
177.2885663434421
 22
131.9025103651784
 32
0.0
 13
177.2885663434421
 23
131.9025103651784
 33
0.0
  0
TEXT
  5
8D2
  8
0
  6
CONTINUOUS
 62
     0
 10
176.8885663434421
 20
129.559057984226
 30
0.0
 40
1.0
  1
2.3
 50
90.0
  7
ROMANS
  0
POINT
  5
8D3
  8
DEFPOINTS
  6
BYBLOCK
 62
     0
 10
183.6848507361809
 20
129.6025103651783
 30
0.0
  0
POINT
  5
8D4
  8
DEFPOINTS
  6
BYBLOCK
 62
     0
 10
186.1348507361809
 20
131.9025103651784
 30
0.0
  0
POINT
  5
8D5
  8
DEFPOINTS
  6
BYBLOCK
 62
     0
 10
177.2885663434421
 20
131.9025103651784
 30
0.0
  0
ENDBLK
  5
C27
  8
0
  0
BLOCK
  8
0
  2
*D19
 70
     1
 10
0.0
 20
0.0
 30
0.0
  3
*D19
  1

  0
LINE
  5
963
  8
0
  6
BYBLOCK
 62
     0
 10
249.414786293728
 20
143.5987392812436
 30
0.0
 11
259.5042622143047
 21
143.5987392812436
 31
0.0
  0
SOLID
  5
964
  8
0
  6
BYBLOCK
 62
     0
 10
249.414786293728
 20
143.7587392812436
 30
0.0
 11
249.414786293728
 21
143.4387392812436
 31
0.0
 12
248.454786293728
 22
143.5987392812436
 32
0.0
 13
248.454786293728
 23
143.5987392812436
 33
0.0
  0
SOLID
  5
965
  8
0
  6
BYBLOCK
 62
     0
 10
259.5042622143047
 20
143.7587392812436
 30
0.0
 11
259.5042622143047
 21
143.4387392812436
 31
0.0
 12
260.4642622143047
 22
143.5987392812436
 32
0.0
 13
260.4642622143047
 23
143.5987392812436
 33
0.0
  0
TEXT
  5
966
  8
0
  6
CONTINUOUS
 62
     0
 10
252.6510178011562
 20
143.9987392812436
 30
0.0
 40
1.0
  1
12.0
  7
ROMANS
  0
POINT
  5
967
  8
DEFPOINTS
  6
BYBLOCK
 62
     0
 10
248.454786293728
 20
134.0525103651784
 30
0.0
  0
POINT
  5
968
  8
DEFPOINTS
  6
BYBLOCK
 62
     0
 10
260.4642622143047
 20
133.1340331839838
 30
0.0
  0
POINT
  5
969
  8
DEFPOINTS
  6
BYBLOCK
 62
     0
 10
260.4642622143047
 20
143.5987392812436
 30
0.0
  0
ENDBLK
  5
C29
  8
0
  0
BLOCK
  8
0
  2
*D20
 70
     1
 10
0.0
 20
0.0
 30
0.0
  3
*D20
  1

  0
LINE
  5
8F2
  8
0
  6
BYBLOCK
 62
     0
 10
258.1442684526095
 20
133.1340331849623
 30
0.0
 11
264.157877105967
 21
133.1340331849623
 31
0.0
  0
LINE
  5
8F3
  8
0
  6
BYBLOCK
 62
     0
 10
263.657877105967
 20
132.1740331849623
 30
0.0
 11
263.657877105967
 21
130.5625103651784
 31
0.0
  0
LINE
  5
8F4
  8
0
  6
BYBLOCK
 62
     0
 10
263.657877105967
 20
129.6025103651783
 30
0.0
 11
263.657877105967
 21
123.5567960794641
 31
0.0
  0
SOLID
  5
8F5
  8
0
  6
BYBLOCK
 62
     0
 10
263.497877105967
 20
132.1740331849623
 30
0.0
 11
263.8178771059671
 21
132.1740331849623
 31
0.0
 12
263.657877105967
 22
133.1340331849623
 32
0.0
 13
263.657877105967
 23
133.1340331849623
 33
0.0
  0
SOLID
  5
8F6
  8
0
  6
BYBLOCK
 62
     0
 10
263.497877105967
 20
130.5625103651784
 30
0.0
 11
263.8178771059671
 21
130.5625103651784
 31
0.0
 12
263.657877105967
 22
129.6025103651783
 32
0.0
 13
263.657877105967
 23
129.6025103651783
 33
0.0
  0
TEXT
  5
8F7
  8
0
  6
CONTINUOUS
 62
     0
 10
262.8293056773956
 20
123.7663198889879
 30
0.0
 40
1.0
  1
(3.53)
 50
90.0
  7
ROMANS
  0
POINT
  5
8F8
  8
DEFPOINTS
  6
BYBLOCK
 62
     0
 10
259.2558386823373
 20
129.6025103651783
 30
0.0
  0
POINT
  5
8F9
  8
DEFPOINTS
  6
BYBLOCK
 62
     0
 10
257.6442684526095
 20
133.1340331849623
 30
0.0
  0
POINT
  5
8FA
  8
DEFPOINTS
  6
BYBLOCK
 62
     0
 10
263.657877105967
 20
133.1340331849623
 30
0.0
  0
ENDBLK
  5
C2B
  8
0
  0
BLOCK
  8
0
  2
*D21
 70
     1
 10
0.0
 20
0.0
 30
0.0
  3
*D21
  1

  0
LINE
  5
915
  8
0
  6
BYBLOCK
 62
     0
 10
256.5642706126096
 20
134.7140310249623
 30
0.0
 11
256.5642706126096
 21
140.4829792509119
 31
0.0
  0
LINE
  5
916
  8
0
  6
BYBLOCK
 62
     0
 10
249.414786293728
 20
139.9829792509119
 30
0.0
 11
255.6042706126096
 21
139.9829792509119
 31
0.0
  0
SOLID
  5
917
  8
0
  6
BYBLOCK
 62
     0
 10
249.414786293728
 20
140.1429792509118
 30
0.0
 11
249.414786293728
 21
139.8229792509119
 31
0.0
 12
248.454786293728
 22
139.9829792509119
 32
0.0
 13
248.454786293728
 23
139.9829792509119
 33
0.0
  0
SOLID
  5
918
  8
0
  6
BYBLOCK
 62
     0
 10
255.6042706126096
 20
140.1429792509118
 30
0.0
 11
255.6042706126096
 21
139.8229792509119
 31
0.0
 12
256.5642706126096
 22
139.9829792509119
 32
0.0
 13
256.5642706126096
 23
139.9829792509119
 33
0.0
  0
TEXT
  5
919
  8
0
  6
CONTINUOUS
 62
     0
 10
250.2287019466989
 20
140.8115506794833
 30
0.0
 40
1.0
  1
(8.11)
  7
ROMANS
  0
POINT
  5
91A
  8
DEFPOINTS
  6
BYBLOCK
 62
     0
 10
248.454786293728
 20
134.0525103651784
 30
0.0
  0
POINT
  5
91B
  8
DEFPOINTS
  6
BYBLOCK
 62
     0
 10
256.5642706126096
 20
134.2140310249623
 30
0.0
  0
POINT
  5
91C
  8
DEFPOINTS
  6
BYBLOCK
 62
     0
 10
256.5642706126096
 20
139.9829792509119
 30
0.0
  0
ENDBLK
  5
C2D
  8
0
  0
BLOCK
  8
0
  2
*D22
 70
     1
 10
0.0
 20
0.0
 30
0.0
  3
*D22
  1

  0
LINE
  5
94A
  8
0
  6
BYBLOCK
 62
     0
 10
254.4116468701419
 20
136.8017173629944
 30
0.0
 11
251.881329734889
 21
138.2625966421679
 31
0.0
  0
LINE
  5
94B
  8
0
  6
BYBLOCK
 62
     0
 10
254.3446595720342
 20
136.5517173629944
 30
0.0
 11
251.4229010136873
 21
136.5517173629944
 31
0.0
  0
ARC
  5
94C
  8
0
  6
BYBLOCK
 62
     0
 10
254.8446595720342
 20
136.5517173629944
 30
0.0
 40
2.921758558346838
 50
112.1772830775631
 51
131.088641538781
  0
ARC
  5
94D
  8
0
  6
BYBLOCK
 62
     0
 10
254.8446595720342
 20
136.5517173629944
 30
0.0
 40
2.921758558346838
 50
198.9113584612181
 51
217.822716922436
  0
ARC
  5
94E
  8
0
  6
BYBLOCK
 62
     0
 10
254.8446595720342
 20
136.5517173629944
 30
0.0
 40
2.921758558346838
 50
149.9999999999989
 51
180.0000000000002
  0
SOLID
  5
94F
  8
0
  6
BYBLOCK
 62
     0
 10
253.0479429577972
 20
138.6521513900707
 30
0.0
 11
252.8008657140981
 21
138.8555053564595
 31
0.0
 12
252.3143424367812
 22
138.0125966421679
 32
0.0
 13
252.3143424367812
 23
138.0125966421679
 33
0.0
  0
SOLID
  5
950
  8
0
  6
BYBLOCK
 62
     0
 10
251.9227881742304
 20
135.5784753646881
 30
0.0
 11
252.2384403271653
 21
135.6310464436916
 31
0.0
 12
251.9229010136873
 22
136.5517173629944
 32
0.0
 13
251.9229010136873
 23
136.5517173629944
 33
0.0
  0
TEXT
  5
951
  8
0
  6
CONTINUOUS
 62
     0
 10
251.3441193081381
 20
136.2491826491993
 30
0.0
 40
1.0
  1
30°
 50
75.91923030643952
  7
ROMANS
  0
POINT
  5
952
  8
DEFPOINTS
  6
BYBLOCK
 62
     0
 10
252.0991046150376
 20
137.5510176438832
 30
0.0
  0
POINT
  5
953
  8
DEFPOINTS
  6
BYBLOCK
 62
     0
 10
255.2642748143049
 20
136.5517173629944
 30
0.0
  0
POINT
  5
954
  8
DEFPOINTS
  6
BYBLOCK
 62
     0
 10
260.3142622143046
 20
133.3938408051191
 30
0.0
  0
POINT
  5
955
  8
DEFPOINTS
  6
BYBLOCK
 62
     0
 10
254.9142748143048
 20
136.5115249841297
 30
0.0
  0
POINT
  5
956
  8
DEFPOINTS
  6
BYBLOCK
 62
     0
 10
266.7423123624504
 20
136.5517173629944
 30
0.0
  0
ENDBLK
  5
C2F
  8
0
  0
BLOCK
  8
0
  2
*D23
 70
     1
 10
0.0
 20
0.0
 30
0.0
  3
*D23
  1

  0
LINE
  5
96D
  8
0
  6
BYBLOCK
 62
     0
 10
243.254786293728
 20
133.5525103651783
 30
0.0
 11
243.254786293728
 21
146.4403742741188
 31
0.0
  0
LINE
  5
96E
  8
0
  6
BYBLOCK
 62
     0
 10
260.4642622143047
 20
133.6340331839838
 30
0.0
 11
260.4642622143047
 21
146.4403742741188
 31
0.0
  0
LINE
  5
96F
  8
0
  6
BYBLOCK
 62
     0
 10
244.214786293728
 20
145.9403742741188
 30
0.0
 11
259.5042622143047
 21
145.9403742741188
 31
0.0
  0
SOLID
  5
970
  8
0
  6
BYBLOCK
 62
     0
 10
244.214786293728
 20
146.1003742741188
 30
0.0
 11
244.214786293728
 21
145.7803742741188
 31
0.0
 12
243.254786293728
 22
145.9403742741188
 32
0.0
 13
243.254786293728
 23
145.9403742741188
 33
0.0
  0
SOLID
  5
971
  8
0
  6
BYBLOCK
 62
     0
 10
259.5042622143047
 20
146.1003742741188
 30
0.0
 11
259.5042622143047
 21
145.7803742741188
 31
0.0
 12
260.4642622143047
 22
145.9403742741188
 32
0.0
 13
260.4642622143047
 23
145.9403742741188
 33
0.0
  0
TEXT
  5
972
  8
0
  6
CONTINUOUS
 62
     0
 10
249.1260093322373
 20
146.7689457026902
 30
0.0
 40
1.0
  1
(17.2)
  7
ROMANS
  0
POINT
  5
973
  8
DEFPOINTS
  6
BYBLOCK
 62
     0
 10
243.254786293728
 20
133.0525103651783
 30
0.0
  0
POINT
  5
974
  8
DEFPOINTS
  6
BYBLOCK
 62
     0
 10
260.4642622143047
 20
133.1340331839838
 30
0.0
  0
POINT
  5
975
  8
DEFPOINTS
  6
BYBLOCK
 62
     0
 10
260.4642622143047
 20
145.9403742741188
 30
0.0
  0
ENDBLK
  5
C31
  8
0
  0
BLOCK
  8
0
  2
*D24
 70
     1
 10
0.0
 20
0.0
 30
0.0
  3
*D24
  1

  0
LINE
  5
97A
  8
0
  6
BYBLOCK
 62
     0
 10
183.1848507361809
 20
133.0525103651783
 30
0.0
 11
179.3027011841024
 21
133.0525103651783
 31
0.0
  0
LINE
  5
97B
  8
0
  6
BYBLOCK
 62
     0
 10
179.8027011841024
 20
132.0925103651783
 30
0.0
 11
179.8027011841024
 21
131.1325103651783
 31
0.0
  0
LINE
  5
97C
  8
0
  6
BYBLOCK
 62
     0
 10
179.8027011841024
 20
135.0125103651783
 30
0.0
 11
179.8027011841024
 21
140.391557984226
 31
0.0
  0
LINE
  5
97D
  8
0
  6
BYBLOCK
 62
     0
 10
179.8027011841024
 20
133.0525103651783
 30
0.0
 11
179.8027011841024
 21
134.0525103651783
 31
0.0
  0
SOLID
  5
97E
  8
0
  6
BYBLOCK
 62
     0
 10
179.6427011841024
 20
132.0925103651783
 30
0.0
 11
179.9627011841024
 21
132.0925103651783
 31
0.0
 12
179.8027011841024
 22
133.0525103651783
 32
0.0
 13
179.8027011841024
 23
133.0525103651783
 33
0.0
  0
SOLID
  5
97F
  8
0
  6
BYBLOCK
 62
     0
 10
179.6427011841024
 20
135.0125103651783
 30
0.0
 11
179.9627011841024
 21
135.0125103651783
 31
0.0
 12
179.8027011841024
 22
134.0525103651783
 32
0.0
 13
179.8027011841024
 23
134.0525103651783
 33
0.0
  0
TEXT
  5
980
  8
0
  6
CONTINUOUS
 62
     0
 10
179.4027011841024
 20
136.0882841747022
 30
0.0
 40
1.0
  1
1x45°
 50
90.0
  7
ROMANS
  0
POINT
  5
981
  8
DEFPOINTS
  6
BYBLOCK
 62
     0
 10
184.6848507361809
 20
134.0525103651783
 30
0.0
  0
POINT
  5
982
  8
DEFPOINTS
  6
BYBLOCK
 62
     0
 10
183.6848507361809
 20
133.0525103651783
 30
0.0
  0
POINT
  5
983
  8
DEFPOINTS
  6
BYBLOCK
 62
     0
 10
179.8027011841024
 20
133.0525103651783
 30
0.0
  0
ENDBLK
  5
C33
  8
0
  0
BLOCK
  8
0
  2
*D25
 70
     1
 10
0.0
 20
0.0
 30
0.0
  3
*D25
  1

  0
LINE
  5
989
  8
0
  6
BYBLOCK
 62
     0
 10
213.4543862711781
 20
124.6332246320243
 30
0.0
 11
220.0747450606005
 21
118.0128658426025
 31
0.0
  0
ARC
  5
98A
  8
0
  6
BYBLOCK
 62
     0
 10
211.477849090742
 20
126.6097618124602
 30
0.0
 40
11.65784687488399
 50
305.5609496969867
 51
310.2804748484946
  0
ARC
  5
98B
  8
0
  6
BYBLOCK
 62
     0
 10
211.477849090742
 20
126.6097618124602
 30
0.0
 40
11.65784687488399
 50
334.7195251515095
 51
339.4390503030173
  0
ARC
  5
98C
  8
0
  6
BYBLOCK
 62
     0
 10
211.477849090742
 20
126.6097618124602
 30
0.0
 40
11.65784687488399
 50
315.0000000000024
 51
330.0000000000016
  0
SOLID
  5
98D
  8
0
  6
BYBLOCK
 62
     0
 10
218.9066121405768
 20
117.833821645675
 30
0.0
 11
219.1233778192013
 21
117.598422748969
 31
0.0
 12
219.7211916700072
 22
118.3664192331957
 32
0.0
 13
219.7211916700072
 23
118.3664192331957
 33
0.0
  0
SOLID
  5
98E
  8
0
  6
BYBLOCK
 62
     0
 10
222.1609426664199
 20
121.557054329515
 30
0.0
 11
221.8774617066589
 21
121.7055081790878
 31
0.0
 12
221.5738406378208
 22
120.7808383750185
 32
0.0
 13
221.5738406378208
 23
120.7808383750185
 33
0.0
  0
TEXT
  5
98F
  8
0
  6
CONTINUOUS
 62
     0
 10
219.745836283371
 20
118.873458941862
 30
0.0
 40
1.0
  1
15°
 50
53.05145313526663
  7
ROMANS
  0
POINT
  5
990
  8
DEFPOINTS
  6
BYBLOCK
 62
     0
 10
220.4082779079791
 20
119.1162422856622
 30
0.0
  0
POINT
  5
991
  8
DEFPOINTS
  6
BYBLOCK
 62
     0
 10
211.964621289902
 20
126.3287237522412
 30
0.0
  0
POINT
  5
992
  8
DEFPOINTS
  6
BYBLOCK
 62
     0
 10
211.4778490907421
 20
126.6097618124602
 30
0.0
  0
POINT
  5
993
  8
DEFPOINTS
  6
BYBLOCK
 62
     0
 10
213.1008328805848
 20
124.9867780226176
 30
0.0
  0
POINT
  5
994
  8
DEFPOINTS
  6
BYBLOCK
 62
     0
 10
221.8701539361554
 20
120.6097618124602
 30
0.0
  0
ENDBLK
  5
C35
  8
0
  0
BLOCK
  8
0
  2
*D26
 70
     1
 10
0.0
 20
0.0
 30
0.0
  3
*D26
  1

  0
LINE
  5
9B4
  8
0
  6
BYBLOCK
 62
     0
 10
212.9543862711781
 20
123.7671992282399
 30
0.0
 11
209.669171052109
 21
118.0770395550142
 31
0.0
  0
LINE
  5
9B5
  8
0
  6
BYBLOCK
 62
     0
 10
212.5361281193092
 20
124.0086806848121
 30
0.0
 11
209.2509129002401
 21
118.3185210115865
 31
0.0
  0
LINE
  5
9B6
  8
0
  6
BYBLOCK
 62
     0
 10
210.750555439742
 20
118.0300522569064
 30
0.0
 11
211.5819398273751
 21
117.5500522569063
 31
0.0
  0
LINE
  5
9B7
  8
0
  6
BYBLOCK
 62
     0
 10
208.6695285126071
 20
119.2315337134787
 30
0.0
 11
202.650239563256
 21
122.706771808717
 31
0.0
  0
LINE
  5
9B8
  8
0
  6
BYBLOCK
 62
     0
 10
209.919171052109
 20
118.5100522569064
 30
0.0
 11
209.5009129002402
 21
118.7515337134787
 31
0.0
  0
SOLID
  5
9B9
  8
0
  6
BYBLOCK
 62
     0
 10
210.830555439742
 20
118.1686163215119
 30
0.0
 11
210.670555439742
 21
117.8914881923009
 31
0.0
 12
209.919171052109
 22
118.5100522569064
 32
0.0
 13
209.919171052109
 23
118.5100522569064
 33
0.0
  0
SOLID
  5
9BA
  8
0
  6
BYBLOCK
 62
     0
 10
208.7495285126071
 20
119.3700977780842
 30
0.0
 11
208.5895285126071
 21
119.0929696488732
 31
0.0
 12
209.5009129002402
 22
118.7515337134787
 32
0.0
 13
209.5009129002402
 23
118.7515337134787
 33
0.0
  0
TEXT
  5
9BB
  8
0
  6
CONTINUOUS
 62
     0
 10
203.0709987175242
 20
122.9257266130879
 30
0.0
 40
1.0
  1
0.5x45°
 50
329.9999999999977
  7
ROMANS
  0
POINT
  5
9BC
  8
DEFPOINTS
  6
BYBLOCK
 62
     0
 10
213.2043862711781
 20
124.2002119301321
 30
0.0
  0
POINT
  5
9BD
  8
DEFPOINTS
  6
BYBLOCK
 62
     0
 10
212.7861281193092
 20
124.4416933867043
 30
0.0
  0
POINT
  5
9BE
  8
DEFPOINTS
  6
BYBLOCK
 62
     0
 10
209.5009129002402
 20
118.7515337134787
 30
0.0
  0
ENDBLK
  5
C37
  8
0
  0
BLOCK
  8
0
  2
*D27
 70
     1
 10
0.0
 20
0.0
 30
0.0
  3
*D27
  1

  0
LINE
  5
9C2
  8
0
  6
BYBLOCK
 62
     0
 10
231.6897185825965
 20
135.5190274447514
 30
0.0
 11
238.0149360455868
 21
133.824190533592
 31
0.0
  0
ARC
  5
9C3
  8
0
  6
BYBLOCK
 62
     0
 10
227.8356673392495
 20
136.5517173629944
 30
0.0
 40
10.03835442566472
 50
350.4814691748802
 51
354.5185308251212
  0
SOLID
  5
9C4
  8
0
  6
BYBLOCK
 62
     0
 10
237.8921668889267
 20
134.8577352549878
 30
0.0
 11
237.5794639186807
 21
134.9256826787749
 31
0.0
 12
237.5319731324422
 22
133.9536000561433
 32
0.0
 13
237.5319731324422
 23
133.9536000561433
 33
0.0
  0
SOLID
  5
9C5
  8
0
  6
BYBLOCK
 62
     0
 10
237.6683008457024
 20
135.6004661325624
 30
0.0
 11
237.9879348079621
 21
135.5851648198684
 31
0.0
 12
237.8740217649142
 22
136.5517173629945
 32
0.0
 13
237.8740217649142
 23
136.5517173629945
 33
0.0
  0
TEXT
  5
9C6
  8
0
  6
CONTINUOUS
 62
     0
 10
237.2479549003243
 20
134.1480541238664
 30
0.0
 40
1.0
  1
15°
 50
82.84612994002326
  7
ROMANS
  0
POINT
  5
9C7
  8
DEFPOINTS
  6
BYBLOCK
 62
     0
 10
237.7215166051285
 20
134.808575410203
 30
0.0
  0
POINT
  5
9C8
  8
DEFPOINTS
  6
BYBLOCK
 62
     0
 10
226.4897185825966
 20
136.5517173629944
 30
0.0
  0
POINT
  5
9C9
  8
DEFPOINTS
  6
BYBLOCK
 62
     0
 10
228.9741108109389
 20
136.2466723541268
 30
0.0
  0
POINT
  5
9CA
  8
DEFPOINTS
  6
BYBLOCK
 62
     0
 10
231.206755669452
 20
135.6484369673027
 30
0.0
  0
POINT
  5
9CB
  8
DEFPOINTS
  6
BYBLOCK
 62
     0
 10
238.1464306563481
 20
136.5517173629944
 30
0.0
  0
ENDBLK
  5
C39
  8
0
  0
BLOCK
  8
0
  2
*D28
 70
     1
 10
0.0
 20
0.0
 30
0.0
  3
*D28
  1

  0
LINE
  5
9E6
  8
0
  6
BYBLOCK
 62
     0
 10
250.1416103825614
 20
129.1101064886722
 30
0.0
 11
250.9221231000479
 21
124.6835989040101
 31
0.0
  0
ARC
  5
9E7
  8
0
  6
BYBLOCK
 62
     0
 10
250.0547862937279
 20
129.6025103651783
 30
0.0
 40
4.494793599179971
 50
245.4787253926676
 51
257.7393626963364
  0
ARC
  5
9E8
  8
0
  6
BYBLOCK
 62
     0
 10
250.0547862937279
 20
129.6025103651783
 30
0.0
 40
4.494793599179971
 50
292.2606373036692
 51
304.5212746073381
  0
ARC
  5
9E9
  8
0
  6
BYBLOCK
 62
     0
 10
250.0547862937279
 20
129.6025103651783
 30
0.0
 40
4.494793599179971
 50
270.0000000000052
 51
280.0000000000004
  0
SOLID
  5
9EA
  8
0
  6
BYBLOCK
 62
     0
 10
249.1173624177964
 20
125.3693204296438
 30
0.0
 11
249.0831895472049
 21
125.0511503259012
 31
0.0
 12
250.0547862937283
 22
125.1077167659983
 32
0.0
 13
250.0547862937283
 23
125.1077167659983
 33
0.0
  0
SOLID
  5
9EB
  8
0
  6
BYBLOCK
 62
     0
 10
251.8019576792321
 20
125.2890117162093
 30
0.0
 11
251.7130543126279
 21
125.5964140444478
 31
0.0
 12
250.8352990112145
 22
125.1760027805162
 32
0.0
 13
250.8352990112145
 23
125.1760027805162
 33
0.0
  0
POINT
  5
9EC
  8
DEFPOINTS
  6
BYBLOCK
 62
     0
 10
250.5765999810483
 20
125.1381089523398
 30
0.0
  0
POINT
  5
9ED
  8
DEFPOINTS
  6
BYBLOCK
 62
     0
 10
250.0547862937279
 20
129.1025103651783
 30
0.0
  0
POINT
  5
9EE
  8
DEFPOINTS
  6
BYBLOCK
 62
     0
 10
250.0547862937279
 20
129.6025103651783
 30
0.0
  0
POINT
  5
9EF
  8
DEFPOINTS
  6
BYBLOCK
 62
     0
 10
249.8343775678423
 20
130.8525103651783
 30
0.0
  0
POINT
  5
9F0
  8
DEFPOINTS
  6
BYBLOCK
 62
     0
 10
250.054786293728
 20
122.5884495784845
 30
0.0
  0
ENDBLK
  5
C3B
  8
0
  0
BLOCK
  8
0
  2
*D29
 70
     1
 10
0.0
 20
0.0
 30
0.0
  3
*D29
  1

  0
LINE
  5
9F9
  8
0
  6
BYBLOCK
 62
     0
 10
231.6897185825965
 20
135.5190274447514
 30
0.0
 11
231.6897185825965
 21
142.1287237272274
 31
0.0
  0
LINE
  5
9FA
  8
0
  6
BYBLOCK
 62
     0
 10
231.206755669452
 20
136.1484369673027
 30
0.0
 11
231.206755669452
 21
142.1287237272274
 31
0.0
  0
LINE
  5
9FB
  8
0
  6
BYBLOCK
 62
     0
 10
232.6497185825965
 20
141.6287237272274
 30
0.0
 11
233.6097185825965
 21
141.6287237272274
 31
0.0
  0
LINE
  5
9FC
  8
0
  6
BYBLOCK
 62
     0
 10
230.246755669452
 20
141.6287237272274
 30
0.0
 11
223.2962794789758
 21
141.6287237272274
 31
0.0
  0
LINE
  5
9FD
  8
0
  6
BYBLOCK
 62
     0
 10
231.6897185825965
 20
141.6287237272274
 30
0.0
 11
231.206755669452
 21
141.6287237272274
 31
0.0
  0
SOLID
  5
9FE
  8
0
  6
BYBLOCK
 62
     0
 10
232.6497185825965
 20
141.7887237272274
 30
0.0
 11
232.6497185825965
 21
141.4687237272274
 31
0.0
 12
231.6897185825965
 22
141.6287237272274
 32
0.0
 13
231.6897185825965
 23
141.6287237272274
 33
0.0
  0
SOLID
  5
9FF
  8
0
  6
BYBLOCK
 62
     0
 10
230.246755669452
 20
141.7887237272274
 30
0.0
 11
230.246755669452
 21
141.4687237272274
 31
0.0
 12
231.206755669452
 22
141.6287237272274
 32
0.0
 13
231.206755669452
 23
141.6287237272274
 33
0.0
  0
TEXT
  5
A00
  8
0
  6
CONTINUOUS
 62
     0
 10
223.5511901932615
 20
142.0287237272274
 30
0.0
 40
1.0
  1
0.5x45°
  7
ROMANS
  0
POINT
  5
A01
  8
DEFPOINTS
  6
BYBLOCK
 62
     0
 10
231.6897185825965
 20
135.0190274447514
 30
0.0
  0
POINT
  5
A02
  8
DEFPOINTS
  6
BYBLOCK
 62
     0
 10
231.206755669452
 20
135.6484369673027
 30
0.0
  0
POINT
  5
A03
  8
DEFPOINTS
  6
BYBLOCK
 62
     0
 10
231.206755669452
 20
141.6287237272274
 30
0.0
  0
ENDBLK
  5
C3D
  8
0
  0
BLOCK
  8
0
  2
*U30
 70
     1
 10
0.0
 20
0.0
 30
0.0
  3
*U30
  1

  0
ENDBLK
  5
C3F
  8
0
  0
BLOCK
  8
0
  2
GENAXEH
 70
     0
 10
0.0
 20
0.0
 30
0.0
  3
GENAXEH
  1

  0
LINE
  5
B39
  8
0
 10
-1.0
 20
0.0
 30
0.0
 11
1.0
 21
0.0
 31
0.0
  0
ENDBLK
  5
C41
  8
0
  0
BLOCK
  8
0
  2
*X32
 70
     1
 10
0.0
 20
0.0
 30
0.0
  3
*X32
  1

  0
LINE
  5
CCA
  8
HATCH
 10
113.1422878913628
 20
151.672859480861
 30
0.0
 11
113.8628959152438
 21
152.393467504742
 31
0.0
  0
LINE
  5
CCB
  8
HATCH
 10
114.8413562125869
 20
148.8817997415505
 30
0.0
 11
118.0737543915033
 21
152.1141979204669
 31
0.0
  0
LINE
  5
CCC
  8
HATCH
 10
130.0144752109556
 20
146.0944064977809
 30
0.0
 11
132.5737543915033
 21
148.6536856783286
 31
0.0
  0
ENDBLK
  5
CCE
  8
0
  0
ENDSEC
  0
SECTION
  2
ENTITIES
  0
LINE
  5
37E
  8
CTRL
 10
81.32924836812398
 20
143.1217767103543
 30
0.0
 11
136.8609213916188
 21
143.1217767103543
 31
0.0
  0
LINE
  5
37F
  8
LINE
 10
125.2412174576946
 20
150.1725697125382
 30
0.0
 11
134.1123825793184
 21
150.1725697125382
 31
0.0
  0
LINE
  5
381
  8
LINE
 10
132.232565593051
 20
133.393467504742
 30
0.0
 11
116.7118957014811
 21
133.393467504742
 31
0.0
  0
LINE
  5
382
  8
LINE
 10
125.8237543915034
 20
132.2895238990897
 30
0.0
 11
130.0737543915034
 21
133.393467504742
 31
0.0
  0
LINE
  5
383
  8
LINE
 10
118.3737543915034
 20
150.1725697125382
 30
0.0
 11
118.3737543915034
 21
153.6225697125382
 31
0.0
  0
LINE
  5
384
  8
LINE
 10
109.0737543915034
 20
154.8217767103542
 30
0.0
 11
110.4757393650393
 21
152.393467504742
 31
0.0
  0
LINE
  5
385
  8
LINE
 10
109.0737543915033
 20
131.4217767103543
 30
0.0
 11
109.0737543915034
 21
154.8217767103542
 31
0.0
  0
LINE
  5
386
  8
LINE
 10
100.0737543915034
 20
143.1217767103543
 30
0.0
 11
100.0737543915034
 21
154.3717767103543
 31
0.0
  0
TEXT
  5
387
  8
DIM
 10
108.5255184397656
 20
132.1198851430865
 30
0.0
 40
2.8
  1
11.380.321
 50
90.0
 41
0.4415950368508255
  7
ROMANS
 72
     5
 11
108.5255184397656
 21
142.1723545619587
 31
0.0
  0
LINE
  5
38A
  8
LINE
 10
115.5735394905826
 20
131.4217767103543
 30
0.0
 11
100.5237543915034
 21
131.4217767103543
 31
0.0
  0
TEXT
  5
38B
  8
DIM
 10
103.9921851064323
 20
132.1198851430865
 30
0.0
 40
2.8
  1
10.310.211
 50
90.0
 41
0.4415950368508256
  7
ROMANS
 72
     5
 11
103.9921851064323
 21
142.1723545619587
 31
0.0
  0
LINE
  5
38C
  8
LINE
 10
100.0737543915034
 20
143.1217767103543
 30
0.0
 11
100.0737543915034
 21
131.8717767103543
 31
0.0
  0
LINE
  5
38D
  8
LINE
 10
84.07375439150337
 20
136.3601274288731
 30
0.0
 11
84.07375439150337
 21
143.1217767103543
 31
0.0
  0
LINE
  5
38E
  8
LINE
 10
86.32375439150337
 20
136.1217767103543
 30
0.0
 11
86.32375439150337
 21
143.1217767103543
 31
0.0
  0
ARC
  5
38F
  8
LINE
 10
96.21375439150339
 20
126.7692712726484
 30
0.0
 40
9.680875888178567
 50
75.03427943327829
 51
104.9657205667217
  0
LINE
  5
390
  8
LINE
 10
94.62308106547704
 20
134.5467767103543
 30
0.0
 11
97.8044277175297
 21
134.5467767103543
 31
0.0
  0
LINE
  5
391
  8
LINE
 10
93.71375439150339
 20
136.1217767103543
 30
0.0
 11
86.32375439150337
 21
136.1217767103543
 31
0.0
  0
LINE
  5
392
  8
LINE
 10
86.32375439150337
 20
136.1217767103543
 30
0.0
 11
85.19875439150337
 21
136.3201445636513
 31
0.0
  0
LINE
  5
393
  8
LINE
 10
84.30848402703677
 20
136.1631658782707
 30
0.0
 11
85.19875439150337
 21
136.3201445636513
 31
0.0
  0
ARC
  5
394
  8
LINE
 10
84.27375439150339
 20
136.3601274288731
 30
0.0
 40
0.2
 50
180.0
 51
280.0000000000001
  0
LINE
  5
395
  8
LINE
 10
93.71375439150339
 20
136.1217767103543
 30
0.0
 11
94.62308106547704
 21
134.5467767103543
 31
0.0
  0
LINE
  5
396
  8
LINE
 10
100.0737543915034
 20
131.8717767103543
 30
0.0
 11
100.5237543915034
 21
131.4217767103543
 31
0.0
  0
LINE
  5
397
  8
LINE
 10
99.07375439150337
 20
136.1217767103543
 30
0.0
 11
100.0737543915034
 21
136.3897259027854
 31
0.0
  0
LINE
  5
398
  8
LINE
 10
98.71375439150339
 20
136.1217767103543
 30
0.0
 11
97.8044277175297
 21
134.5467767103543
 31
0.0
  0
LINE
  5
399
  8
LINE
 10
99.0737543915034
 20
136.1217767103543
 30
0.0
 11
98.71375439150339
 21
136.1217767103543
 31
0.0
  0
LINE
  5
39A
  8
HIDDEN
 10
84.07375439150337
 20
139.6967767103542
 30
0.0
 11
101.2922765694852
 21
139.6967767103542
 31
0.0
  0
LINE
  5
39B
  8
HIDDEN
 10
84.07375439150337
 20
146.5467767103543
 30
0.0
 11
101.2922765694852
 21
146.5467767103543
 31
0.0
  0
ARC
  5
39C
  8
LINE
 10
96.21375439150339
 20
159.4742821480601
 30
0.0
 40
9.680875888178567
 50
255.0342794332783
 51
284.9657205667217
  0
LINE
  5
39D
  8
LINE
 10
94.62308106547704
 20
151.6967767103542
 30
0.0
 11
97.8044277175297
 21
151.6967767103542
 31
0.0
  0
POLYLINE
  5
39E
  8
LINE
 66
     1
 10
0.0
 20
0.0
 30
0.0
 70
     1
  0
VERTEX
  5
CAB
  8
LINE
 10
96.00986948489296
 20
143.1217767103543
 30
0.0
 42
0.10538947474923
  0
VERTEX
  5
CAC
  8
LINE
 10
95.82735548460366
 20
143.9780615927635
 30
0.0
 42
0.1010860589225665
  0
VERTEX
  5
CAD
  8
LINE
 10
95.29634789379006
 20
144.7195176938135
 30
0.0
 42
0.0955413370636984
  0
VERTEX
  5
CAE
  8
LINE
 10
94.51436982834062
 20
145.2068520320586
 30
0.0
 42
0.0919590649435003
  0
VERTEX
  5
CAF
  8
LINE
 10
93.57375439150337
 20
145.3813236783216
 30
0.0
 42
0.0919590649435003
  0
VERTEX
  5
CB0
  8
LINE
 10
92.63313895466615
 20
145.2068520320586
 30
0.0
 42
0.0955413370636985
  0
VERTEX
  5
CB1
  8
LINE
 10
91.85116088921671
 20
144.7195176938135
 30
0.0
 42
0.1010860589225664
  0
VERTEX
  5
CB2
  8
LINE
 10
91.32015329840311
 20
143.9780615927635
 30
0.0
 42
0.1053894747492302
  0
VERTEX
  5
CB3
  8
LINE
 10
91.13763929811378
 20
143.1217767103543
 30
0.0
 42
0.1053894747492299
  0
VERTEX
  5
CB4
  8
LINE
 10
91.32015329840311
 20
142.265491827945
 30
0.0
 42
0.1010860589225663
  0
VERTEX
  5
CB5
  8
LINE
 10
91.85116088921671
 20
141.524035726895
 30
0.0
 42
0.0955413370636985
  0
VERTEX
  5
CB6
  8
LINE
 10
92.63313895466615
 20
141.0367013886499
 30
0.0
 42
0.0919590649435
  0
VERTEX
  5
CB7
  8
LINE
 10
93.57375439150337
 20
140.8622297423869
 30
0.0
 42
0.0919590649434999
  0
VERTEX
  5
CB8
  8
LINE
 10
94.51436982834062
 20
141.0367013886499
 30
0.0
 42
0.0955413370636984
  0
VERTEX
  5
CB9
  8
LINE
 10
95.29634789379006
 20
141.524035726895
 30
0.0
 42
0.1010860589225666
  0
VERTEX
  5
CBA
  8
LINE
 10
95.82735548460366
 20
142.265491827945
 30
0.0
 42
0.1053894747492301
  0
SEQEND
  5
CD0
  8
LINE
  0
CIRCLE
  5
39F
  8
LINE
 10
93.57375439150337
 20
143.1217767103543
 30
0.0
 40
2.0
  0
LINE
  5
3A0
  8
LINE
 10
86.32375439150337
 20
150.1217767103543
 30
0.0
 11
86.32375439150337
 21
143.1217767103543
 31
0.0
  0
LINE
  5
3A1
  8
LINE
 10
84.07375439150337
 20
149.8834259918354
 30
0.0
 11
84.07375439150337
 21
143.1217767103543
 31
0.0
  0
LINE
  5
3A2
  8
LINE
 10
93.71375439150339
 20
141.1266827276056
 30
0.0
 11
93.71375439150339
 21
145.116870693103
 31
0.0
  0
LINE
  5
3A3
  8
LINE
 10
93.71375439150339
 20
150.1217767103543
 30
0.0
 11
86.32375439150337
 21
150.1217767103543
 31
0.0
  0
ARC
  5
3A4
  8
LINE
 10
84.27375439150339
 20
149.8834259918354
 30
0.0
 40
0.2
 50
79.99999999999996
 51
180.0
  0
LINE
  5
3A5
  8
LINE
 10
86.32375439150337
 20
150.1217767103543
 30
0.0
 11
85.19875439150337
 21
149.9234088570572
 31
0.0
  0
LINE
  5
3A6
  8
LINE
 10
84.30848402703677
 20
150.0803875424378
 30
0.0
 11
85.19875439150337
 21
149.9234088570572
 31
0.0
  0
LINE
  5
3A7
  8
LINE
 10
93.71375439150339
 20
150.1217767103543
 30
0.0
 11
94.62308106547704
 21
151.6967767103542
 31
0.0
  0
LINE
  5
3A8
  8
HIDDEN
 10
101.2922765694852
 20
146.5467767103543
 30
0.0
 11
103.2697012414597
 21
143.1217767103543
 31
0.0
  0
LINE
  5
3A9
  8
HIDDEN
 10
101.2922765694852
 20
146.5467767103543
 30
0.0
 11
101.2922765694852
 21
143.1217767103543
 31
0.0
  0
LINE
  5
3AA
  8
HIDDEN
 10
101.2922765694852
 20
139.6967767103542
 30
0.0
 11
101.2922765694852
 21
143.1217767103543
 31
0.0
  0
LINE
  5
3AB
  8
HIDDEN
 10
101.2922765694852
 20
139.6967767103542
 30
0.0
 11
103.2697012414597
 21
143.1217767103543
 31
0.0
  0
LINE
  5
3AC
  8
LINE
 10
99.07375439150337
 20
150.1217767103543
 30
0.0
 11
100.0737543915034
 21
149.8538275179232
 31
0.0
  0
LINE
  5
3AD
  8
LINE
 10
98.71375439150339
 20
150.1217767103543
 30
0.0
 11
97.8044277175297
 21
151.6967767103542
 31
0.0
  0
LINE
  5
3AE
  8
LINE
 10
99.0737543915034
 20
150.1217767103543
 30
0.0
 11
98.71375439150339
 21
150.1217767103543
 31
0.0
  0
LINE
  5
3AF
  8
LINE
 10
121.3237543915034
 20
132.2895238990897
 30
0.0
 11
117.0737543915034
 21
133.393467504742
 31
0.0
  0
LINE
  5
3B0
  8
LINE
 10
116.7118957014811
 20
133.393467504742
 30
0.0
 11
115.5735394905826
 21
131.4217767103543
 31
0.0
  0
LINE
  5
3B1
  8
LINE
 10
121.3237543915034
 20
132.2895238990897
 30
0.0
 11
125.8237543915034
 21
132.2895238990897
 31
0.0
  0
LINE
  5
3B2
  8
LINE
 10
110.4757393650393
 20
152.393467504742
 30
0.0
 11
118.3737543915034
 21
152.393467504742
 31
0.0
  0
ARC
  5
3B3
  8
DIM
 10
123.5737543915034
 20
143.1217767103543
 30
0.0
 40
2.0
 50
90.0
 51
0.0
  0
CIRCLE
  5
3B4
  8
LINE
 10
123.5737543915034
 20
143.1217767103543
 30
0.0
 40
1.59957116914731
  0
POLYLINE
  5
3B5
  8
LINE
 66
     1
 10
0.0
 20
0.0
 30
0.0
 70
     1
  0
VERTEX
  5
CBB
  8
LINE
 10
122.9964041223137
 20
144.1217767103543
 30
0.0
  0
VERTEX
  5
CBC
  8
LINE
 10
122.4190538531241
 20
143.1217767103543
 30
0.0
  0
VERTEX
  5
CBD
  8
LINE
 10
122.9964041223137
 20
142.1217767103543
 30
0.0
  0
VERTEX
  5
CBE
  8
LINE
 10
124.151104660693
 20
142.1217767103543
 30
0.0
  0
VERTEX
  5
CBF
  8
LINE
 10
124.7284549298826
 20
143.1217767103543
 30
0.0
  0
VERTEX
  5
CC0
  8
LINE
 10
124.151104660693
 20
144.1217767103543
 30
0.0
  0
SEQEND
  5
CD1
  8
LINE
  0
LINE
  5
3B6
  8
LINE
 10
121.9737543915034
 20
150.9436760876085
 30
0.0
 11
125.1737543915033
 21
150.9436760876085
 31
0.0
  0
LINE
  5
3B7
  8
LINE
 10
121.9813249116114
 20
151.0302075284027
 30
0.0
 11
125.1661838713953
 21
151.0302075284027
 31
0.0
  0
LINE
  5
3B8
  8
LINE
 10
118.0737543915033
 20
150.1725697125382
 30
0.0
 11
121.9062913253121
 21
150.1725697125382
 31
0.0
  0
LINE
  5
3B9
  8
LINE
 10
118.0737543915035
 20
148.1663556802309
 30
0.0
 11
118.0737543915033
 21
152.393467504742
 31
0.0
  0
LINE
  5
3BA
  8
LINE
 10
121.9813249116114
 20
151.0302075284027
 30
0.0
 11
121.9062913253121
 21
150.1725697125382
 31
0.0
  0
LINE
  5
3BC
  8
LINE
 10
125.1661838713953
 20
151.0302075284027
 30
0.0
 11
125.2412174576946
 21
150.1725697125382
 31
0.0
  0
LINE
  5
3BD
  8
LINE
 10
109.0737543915034
 20
154.8217767103542
 30
0.0
 11
100.5237543915034
 21
154.8217767103542
 31
0.0
  0
LINE
  5
3BE
  8
LINE
 10
100.0737543915034
 20
154.3717767103543
 30
0.0
 11
100.5237543915034
 21
154.8217767103542
 31
0.0
  0
LINE
  5
3BF
  8
LINE
 10
119.3737543915034
 20
154.6225697125382
 30
0.0
 11
127.7737543915033
 21
154.6225697125382
 31
0.0
  0
CIRCLE
  5
3C1
  8
LINE
 10
131.683238710385
 20
153.7040925323222
 30
0.0
 40
1.51499697
  0
CIRCLE
  5
3C2
  8
LINE
 10
131.683238710385
 20
153.7040925323222
 30
0.0
 40
1.07999784
  0
LINE
  5
3C4
  8
LINE
 10
132.5737543915033
 20
133.9844238386347
 30
0.0
 11
132.5737543915033
 21
150.1725697125382
 31
0.0
  0
LINE
  5
3C5
  8
LINE
 10
132.5737543915033
 20
133.9844238386347
 30
0.0
 11
132.232565593051
 21
133.393467504742
 31
0.0
  0
LINE
  5
3C6
  8
LINE
 10
129.073754391503
 20
146.186122102331
 30
0.0
 11
129.0737543915033
 21
150.1725697125382
 31
0.0
  0
LINE
  5
3C7
  8
LINE
 10
131.1396933744145
 20
150.1725697125382
 30
0.0
 11
131.1396933744145
 21
150.9654102065839
 31
0.0
  0
LINE
  5
3C9
  8
LINE
 10
129.5832429092304
 20
150.3603824149239
 30
0.0
 11
129.5832429092305
 21
151.2715013318057
 31
0.0
  0
LINE
  5
3CB
  8
LINE
 10
130.0332429085482
 20
150.3266007330731
 30
0.0
 11
135.4332303119388
 21
153.4442849101268
 31
0.0
  0
LINE
  5
3CC
  8
LINE
 10
135.4332303120801
 20
153.963900152479
 30
0.0
 11
130.0332429120802
 21
157.0815843314896
 31
0.0
  0
LINE
  5
3CD
  8
LINE
 10
129.5832429120802
 20
156.8217767105174
 30
0.0
 11
129.5832429084643
 21
150.1725697125382
 31
0.0
  0
ARC
  5
3CE
  8
LINE
 10
129.8832429120802
 20
156.8217767103542
 30
0.0
 40
0.3
 50
60.0
 51
179.9999999688432
  0
ARC
  5
3CF
  8
LINE
 10
129.8832429086895
 20
150.58640835429
 30
0.0
 40
0.3
 50
179.999999968843
 51
299.9999999688491
  0
ARC
  5
3D0
  8
LINE
 10
135.2832303120801
 20
153.7040925313436
 30
0.0
 40
0.3
 50
299.9999999688491
 51
59.99999999999946
  0
LINE
  5
40F
  8
LINE
 10
129.0737543915033
 20
149.593467504742
 30
0.0
 11
132.5737543915033
 21
148.693467504742
 31
0.0
  0
LINE
  5
441
  8
HIDDEN
 10
135.1123825793184
 20
153.5717962579104
 30
0.0
 11
129.5832429120488
 21
156.7640465331954
 31
0.0
  0
LINE
  5
444
  8
HIDDEN
 10
135.1123825793184
 20
153.5717962579104
 30
0.0
 11
135.1123825793184
 21
153.2590433855621
 31
0.0
  0
LINE
  5
448
  8
LINE
 10
128.7737543915033
 20
150.1725697125382
 30
0.0
 11
128.7737543915033
 21
153.6225697125382
 31
0.0
  0
LINE
  5
449
  8
LINE
 10
119.3737543915034
 20
154.6225697125382
 30
0.0
 11
118.3737543915034
 21
153.6225697125382
 31
0.0
  0
LINE
  5
44A
  8
LINE
 10
127.7737543915033
 20
154.6225697125382
 30
0.0
 11
128.7737543915033
 21
153.6225697125382
 31
0.0
  0
LINE
  5
44B
  8
LINE
 10
129.5832429120488
 20
156.7640465331954
 30
0.0
 11
125.8740962554395
 21
154.6225697125382
 31
0.0
  0
LINE
  5
44C
  8
LINE
 10
135.1123825793184
 20
153.2590433855621
 30
0.0
 11
135.1123825793184
 21
151.1725697125382
 31
0.0
  0
LINE
  5
44D
  8
LINE
 10
135.1123825793184
 20
151.1725697125382
 30
0.0
 11
134.1123825793184
 21
150.1725697125382
 31
0.0
  0
LINE
  5
44E
  8
0
  6
BYBLOCK
 62
     0
 10
130.695051765023
 20
157.1474049859081
 30
0.0
 11
148.6560964316877
 21
157.1474049859081
 31
0.0
  0
LINE
  5
44F
  8
0
  6
BYBLOCK
 62
     0
 10
147.948569983957
 20
155.9474049859081
 30
0.0
 11
147.948569983957
 21
146.8318634633948
 31
0.0
  0
SOLID
  5
450
  8
0
  6
BYBLOCK
 62
     0
 10
147.748569983957
 20
155.9474049859081
 30
0.0
 11
148.148569983957
 21
155.9474049859081
 31
0.0
 12
147.948569983957
 22
157.1474049859081
 32
0.0
 13
147.948569983957
 23
157.1474049859081
 33
0.0
  0
TEXT
  5
451
  8
0
  6
CONTINUOUS
 62
     0
 10
147.448569983957
 20
145.2494601895853
 30
0.0
 40
1.25
  1
ø28MIN.
 50
90.0
  7
ROMANS
  0
POINT
  5
452
  8
DEFPOINTS
  6
BYBLOCK
 62
     0
 10
136.8609213916188
 20
142.6474049859081
 30
0.0
  0
POINT
  5
453
  8
DEFPOINTS
  6
BYBLOCK
 62
     0
 10
135.5832303120801
 20
157.1474049859081
 30
0.0
  0
POINT
  5
454
  8
DEFPOINTS
  6
BYBLOCK
 62
     0
 10
147.948569983957
 20
157.1474049859081
 30
0.0
  0
TEXT
  5
455
  8
0
  6
CONTINUOUS
 62
     0
 10
149.7370589820127
 20
145.01136495149
 30
0.0
 40
1.25
  1
ø36MAX.
 50
90.0
  7
ROMANS
  0
LINE
  5
456
  8
DIM
 10
118.3737543915034
 20
153.6225697125382
 30
0.0
 11
128.7737543915033
 21
153.6225697125382
 31
0.0
  0
POLYLINE
  5
457
  8
DIM
 66
     1
 10
0.0
 20
0.0
 30
0.0
  0
VERTEX
  5
CC1
  8
DIM
 10
112.6508315280898
 20
152.393467504742
 30
0.0
  0
VERTEX
  5
CC2
  8
DIM
 10
113.6876610485026
 20
150.8731948464933
 30
0.0
  0
VERTEX
  5
CC3
  8
DIM
 10
114.9548988306917
 20
148.6858136431985
 30
0.0
  0
VERTEX
  5
CC4
  8
DIM
 10
119.10221830463
 20
147.9950608706824
 30
0.0
  0
VERTEX
  5
CC5
  8
DIM
 10
123.7103529098335
 20
147.3043089569462
 30
0.0
  0
VERTEX
  5
CC6
  8
DIM
 10
127.0512511251354
 20
146.3833061190379
 30
0.0
  0
VERTEX
  5
CC7
  8
DIM
 10
131.7745877727959
 20
145.9228042706937
 30
0.0
  0
VERTEX
  5
CC8
  8
DIM
 10
132.5737543915033
 20
145.4623032811296
 30
0.0
  0
SEQEND
  5
CD2
  8
DIM
  0
INSERT
  5
465
  8
HATCH
  2
*X32
 10
0.0
 20
0.0
 30
0.0
  0
INSERT
  5
68D
  8
DIM
 66
     1
  2
KAISERA
 10
-14.86802089495342
 20
108.2997189893338
 30
0.0
 41
8.2225
 42
8.2225
 43
8.2225
  0
ATTRIB
  5
68E
  8
DIM
 10
116.026166821468
 20
113.1364387753712
 30
0.0
 40
1.6445
  1
Insert Holder ENH21/30 TP07
  2
NAME
 70
     0
  0
ATTRIB
  5
68F
  8
DIM
 10
116.4884684150579
 20
118.71402230786
 30
0.0
 40
0.8222499999999999
  1
NONE
  2
SCALE
 70
     0
  0
ATTRIB
  5
690
  8
DIM
 10
116.3151053174617
 20
116.7133673451195
 30
0.0
 40
0.8222499999999999
  1
3/21/00
  2
DATE
 70
     0
  0
ATTRIB
  5
691
  8
DIM
 10
150.6987863407202
 20
118.8352741237837
 30
0.0
 40
0.8222499999999999
  1
J.BURLEY
  2
NAME
 70
     0
  0
ATTRIB
  5
692
  8
DIM
 10
150.2364847471302
 20
116.7133673451195
 30
0.0
 40
0.8222499999999999
  1
3/21/00
  2
REVISED
 70
     0
  0
ATTRIB
  5
693
  8
DIM
 10
120.244668862977
 20
110.5901506409741
 30
0.0
 40
0.8222499999999999
  1

  2
MATERIAL
 70
     0
  0
ATTRIB
  5
694
  8
DIM
 10
122.0360875381383
 20
109.1351288498901
 30
0.0
 40
0.8222499999999999
  1

  2
HEATTREAT
 70
     0
  0
ATTRIB
  5
695
  8
DIM
 10
137.3498278258081
 20
110.4688988250505
 30
0.0
 40
0.8222499999999999
  1

  2
FINISH
 70
     0
  0
ATTRIB
  5
696
  8
DIM
 10
146.1335581040186
 20
109.1957547578519
 30
0.0
 40
1.233375
  1
11.380.321
  2
DRAWINGNO.
 70
     0
  0
ATTRIB
  5
697
  8
DIM
 10
89.37506533767777
 20
109.3170065737756
 30
0.0
 40
1.233375
  1
A
  2
REV.
 70
     0
  0
SEQEND
  5
C42
  8
DIM
  0
DIMENSION
  5
6A3
  8
DIM
  2
*D1
 10
135.5832303120801
 20
162.8705489520123
 30
0.0
 11
116.9515977891069
 21
162.8705489520123
 31
0.0
 12
0.0
 22
20.57005934735986
 32
0.0
 70
    32
  1
35.5
  3
STANDARD
 13
100.0737543915034
 23
154.3717767103543
 33
0.0
 14
135.5832303120801
 24
153.7040925313436
 34
0.0
1001
ACAD
1000
DSTYLE
1002
{
1070
   288
1070
     1
1070
   140
1040
0.125
1070
   340
1005
1CA
1070
    74
1070
     0
1070
   172
1070
     1
1070
    73
1070
     0
1070
    77
1070
     1
1070
    40
1040
10.0
1070
   147
1040
0.05
1070
    44
1040
0.0625
1070
   141
1040
0.0
1070
    41
1040
0.12
1002
}
  0
DIMENSION
  5
6C6
  8
DIM
  2
*D2
 10
129.8832429120802
 20
160.3290721697536
 30
0.0
 11
139.3665636454134
 21
160.3290721697536
 31
0.0
 12
0.0
 22
20.57005934735986
 32
0.0
 70
    32
  1
(5.7)
  3
STANDARD
 13
135.5832303120801
 23
153.7040925313436
 33
0.0
 14
129.8832429120802
 24
157.1217767103543
 34
0.0
1001
ACAD
1000
DSTYLE
1002
{
1070
   288
1070
     1
1070
   140
1040
0.125
1070
   340
1005
1CA
1070
    74
1070
     0
1070
   172
1070
     1
1070
    73
1070
     0
1070
    77
1070
     1
1070
    75
1070
     1
1070
    40
1040
10.0
1070
   147
1040
0.05
1070
    44
1040
0.0625
1070
   141
1040
0.0
1070
    41
1040
0.12
1002
}
  0
DIMENSION
  5
6D1
  8
DIM
  2
*D3
 10
129.8832429120802
 20
160.3290721697536
 30
0.0
 11
116.5500398050206
 21
160.3290721697536
 31
0.0
 12
0.0
 22
20.57005934735986
 32
0.0
 70
    32
  1
29.8
  3
STANDARD
 13
100.0737543915034
 23
154.3717767103543
 33
0.0
 14
129.8832429120802
 24
157.1217767103543
 34
0.0
1001
ACAD
1000
DSTYLE
1002
{
1070
   288
1070
     1
1070
   140
1040
0.125
1070
   340
1005
1CA
1070
    74
1070
     0
1070
   172
1070
     1
1070
    73
1070
     0
1070
    77
1070
     1
1070
    76
1070
     1
1070
    75
1070
     1
1070
    40
1040
10.0
1070
   147
1040
0.05
1070
    44
1040
0.0625
1070
   141
1040
0.0
1070
    41
1040
0.12
1002
}
  0
LINE
  5
6D2
  8
DIM
 10
131.683238710385
 20
153.7040925323222
 30
0.0
 11
141.4542562000202
 21
137.5301987049133
 31
0.0
  0
LINE
  5
6D3
  8
DIM
 10
141.4542562000202
 20
137.5301987049133
 30
0.0
 11
154.8272915548762
 21
137.5301987049133
 31
0.0
  0
TEXT
  5
6D4
  8
DIM
 10
142.1799247851675
 20
137.9445857881717
 30
0.0
 40
1.2
  1
TPGT070203
  7
ROMANS
  0
DIMENSION
  5
6E1
  8
DIM
  2
*D4
 10
148.6560964316877
 20
157.147404985908
 30
0.0
 11
143.8361662952905
 21
154.363541875633
 31
0.0
 12
0.0
 22
20.57005934735986
 32
0.0
 70
    34
  1
30%%D
  3
STANDARD
 13
135.4332303120801
 23
153.963900152479
 33
0.0
 14
130.0332429120802
 24
157.0815843314896
 34
0.0
 15
130.695051765023
 25
157.1474049859081
 35
0.0
 16
143.2559490424006
 26
152.2932392142352
 36
0.0
1001
ACAD
1000
DSTYLE
1002
{
1070
    40
1040
10.0
1070
    41
1040
0.12
1070
    44
1040
0.0625
1070
    73
1070
     0
1070
    74
1070
     0
1070
    75
1070
     1
1070
    77
1070
     1
1070
   140
1040
0.125
1070
   141
1040
0.0
1070
   147
1040
0.05
1070
   172
1070
     1
1070
   179
1070
     4
1070
   288
1070
     1
1070
   340
1005
1CA
1002
}
  0
ENDSEC
  0
EOF
