  0
SECTION
  2
HEADER
  9
$ACADVER
  1
AC1009
  9
$DWGCODEPAGE
  3
ansi_1251
  9
$INSBASE
 10
0.0
 20
0.0
 30
0.0
  9
$EXTMIN
 10
-68.25000000000001
 20
-30.5409271246
 30
0.0
  9
$EXTMAX
 10
88.90000000000003
 20
30.50275418977125
 30
0.0
  9
$LIMMIN
 10
0.0
 20
0.0
  9
$LIMMAX
 10
420.0
 20
297.0
  9
$ORTHOMODE
 70
     1
  9
$REGENMODE
 70
     1
  9
$FILLMODE
 70
     1
  9
$QTEXTMODE
 70
     0
  9
$MIRRTEXT
 70
     0
  9
$DRAGMODE
 70
     2
  9
$LTSCALE
 40
1.0
  9
$OSMODE
 70
   279
  9
$ATTMODE
 70
     1
  9
$TEXTSIZE
 40
2.5
  9
$TRACEWID
 40
1.0
  9
$TEXTSTYLE
  7
STANDARD
  9
$CLAYER
  8
0
  9
$CELTYPE
  6
BYLAYER
  9
$CECOLOR
 62
   256
  9
$DIMSCALE
 40
1.0
  9
$DIMASZ
 40
2.5
  9
$DIMEXO
 40
0.625
  9
$DIMDLI
 40
3.75
  9
$DIMRND
 40
0.0
  9
$DIMDLE
 40
0.0
  9
$DIMEXE
 40
1.25
  9
$DIMTP
 40
0.0
  9
$DIMTM
 40
0.0
  9
$DIMTXT
 40
2.5
  9
$DIMCEN
 40
2.5
  9
$DIMTSZ
 40
0.0
  9
$DIMTOL
 70
     0
  9
$DIMLIM
 70
     0
  9
$DIMTIH
 70
     0
  9
$DIMTOH
 70
     0
  9
$DIMSE1
 70
     0
  9
$DIMSE2
 70
     0
  9
$DIMTAD
 70
     1
  9
$DIMZIN
 70
     8
  9
$DIMBLK
  1

  9
$DIMASO
 70
     1
  9
$DIMSHO
 70
     1
  9
$DIMPOST
  1

  9
$DIMAPOST
  1

  9
$DIMALT
 70
     0
  9
$DIMALTD
 70
     3
  9
$DIMALTF
 40
0.03937007874016
  9
$DIMLFAC
 40
1.0
  9
$DIMTOFL
 70
     1
  9
$DIMTVP
 40
0.0
  9
$DIMTIX
 70
     0
  9
$DIMSOXD
 70
     0
  9
$DIMSAH
 70
     0
  9
$DIMBLK1
  1

  9
$DIMBLK2
  1

  9
$DIMSTYLE
  2
ISO-25
  9
$DIMCLRD
 70
     0
  9
$DIMCLRE
 70
     0
  9
$DIMCLRT
 70
     0
  9
$DIMTFAC
 40
1.0
  9
$DIMGAP
 40
0.625
  9
$LUNITS
 70
     2
  9
$LUPREC
 70
     3
  9
$SKETCHINC
 40
1.0
  9
$FILLETRAD
 40
10.0
  9
$AUNITS
 70
     0
  9
$AUPREC
 70
     0
  9
$MENU
  1
.
  9
$ELEVATION
 40
0.0
  9
$PELEVATION
 40
0.0
  9
$THICKNESS
 40
0.0
  9
$LIMCHECK
 70
     0
  9
$CHAMFERA
 40
10.0
  9
$CHAMFERB
 40
10.0
  9
$SKPOLY
 70
     0
  9
$TDCREATE
 40
2455022.429026158
  9
$TDUPDATE
 40
2458659.538982558
  9
$TDINDWG
 40
0.1506771181
  9
$TDUSRTIMER
 40
2458716.839934074
  9
$USRTIMER
 70
     1
  9
$ANGBASE
 50
0.0
  9
$ANGDIR
 70
     0
  9
$PDMODE
 70
     0
  9
$PDSIZE
 40
0.0
  9
$PLINEWID
 40
0.0
  9
$COORDS
 70
     1
  9
$SPLFRAME
 70
     0
  9
$SPLINETYPE
 70
     6
  9
$SPLINESEGS
 70
     8
  9
$ATTDIA
 70
     0
  9
$ATTREQ
 70
     1
  9
$HANDLING
 70
     1
  9
$HANDSEED
  5
153A
  9
$SURFTAB1
 70
     6
  9
$SURFTAB2
 70
     6
  9
$SURFTYPE
 70
     6
  9
$SURFU
 70
     6
  9
$SURFV
 70
     6
  9
$UCSNAME
  2

  9
$UCSORG
 10
0.0
 20
0.0
 30
0.0
  9
$UCSXDIR
 10
1.0
 20
0.0
 30
0.0
  9
$UCSYDIR
 10
0.0
 20
1.0
 30
0.0
  9
$PUCSNAME
  2

  9
$PUCSORG
 10
0.0
 20
0.0
 30
0.0
  9
$PUCSXDIR
 10
1.0
 20
0.0
 30
0.0
  9
$PUCSYDIR
 10
0.0
 20
1.0
 30
0.0
  9
$USERI1
 70
     0
  9
$USERI2
 70
     0
  9
$USERI3
 70
     0
  9
$USERI4
 70
     0
  9
$USERI5
 70
     0
  9
$USERR1
 40
0.0
  9
$USERR2
 40
0.0
  9
$USERR3
 40
0.0
  9
$USERR4
 40
0.0
  9
$USERR5
 40
0.0
  9
$WORLDVIEW
 70
     1
  9
$SHADEDGE
 70
     3
  9
$SHADEDIF
 70
    70
  9
$TILEMODE
 70
     1
  9
$MAXACTVP
 70
    64
  9
$PLIMCHECK
 70
     0
  9
$PEXTMIN
 10
1.000000000000000E+20
 20
1.000000000000000E+20
 30
1.000000000000000E+20
  9
$PEXTMAX
 10
-1.000000000000000E+20
 20
-1.000000000000000E+20
 30
-1.000000000000000E+20
  9
$PLIMMIN
 10
0.0
 20
0.0
  9
$PLIMMAX
 10
420.0
 20
297.0
  9
$UNITMODE
 70
     0
  9
$VISRETAIN
 70
     1
  9
$PLINEGEN
 70
     0
  9
$PSLTSCALE
 70
     1
  0
ENDSEC
  0
SECTION
  2
TABLES
  0
TABLE
  2
VPORT
 70
     1
  0
VPORT
  2
*ACTIVE
 70
     0
 10
0.0
 20
0.0
 11
1.0
 21
1.0
 12
-0.9219808289663689
 22
-4.409747193426497
 13
0.0
 23
0.0
 14
10.0
 24
10.0
 15
10.0
 25
10.0
 16
0.0
 26
0.0
 36
1.0
 17
0.0
 27
0.0
 37
0.0
 40
158.9050130108681
 41
1.292490118577075
 42
50.0
 43
0.0
 44
0.0
 50
0.0
 51
0.0
 71
    16
 72
  1000
 73
     1
 74
     3
 75
     0
 76
     0
 77
     0
 78
     0
  0
ENDTAB
  0
TABLE
  2
LTYPE
 70
     6
  0
LTYPE
  2
CONTINUOUS
 70
     0
  3
Solid line
 72
    65
 73
     0
 40
0.0
  0
LTYPE
  2
CENTER
 70
     0
  3
 Center _____  _  _____  _  _____  _  _____  _ 
 72
    65
 73
     4
 40
50.8
 49
31.75
 49
-6.35
 49
6.35
 49
-6.35
  0
LTYPE
  2
DASHED
 70
     0
  3
Dashed __  __  __  __  __  __  __  __  __  __  
 72
    65
 73
     2
 40
19.05
 49
12.7
 49
-6.35
  0
LTYPE
  2
HIDDEN
 70
     0
  3
Hidden __ __ __ __ __ __ __ __ __ __ __ __ __ __
 72
    65
 73
     2
 40
1.905
 49
1.27
 49
-0.635
  0
LTYPE
  2
CENTERX2
 70
     0
  3
Center (2x) ________  __  ________  __  _____
 72
    65
 73
     4
 40
20.32
 49
12.7
 49
-2.54
 49
2.54
 49
-2.54
  0
LTYPE
  2
PHANTOM
 70
     0
  3
Phantom ______  __  __  ______  __  __  ______
 72
    65
 73
     6
 40
12.7
 49
6.35
 49
-1.27
 49
1.27
 49
-1.27
 49
1.27
 49
-1.27
  0
ENDTAB
  0
TABLE
  2
LAYER
 70
    26
  0
LAYER
  2
0
 70
     0
 62
     7
  6
CONTINUOUS
  0
LAYER
  2
1
 70
     0
 62
     4
  6
CONTINUOUS
  0
LAYER
  2
2
 70
     0
 62
     7
  6
CONTINUOUS
  0
LAYER
  2
3
 70
     0
 62
     1
  6
DASHED
  0
LAYER
  2
4
 70
     0
 62
     2
  6
CENTER
  0
LAYER
  2
6
 70
     0
 62
     5
  6
CONTINUOUS
  0
LAYER
  2
7
 70
     0
 62
     5
  6
CONTINUOUS
  0
LAYER
  2
11
 70
     0
 62
     4
  6
CONTINUOUS
  0
LAYER
  2
SK1
 70
     0
 62
     4
  6
CONTINUOUS
  0
LAYER
  2
SK2
 70
     0
 62
     7
  6
CONTINUOUS
  0
LAYER
  2
SK3
 70
     0
 62
     1
  6
DASHED
  0
LAYER
  2
SK4
 70
     0
 62
     2
  6
CENTER
  0
LAYER
  2
SK6
 70
     0
 62
     5
  6
CONTINUOUS
  0
LAYER
  2
SK7
 70
     0
 62
     5
  6
CONTINUOUS
  0
LAYER
  2
SK11
 70
     0
 62
     4
  6
CONTINUOUS
  0
LAYER
  2
CUT
 70
     0
 62
     1
  6
CONTINUOUS
  0
LAYER
  2
NOCUT
 70
     0
 62
    -7
  6
CONTINUOUS
  0
LAYER
  2
SKVIEW1
 70
     0
 62
     4
  6
CONTINUOUS
  0
LAYER
  2
SKVIEW2
 70
     0
 62
     7
  6
CONTINUOUS
  0
LAYER
  2
SKVIEW3
 70
     0
 62
     1
  6
DASHED
  0
LAYER
  2
SKVIEW4
 70
     0
 62
     2
  6
CENTER
  0
LAYER
  2
SKVIEW6
 70
     0
 62
     5
  6
CONTINUOUS
  0
LAYER
  2
SKVIEW7
 70
     0
 62
     5
  6
CONTINUOUS
  0
LAYER
  2
SKVIEW11
 70
     0
 62
     4
  6
CONTINUOUS
  0
LAYER
  2
INFTOTAL
 70
     0
 62
     9
  6
CONTINUOUS
  0
LAYER
  2
DEFPOINTS
 70
     0
 62
     7
  6
CONTINUOUS
  0
ENDTAB
  0
TABLE
  2
STYLE
 70
     1
  0
STYLE
  2
STANDARD
 70
     0
 40
0.0
 41
1.0
 50
0.0
 71
     0
 42
2.5
  3
txt
  4

  0
ENDTAB
  0
TABLE
  2
VIEW
 70
     0
  0
ENDTAB
  0
TABLE
  2
UCS
 70
     0
  0
ENDTAB
  0
TABLE
  2
APPID
 70
     2
  0
APPID
  2
ACAD
 70
     0
  0
APPID
  2
ACAECLAYERSTANDARD
 70
     0
  0
ENDTAB
  0
TABLE
  2
DIMSTYLE
 70
     1
  0
DIMSTYLE
  2
ISO-25
 70
     0
  3

  4

  5

  6

  7

 40
1.0
 41
2.5
 42
0.625
 43
3.75
 44
1.25
 45
0.0
 46
0.0
 47
0.0
 48
0.0
140
2.5
141
2.5
142
0.0
143
0.03937007874016
144
1.0
145
0.0
146
1.0
147
0.625
 71
     0
 72
     0
 73
     0
 74
     0
 75
     0
 76
     0
 77
     1
 78
     8
170
     0
171
     3
172
     1
173
     0
174
     0
175
     0
176
     0
177
     0
178
     0
  0
ENDTAB
  0
ENDSEC
  0
SECTION
  2
BLOCKS
  0
BLOCK
  8
0
  2
$MODEL_SPACE
 70
     0
 10
0.0
 20
0.0
 30
0.0
  3
$MODEL_SPACE
  1

  0
ENDBLK
  5
21
  8
0
  0
BLOCK
 67
     1
  8
0
  2
$PAPER_SPACE
 70
     0
 10
0.0
 20
0.0
 30
0.0
  3
$PAPER_SPACE
  1

  0
ENDBLK
  5
1D
 67
     1
  8
0
  0
BLOCK
  8
0
  2
*U0
 70
     1
 10
0.0
 20
0.0
 30
0.0
  3
*U0
  1

  0
TEXT
  5
77E
  8
SK6
 10
-50.0
 20
78.25
 30
0.0
 40
3.5
  1
BIG KAISER
 41
0.85
  0
TEXT
  5
781
  8
SK6
 10
-50.0
 20
73.0
 30
0.0
 40
3.5
  1
11.368.674N
 41
0.85
  0
ENDBLK
  5
782
  8
0
  0
BLOCK
  8
0
  2
_FILLED
 70
     0
 10
0.0
 20
0.0
 30
0.0
  3
_FILLED
  1

  0
SOLID
  5
789
  8
0
  6
BYBLOCK
 62
     0
 10
0.0
 20
0.0
 30
0.0
 11
-1.0
 21
0.2142857143
 31
0.0
 12
-1.0
 22
-0.2142857143
 32
0.0
 13
-1.0
 23
-0.2142857143
 33
0.0
  0
ENDBLK
  5
78A
  8
0
  6
BYBLOCK
 62
     0
  0
BLOCK
  8
0
  2
*U2
 70
     1
 10
0.0
 20
0.0
 30
0.0
  3
*U2
  1

  0
TEXT
  5
790
  8
SK6
 10
-85.96178542556666
 20
-67.06748653279999
 30
0.0
 40
3.5
  1
BCV50
 41
0.85
  0
ENDBLK
  5
791
  8
0
  0
BLOCK
  8
0
  2
*D4
 70
     1
 10
0.0
 20
0.0
 30
0.0
  3
*D4
  1

  0
LINE
  5
7F9
  8
SK2
 62
     0
 10
0.0
 20
-35.55000000000001
 30
0.0
 11
0.0
 21
-74.40665109041375
 31
0.0
  0
LINE
  5
7FA
  8
SK2
 62
     0
 10
35.05
 20
-40.625
 30
0.0
 11
35.05
 21
-74.40665109041375
 31
0.0
  0
LINE
  5
7FB
  8
SK2
 62
     0
 10
2.5
 20
-73.15665109041375
 30
0.0
 11
32.55
 21
-73.15665109041375
 31
0.0
  0
SOLID
  5
7FC
  8
SK2
 62
     0
 10
2.5
 20
-72.73998442374707
 30
0.0
 11
2.5
 21
-73.57331775708042
 31
0.0
 12
0.0
 22
-73.15665109041375
 32
0.0
 13
0.0
 23
-73.15665109041375
 33
0.0
  0
SOLID
  5
7FD
  8
SK2
 62
     0
 10
32.55
 20
-73.57331775708042
 30
0.0
 11
32.55
 21
-72.73998442374707
 31
0.0
 12
35.05
 22
-73.15665109041375
 32
0.0
 13
35.05
 23
-73.15665109041375
 33
0.0
  0
TEXT
  5
7FE
  8
SK2
  6
CONTINUOUS
 62
     0
 10
12.73333333333333
 20
-72.53165109041375
 30
0.0
 40
2.5
  1
35.05
  0
POINT
  5
7FF
  8
DEFPOINTS
 62
     0
 10
0.0
 20
-34.92500000000001
 30
0.0
  0
POINT
  5
800
  8
DEFPOINTS
 62
     0
 10
35.05
 20
-40.0
 30
0.0
  0
POINT
  5
801
  8
DEFPOINTS
 62
     0
 10
35.05
 20
-73.15665109041375
 30
0.0
  0
ENDBLK
  5
803
  8
0
  0
BLOCK
  8
0
  2
*D5
 70
     1
 10
0.0
 20
0.0
 30
0.0
  3
*D5
  1

  0
LINE
  5
808
  8
SK2
 62
     0
 10
0.0
 20
35.54999999999998
 30
0.0
 11
0.0
 21
63.71215670356074
 31
0.0
  0
LINE
  5
809
  8
SK2
 62
     0
 10
83.0
 20
45.125
 30
0.0
 11
83.0
 21
63.71215670356074
 31
0.0
  0
LINE
  5
80A
  8
SK2
 62
     0
 10
2.5
 20
62.46215670356074
 30
0.0
 11
80.5
 21
62.46215670356074
 31
0.0
  0
SOLID
  5
80B
  8
SK2
 62
     0
 10
2.5
 20
62.8788233702274
 30
0.0
 11
2.5
 21
62.04549003689407
 31
0.0
 12
0.0
 22
62.46215670356074
 32
0.0
 13
0.0
 23
62.46215670356074
 33
0.0
  0
SOLID
  5
80C
  8
SK2
 62
     0
 10
80.5
 20
62.04549003689407
 30
0.0
 11
80.5
 21
62.8788233702274
 31
0.0
 12
83.0
 22
62.46215670356074
 32
0.0
 13
83.0
 23
62.46215670356074
 33
0.0
  0
TEXT
  5
80D
  8
SK2
  6
CONTINUOUS
 62
     0
 10
39.41666666666666
 20
63.08715670356074
 30
0.0
 40
2.5
  1
83
  0
POINT
  5
80E
  8
DEFPOINTS
 62
     0
 10
0.0
 20
34.92499999999998
 30
0.0
  0
POINT
  5
80F
  8
DEFPOINTS
 62
     0
 10
83.0
 20
44.5
 30
0.0
  0
POINT
  5
810
  8
DEFPOINTS
 62
     0
 10
83.0
 20
62.46215670356074
 30
0.0
  0
ENDBLK
  5
812
  8
0
  0
BLOCK
  8
0
  2
*D6
 70
     1
 10
0.0
 20
0.0
 30
0.0
  3
*D6
  1

  0
LINE
  5
11EA
  8
SK2
 62
     0
 10
83.125
 20
45.0
 30
0.0
 11
99.75603834206726
 21
45.0
 31
0.0
  0
LINE
  5
11EB
  8
SK2
 62
     0
 10
83.125
 20
-45.0
 30
0.0
 11
99.75603834206726
 21
-45.0
 31
0.0
  0
LINE
  5
11EC
  8
SK2
 62
     0
 10
98.50603834206726
 20
42.5
 30
0.0
 11
98.50603834206726
 21
-42.5
 31
0.0
  0
SOLID
  5
11ED
  8
SK2
 62
     0
 10
98.92270500873393
 20
42.5
 30
0.0
 11
98.08937167540059
 21
42.5
 31
0.0
 12
98.50603834206726
 22
45.0
 32
0.0
 13
98.50603834206726
 23
45.0
 33
0.0
  0
SOLID
  5
11EE
  8
SK2
 62
     0
 10
98.08937167540059
 20
-42.5
 30
0.0
 11
98.92270500873393
 21
-42.5
 31
0.0
 12
98.50603834206726
 22
-45.0
 32
0.0
 13
98.50603834206726
 23
-45.0
 33
0.0
  0
TEXT
  5
11EF
  8
SK2
  6
CONTINUOUS
 62
     0
 10
97.88103834206726
 20
-1.875
 30
0.0
 40
2.5
  1
90
 50
90.0
  0
POINT
  5
11F0
  8
DEFPOINTS
 62
     0
 10
82.5
 20
45.0
 30
0.0
  0
POINT
  5
11F1
  8
DEFPOINTS
 62
     0
 10
82.5
 20
-45.0
 30
0.0
  0
POINT
  5
11F2
  8
DEFPOINTS
 62
     0
 10
98.50603834206726
 20
-45.0
 30
0.0
  0
ENDBLK
  5
11F4
  8
0
  0
ENDSEC
  0
SECTION
  2
ENTITIES
  0
LINE
  5
685
  8
SK1
 10
0.0
 20
34.92499999999998
 30
0.0
 11
-99.6319088344
 21
20.3952133832
 31
0.0
  0
LINE
  5
686
  8
SK1
 10
-99.6319088344
 20
-20.3952133832
 30
0.0
 11
0.0
 21
-34.92500000000001
 31
0.0
  0
ARC
  5
68D
  8
SK1
 10
-99.3
 20
18.1192879614
 30
0.0
 40
2.299999999999995
 50
98.29722000000018
 51
180.0
  0
ARC
  5
68E
  8
SK1
 10
-99.3
 20
-18.1192879614
 30
0.0
 40
2.299999999999995
 50
180.0
 51
261.7027799999998
  0
LINE
  5
6F6
  8
SK1
 10
-101.6
 20
0.0
 30
0.0
 11
-101.6
 21
-18.1192879614
 31
0.0
  0
LINE
  5
6F7
  8
SK1
 10
-101.6
 20
18.1192879614
 30
0.0
 11
-101.6
 21
0.0
 31
0.0
  0
LINE
  5
71A
  8
SK3
 10
-99.5215390309
 20
-13.10000000000002
 30
0.0
 11
-99.5215390309
 21
13.09999999999999
 31
0.0
  0
LINE
  5
71B
  8
SK3
 10
-95.25
 20
-13.10000000000002
 30
0.0
 11
-95.25
 21
13.09999999999999
 31
0.0
  0
LINE
  5
72A
  8
SK3
 10
-101.6
 20
-14.30000000000001
 30
0.0
 11
-99.5215390309
 21
-13.10000000000002
 31
0.0
  0
LINE
  5
72B
  8
SK3
 10
-99.5215390309
 20
13.09999999999999
 30
0.0
 11
-101.6
 21
14.3
 31
0.0
  0
LINE
  5
72C
  8
SK3
 10
-99.5215390309
 20
-13.10000000000002
 30
0.0
 11
-95.25
 21
-13.10000000000002
 31
0.0
  0
LINE
  5
72D
  8
SK3
 10
-95.25
 20
13.09999999999999
 30
0.0
 11
-99.5215390309
 21
13.09999999999999
 31
0.0
  0
LINE
  5
72E
  8
SK3
 10
-95.25
 20
-11.09980000000002
 30
0.0
 11
0.0
 21
-11.09980000000002
 31
0.0
  0
LINE
  5
72F
  8
SK3
 10
0.0
 20
11.09979999999999
 30
0.0
 11
-95.25
 21
11.09979999999999
 31
0.0
  0
LINE
  5
760
  8
SK3
 10
-57.1
 20
12.69999999999999
 30
0.0
 11
-95.25
 21
12.69999999999999
 31
0.0
  0
LINE
  5
761
  8
SK3
 10
-95.25
 20
-12.69999999999999
 30
0.0
 11
-57.1
 21
-12.69999999999999
 31
0.0
  0
LINE
  5
774
  8
SK3
 10
-57.1
 20
12.69999999999999
 30
0.0
 11
-57.1
 21
-12.69999999999999
 31
0.0
  0
LINE
  5
777
  8
SK4
 10
0.0
 20
0.0
 30
0.0
 11
-101.6
 21
0.0
 31
0.0
  0
LINE
  5
779
  8
4
 10
0.0
 20
0.0
 30
0.0
 11
83.0
 21
0.0
 31
0.0
  0
INSERT
  5
77B
  8
SK6
  2
*U0
 10
-44.10380399683656
 20
-23.39313954296377
 30
0.0
  0
INSERT
  5
78D
  8
SK6
  2
*U2
 10
17.55665382414153
 20
-2.560320993650734
 30
0.0
  0
LINE
  5
793
  8
0
 10
3.0
 20
3.0
 30
0.0
 11
-3.0
 21
-3.0
 31
0.0
  0
LINE
  5
794
  8
0
 10
-3.0
 20
3.0
 30
0.0
 11
3.0
 21
-3.0
 31
0.0
  0
CIRCLE
  5
795
  8
0
 10
0.0
 20
0.0
 30
0.0
 40
2.5
  0
LINE
  5
796
  8
0
 10
86.0
 20
-3.0
 30
0.0
 11
80.0
 21
3.0
 31
0.0
  0
CIRCLE
  5
797
  8
0
 10
83.0
 20
0.0
 30
0.0
 40
2.5
  0
LINE
  5
798
  8
0
 10
80.0
 20
-3.0
 30
0.0
 11
86.0
 21
3.0
 31
0.0
  0
LINE
  5
799
  8
NOCUT
 10
0.7999999999999972
 20
34.62500000000001
 30
0.0
 11
0.2999999999999972
 21
34.62500000000001
 31
0.0
  0
LINE
  5
79C
  8
NOCUT
 10
0.2999999999999972
 20
34.62500000000001
 30
0.0
 11
0.0
 21
34.92499999999999
 31
0.0
  0
LINE
  5
79D
  8
NOCUT
 10
33.05
 20
34.92499999999999
 30
0.0
 11
20.05
 21
34.92499999999999
 31
0.0
  0
ARC
  5
79E
  8
NOCUT
 10
0.7999999999999972
 20
35.62500000000001
 30
0.0
 40
1.0
 50
270.0
 51
314.4270040008
  0
ARC
  5
79F
  8
NOCUT
 10
20.05
 20
35.92499999999999
 30
0.0
 40
1.0
 50
180.0
 51
270.0
  0
LINE
  5
7A0
  8
NOCUT
 10
12.55499999999999
 20
45.64499999999999
 30
0.0
 11
9.704999999999998
 21
45.64499999999999
 31
0.0
  0
ARC
  5
7A1
  8
NOCUT
 10
12.55499999999999
 20
46.14499999999999
 30
0.0
 40
0.5
 50
270.0
 51
0.0
  0
ARC
  5
7A2
  8
NOCUT
 10
9.704999999999998
 20
46.14499999999999
 30
0.0
 40
0.5
 50
180.0
 51
270.0
  0
ARC
  5
7A3
  8
NOCUT
 10
2.299999999999997
 20
48.4125
 30
0.0
 40
0.7999999999999972
 50
90.0
 51
180.0
  0
ARC
  5
7A4
  8
NOCUT
 10
18.24999999999999
 20
48.4125
 30
0.0
 40
0.799999999999983
 50
0.0
 51
90.0
  0
LINE
  5
7A5
  8
NOCUT
 10
9.204999999999998
 20
46.43919780459999
 30
0.0
 11
7.603833230999996
 21
49.21250000000001
 31
0.0
  0
LINE
  5
7A6
  8
NOCUT
 10
14.65616676910001
 20
49.21250000000001
 30
0.0
 11
13.05499999999999
 21
46.43919780459999
 31
0.0
  0
LINE
  5
7A7
  8
NOCUT
 10
18.24999999999999
 20
49.21250000000001
 30
0.0
 11
14.65616676910001
 21
49.21250000000001
 31
0.0
  0
LINE
  5
7A8
  8
NOCUT
 10
7.603833230999996
 20
49.21250000000001
 30
0.0
 11
2.299999999999997
 21
49.21250000000001
 31
0.0
  0
LINE
  5
7AC
  8
NOCUT
 10
1.5
 20
48.4125
 30
0.0
 11
1.499999999999929
 21
34.91085715714565
 31
0.0
  0
LINE
  5
7AD
  8
NOCUT
 10
19.04999999999997
 20
48.4125
 30
0.0
 11
19.05
 21
35.92499999999999
 31
0.0
  0
LINE
  5
7AE
  8
NOCUT
 10
9.204999999999998
 20
46.43919780459999
 30
0.0
 11
9.204999999999998
 21
46.14499999999999
 31
0.0
  0
LINE
  5
7AF
  8
NOCUT
 10
13.05499999999999
 20
46.43919780459999
 30
0.0
 11
13.05499999999999
 21
46.14499999999999
 31
0.0
  0
DIMENSION
  5
7F5
  8
SK2
  2
*D4
 10
35.05
 20
-73.15665109041375
 30
0.0
 11
17.525
 21
-71.28165109041375
 31
0.0
 70
    32
  3
ISO-25
 13
0.0
 23
-34.92500000000001
 33
0.0
 14
35.05
 24
-40.0
 34
0.0
1001
ACAD
1000
DSTYLE
1002
{
1070
   287
1070
     5
1070
   271
1070
     3
1070
   272
1070
     3
1070
   279
1070
     2
1002
}
  0
DIMENSION
  5
804
  8
SK2
  2
*D5
 10
83.0
 20
62.46215670356074
 30
0.0
 11
41.5
 21
64.33715670356074
 31
0.0
 70
    32
  3
ISO-25
 13
0.0
 23
34.92499999999998
 33
0.0
 14
83.0
 24
44.5
 34
0.0
1001
ACAD
1000
DSTYLE
1002
{
1070
   287
1070
     5
1070
   271
1070
     3
1070
   272
1070
     3
1070
   279
1070
     2
1002
}
  0
LINE
  5
8BF
  8
NOCUT
 10
0.0
 20
34.92499999999999
 30
0.0
 11
0.0
 21
0.0
 31
0.0
  0
LINE
  5
8C0
  8
NOCUT
 10
0.0
 20
0.0
 30
0.0
 11
83.0
 21
0.0
 31
0.0
  0
INSERT
  5
A17
  8
SK6
  2
_FILLED
 10
-20.78186483605847
 20
-31.89428358495073
 30
0.0
 41
3.5
 42
3.5
 43
3.5
 50
52.86965044919886
  0
POLYLINE
  5
A18
  8
SK6
 66
     1
 10
0.0
 20
0.0
 30
0.0
  0
VERTEX
  5
1202
  8
SK6
 10
-22.89457117648658
 20
-34.68470862768434
 30
0.0
  0
VERTEX
  5
1203
  8
SK6
 10
-48.02596493475846
 20
-67.87780752645074
 30
0.0
  0
VERTEX
  5
1204
  8
SK6
 10
-49.90096493475846
 20
-66.12780752645074
 30
0.0
  0
VERTEX
  5
1205
  8
SK6
 10
-53.40096493475846
 20
-66.12780752645074
 30
0.0
  0
SEQEND
  5
1539
  8
SK6
  0
ARC
  5
AC7
  8
1
 10
20.04999999999998
 20
35.92499999999998
 30
0.0
 40
1.0
 50
180.0
 51
270.0
  0
ARC
  5
AC9
  8
1
 10
20.04999999999998
 20
-35.92500000000001
 30
0.0
 40
1.0
 50
90.0
 51
180.0
  0
ARC
  5
ACA
  8
1
 10
1.299999999999983
 20
35.125
 30
0.0
 40
0.5
 50
270.0
 51
293.5781784781994
  0
ARC
  5
ACB
  8
1
 10
1.299999999999983
 20
-35.125
 30
0.0
 40
0.500000000000009
 50
66.42182152180017
 51
90.0
  0
LINE
  5
ACC
  8
1
 10
33.05
 20
34.92499999999998
 30
0.0
 11
20.04999999999998
 21
34.92499999999998
 31
0.0
  0
LINE
  5
ACE
  8
1
 10
20.04999999999998
 20
-34.92500000000001
 30
0.0
 11
33.05
 21
-34.92500000000001
 31
0.0
  0
LINE
  5
ACF
  8
1
 10
0.0
 20
-34.92500000000001
 30
0.0
 11
0.2999999999999829
 21
-34.625
 31
0.0
  0
LINE
  5
AD0
  8
1
 10
0.2999999999999829
 20
34.625
 30
0.0
 11
0.0
 21
34.92499999999998
 31
0.0
  0
LINE
  5
AD5
  8
1
 10
1.299999999999983
 20
34.625
 30
0.0
 11
0.2999999999999829
 21
34.625
 31
0.0
  0
LINE
  5
AD6
  8
1
 10
0.2999999999999829
 20
-34.625
 30
0.0
 11
1.299999999999983
 21
-34.625
 31
0.0
  0
LINE
  5
ADB
  8
1
 10
14.65616694409999
 20
-47.282880439
 30
0.0
 11
14.68806954659999
 21
-47.29184187660002
 31
0.0
  0
LINE
  5
ADC
  8
1
 10
14.6561667691
 20
47.30816788690001
 30
0.0
 11
14.6561667691
 21
-47.2826327523
 31
0.0
  0
LINE
  5
ADD
  8
1
 10
14.7615962207
 20
47.3314147463
 30
0.0
 11
14.6561668942
 21
47.30816788690001
 31
0.0
  0
LINE
  5
ADE
  8
1
 10
18.25
 20
47.3314147463
 30
0.0
 11
14.7615962207
 21
47.3314147463
 31
0.0
  0
LINE
  5
ADF
  8
1
 10
14.68806954659999
 20
-47.29184187660002
 30
0.0
 11
18.25
 21
-47.29184187660002
 31
0.0
  0
LINE
  5
AE0
  8
1
 10
7.498403779400007
 20
47.3314147463
 30
0.0
 11
4.006414746699988
 21
47.3314147463
 31
0.0
  0
LINE
  5
AE1
  8
1
 10
7.603833105900009
 20
47.30816788690001
 30
0.0
 11
7.498403779400007
 21
47.3314147463
 31
0.0
  0
LINE
  5
AE2
  8
1
 10
7.603833230899994
 20
47.30844201400001
 30
0.0
 11
7.603833230899994
 21
-47.28288044160001
 31
0.0
  0
LINE
  5
AE3
  8
1
 10
7.571930453299984
 20
-47.29184187660002
 30
0.0
 11
7.603833055899997
 21
-47.282880439
 31
0.0
  0
LINE
  5
AE4
  8
1
 10
4.040356993800003
 20
-47.29184187660002
 30
0.0
 11
7.571930453299984
 21
-47.29184187660002
 31
0.0
  0
LINE
  5
AE5
  8
1
 10
2.300001405499984
 20
-46.74795901499999
 30
0.0
 11
4.040356993800003
 21
-47.29184189310001
 31
0.0
  0
LINE
  5
AE6
  8
1
 10
4.006414746699988
 20
47.33141476029999
 30
0.0
 11
2.299999765199999
 21
46.80267569
 31
0.0
  0
ARC
  5
AE7
  8
1
 10
2.557435939599998
 20
-45.59355264690001
 30
0.0
 40
1.184053137363273
 50
207.7147598986998
 51
257.3157095984005
  0
LINE
  5
AE8
  8
1
 10
1.50922466130001
 20
-46.14422037630001
 30
0.0
 11
1.5
 21
-46.01377680920001
 31
0.0
  0
LINE
  5
AE9
  8
1
 10
1.5
 20
-46.01377680920001
 30
0.0
 11
1.5
 21
46.01377680919998
 31
0.0
  0
ARC
  5
AEA
  8
1
 10
2.572884962100005
 20
45.72649004249999
 30
0.0
 40
1.111555736593689
 50
104.3436511600003
 51
164.8417645594994
  0
LINE
  5
AEB
  8
1
 10
9.204999995999998
 20
44.41431970880001
 30
0.0
 11
7.60383322749999
 21
47.3081678945
 31
0.0
  0
LINE
  5
AEC
  8
1
 10
9.204999999999984
 20
44.4143196734
 30
0.0
 11
9.204999999999984
 21
-44.387299867
 31
0.0
  0
LINE
  5
AED
  8
1
 10
7.603833226399985
 20
-47.28288044990001
 30
0.0
 11
9.2049999921
 21
-44.38762367050001
 31
0.0
  0
LINE
  5
AEE
  8
1
 10
14.65616677259999
 20
47.3081678945
 30
0.0
 11
13.05500000399999
 21
44.41431970880001
 31
0.0
  0
LINE
  5
AEF
  8
1
 10
13.05500000800001
 20
-44.38762367050001
 30
0.0
 11
14.65616677360001
 21
-47.28288044990001
 31
0.0
  0
LINE
  5
AF0
  8
1
 10
13.05500000000001
 20
44.41459195280001
 30
0.0
 11
13.05500000000001
 21
-44.38762365650001
 31
0.0
  0
ARC
  5
AF1
  8
1
 10
17.92302328310001
 20
46.41895288640001
 30
0.0
 40
1.127359624435328
 50
1.493363825500091
 51
43.53750291790048
  0
LINE
  5
AF2
  8
1
 10
19.04999999999998
 20
46.44833319130001
 30
0.0
 11
19.04999999999998
 21
-46.44833319130001
 31
0.0
  0
ARC
  5
AF3
  8
1
 10
17.91824827779999
 20
-46.4157978575
 30
0.0
 40
1.1322192847622
 50
319.2464850235001
 51
358.3533278529993
  0
ARC
  5
AF4
  8
1
 10
18.2616113983
 20
-46.25791326929999
 30
0.0
 40
1.033993805426882
 50
269.3565743835002
 51
299.8289453780985
  0
ARC
  5
AF5
  8
1
 10
18.2610591033
 20
46.41902767409999
 30
0.0
 40
0.9124540938653742
 50
58.31881226410037
 51
90.69445187719943
  0
ARC
  5
AF6
  8
1
 10
12.5158206966
 20
-44.1073442162
 30
0.0
 40
0.5397579791454132
 50
357.3466499737992
 51
85.83742202690154
  0
ARC
  5
AF7
  8
1
 10
12.54139279200001
 20
44.09944295630001
 30
0.0
 40
0.4858431210597904
 50
271.6049163143007
 51
333.441972537701
  0
POLYLINE
  5
AF8
  8
1
 66
     1
 10
0.0
 20
0.0
 30
0.0
  0
VERTEX
  5
1206
  8
1
 10
13.05500000000001
 20
44.14662312639999
 30
0.0
  0
VERTEX
  5
1207
  8
1
 10
13.03542892280001
 20
44.01594229719998
 30
0.0
  0
VERTEX
  5
1208
  8
1
 10
12.97787844319998
 20
43.88571451269999
 30
0.0
  0
SEQEND
  5
1538
  8
1
  0
ARC
  5
AF9
  8
1
 10
9.744214343399989
 20
-44.10737531749999
 30
0.0
 40
0.5397915428070933
 50
94.16604783349855
 51
182.6498801657025
  0
POLYLINE
  5
AFA
  8
1
 66
     1
 10
0.0
 20
0.0
 30
0.0
  0
VERTEX
  5
1209
  8
1
 10
9.280099379399985
 20
43.88913247470001
 30
0.0
  0
VERTEX
  5
120A
  8
1
 10
9.224055884099982
 20
44.0177026321
 30
0.0
  0
VERTEX
  5
120B
  8
1
 10
9.204999999999984
 20
44.14662312639999
 30
0.0
  0
SEQEND
  5
1537
  8
1
  0
ARC
  5
AFB
  8
1
 10
9.721350266000002
 20
44.10422581969999
 30
0.0
 40
0.4907078648052702
 50
206.0244317763009
 51
268.0905652222996
  0
LINE
  5
AFC
  8
1
 10
12.55500000000001
 20
43.613790424
 30
0.0
 11
9.704999999999984
 21
43.613790424
 31
0.0
  0
LINE
  5
AFD
  8
1
 10
9.704999999999984
 20
-43.5690100651
 30
0.0
 11
12.55500000000001
 21
-43.5690100651
 31
0.0
  0
LINE
  5
B00
  8
1
 10
0.2999999999999829
 20
34.625
 30
0.0
 11
0.2999999999999829
 21
-34.625
 31
0.0
  0
LINE
  5
B01
  8
1
 10
0.0
 20
34.92499999999998
 30
0.0
 11
0.0
 21
-34.92500000000001
 31
0.0
  0
LINE
  5
B04
  8
1
 10
14.68806954670001
 20
-47.29184187660002
 30
0.0
 11
14.65616694420001
 21
-47.282880439
 31
0.0
  0
LINE
  5
B1A
  8
3
 10
1.500000000000004
 20
37.72
 30
0.0
 11
19.04999999999998
 21
37.72
 31
0.0
  0
LINE
  5
B3B
  8
3
 10
1.5
 20
-35.30000000000001
 30
0.0
 11
19.26937525020018
 21
-35.30000000000001
 31
0.0
  0
LINE
  5
B42
  8
3
 10
26.97499999999999
 20
28.32499999999999
 30
0.0
 11
33.32499999999999
 21
28.32499999999999
 31
0.0
  0
LINE
  5
B43
  8
3
 10
20.625
 20
28.32499999999999
 30
0.0
 11
26.97499999999999
 21
28.32499999999999
 31
0.0
  0
LINE
  5
B44
  8
3
 10
11.375
 20
37.31999999999999
 30
0.0
 11
16.125
 21
37.31999999999999
 31
0.0
  0
LINE
  5
B45
  8
3
 10
6.625
 20
37.31999999999999
 30
0.0
 11
11.375
 21
37.31999999999999
 31
0.0
  0
LINE
  5
B55
  8
3
 10
20.625
 20
28.32499999999999
 30
0.0
 11
26.97499999999999
 21
24.50953506919998
 31
0.0
  0
LINE
  5
B56
  8
3
 10
26.97499999999999
 20
24.50953506919998
 30
0.0
 11
33.32499999999999
 21
28.32499999999999
 31
0.0
  0
LINE
  5
B57
  8
3
 10
20.625
 20
34.92499999999998
 30
0.0
 11
20.625
 21
28.32499999999999
 31
0.0
  0
LINE
  5
B58
  8
3
 10
33.32499999999999
 20
28.32499999999999
 30
0.0
 11
33.32499999999999
 21
34.94399646643422
 31
0.0
  0
LINE
  5
B59
  8
3
 10
6.625
 20
37.72
 30
0.0
 11
6.625
 21
37.31999999999999
 31
0.0
  0
LINE
  5
B5A
  8
3
 10
16.125
 20
37.31999999999999
 30
0.0
 11
16.125
 21
37.72
 31
0.0
  0
LINE
  5
B5B
  8
1
 10
20.04999999999998
 20
-34.92500000000001
 30
0.0
 11
20.04999999999998
 21
34.92499999999998
 31
0.0
  0
LINE
  5
B5C
  8
1
 10
1.299999999999983
 20
-34.625
 30
0.0
 11
1.299999999999983
 21
34.625
 31
0.0
  0
LINE
  5
B5F
  8
1
 10
12.55500000000001
 20
-43.00413183130001
 30
0.0
 11
12.55500000000001
 21
42.79577481850001
 31
0.0
  0
LINE
  5
B60
  8
1
 10
9.704999999999984
 20
-43.00421493109999
 30
0.0
 11
9.704999999999984
 21
42.7957705776
 31
0.0
  0
LINE
  5
B62
  8
1
 10
18.25
 20
47.3314147463
 30
0.0
 11
18.25
 21
-47.29184187660002
 31
0.0
  0
LINE
  5
B64
  8
1
 10
2.299999999999983
 20
-46.74795854910002
 30
0.0
 11
2.299999999999983
 21
46.80267576719999
 31
0.0
  0
LINE
  5
D5D
  8
1
 10
82.5
 20
-45.0
 30
0.0
 11
83.0
 21
-44.5
 31
0.0
  0
LINE
  5
D5F
  8
1
 10
83.0
 20
44.5
 30
0.0
 11
82.5
 21
45.0
 31
0.0
  0
LINE
  5
D60
  8
1
 10
40.05
 20
-45.0
 30
0.0
 11
82.5
 21
-45.0
 31
0.0
  0
LINE
  5
D61
  8
1
 10
82.5
 20
45.0
 30
0.0
 11
40.05
 21
45.0
 31
0.0
  0
LINE
  5
D62
  8
1
 10
40.05
 20
45.0
 30
0.0
 11
35.05
 21
40.0
 31
0.0
  0
LINE
  5
D63
  8
1
 10
35.05
 20
-40.0
 30
0.0
 11
40.05
 21
-45.0
 31
0.0
  0
ARC
  5
D64
  8
1
 10
33.05
 20
-36.92499999999998
 30
0.0
 40
2.000000000000007
 50
0.0
 51
90.0
  0
CIRCLE
  5
D73
  8
1
 10
63.95000000000005
 20
0.0
 30
0.0
 40
9.999999999999929
  0
CIRCLE
  5
D74
  8
1
 10
63.95000000000005
 20
0.0
 30
0.0
 40
8.99999999999998
  0
LINE
  5
D75
  8
1
 10
58.95000000000005
 20
2.886751345899995
 30
0.0
 11
58.95000000000005
 21
-2.886751345999983
 31
0.0
  0
LINE
  5
D76
  8
1
 10
58.95000000000005
 20
-2.886751345999983
 30
0.0
 11
63.95000000000005
 21
-5.773502691899978
 31
0.0
  0
LINE
  5
D77
  8
1
 10
68.95000000000005
 20
2.886751345899995
 30
0.0
 11
63.95000000000005
 21
5.77350269179999
 31
0.0
  0
LINE
  5
D78
  8
1
 10
68.95000000000005
 20
-2.886751345999983
 30
0.0
 11
68.95000000000005
 21
2.886751345899995
 31
0.0
  0
LINE
  5
D79
  8
1
 10
63.95000000000005
 20
5.77350269179999
 30
0.0
 11
58.95000000000005
 21
2.886751345899995
 31
0.0
  0
LINE
  5
D7A
  8
1
 10
63.95000000000005
 20
-5.773502691899978
 30
0.0
 11
68.95000000000005
 21
-2.886751345999983
 31
0.0
  0
LINE
  5
D9E
  8
1
 10
82.5
 20
0.0
 30
0.0
 11
82.5
 21
45.0
 31
0.0
  0
LINE
  5
D9F
  8
1
 10
82.5
 20
-45.0
 30
0.0
 11
82.5
 21
0.0
 31
0.0
  0
LINE
  5
DA0
  8
1
 10
83.0
 20
0.0
 30
0.0
 11
83.0
 21
44.5
 31
0.0
  0
LINE
  5
DA1
  8
1
 10
83.0
 20
-44.5
 30
0.0
 11
83.0
 21
0.0
 31
0.0
  0
LINE
  5
DA2
  8
1
 10
40.05
 20
45.0
 30
0.0
 11
40.05
 21
-45.0
 31
0.0
  0
CIRCLE
  5
DA3
  8
1
 10
78.80000000000007
 20
0.0
 30
0.0
 40
2.500000000000114
  0
ARC
  5
DA4
  8
1
 10
63.95000000000005
 20
-0.0003913399999931
 30
0.0
 40
11.00000000696134
 50
0.0020383752999516
 51
179.9979616247001
  0
ARC
  5
DA5
  8
1
 10
63.95000000000005
 20
0.0004881217000161
 30
0.0
 40
11.00000001083024
 50
180.0025424833001
 51
359.9974575167
  0
LINE
  5
DA6
  8
1
 10
35.05
 20
-40.0
 30
0.0
 11
35.05
 21
40.0
 31
0.0
  0
CIRCLE
  5
DB8
  8
3
 10
63.95000000000005
 20
0.0
 30
0.0
 40
6.114736709748722
  0
POLYLINE
  5
DBB
  8
3
 66
     1
 10
0.0
 20
0.0
 30
0.0
  0
VERTEX
  5
120C
  8
3
 10
70.04883751750003
 20
-11.97345685329998
 30
0.0
  0
VERTEX
  5
120D
  8
3
 10
69.84568051680003
 20
-11.21409526650001
 30
0.0
  0
VERTEX
  5
120E
  8
3
 10
69.41595582010007
 20
-10.49480082100001
 30
0.0
  0
VERTEX
  5
120F
  8
3
 10
68.77617750659999
 20
-9.843215599199993
 30
0.0
  0
VERTEX
  5
1210
  8
3
 10
67.95093189810007
 20
-9.284379655500004
 30
0.0
  0
VERTEX
  5
1211
  8
3
 10
66.97193272050004
 20
-8.83976874199999
 30
0.0
  0
VERTEX
  5
1212
  8
3
 10
65.8768023632
 20
-8.526469006599996
 30
0.0
  0
VERTEX
  5
1213
  8
3
 10
64.70762607150004
 20
-8.356520382599996
 30
0.0
  0
VERTEX
  5
1214
  8
3
 10
63.50933463490003
 20
-8.336453900200013
 30
0.0
  0
VERTEX
  5
1215
  8
3
 10
62.32797772110007
 20
-8.467040703099997
 30
0.0
  0
VERTEX
  5
1216
  8
3
 10
61.20895421379998
 20
-8.743262413699995
 30
0.0
  0
VERTEX
  5
1217
  8
3
 10
60.19526755890001
 20
-9.154503986500004
 30
0.0
  0
VERTEX
  5
1218
  8
3
 10
59.3258731661
 20
-9.684961638599987
 30
0.0
  0
VERTEX
  5
1219
  8
3
 10
58.63418137420001
 20
-10.3142501799
 30
0.0
  0
VERTEX
  5
121A
  8
3
 10
58.14677351099999
 20
-11.01818640459999
 30
0.0
  0
VERTEX
  5
121B
  8
3
 10
57.88238038719999
 20
-11.76971843839999
 30
0.0
  0
VERTEX
  5
121C
  8
3
 10
57.85116248240001
 20
-12.5399653266
 30
0.0
  0
VERTEX
  5
121D
  8
3
 10
58.05431948310002
 20
-13.29932691339999
 30
0.0
  0
VERTEX
  5
121E
  8
3
 10
58.48404417979998
 20
-14.01862135889999
 30
0.0
  0
VERTEX
  5
121F
  8
3
 10
59.12382249330005
 20
-14.67020658069998
 30
0.0
  0
VERTEX
  5
1220
  8
3
 10
59.94906810179998
 20
-15.22904252439997
 30
0.0
  0
VERTEX
  5
1221
  8
3
 10
60.92806727940001
 20
-15.67365343789999
 30
0.0
  0
VERTEX
  5
1222
  8
3
 10
62.02319763679998
 20
-15.98695317329998
 30
0.0
  0
VERTEX
  5
1223
  8
3
 10
63.1923739284
 20
-16.15690179730001
 30
0.0
  0
VERTEX
  5
1224
  8
3
 10
64.39066536500002
 20
-16.17696827969999
 30
0.0
  0
VERTEX
  5
1225
  8
3
 10
65.57202227879998
 20
-16.04638147679998
 30
0.0
  0
VERTEX
  5
1226
  8
3
 10
66.69104578610006
 20
-15.77015976619998
 30
0.0
  0
VERTEX
  5
1227
  8
3
 10
67.70473244100003
 20
-15.35891819339997
 30
0.0
  0
VERTEX
  5
1228
  8
3
 10
68.57412683389998
 20
-14.82846054129999
 30
0.0
  0
VERTEX
  5
1229
  8
3
 10
69.26581862570004
 20
-14.19917199999998
 30
0.0
  0
VERTEX
  5
122A
  8
3
 10
69.75322648899999
 20
-13.49523577529999
 30
0.0
  0
VERTEX
  5
122B
  8
3
 10
70.01761961270006
 20
-12.74370374149998
 30
0.0
  0
VERTEX
  5
122C
  8
3
 10
70.04883751750003
 20
-11.97345685329998
 30
0.0
  0
SEQEND
  5
1536
  8
3
  0
POLYLINE
  5
DBC
  8
3
 66
     1
 10
0.0
 20
0.0
 30
0.0
  0
VERTEX
  5
122D
  8
3
 10
73.92399856610007
 20
-22.90112340869999
 30
0.0
  0
VERTEX
  5
122E
  8
3
 10
73.91711595000004
 20
-23.88521168939999
 30
0.0
  0
VERTEX
  5
122F
  8
3
 10
73.67661258370003
 20
-24.85709154289998
 30
0.0
  0
VERTEX
  5
1230
  8
3
 10
73.20812566230006
 20
-25.7939829291
 30
0.0
  0
VERTEX
  5
1231
  8
3
 10
72.52263612220008
 20
-26.67392590790001
 30
0.0
  0
VERTEX
  5
1232
  8
3
 10
71.63621125719999
 20
-27.4762953618
 30
0.0
  0
VERTEX
  5
1233
  8
3
 10
70.56962811490007
 20
-28.1822844308
 30
0.0
  0
VERTEX
  5
1234
  8
3
 10
69.34788650020005
 20
-28.7753453295
 30
0.0
  0
VERTEX
  5
1235
  8
3
 10
67.99962300089999
 20
-29.2415772132
 30
0.0
  0
VERTEX
  5
1236
  8
3
 10
66.55643977070008
 20
-29.57005200149999
 30
0.0
  0
VERTEX
  5
1237
  8
3
 10
65.0521638015
 20
-29.75307052389999
 30
0.0
  0
VERTEX
  5
1238
  8
3
 10
63.52205404690005
 20
-29.78634298129998
 30
0.0
  0
VERTEX
  5
1239
  8
3
 10
62.00197498270006
 20
-29.66908949549997
 30
0.0
  0
VERTEX
  5
123A
  8
3
 10
60.52755597380008
 20
-29.40405838890001
 30
0.0
  0
VERTEX
  5
123B
  8
3
 10
59.13335615220001
 20
-28.9974617659
 30
0.0
  0
VERTEX
  5
123C
  8
3
 10
57.85205438000003
 20
-28.45882990679999
 30
0.0
  0
VERTEX
  5
123D
  8
3
 10
56.71368328480003
 20
-27.80078788579999
 30
0.0
  0
VERTEX
  5
123E
  8
3
 10
55.74492532010004
 20
-27.03875965020001
 30
0.0
  0
VERTEX
  5
123F
  8
3
 10
54.96848735160006
 20
-26.19060649599999
 30
0.0
  0
VERTEX
  5
1240
  8
3
 10
54.40256842730003
 20
-25.2762084142
 30
0.0
  0
VERTEX
  5
1241
  8
3
 10
54.06043320690003
 20
-24.3169981209
 30
0.0
  0
VERTEX
  5
1242
  8
3
 10
53.95010105020003
 20
-23.33545869229999
 30
0.0
  0
VERTEX
  5
1243
  8
3
 10
54.07415804940001
 20
-22.35459658069999
 30
0.0
  0
VERTEX
  5
1244
  8
3
 10
54.42969641349998
 20
-21.39740236279999
 30
0.0
  0
VERTEX
  5
1245
  8
3
 10
55.00838262460002
 20
-20.48631185959999
 30
0.0
  0
VERTEX
  5
1246
  8
3
 10
55.79665276840001
 20
-19.6426802604
 30
0.0
  0
VERTEX
  5
1247
  8
3
 10
56.77603046090007
 20
-18.88628157479999
 30
0.0
  0
VERTEX
  5
1248
  8
3
 10
57.92355991900001
 20
-18.2348451469
 30
0.0
  0
VERTEX
  5
1249
  8
3
 10
59.21234402490006
 20
-17.70364009449997
 30
0.0
  0
VERTEX
  5
124A
  8
3
 10
60.61217477130003
 20
-17.30511741379999
 30
0.0
  0
VERTEX
  5
124B
  8
3
 10
62.09024131210003
 20
-17.04861813849999
 30
0.0
  0
VERTEX
  5
124C
  8
3
 10
63.61189902030003
 20
-16.94015439449998
 30
0.0
  0
VERTEX
  5
124D
  8
3
 10
65.1414815288
 20
-16.98226847979998
 30
0.0
  0
VERTEX
  5
124E
  8
3
 10
66.6431367202
 20
-17.17397327589998
 30
0.0
  0
VERTEX
  5
124F
  8
3
 10
68.08166706949999
 20
-17.51077538509998
 30
0.0
  0
VERTEX
  5
1250
  8
3
 10
69.42335464450002
 20
-17.98478045119998
 30
0.0
  0
VERTEX
  5
1251
  8
3
 10
70.63675142559998
 20
-18.58487819739997
 30
0.0
  0
VERTEX
  5
1252
  8
3
 10
71.69341642080008
 20
-19.29700284090001
 30
0.0
  0
VERTEX
  5
1253
  8
3
 10
72.56858229800002
 20
-20.10446278379999
 30
0.0
  0
VERTEX
  5
1254
  8
3
 10
73.24173591099998
 20
-20.9883318494
 30
0.0
  0
VERTEX
  5
1255
  8
3
 10
73.69709910950007
 20
-21.92789289589999
 30
0.0
  0
VERTEX
  5
1256
  8
3
 10
73.92399856610007
 20
-22.90112340869999
 30
0.0
  0
SEQEND
  5
1535
  8
3
  0
POLYLINE
  5
DBD
  8
3
 66
     1
 10
0.0
 20
0.0
 30
0.0
  0
VERTEX
  5
1257
  8
3
 10
73.92399856610007
 20
-33.24272339079999
 30
0.0
  0
VERTEX
  5
1258
  8
3
 10
73.69709910950007
 20
-32.26949287799999
 30
0.0
  0
VERTEX
  5
1259
  8
3
 10
73.24173591099998
 20
-31.32993183150001
 30
0.0
  0
VERTEX
  5
125A
  8
3
 10
72.56858229800002
 20
-30.4460627659
 30
0.0
  0
VERTEX
  5
125B
  8
3
 10
71.69341642080008
 20
-29.63860282299999
 30
0.0
  0
VERTEX
  5
125C
  8
3
 10
70.63675142559998
 20
-28.92647817950001
 30
0.0
  0
VERTEX
  5
125D
  8
3
 10
69.42335464450002
 20
-28.32638043329999
 30
0.0
  0
VERTEX
  5
125E
  8
3
 10
68.08166706949999
 20
-27.85237536720001
 30
0.0
  0
VERTEX
  5
125F
  8
3
 10
66.6431367202
 20
-27.51557325810001
 30
0.0
  0
VERTEX
  5
1260
  8
3
 10
65.1414815288
 20
-27.32386846189999
 30
0.0
  0
VERTEX
  5
1261
  8
3
 10
63.61189902030003
 20
-27.28175437659999
 30
0.0
  0
VERTEX
  5
1262
  8
3
 10
62.09024131210003
 20
-27.39021812070001
 30
0.0
  0
VERTEX
  5
1263
  8
3
 10
60.61217477130003
 20
-27.6467173959
 30
0.0
  0
VERTEX
  5
1264
  8
3
 10
59.21234402490006
 20
-28.04524007660001
 30
0.0
  0
VERTEX
  5
1265
  8
3
 10
57.92355991900001
 20
-28.57644512899998
 30
0.0
  0
VERTEX
  5
1266
  8
3
 10
56.77603046090007
 20
-29.2278815569
 30
0.0
  0
VERTEX
  5
1267
  8
3
 10
55.79665276840001
 20
-29.98428024250001
 30
0.0
  0
VERTEX
  5
1268
  8
3
 10
55.00838262460002
 20
-30.82791184169997
 30
0.0
  0
VERTEX
  5
1269
  8
3
 10
54.42969641349998
 20
-31.73900234489997
 30
0.0
  0
VERTEX
  5
126A
  8
3
 10
54.07415804940001
 20
-32.6961965628
 30
0.0
  0
VERTEX
  5
126B
  8
3
 10
53.95010105020003
 20
-33.67705867439997
 30
0.0
  0
VERTEX
  5
126C
  8
3
 10
54.06043320690003
 20
-34.65859810299997
 30
0.0
  0
VERTEX
  5
126D
  8
3
 10
54.40256842730003
 20
-35.61780839630001
 30
0.0
  0
VERTEX
  5
126E
  8
3
 10
54.96848735160006
 20
-36.53220647809999
 30
0.0
  0
VERTEX
  5
126F
  8
3
 10
55.74492532010004
 20
-37.3803596324
 30
0.0
  0
VERTEX
  5
1270
  8
3
 10
56.71368328480003
 20
-38.1423878679
 30
0.0
  0
VERTEX
  5
1271
  8
3
 10
57.85205438000003
 20
-38.8004298889
 30
0.0
  0
VERTEX
  5
1272
  8
3
 10
59.13335615220001
 20
-39.33906174800001
 30
0.0
  0
VERTEX
  5
1273
  8
3
 10
60.52755597380008
 20
-39.74565837099999
 30
0.0
  0
VERTEX
  5
1274
  8
3
 10
62.00197498270006
 20
-40.01068947759998
 30
0.0
  0
VERTEX
  5
1275
  8
3
 10
63.52205404690005
 20
-40.12794296339999
 30
0.0
  0
VERTEX
  5
1276
  8
3
 10
65.0521638015
 20
-40.094670506
 30
0.0
  0
VERTEX
  5
1277
  8
3
 10
66.55643977070008
 20
-39.9116519836
 30
0.0
  0
VERTEX
  5
1278
  8
3
 10
67.99962300089999
 20
-39.58317719529998
 30
0.0
  0
VERTEX
  5
1279
  8
3
 10
69.34788650020005
 20
-39.11694531169999
 30
0.0
  0
VERTEX
  5
127A
  8
3
 10
70.56962811490007
 20
-38.5238844129
 30
0.0
  0
VERTEX
  5
127B
  8
3
 10
71.63621125719999
 20
-37.81789534389998
 30
0.0
  0
VERTEX
  5
127C
  8
3
 10
72.52263612220008
 20
-37.01552588999999
 30
0.0
  0
VERTEX
  5
127D
  8
3
 10
73.20812566230006
 20
-36.1355829112
 30
0.0
  0
VERTEX
  5
127E
  8
3
 10
73.67661258370003
 20
-35.19869152499999
 30
0.0
  0
VERTEX
  5
127F
  8
3
 10
73.91711595000004
 20
-34.2268116715
 30
0.0
  0
VERTEX
  5
1280
  8
3
 10
73.92399856610007
 20
-33.24272339079999
 30
0.0
  0
SEQEND
  5
1534
  8
3
  0
LINE
  5
DBE
  8
3
 10
63.95000000000005
 20
-27.07549151000001
 30
0.0
 11
58.95000000000005
 21
-25.21992351259999
 31
0.0
  0
LINE
  5
DBF
  8
3
 10
68.95000000000005
 20
-25.21992351259999
 30
0.0
 11
63.95000000000005
 21
-27.07549151000001
 31
0.0
  0
LINE
  5
DC0
  8
3
 10
63.95000000000005
 20
-27.07549151000001
 30
0.0
 11
63.95000000000005
 21
-38.1831359352
 31
0.0
  0
LINE
  5
DC1
  8
3
 10
68.95000000000005
 20
-25.21992351259999
 30
0.0
 11
68.95000000000005
 21
-36.32756793779998
 31
0.0
  0
LINE
  5
DC2
  8
3
 10
68.95000000000005
 20
-21.50878751779999
 30
0.0
 11
68.95000000000005
 21
-25.21992351259999
 31
0.0
  0
LINE
  5
DC3
  8
3
 10
58.95000000000005
 20
-25.21992351259999
 30
0.0
 11
58.95000000000005
 21
-21.50878751779999
 31
0.0
  0
LINE
  5
DC4
  8
3
 10
58.95000000000005
 20
-25.21992351259999
 30
0.0
 11
58.95000000000005
 21
-36.32756793779998
 31
0.0
  0
POLYLINE
  5
DC5
  8
3
 66
     1
 10
0.0
 20
0.0
 30
0.0
  0
VERTEX
  5
1281
  8
3
 10
72.92659870950001
 20
-34.05509104449999
 30
0.0
  0
VERTEX
  5
1282
  8
3
 10
72.91439608500002
 20
-34.98607044329998
 30
0.0
  0
VERTEX
  5
1283
  8
3
 10
72.67002031080006
 20
-35.90373568609999
 30
0.0
  0
VERTEX
  5
1284
  8
3
 10
72.19980059080001
 20
-36.78431972509998
 30
0.0
  0
VERTEX
  5
1285
  8
3
 10
71.51591536900003
 20
-37.60501589629999
 30
0.0
  0
VERTEX
  5
1286
  8
3
 10
70.63607691330003
 20
-38.34456859989999
 30
0.0
  0
VERTEX
  5
1287
  8
3
 10
69.58307257759998
 20
-38.9838238095
 30
0.0
  0
VERTEX
  5
1288
  8
3
 10
68.38417462109999
 20
-39.5062251507
 30
0.0
  0
VERTEX
  5
1289
  8
3
 10
67.07043387099998
 20
-39.8982427034
 30
0.0
  0
VERTEX
  5
128A
  8
3
 10
65.67587552280008
 20
-40.14972341879999
 30
0.0
  0
VERTEX
  5
128B
  8
3
 10
64.236617905
 20
-40.25415407849999
 30
0.0
  0
VERTEX
  5
128C
  8
3
 10
62.78993703410003
 20
-40.20882998319999
 30
0.0
  0
VERTEX
  5
128D
  8
3
 10
61.37330118470004
 20
-40.01492500320001
 30
0.0
  0
VERTEX
  5
128E
  8
3
 10
60.0234004811
 20
-39.67746117569999
 30
0.0
  0
VERTEX
  5
128F
  8
3
 10
58.77519664250008
 20
-39.20517863649999
 30
0.0
  0
VERTEX
  5
1290
  8
3
 10
57.66101749260008
 20
-38.61030925519998
 30
0.0
  0
VERTEX
  5
1291
  8
3
 10
56.70971968620006
 20
-37.90825983650001
 30
0.0
  0
VERTEX
  5
1292
  8
3
 10
55.94594133689998
 20
-37.1172130914
 30
0.0
  0
VERTEX
  5
1293
  8
3
 10
55.38946390249998
 20
-36.2576567152
 30
0.0
  0
VERTEX
  5
1294
  8
3
 10
55.05469985640002
 20
-35.35185276649997
 30
0.0
  0
VERTEX
  5
1295
  8
3
 10
54.95031941160005
 20
-34.42326109179999
 30
0.0
  0
VERTEX
  5
1296
  8
3
 10
55.07902596669999
 20
-33.4959317277
 30
0.0
  0
VERTEX
  5
1297
  8
3
 10
55.4374860895
 20
-32.59388201749999
 30
0.0
  0
VERTEX
  5
1298
  8
3
 10
56.01641585120001
 20
-31.74047457500001
 30
0.0
  0
VERTEX
  5
1299
  8
3
 10
56.80082127510002
 20
-30.95781220469999
 30
0.0
  0
VERTEX
  5
129A
  8
3
 10
57.77038667260001
 20
-30.26616545079997
 30
0.0
  0
VERTEX
  5
129B
  8
3
 10
58.90000080930008
 20
-29.68344760100001
 30
0.0
  0
VERTEX
  5
129C
  8
3
 10
60.16040727239999
 20
-29.22475074139999
 30
0.0
  0
VERTEX
  5
129D
  8
3
 10
61.51896219650007
 20
-28.90195487989999
 30
0.0
  0
VERTEX
  5
129E
  8
3
 10
62.94047972279998
 20
-28.7234202596
 30
0.0
  0
VERTEX
  5
129F
  8
3
 10
64.38814329400009
 20
-28.6937708335
 30
0.0
  0
VERTEX
  5
12A0
  8
3
 10
65.82445918410008
 20
-28.81377450599999
 30
0.0
  0
VERTEX
  5
12A1
  8
3
 10
67.21222756580005
 20
-29.08032324519999
 30
0.0
  0
VERTEX
  5
12A2
  8
3
 10
68.51550596720006
 20
-29.4865135787
 30
0.0
  0
VERTEX
  5
12A3
  8
3
 10
69.70054016220001
 20
-30.02182539009999
 30
0.0
  0
VERTEX
  5
12A4
  8
3
 10
70.73663838760001
 20
-30.67239438489997
 30
0.0
  0
VERTEX
  5
12A5
  8
3
 10
71.59696624360004
 20
-31.42137116769999
 30
0.0
  0
VERTEX
  5
12A6
  8
3
 10
72.25924169070004
 20
-32.24935763330001
 30
0.0
  0
VERTEX
  5
12A7
  8
3
 10
72.70631214260004
 20
-33.13490936720001
 30
0.0
  0
VERTEX
  5
12A8
  8
3
 10
72.92659870950001
 20
-34.05509104449999
 30
0.0
  0
SEQEND
  5
1533
  8
3
  0
LINE
  5
DC6
  8
3
 10
68.95000000000005
 20
-36.32756793779998
 30
0.0
 11
63.95000000000005
 21
-38.1831359352
 31
0.0
  0
LINE
  5
DC7
  8
3
 10
63.95000000000005
 20
-38.1831359352
 30
0.0
 11
58.95000000000005
 21
-36.32756793779998
 31
0.0
  0
LINE
  5
DC8
  8
3
 10
63.95000000000005
 20
-19.65321952030001
 30
0.0
 11
63.95000000000005
 21
-27.07549151000001
 31
0.0
  0
LINE
  5
DC9
  8
3
 10
63.95000000000005
 20
-30.76086394559999
 30
0.0
 11
68.95000000000005
 21
-32.61643194300001
 31
0.0
  0
LINE
  5
DCA
  8
3
 10
63.95000000000005
 20
-19.65321952030001
 30
0.0
 11
68.95000000000005
 21
-21.50878751779999
 31
0.0
  0
LINE
  5
DCB
  8
3
 10
58.95000000000005
 20
-32.61643194300001
 30
0.0
 11
63.95000000000005
 21
-30.76086394559999
 31
0.0
  0
LINE
  5
DCC
  8
3
 10
58.95000000000005
 20
-21.50878751779999
 30
0.0
 11
63.95000000000005
 21
-19.65321952030001
 31
0.0
  0
POLYLINE
  5
DCD
  8
3
 66
     1
 10
0.0
 20
0.0
 30
0.0
  0
VERTEX
  5
12A9
  8
3
 10
67.38104615949999
 20
9.003295892500006
 30
0.0
  0
VERTEX
  5
12AA
  8
3
 10
68.30255275740001
 20
9.496068174599998
 30
0.0
  0
VERTEX
  5
12AB
  8
3
 10
69.05679319379999
 20
10.09493041569999
 30
0.0
  0
VERTEX
  5
12AC
  8
3
 10
69.61478243160002
 20
10.7768686759
 30
0.0
  0
VERTEX
  5
12AD
  8
3
 10
69.95507725750008
 20
11.51567645009999
 30
0.0
  0
VERTEX
  5
12AE
  8
3
 10
70.06460033209999
 20
12.2829617699
 30
0.0
  0
VERTEX
  5
12AF
  8
3
 10
69.93914274500003
 20
13.04923829080002
 30
0.0
  0
VERTEX
  5
12B0
  8
3
 10
69.58352576089999
 20
13.78505843580001
 30
0.0
  0
VERTEX
  5
12B1
  8
3
 10
69.0114155412
 20
14.46214504940002
 30
0.0
  0
VERTEX
  5
12B2
  8
3
 10
68.2447979607
 20
15.05447807280001
 30
0.0
  0
VERTEX
  5
12B3
  8
3
 10
67.3131337031
 20
15.53929448010001
 30
0.0
  0
VERTEX
  5
12B4
  8
3
 10
66.25222610340006
 20
15.8979630485
 30
0.0
  0
VERTEX
  5
12B5
  8
3
 10
65.10284524560007
 20
16.11670034619999
 30
0.0
  0
VERTEX
  5
12B6
  8
3
 10
63.90916119159999
 20
16.18710042150002
 30
0.0
  0
VERTEX
  5
12B7
  8
3
 10
62.71704655000008
 20
16.106457839
 30
0.0
  0
VERTEX
  5
12B8
  8
3
 10
61.5723136181
 20
15.87787164780002
 30
0.0
  0
VERTEX
  5
12B9
  8
3
 10
60.51895384049999
 20
15.51012628720002
 30
0.0
  0
VERTEX
  5
12BA
  8
3
 10
59.59744724260008
 20
15.0173540051
 30
0.0
  0
VERTEX
  5
12BB
  8
3
 10
58.84320680619999
 20
14.41849176400001
 30
0.0
  0
VERTEX
  5
12BC
  8
3
 10
58.28521756830003
 20
13.7365535038
 30
0.0
  0
VERTEX
  5
12BD
  8
3
 10
57.94492274240008
 20
12.9977457297
 30
0.0
  0
VERTEX
  5
12BE
  8
3
 10
57.83539966789999
 20
12.2304604098
 30
0.0
  0
VERTEX
  5
12BF
  8
3
 10
57.96085725500006
 20
11.46418388890001
 30
0.0
  0
VERTEX
  5
12C0
  8
3
 10
58.31647423900006
 20
10.72836374389999
 30
0.0
  0
VERTEX
  5
12C1
  8
3
 10
58.88858445870005
 20
10.05127713030001
 30
0.0
  0
VERTEX
  5
12C2
  8
3
 10
59.65520203920005
 20
9.458944106899992
 30
0.0
  0
VERTEX
  5
12C3
  8
3
 10
60.58686629680005
 20
8.97412769959999
 30
0.0
  0
VERTEX
  5
12C4
  8
3
 10
61.64777389649998
 20
8.615459131199998
 30
0.0
  0
VERTEX
  5
12C5
  8
3
 10
62.79715475429998
 20
8.39672183350001
 30
0.0
  0
VERTEX
  5
12C6
  8
3
 10
63.99083880830005
 20
8.32632175820001
 30
0.0
  0
VERTEX
  5
12C7
  8
3
 10
65.18295344990008
 20
8.406964340700029
 30
0.0
  0
VERTEX
  5
12C8
  8
3
 10
66.32768638180005
 20
8.635550531900009
 30
0.0
  0
VERTEX
  5
12C9
  8
3
 10
67.38104615949999
 20
9.003295892500006
 30
0.0
  0
SEQEND
  5
1532
  8
3
  0
POLYLINE
  5
DCE
  8
3
 66
     1
 10
0.0
 20
0.0
 30
0.0
  0
VERTEX
  5
12CA
  8
3
 10
69.56111021180004
 20
18.04374180460002
 30
0.0
  0
VERTEX
  5
12CB
  8
3
 10
68.23181034980007
 20
17.55552901290002
 30
0.0
  0
VERTEX
  5
12CC
  8
3
 10
66.80214848219998
 20
17.2034701911
 30
0.0
  0
VERTEX
  5
12CD
  8
3
 10
65.30563467160005
 20
16.99581729959999
 30
0.0
  0
VERTEX
  5
12CE
  8
3
 10
63.77734593320008
 20
16.9374375461
 30
0.0
  0
VERTEX
  5
12CF
  8
3
 10
62.25310405990001
 20
17.02969930260002
 30
0.0
  0
VERTEX
  5
12D0
  8
3
 10
60.76863598910006
 20
17.27044003180001
 30
0.0
  0
VERTEX
  5
12D1
  8
3
 10
59.35873639440001
 20
17.65401697480002
 30
0.0
  0
VERTEX
  5
12D2
  8
3
 10
58.05645212720003
 20
18.17143941350002
 30
0.0
  0
VERTEX
  5
12D3
  8
3
 10
56.89230762700004
 20
18.81057940420001
 30
0.0
  0
VERTEX
  5
12D4
  8
3
 10
55.89358945430001
 20
19.5564560473
 30
0.0
  0
VERTEX
  5
12D5
  8
3
 10
55.0837067164
 20
20.3915866266
 30
0.0
  0
VERTEX
  5
12D6
  8
3
 10
54.48164237830008
 20
21.29639638899999
 30
0.0
  0
VERTEX
  5
12D7
  8
3
 10
54.10150831790008
 20
22.2496773606
 30
0.0
  0
VERTEX
  5
12D8
  8
3
 10
53.95221455530009
 20
23.22908544340001
 30
0.0
  0
VERTEX
  5
12D9
  8
3
 10
54.0372604099
 20
24.21166414200002
 30
0.0
  0
VERTEX
  5
12DA
  8
3
 10
54.35465247870002
 20
25.17438264450001
 30
0.0
  0
VERTEX
  5
12DB
  8
3
 10
54.89695136080002
 20
26.09467564530001
 30
0.0
  0
VERTEX
  5
12DC
  8
3
 10
55.65144603010003
 20
26.95097225630002
 30
0.0
  0
VERTEX
  5
12DD
  8
3
 10
56.60045177080008
 20
27.72320161070002
 30
0.0
  0
VERTEX
  5
12DE
  8
3
 10
57.72172469280008
 20
28.39326330710003
 30
0.0
  0
VERTEX
  5
12DF
  8
3
 10
58.98898310920003
 20
28.9454516671
 30
0.0
  0
VERTEX
  5
12E0
  8
3
 10
60.37252355680005
 20
29.36682386360002
 30
0.0
  0
VERTEX
  5
12E1
  8
3
 10
61.83991702010007
 20
29.64750328950001
 30
0.0
  0
VERTEX
  5
12E2
  8
3
 10
63.35676903990009
 20
29.780911057
 30
0.0
  0
VERTEX
  5
12E3
  8
3
 10
64.88752589069998
 20
29.7639202009
 30
0.0
  0
VERTEX
  5
12E4
  8
3
 10
66.39630792920002
 20
29.59692897260001
 30
0.0
  0
VERTEX
  5
12E5
  8
3
 10
67.84775058330001
 20
29.283851505
 30
0.0
  0
VERTEX
  5
12E6
  8
3
 10
69.20783326730009
 20
28.8320260685
 30
0.0
  0
VERTEX
  5
12E7
  8
3
 10
70.44467679579998
 20
28.25204306840001
 30
0.0
  0
VERTEX
  5
12E8
  8
3
 10
71.52929060480005
 20
27.55749681460003
 30
0.0
  0
VERTEX
  5
12E9
  8
3
 10
72.436252266
 20
26.76466688280001
 30
0.0
  0
VERTEX
  5
12EA
  8
3
 10
73.1443033667
 20
25.89213653440001
 30
0.0
  0
VERTEX
  5
12EB
  8
3
 10
73.63684778909999
 20
24.96035714140001
 30
0.0
  0
VERTEX
  5
12EC
  8
3
 10
73.90234070960003
 20
23.99116882300001
 30
0.0
  0
VERTEX
  5
12ED
  8
3
 10
73.93455919910002
 20
23.00728853200002
 30
0.0
  0
VERTEX
  5
12EE
  8
3
 10
73.73274808350004
 20
22.0317775883
 30
0.0
  0
VERTEX
  5
12EF
  8
3
 10
73.30163764430006
 20
21.08750114190002
 30
0.0
  0
VERTEX
  5
12F0
  8
3
 10
72.65133274470008
 20
20.19659223209999
 30
0.0
  0
VERTEX
  5
12F1
  8
3
 10
71.79707598060008
 20
19.37993300890003
 30
0.0
  0
VERTEX
  5
12F2
  8
3
 10
70.7588904063
 20
18.65666527210001
 30
0.0
  0
VERTEX
  5
12F3
  8
3
 10
69.56111021180004
 20
18.04374180460002
 30
0.0
  0
SEQEND
  5
1531
  8
3
  0
POLYLINE
  5
DCF
  8
3
 66
     1
 10
0.0
 20
0.0
 30
0.0
  0
VERTEX
  5
12F4
  8
3
 10
69.56111021180004
 20
28.3853417867
 30
0.0
  0
VERTEX
  5
12F5
  8
3
 10
70.7588904063
 20
28.99826525420002
 30
0.0
  0
VERTEX
  5
12F6
  8
3
 10
71.79707598060008
 20
29.721532991
 30
0.0
  0
VERTEX
  5
12F7
  8
3
 10
72.65133274470008
 20
30.5381922142
 30
0.0
  0
VERTEX
  5
12F8
  8
3
 10
73.30163764430006
 20
31.429101124
 30
0.0
  0
VERTEX
  5
12F9
  8
3
 10
73.73274808350004
 20
32.37337757040001
 30
0.0
  0
VERTEX
  5
12FA
  8
3
 10
73.93455919910002
 20
33.3488885141
 30
0.0
  0
VERTEX
  5
12FB
  8
3
 10
73.90234070960003
 20
34.33276880510002
 30
0.0
  0
VERTEX
  5
12FC
  8
3
 10
73.63684778909999
 20
35.3019571236
 30
0.0
  0
VERTEX
  5
12FD
  8
3
 10
73.1443033667
 20
36.23373651650002
 30
0.0
  0
VERTEX
  5
12FE
  8
3
 10
72.436252266
 20
37.10626686490002
 30
0.0
  0
VERTEX
  5
12FF
  8
3
 10
71.52929060480005
 20
37.89909679670001
 30
0.0
  0
VERTEX
  5
1300
  8
3
 10
70.44467679579998
 20
38.59364305050002
 30
0.0
  0
VERTEX
  5
1301
  8
3
 10
69.20783326730009
 20
39.17362605060001
 30
0.0
  0
VERTEX
  5
1302
  8
3
 10
67.84775058330001
 20
39.62545148710001
 30
0.0
  0
VERTEX
  5
1303
  8
3
 10
66.39630792920002
 20
39.93852895470002
 30
0.0
  0
VERTEX
  5
1304
  8
3
 10
64.88752589069998
 20
40.10552018300001
 30
0.0
  0
VERTEX
  5
1305
  8
3
 10
63.35676903990009
 20
40.1225110391
 30
0.0
  0
VERTEX
  5
1306
  8
3
 10
61.83991702010007
 20
39.98910327160002
 30
0.0
  0
VERTEX
  5
1307
  8
3
 10
60.37252355680005
 20
39.7084238457
 30
0.0
  0
VERTEX
  5
1308
  8
3
 10
58.98898310920003
 20
39.28705164920001
 30
0.0
  0
VERTEX
  5
1309
  8
3
 10
57.72172469280008
 20
38.73486328920001
 30
0.0
  0
VERTEX
  5
130A
  8
3
 10
56.60045177080008
 20
38.06480159279999
 30
0.0
  0
VERTEX
  5
130B
  8
3
 10
55.65144603010003
 20
37.2925722384
 30
0.0
  0
VERTEX
  5
130C
  8
3
 10
54.89695136080002
 20
36.43627562739999
 30
0.0
  0
VERTEX
  5
130D
  8
3
 10
54.35465247870002
 20
35.51598262660002
 30
0.0
  0
VERTEX
  5
130E
  8
3
 10
54.0372604099
 20
34.5532641241
 30
0.0
  0
VERTEX
  5
130F
  8
3
 10
53.95221455530009
 20
33.57068542550002
 30
0.0
  0
VERTEX
  5
1310
  8
3
 10
54.10150831790008
 20
32.59127734270001
 30
0.0
  0
VERTEX
  5
1311
  8
3
 10
54.48164237830008
 20
31.6379963711
 30
0.0
  0
VERTEX
  5
1312
  8
3
 10
55.0837067164
 20
30.73318660870001
 30
0.0
  0
VERTEX
  5
1313
  8
3
 10
55.89358945430001
 20
29.89805602940001
 30
0.0
  0
VERTEX
  5
1314
  8
3
 10
56.89230762700004
 20
29.15217938630002
 30
0.0
  0
VERTEX
  5
1315
  8
3
 10
58.05645212720003
 20
28.5130393956
 30
0.0
  0
VERTEX
  5
1316
  8
3
 10
59.35873639440001
 20
27.99561695700001
 30
0.0
  0
VERTEX
  5
1317
  8
3
 10
60.76863598910006
 20
27.61204001390001
 30
0.0
  0
VERTEX
  5
1318
  8
3
 10
62.25310405990001
 20
27.3712992847
 30
0.0
  0
VERTEX
  5
1319
  8
3
 10
63.77734593320008
 20
27.27903752820001
 30
0.0
  0
VERTEX
  5
131A
  8
3
 10
65.30563467160005
 20
27.33741728170003
 30
0.0
  0
VERTEX
  5
131B
  8
3
 10
66.80214848219998
 20
27.54507017330002
 30
0.0
  0
VERTEX
  5
131C
  8
3
 10
68.23181034980007
 20
27.897128995
 30
0.0
  0
VERTEX
  5
131D
  8
3
 10
69.56111021180004
 20
28.3853417867
 30
0.0
  0
SEQEND
  5
1530
  8
3
  0
LINE
  5
DD0
  8
3
 10
63.95000000000005
 20
27.07549150990002
 30
0.0
 11
68.95000000000005
 21
25.2199235125
 31
0.0
  0
LINE
  5
DD1
  8
3
 10
63.95000000000005
 20
27.07549150990002
 30
0.0
 11
63.95000000000005
 21
38.18313593510001
 31
0.0
  0
LINE
  5
DD2
  8
3
 10
58.95000000000005
 20
25.2199235125
 30
0.0
 11
63.95000000000005
 21
27.07549150990002
 31
0.0
  0
LINE
  5
DD3
  8
3
 10
68.95000000000005
 20
25.2199235125
 30
0.0
 11
68.95000000000005
 21
36.3275679377
 31
0.0
  0
LINE
  5
DD4
  8
3
 10
68.95000000000005
 20
25.2199235125
 30
0.0
 11
68.95000000000005
 21
21.5087875177
 31
0.0
  0
LINE
  5
DD5
  8
3
 10
58.95000000000005
 20
25.2199235125
 30
0.0
 11
58.95000000000005
 21
36.3275679377
 31
0.0
  0
LINE
  5
DD6
  8
3
 10
58.95000000000005
 20
21.5087875177
 30
0.0
 11
58.95000000000005
 21
25.2199235125
 31
0.0
  0
POLYLINE
  5
DD7
  8
3
 66
     1
 10
0.0
 20
0.0
 30
0.0
  0
VERTEX
  5
131E
  8
3
 10
68.99999919060008
 20
29.6834476009
 30
0.0
  0
VERTEX
  5
131F
  8
3
 10
67.73959272759998
 20
29.2247507413
 30
0.0
  0
VERTEX
  5
1320
  8
3
 10
66.38103780339998
 20
28.9019548798
 30
0.0
  0
VERTEX
  5
1321
  8
3
 10
64.95952027710007
 20
28.72342025950002
 30
0.0
  0
VERTEX
  5
1322
  8
3
 10
63.51185670590007
 20
28.69377083340001
 30
0.0
  0
VERTEX
  5
1323
  8
3
 10
62.07554081590001
 20
28.8137745059
 30
0.0
  0
VERTEX
  5
1324
  8
3
 10
60.6877724341
 20
29.0803232451
 30
0.0
  0
VERTEX
  5
1325
  8
3
 10
59.38449403269999
 20
29.48651357860001
 30
0.0
  0
VERTEX
  5
1326
  8
3
 10
58.19945983770003
 20
30.02182539010002
 30
0.0
  0
VERTEX
  5
1327
  8
3
 10
57.16336161230004
 20
30.67239438480001
 30
0.0
  0
VERTEX
  5
1328
  8
3
 10
56.30303375630001
 20
31.4213711676
 30
0.0
  0
VERTEX
  5
1329
  8
3
 10
55.64075830920001
 20
32.24935763320002
 30
0.0
  0
VERTEX
  5
132A
  8
3
 10
55.19368785730001
 20
33.13490936709999
 30
0.0
  0
VERTEX
  5
132B
  8
3
 10
54.97340129040003
 20
34.0550910444
 30
0.0
  0
VERTEX
  5
132C
  8
3
 10
54.98560391490003
 20
34.98607044320002
 30
0.0
  0
VERTEX
  5
132D
  8
3
 10
55.22997968920004
 20
35.903735686
 30
0.0
  0
VERTEX
  5
132E
  8
3
 10
55.70019940910004
 20
36.78431972500002
 30
0.0
  0
VERTEX
  5
132F
  8
3
 10
56.38408463090002
 20
37.6050158962
 30
0.0
  0
VERTEX
  5
1330
  8
3
 10
57.26392308660002
 20
38.3445685998
 30
0.0
  0
VERTEX
  5
1331
  8
3
 10
58.31692742230007
 20
38.98382380940001
 30
0.0
  0
VERTEX
  5
1332
  8
3
 10
59.51582537889999
 20
39.50622515060002
 30
0.0
  0
VERTEX
  5
1333
  8
3
 10
60.82956612890007
 20
39.89824270330001
 30
0.0
  0
VERTEX
  5
1334
  8
3
 10
62.22412447720001
 20
40.14972341870001
 30
0.0
  0
VERTEX
  5
1335
  8
3
 10
63.66338209490004
 20
40.25415407840001
 30
0.0
  0
VERTEX
  5
1336
  8
3
 10
65.11006296580001
 20
40.2088299831
 30
0.0
  0
VERTEX
  5
1337
  8
3
 10
66.5266988152
 20
40.01492500310002
 30
0.0
  0
VERTEX
  5
1338
  8
3
 10
67.87659951880005
 20
39.6774611756
 30
0.0
  0
VERTEX
  5
1339
  8
3
 10
69.12480335750001
 20
39.20517863640001
 30
0.0
  0
VERTEX
  5
133A
  8
3
 10
70.23898250730008
 20
38.61030925510002
 30
0.0
  0
VERTEX
  5
133B
  8
3
 10
71.19028031369999
 20
37.90825983640002
 30
0.0
  0
VERTEX
  5
133C
  8
3
 10
71.9540586631
 20
37.1172130914
 30
0.0
  0
VERTEX
  5
133D
  8
3
 10
72.51053609740006
 20
36.2576567152
 30
0.0
  0
VERTEX
  5
133E
  8
3
 10
72.84530014350003
 20
35.35185276640001
 30
0.0
  0
VERTEX
  5
133F
  8
3
 10
72.9496805883
 20
34.4232610917
 30
0.0
  0
VERTEX
  5
1340
  8
3
 10
72.82097403320006
 20
33.49593172760001
 30
0.0
  0
VERTEX
  5
1341
  8
3
 10
72.46251391040005
 20
32.59388201740001
 30
0.0
  0
VERTEX
  5
1342
  8
3
 10
71.88358414870004
 20
31.74047457490002
 30
0.0
  0
VERTEX
  5
1343
  8
3
 10
71.09917872490007
 20
30.9578122046
 30
0.0
  0
VERTEX
  5
1344
  8
3
 10
70.12961332730004
 20
30.26616545070002
 30
0.0
  0
VERTEX
  5
1345
  8
3
 10
68.99999919060008
 20
29.6834476009
 30
0.0
  0
SEQEND
  5
152F
  8
3
  0
LINE
  5
DD8
  8
3
 10
58.95000000000005
 20
36.3275679377
 30
0.0
 11
63.95000000000005
 21
38.18313593510001
 31
0.0
  0
LINE
  5
DD9
  8
3
 10
63.95000000000005
 20
38.18313593510001
 30
0.0
 11
68.95000000000005
 21
36.3275679377
 31
0.0
  0
LINE
  5
DDA
  8
3
 10
63.95000000000005
 20
19.65321952020003
 30
0.0
 11
63.95000000000005
 21
27.07549150990002
 31
0.0
  0
LINE
  5
DDB
  8
3
 10
63.95000000000005
 20
30.76086394550001
 30
0.0
 11
58.95000000000005
 21
32.61643194290002
 31
0.0
  0
LINE
  5
DDC
  8
3
 10
63.95000000000005
 20
19.65321952020003
 30
0.0
 11
58.95000000000005
 21
21.5087875177
 31
0.0
  0
LINE
  5
DDD
  8
3
 10
68.95000000000005
 20
32.61643194290002
 30
0.0
 11
63.95000000000005
 21
30.76086394550001
 31
0.0
  0
LINE
  5
DDE
  8
3
 10
68.95000000000005
 20
21.5087875177
 30
0.0
 11
63.95000000000005
 21
19.65321952020003
 31
0.0
  0
POLYLINE
  5
DDF
  8
3
 66
     1
 10
0.0
 20
0.0
 30
0.0
  0
VERTEX
  5
1346
  8
3
 10
52.95000000000005
 20
34.47199994030001
 30
0.0
  0
VERTEX
  5
1347
  8
3
 10
53.00694796930009
 20
33.74281516900001
 30
0.0
  0
VERTEX
  5
1348
  8
3
 10
53.33734578280007
 20
32.54328080160002
 30
0.0
  0
VERTEX
  5
1349
  8
3
 10
53.94912077030006
 20
31.3485515815
 30
0.0
  0
VERTEX
  5
134A
  8
3
 10
54.83642918830003
 20
30.18915849270002
 30
0.0
  0
VERTEX
  5
134B
  8
3
 10
55.96690404660001
 20
29.116614787
 30
0.0
  0
VERTEX
  5
134C
  8
3
 10
57.35138198570007
 20
28.15007111919999
 30
0.0
  0
VERTEX
  5
134D
  8
3
 10
58.92395684200005
 20
27.35780614070001
 30
0.0
  0
VERTEX
  5
134E
  8
3
 10
60.652812552
 20
26.7771733715
 30
0.0
  0
VERTEX
  5
134F
  8
3
 10
62.48026831499999
 20
26.437922867
 30
0.0
  0
VERTEX
  5
1350
  8
3
 10
64.30545307099999
 20
26.36156271499999
 30
0.0
  0
VERTEX
  5
1351
  8
3
 10
66.12034807750001
 20
26.5358845721
 30
0.0
  0
VERTEX
  5
1352
  8
3
 10
67.84527961030005
 20
26.9476457673
 30
0.0
  0
VERTEX
  5
1353
  8
3
 10
69.46358230500005
 20
27.57369545750001
 30
0.0
  0
VERTEX
  5
1354
  8
3
 10
70.95795370530004
 20
28.40548642840002
 30
0.0
  0
VERTEX
  5
1355
  8
3
 10
72.26046385860002
 20
29.3947056767
 30
0.0
  0
VERTEX
  5
1356
  8
3
 10
73.35742727520005
 20
30.53108843410001
 30
0.0
  0
VERTEX
  5
1357
  8
3
 10
74.18721153019999
 20
31.74670902450001
 30
0.0
  0
VERTEX
  5
1358
  8
3
 10
74.71771309070004
 20
32.98721207990002
 30
0.0
  0
VERTEX
  5
1359
  8
3
 10
74.94295201390003
 20
34.21760991580001
 30
0.0
  0
VERTEX
  5
135A
  8
3
 10
74.95000000000005
 20
34.47199994030001
 30
0.0
  0
SEQEND
  5
152E
  8
3
  0
POLYLINE
  5
DE0
  8
3
 66
     1
 10
0.0
 20
0.0
 30
0.0
  0
VERTEX
  5
135B
  8
3
 10
74.95000000000005
 20
34.47199994030001
 30
0.0
  0
VERTEX
  5
135C
  8
3
 10
74.83020963400008
 20
35.48713615350002
 30
0.0
  0
VERTEX
  5
135D
  8
3
 10
74.47674846220002
 20
36.43682549650001
 30
0.0
  0
VERTEX
  5
135E
  8
3
 10
73.81443301650006
 20
37.39704969870002
 30
0.0
  0
VERTEX
  5
135F
  8
3
 10
72.89202876410002
 20
38.23875685900001
 30
0.0
  0
VERTEX
  5
1360
  8
3
 10
71.70212585190006
 20
38.96524484470001
 30
0.0
  0
VERTEX
  5
1361
  8
3
 10
70.29795402180002
 20
39.55258983050001
 30
0.0
  0
VERTEX
  5
1362
  8
3
 10
68.68442636140003
 20
40.0041444366
 30
0.0
  0
VERTEX
  5
1363
  8
3
 10
66.93092730069998
 20
40.3102301664
 30
0.0
  0
VERTEX
  5
1364
  8
3
 10
63.95000000000005
 20
40.4968968945
 30
0.0
  0
VERTEX
  5
1365
  8
3
 10
62.13457155010008
 20
40.42852161000002
 30
0.0
  0
VERTEX
  5
1366
  8
3
 10
60.37109296450001
 20
40.2244392819
 30
0.0
  0
VERTEX
  5
1367
  8
3
 10
58.71175690360008
 20
39.88322922570001
 30
0.0
  0
VERTEX
  5
1368
  8
3
 10
57.19676880520001
 20
39.40549203099999
 30
0.0
  0
VERTEX
  5
1369
  8
3
 10
55.84371060350009
 20
38.7767723787
 30
0.0
  0
VERTEX
  5
136A
  8
3
 10
54.71590255960007
 20
38.0088278007
 30
0.0
  0
VERTEX
  5
136B
  8
3
 10
53.83772156489999
 20
37.0928319491
 30
0.0
  0
VERTEX
  5
136C
  8
3
 10
53.24879253430004
 20
36.05356019440001
 30
0.0
  0
VERTEX
  5
136D
  8
3
 10
52.95000000000005
 20
34.47199994030001
 30
0.0
  0
SEQEND
  5
152D
  8
3
  0
POLYLINE
  5
DE1
  8
3
 66
     1
 10
0.0
 20
0.0
 30
0.0
  0
VERTEX
  5
136E
  8
3
 10
52.95000000000005
 20
-34.4719999404
 30
0.0
  0
VERTEX
  5
136F
  8
3
 10
53.00694796930009
 20
-35.17990901729999
 30
0.0
  0
VERTEX
  5
1370
  8
3
 10
53.33734578280007
 20
-36.25778723759998
 30
0.0
  0
VERTEX
  5
1371
  8
3
 10
53.94912077030006
 20
-37.2373301593
 30
0.0
  0
VERTEX
  5
1372
  8
3
 10
54.83642918830003
 20
-38.10583589999999
 30
0.0
  0
VERTEX
  5
1373
  8
3
 10
55.96690404660001
 20
-38.84547050409998
 30
0.0
  0
VERTEX
  5
1374
  8
3
 10
57.35138198570007
 20
-39.46281115009998
 30
0.0
  0
VERTEX
  5
1375
  8
3
 10
58.92395684200005
 20
-39.93667782029999
 30
0.0
  0
VERTEX
  5
1376
  8
3
 10
60.652812552
 20
-40.26665197860001
 30
0.0
  0
VERTEX
  5
1377
  8
3
 10
62.48026831499999
 20
-40.45245522849999
 30
0.0
  0
VERTEX
  5
1378
  8
3
 10
64.30545307099999
 20
-40.4939958793
 30
0.0
  0
VERTEX
  5
1379
  8
3
 10
66.12034807750001
 20
-40.39922572590001
 30
0.0
  0
VERTEX
  5
137A
  8
3
 10
67.84527961030005
 20
-40.17126670979999
 30
0.0
  0
VERTEX
  5
137B
  8
3
 10
69.46358230500005
 20
-39.81034647370001
 30
0.0
  0
VERTEX
  5
137C
  8
3
 10
70.95795370530004
 20
-39.30392960270001
 30
0.0
  0
VERTEX
  5
137D
  8
3
 10
72.26046385860002
 20
-38.65943078089998
 30
0.0
  0
VERTEX
  5
137E
  8
3
 10
73.35742727520005
 20
-37.8573173483
 30
0.0
  0
VERTEX
  5
137F
  8
3
 10
74.18721153019999
 20
-36.92096963180001
 30
0.0
  0
VERTEX
  5
1380
  8
3
 10
74.71771309070004
 20
-35.87031568749998
 30
0.0
  0
VERTEX
  5
1381
  8
3
 10
74.94295201390003
 20
-34.72375121440001
 30
0.0
  0
VERTEX
  5
1382
  8
3
 10
74.95000000000005
 20
-34.4719999404
 30
0.0
  0
SEQEND
  5
152C
  8
3
  0
POLYLINE
  5
DE2
  8
3
 66
     1
 10
0.0
 20
0.0
 30
0.0
  0
VERTEX
  5
1383
  8
3
 10
74.95000000000005
 20
-34.4719999404
 30
0.0
  0
VERTEX
  5
1384
  8
3
 10
74.83020963400008
 20
-33.4120211636
 30
0.0
  0
VERTEX
  5
1385
  8
3
 10
74.47674846220002
 20
-32.33353062520001
 30
0.0
  0
VERTEX
  5
1386
  8
3
 10
73.81443301650006
 20
-31.14228229769998
 30
0.0
  0
VERTEX
  5
1387
  8
3
 10
72.89202876410002
 20
-30.00303233019997
 30
0.0
  0
VERTEX
  5
1388
  8
3
 10
71.70212585190006
 20
-28.9342021336
 30
0.0
  0
VERTEX
  5
1389
  8
3
 10
70.29795402180002
 20
-28.00361000129999
 30
0.0
  0
VERTEX
  5
138A
  8
3
 10
68.68442636140003
 20
-27.24128254829998
 30
0.0
  0
VERTEX
  5
138B
  8
3
 10
66.93092730069998
 20
-26.69805414199999
 30
0.0
  0
VERTEX
  5
138C
  8
3
 10
63.95000000000005
 20
-26.3555694815
 30
0.0
  0
VERTEX
  5
138D
  8
3
 10
62.13457155010008
 20
-26.48258944729997
 30
0.0
  0
VERTEX
  5
138E
  8
3
 10
60.37109296450001
 20
-26.85251490740001
 30
0.0
  0
VERTEX
  5
138F
  8
3
 10
58.71175690360008
 20
-27.449698996
 30
0.0
  0
VERTEX
  5
1390
  8
3
 10
57.19676880520001
 20
-28.24288834110001
 30
0.0
  0
VERTEX
  5
1391
  8
3
 10
55.84371060350009
 20
-29.21963813949998
 30
0.0
  0
VERTEX
  5
1392
  8
3
 10
54.71590255960007
 20
-30.32420103739997
 30
0.0
  0
VERTEX
  5
1393
  8
3
 10
53.83772156489999
 20
-31.5311576565
 30
0.0
  0
VERTEX
  5
1394
  8
3
 10
53.24879253430004
 20
-32.77996998739999
 30
0.0
  0
VERTEX
  5
1395
  8
3
 10
52.95000000000005
 20
-34.4719999404
 30
0.0
  0
SEQEND
  5
152B
  8
3
  0
CIRCLE
  5
DE3
  8
3
 10
63.95000000000005
 20
0.0
 30
0.0
 40
8.75
  0
LINE
  5
DE5
  8
3
 10
31.0
 20
23.5
 30
0.0
 11
31.0
 21
-23.5
 31
0.0
  0
LINE
  5
DE6
  8
3
 10
38.0
 20
23.5
 30
0.0
 11
38.0
 21
-23.5
 31
0.0
  0
LINE
  5
DE7
  8
3
 10
60.99999999990007
 20
-20.24524981779999
 30
0.0
 11
82.5
 21
-20.24524981779999
 31
0.0
  0
LINE
  5
DE8
  8
3
 10
60.99999999990007
 20
20.24524981770003
 30
0.0
 11
82.5
 21
20.24524981770003
 31
0.0
  0
POLYLINE
  5
DE9
  8
3
 66
     1
 10
0.0
 20
0.0
 30
0.0
  0
VERTEX
  5
1396
  8
3
 10
73.1695243122
 20
20.24517503679999
 30
0.0
  0
VERTEX
  5
1397
  8
3
 10
73.81645156870002
 20
19.53656575119999
 30
0.0
  0
VERTEX
  5
1398
  8
3
 10
74.2275589948
 20
18.7190192237
 30
0.0
  0
VERTEX
  5
1399
  8
3
 10
74.3978155963
 20
17.79048504389999
 30
0.0
  0
VERTEX
  5
139A
  8
3
 10
74.31460043660002
 20
16.77783150520003
 30
0.0
  0
VERTEX
  5
139B
  8
3
 10
73.98567460650008
 20
15.71780939850001
 30
0.0
  0
VERTEX
  5
139C
  8
3
 10
73.41452732549999
 20
14.6312673349
 30
0.0
  0
VERTEX
  5
139D
  8
3
 10
72.63131948070009
 20
13.57132667130003
 30
0.0
  0
VERTEX
  5
139E
  8
3
 10
71.6458262566
 20
12.56168343159999
 30
0.0
  0
VERTEX
  5
139F
  8
3
 10
70.48616919390008
 20
11.64368453190002
 30
0.0
  0
VERTEX
  5
13A0
  8
3
 10
69.17726005170005
 20
10.85588854510002
 30
0.0
  0
VERTEX
  5
13A1
  8
3
 10
67.72820710300005
 20
10.22274346890001
 30
0.0
  0
VERTEX
  5
13A2
  8
3
 10
66.19659357950002
 20
9.792037579500004
 30
0.0
  0
VERTEX
  5
13A3
  8
3
 10
64.59250031459999
 20
9.57841174180001
 30
0.0
  0
VERTEX
  5
13A4
  8
3
 10
62.97386401300002
 20
9.603089991500013
 30
0.0
  0
VERTEX
  5
13A5
  8
3
 10
61.39023602510008
 20
9.86101048239999
 30
0.0
  0
VERTEX
  5
13A6
  8
3
 10
59.85120154560002
 20
10.34690318989999
 30
0.0
  0
VERTEX
  5
13A7
  8
3
 10
58.44629712580002
 20
11.00820574620002
 30
0.0
  0
VERTEX
  5
13A8
  8
3
 10
57.15669562959999
 20
11.8325724327
 30
0.0
  0
VERTEX
  5
13A9
  8
3
 10
56.0289435505
 20
12.77066376639999
 30
0.0
  0
VERTEX
  5
13AA
  8
3
 10
55.09097129420002
 20
13.78647654000002
 30
0.0
  0
VERTEX
  5
13AB
  8
3
 10
54.3531149813
 20
14.85391714709999
 30
0.0
  0
VERTEX
  5
13AC
  8
3
 10
53.83631516080004
 20
15.9340523763
 30
0.0
  0
VERTEX
  5
13AD
  8
3
 10
53.55090507040006
 20
16.99416008330002
 30
0.0
  0
VERTEX
  5
13AE
  8
3
 10
53.51689021690004
 20
17.98252486979999
 30
0.0
  0
VERTEX
  5
13AF
  8
3
 10
53.73454069310003
 20
18.884413819
 30
0.0
  0
VERTEX
  5
13B0
  8
3
 10
54.20445978200007
 20
19.6920234625
 30
0.0
  0
VERTEX
  5
13B1
  8
3
 10
54.89213557590006
 20
20.3733347097
 30
0.0
  0
VERTEX
  5
13B2
  8
3
 10
55.78897039740002
 20
20.93816978400002
 30
0.0
  0
VERTEX
  5
13B3
  8
3
 10
56.87195556760003
 20
21.3885530837
 30
0.0
  0
VERTEX
  5
13B4
  8
3
 10
58.11437964650008
 20
21.73002581870003
 30
0.0
  0
VERTEX
  5
13B5
  8
3
 10
59.51070016990002
 20
21.98039253709999
 30
0.0
  0
VERTEX
  5
13B6
  8
3
 10
60.99999999900001
 20
22.145057858
 30
0.0
  0
SEQEND
  5
152A
  8
3
  0
POLYLINE
  5
DEA
  8
3
 66
     1
 10
0.0
 20
0.0
 30
0.0
  0
VERTEX
  5
13B7
  8
3
 10
60.99999999910005
 20
-22.14512341579999
 30
0.0
  0
VERTEX
  5
13B8
  8
3
 10
59.5096732344
 20
-21.98032939479998
 30
0.0
  0
VERTEX
  5
13B9
  8
3
 10
58.11194524519999
 20
-21.72957965910001
 30
0.0
  0
VERTEX
  5
13BA
  8
3
 10
56.87237400319998
 20
-21.38889868529998
 30
0.0
  0
VERTEX
  5
13BB
  8
3
 10
55.78686706870008
 20
-20.93863492610001
 30
0.0
  0
VERTEX
  5
13BC
  8
3
 10
54.88689935620005
 20
-20.37428920299999
 30
0.0
  0
VERTEX
  5
13BD
  8
3
 10
54.20183729790006
 20
-19.69645657069998
 30
0.0
  0
VERTEX
  5
13BE
  8
3
 10
53.73642212269999
 20
-18.8941522767
 30
0.0
  0
VERTEX
  5
13BF
  8
3
 10
53.51721799490008
 20
-17.99121227839998
 30
0.0
  0
VERTEX
  5
13C0
  8
3
 10
53.54600724340003
 20
-16.9987285304
 30
0.0
  0
VERTEX
  5
13C1
  8
3
 10
53.82550758790001
 20
-15.94309532749998
 30
0.0
  0
VERTEX
  5
13C2
  8
3
 10
54.3402571501
 20
-14.8676466238
 30
0.0
  0
VERTEX
  5
13C3
  8
3
 10
55.08480393460002
 20
-13.79317171349999
 30
0.0
  0
VERTEX
  5
13C4
  8
3
 10
56.02304495150008
 20
-12.7756334773
 30
0.0
  0
VERTEX
  5
13C5
  8
3
 10
57.14979345360007
 20
-11.83388233049999
 30
0.0
  0
VERTEX
  5
13C6
  8
3
 10
58.43498663030005
 20
-11.0103257243
 30
0.0
  0
VERTEX
  5
13C7
  8
3
 10
59.84860520150005
 20
-10.34699751419998
 30
0.0
  0
VERTEX
  5
13C8
  8
3
 10
61.39077101450005
 20
-9.861309732400002
 30
0.0
  0
VERTEX
  5
13C9
  8
3
 10
62.97101956660003
 20
-9.603823249599998
 30
0.0
  0
VERTEX
  5
13CA
  8
3
 10
64.59213312589998
 20
-9.578575790000002
 30
0.0
  0
VERTEX
  5
13CB
  8
3
 10
66.19417678220009
 20
-9.791421222599979
 30
0.0
  0
VERTEX
  5
13CC
  8
3
 10
67.7285546759
 20
-10.2228374014
 30
0.0
  0
VERTEX
  5
13CD
  8
3
 10
69.17940275750004
 20
-10.8567231975
 30
0.0
  0
VERTEX
  5
13CE
  8
3
 10
70.48783161740005
 20
-11.6445448934
 30
0.0
  0
VERTEX
  5
13CF
  8
3
 10
71.64825103980002
 20
-12.56357369109998
 30
0.0
  0
VERTEX
  5
13D0
  8
3
 10
72.63151907010001
 20
-13.5710042462
 30
0.0
  0
VERTEX
  5
13D1
  8
3
 10
73.41308658390005
 20
-14.6284180705
 30
0.0
  0
VERTEX
  5
13D2
  8
3
 10
73.98409300330002
 20
-15.7125254389
 30
0.0
  0
VERTEX
  5
13D3
  8
3
 10
74.31354699680003
 20
-16.76811608060001
 30
0.0
  0
VERTEX
  5
13D4
  8
3
 10
74.39868221569998
 20
-17.78118205019999
 30
0.0
  0
VERTEX
  5
13D5
  8
3
 10
74.23045775830008
 20
-18.7114666759
 30
0.0
  0
VERTEX
  5
13D6
  8
3
 10
73.81949048470005
 20
-19.5327078389
 30
0.0
  0
VERTEX
  5
13D7
  8
3
 10
73.16970533390008
 20
-20.2451420333
 30
0.0
  0
SEQEND
  5
1529
  8
3
  0
LINE
  5
DEB
  8
3
 10
63.95000000000005
 20
-10.02745658559999
 30
0.0
 11
64.74846210630005
 21
-9.95436433719999
 31
0.0
  0
POLYLINE
  5
DEC
  8
3
 66
     1
 10
0.0
 20
0.0
 30
0.0
  0
VERTEX
  5
13D8
  8
3
 10
64.93447155620004
 20
-9.937336792899998
 30
0.0
  0
VERTEX
  5
13D9
  8
3
 10
66.03467719960008
 20
-9.836622552899996
 30
0.0
  0
VERTEX
  5
13DA
  8
3
 10
68.06034836890001
 20
-9.25328699619999
 30
0.0
  0
VERTEX
  5
13DB
  8
3
 10
69.8800318571
 20
-8.338372593899976
 30
0.0
  0
VERTEX
  5
13DC
  8
3
 10
71.48812206759999
 20
-7.095559757499984
 30
0.0
  0
VERTEX
  5
13DD
  8
3
 10
72.80848800580009
 20
-5.590765555699988
 30
0.0
  0
VERTEX
  5
13DE
  8
3
 10
73.7891540293
 20
-3.875558100799992
 30
0.0
  0
VERTEX
  5
13DF
  8
3
 10
74.40939634680001
 20
-1.97994207459999
 30
0.0
  0
VERTEX
  5
13E0
  8
3
 10
74.61815366870007
 20
-0.0100002485999937
 30
0.0
  0
VERTEX
  5
13E1
  8
3
 10
74.41380927250009
 20
1.959545848099992
 30
0.0
  0
VERTEX
  5
13E2
  8
3
 10
73.79476014
 20
3.862959625900004
 30
0.0
  0
VERTEX
  5
13E3
  8
3
 10
72.81587619139998
 20
5.581504420600027
 30
0.0
  0
VERTEX
  5
13E4
  8
3
 10
71.49432894660004
 20
7.089729205800012
 30
0.0
  0
VERTEX
  5
13E5
  8
3
 10
69.8892345982
 20
8.331908259100004
 30
0.0
  0
VERTEX
  5
13E6
  8
3
 10
68.07261252570004
 20
9.248465481300002
 30
0.0
  0
VERTEX
  5
13E7
  8
3
 10
66.04456257160007
 20
9.834787590100007
 30
0.0
  0
VERTEX
  5
13E8
  8
3
 10
63.95016254210009
 20
10.0274565844
 30
0.0
  0
VERTEX
  5
13E9
  8
3
 10
61.85390564559998
 20
9.834107046000014
 30
0.0
  0
VERTEX
  5
13EA
  8
3
 10
59.83715248880003
 20
9.252305855500026
 30
0.0
  0
VERTEX
  5
13EB
  8
3
 10
58.01351790170008
 20
8.332793207599991
 30
0.0
  0
VERTEX
  5
13EC
  8
3
 10
56.40372003620007
 20
7.087894497500002
 30
0.0
  0
VERTEX
  5
13ED
  8
3
 10
55.08844353350003
 20
5.585875121300006
 30
0.0
  0
VERTEX
  5
13EE
  8
3
 10
54.10472862890003
 20
3.861808346400011
 30
0.0
  0
VERTEX
  5
13EF
  8
3
 10
53.4882704936
 20
1.972480755399999
 30
0.0
  0
VERTEX
  5
13F0
  8
3
 10
53.28184112530005
 20
-0.0013674278999929
 30
0.0
  0
VERTEX
  5
13F1
  8
3
 10
53.48759084000005
 20
-1.972911167299998
 30
0.0
  0
VERTEX
  5
13F2
  8
3
 10
54.1076606913
 20
-3.868405814799985
 30
0.0
  0
VERTEX
  5
13F3
  8
3
 10
55.09429925840004
 20
-5.594834813700004
 30
0.0
  0
VERTEX
  5
13F4
  8
3
 10
56.41252005360002
 20
-7.096162399200011
 30
0.0
  0
VERTEX
  5
13F5
  8
3
 10
58.02531880690003
 20
-8.340495427500002
 30
0.0
  0
VERTEX
  5
13F6
  8
3
 10
59.84318714410006
 20
-9.25467381049998
 30
0.0
  0
VERTEX
  5
13F7
  8
3
 10
61.85840787360007
 20
-9.834039183399994
 30
0.0
  0
VERTEX
  5
13F8
  8
3
 10
63.95000000000005
 20
-10.02745658559999
 30
0.0
  0
VERTEX
  5
13F9
  8
3
 10
63.95000000000005
 20
-10.02745658559999
 30
0.0
  0
SEQEND
  5
1528
  8
3
  0
LINE
  5
DED
  8
3
 10
26.66875421220004
 20
11.10000000000002
 30
0.0
 11
26.66875421220004
 21
-11.09999999999999
 31
0.0
  0
POLYLINE
  5
E1C
  8
3
 66
     1
 10
0.0
 20
0.0
 30
0.0
  0
VERTEX
  5
13FA
  8
3
 10
82.49999999990007
 20
20.24524981760001
 30
0.0
  0
VERTEX
  5
13FB
  8
3
 10
82.75141644209998
 20
20.25528588680001
 30
0.0
  0
VERTEX
  5
13FC
  8
3
 10
83.0
 20
20.26088365660002
 30
0.0
  0
SEQEND
  5
1527
  8
3
  0
POLYLINE
  5
E1D
  8
3
 66
     1
 10
0.0
 20
0.0
 30
0.0
  0
VERTEX
  5
13FD
  8
3
 10
83.0
 20
-20.2608836567
 30
0.0
  0
VERTEX
  5
13FE
  8
3
 10
82.75141644209998
 20
-20.2552858869
 30
0.0
  0
VERTEX
  5
13FF
  8
3
 10
82.49999999990007
 20
-20.2452498177
 30
0.0
  0
SEQEND
  5
1526
  8
3
  0
LINE
  5
E1E
  8
3
 10
60.99999999990007
 20
-20.24524981779999
 30
0.0
 11
60.99999999990007
 21
-28.64999999999998
 31
0.0
  0
LINE
  5
E1F
  8
3
 10
60.99999999990007
 20
28.65000000000001
 30
0.0
 11
60.99999999990007
 21
20.24524981770003
 31
0.0
  0
LINE
  5
E22
  8
3
 10
60.99999999990007
 20
32.15000000000001
 30
0.0
 11
60.99999999990007
 21
28.65000000000001
 31
0.0
  0
LINE
  5
E23
  8
3
 10
60.99999999990007
 20
-28.64999999999998
 30
0.0
 11
60.99999999990007
 21
-32.14999999999998
 31
0.0
  0
POLYLINE
  5
E26
  8
3
 66
     1
 10
0.0
 20
0.0
 30
0.0
  0
VERTEX
  5
1400
  8
3
 10
70.00602119220002
 20
21.77858711530001
 30
0.0
  0
VERTEX
  5
1401
  8
3
 10
71.64836593260009
 20
21.09976331600001
 30
0.0
  0
VERTEX
  5
1402
  8
3
 10
73.16939070060005
 20
20.24475601720002
 30
0.0
  0
SEQEND
  5
1525
  8
3
  0
ARC
  5
E27
  8
3
 10
63.95023574510003
 20
14.76944747269999
 30
0.0
 40
9.262565257555242
 50
49.17223255869987
 51
108.5729448752998
  0
ARC
  5
E28
  8
3
 10
63.94164579610003
 20
-14.72597155759999
 30
0.0
 40
9.301066895770367
 50
251.5625175181997
 51
310.7097697753002
  0
POLYLINE
  5
E29
  8
3
 66
     1
 10
0.0
 20
0.0
 30
0.0
  0
VERTEX
  5
1403
  8
3
 10
73.1690785321
 20
-20.24345097309998
 30
0.0
  0
VERTEX
  5
1404
  8
3
 10
71.6483855491
 20
-21.0973758273
 30
0.0
  0
VERTEX
  5
1405
  8
3
 10
70.00580801490003
 20
-21.77743637890001
 30
0.0
  0
SEQEND
  5
1524
  8
3
  0
POLYLINE
  5
E2A
  8
3
 66
     1
 10
0.0
 20
0.0
 30
0.0
  0
VERTEX
  5
1406
  8
3
 10
70.00807205090007
 20
-21.77644249579998
 30
0.0
  0
VERTEX
  5
1407
  8
3
 10
70.60573643179998
 20
-21.54582749639999
 30
0.0
  0
VERTEX
  5
1408
  8
3
 10
71.07214546950001
 20
-21.31081669219998
 30
0.0
  0
VERTEX
  5
1409
  8
3
 10
71.42685169130004
 20
-21.0860167642
 30
0.0
  0
VERTEX
  5
140A
  8
3
 10
71.68872600150007
 20
-20.8822419684
 30
0.0
  0
VERTEX
  5
140B
  8
3
 10
72.26408861640004
 20
-20.22192199419999
 30
0.0
  0
VERTEX
  5
140C
  8
3
 10
72.58807842290003
 20
-19.4903931982
 30
0.0
  0
VERTEX
  5
140D
  8
3
 10
72.69993758740009
 20
-18.6156395461
 30
0.0
  0
VERTEX
  5
140E
  8
3
 10
72.57724242770007
 20
-17.650510508
 30
0.0
  0
VERTEX
  5
140F
  8
3
 10
72.44047857530006
 20
-17.17658438730001
 30
0.0
  0
VERTEX
  5
1410
  8
3
 10
72.2456930001
 20
-16.67317192229999
 30
0.0
  0
VERTEX
  5
1411
  8
3
 10
71.98804926119999
 20
-16.14412756399997
 30
0.0
  0
VERTEX
  5
1412
  8
3
 10
71.66317414870002
 20
-15.59391383449997
 30
0.0
  0
VERTEX
  5
1413
  8
3
 10
71.03807831540007
 20
-14.73653026099998
 30
0.0
  0
VERTEX
  5
1414
  8
3
 10
69.96936016820007
 20
-13.6263294467
 30
0.0
  0
VERTEX
  5
1415
  8
3
 10
69.30343724270006
 20
-13.0809100155
 30
0.0
  0
VERTEX
  5
1416
  8
3
 10
68.68298023160003
 20
-12.6498504452
 30
0.0
  0
VERTEX
  5
1417
  8
3
 10
68.13044052290002
 20
-12.3193250347
 30
0.0
  0
VERTEX
  5
1418
  8
3
 10
67.66210518169999
 20
-12.07624325299997
 30
0.0
  0
VERTEX
  5
1419
  8
3
 10
66.25822229610003
 20
-11.53899643929998
 30
0.0
  0
VERTEX
  5
141A
  8
3
 10
64.87370660329998
 20
-11.2597521907
 30
0.0
  0
VERTEX
  5
141B
  8
3
 10
63.50970096909998
 20
-11.21805221080001
 30
0.0
  0
VERTEX
  5
141C
  8
3
 10
62.09109833030004
 20
-11.41955608929999
 30
0.0
  0
VERTEX
  5
141D
  8
3
 10
61.67944656270004
 20
-11.52637529139997
 30
0.0
  0
VERTEX
  5
141E
  8
3
 10
61.25399290780001
 20
-11.6601572834
 30
0.0
  0
VERTEX
  5
141F
  8
3
 10
60.81670187539999
 20
-11.82257571100001
 30
0.0
  0
VERTEX
  5
1420
  8
3
 10
60.3698692749
 20
-12.0152854049
 30
0.0
  0
VERTEX
  5
1421
  8
3
 10
59.9161432267
 20
-12.23989714689998
 30
0.0
  0
VERTEX
  5
1422
  8
3
 10
59.45854211200003
 20
-12.49794915870001
 30
0.0
  0
VERTEX
  5
1423
  8
3
 10
59.37701598800004
 20
-12.54803991099999
 30
0.0
  0
VERTEX
  5
1424
  8
3
 10
58.77763411249998
 20
-12.95090555069999
 30
0.0
  0
VERTEX
  5
1425
  8
3
 10
58.35916112460006
 20
-13.26791234309999
 30
0.0
  0
VERTEX
  5
1426
  8
3
 10
57.86769796240003
 20
-13.68456672880001
 30
0.0
  0
VERTEX
  5
1427
  8
3
 10
57.32568648330005
 20
-14.21313580469999
 30
0.0
  0
VERTEX
  5
1428
  8
3
 10
56.68665355669998
 20
-14.957177495
 30
0.0
  0
VERTEX
  5
1429
  8
3
 10
56.20624934810007
 20
-15.64101878529999
 30
0.0
  0
VERTEX
  5
142A
  8
3
 10
55.85820760570004
 20
-16.24634312129999
 30
0.0
  0
VERTEX
  5
142B
  8
3
 10
55.41868886060001
 20
-17.30181766909999
 30
0.0
  0
VERTEX
  5
142C
  8
3
 10
55.21837941199999
 20
-18.26525009789998
 30
0.0
  0
VERTEX
  5
142D
  8
3
 10
55.24122219850005
 20
-19.1656935531
 30
0.0
  0
VERTEX
  5
142E
  8
3
 10
55.49913539670001
 20
-19.97906389639999
 30
0.0
  0
VERTEX
  5
142F
  8
3
 10
55.62033250900004
 20
-20.19706167379999
 30
0.0
  0
VERTEX
  5
1430
  8
3
 10
55.76747340819998
 20
-20.41185648549998
 30
0.0
  0
VERTEX
  5
1431
  8
3
 10
55.94260652930006
 20
-20.62219977569998
 30
0.0
  0
VERTEX
  5
1432
  8
3
 10
56.14771531209999
 20
-20.82667161859999
 30
0.0
  0
VERTEX
  5
1433
  8
3
 10
56.38468675290005
 20
-21.0236736432
 30
0.0
  0
VERTEX
  5
1434
  8
3
 10
56.65527676329998
 20
-21.21142370370001
 30
0.0
  0
VERTEX
  5
1435
  8
3
 10
56.7033906378
 20
-21.24085407339999
 30
0.0
  0
VERTEX
  5
1436
  8
3
 10
57.12524465960007
 20
-21.46605197529999
 30
0.0
  0
VERTEX
  5
1437
  8
3
 10
57.4714335338
 20
-21.61906455010001
 30
0.0
  0
VERTEX
  5
1438
  8
3
 10
57.93815103760005
 20
-21.79028794850001
 30
0.0
  0
VERTEX
  5
1439
  8
3
 10
58.54432128510007
 20
-21.96410722399997
 30
0.0
  0
VERTEX
  5
143A
  8
3
 10
59.82427442130006
 20
-22.2102175629
 30
0.0
  0
VERTEX
  5
143B
  8
3
 10
61.00000001830006
 20
-22.34189691099999
 30
0.0
  0
SEQEND
  5
1523
  8
3
  0
POLYLINE
  5
E2B
  8
3
 66
     1
 10
0.0
 20
0.0
 30
0.0
  0
VERTEX
  5
143C
  8
3
 10
60.99999999990007
 20
22.34132783140001
 30
0.0
  0
VERTEX
  5
143D
  8
3
 10
60.54540961300006
 20
22.29850371489999
 30
0.0
  0
VERTEX
  5
143E
  8
3
 10
60.06760031800002
 20
22.24275608760001
 30
0.0
  0
VERTEX
  5
143F
  8
3
 10
59.57113470180002
 20
22.17063349060001
 30
0.0
  0
VERTEX
  5
1440
  8
3
 10
59.0615160044
 20
22.07873208070001
 30
0.0
  0
VERTEX
  5
1441
  8
3
 10
58.54526910300001
 20
21.96379738450003
 30
0.0
  0
VERTEX
  5
1442
  8
3
 10
57.72259906650004
 20
21.71548214030003
 30
0.0
  0
VERTEX
  5
1443
  8
3
 10
57.16529284570004
 20
21.48458526970001
 30
0.0
  0
VERTEX
  5
1444
  8
3
 10
56.82216002860002
 20
21.30819591139999
 30
0.0
  0
VERTEX
  5
1445
  8
3
 10
56.74808627510004
 20
21.26565869130002
 30
0.0
  0
VERTEX
  5
1446
  8
3
 10
56.69221095710009
 20
21.23220831050003
 30
0.0
  0
VERTEX
  5
1447
  8
3
 10
56.65370334070008
 20
21.20822003990003
 30
0.0
  0
VERTEX
  5
1448
  8
3
 10
55.93904809859998
 20
20.61464029530001
 30
0.0
  0
VERTEX
  5
1449
  8
3
 10
55.49639914320005
 20
19.9713516864
 30
0.0
  0
VERTEX
  5
144A
  8
3
 10
55.24000788340004
 20
19.15740877709999
 30
0.0
  0
VERTEX
  5
144B
  8
3
 10
55.21922856180004
 20
18.25383486620001
 30
0.0
  0
VERTEX
  5
144C
  8
3
 10
55.32792371360006
 20
17.62359211080002
 30
0.0
  0
VERTEX
  5
144D
  8
3
 10
55.54015856680007
 20
16.94710947200002
 30
0.0
  0
VERTEX
  5
144E
  8
3
 10
55.86351268229998
 20
16.23288555620002
 30
0.0
  0
VERTEX
  5
144F
  8
3
 10
56.11250943690004
 20
15.7907846992
 30
0.0
  0
VERTEX
  5
1450
  8
3
 10
56.43266613000003
 20
15.3005648406
 30
0.0
  0
VERTEX
  5
1451
  8
3
 10
56.83554386590004
 20
14.76918213880001
 30
0.0
  0
VERTEX
  5
1452
  8
3
 10
57.33236367590007
 20
14.20540316340001
 30
0.0
  0
VERTEX
  5
1453
  8
3
 10
58.07751267830008
 20
13.49940642220002
 30
0.0
  0
VERTEX
  5
1454
  8
3
 10
58.71203129909998
 20
12.99812867439999
 30
0.0
  0
VERTEX
  5
1455
  8
3
 10
59.18594635760007
 20
12.67085489670001
 30
0.0
  0
VERTEX
  5
1456
  8
3
 10
59.92864727250003
 20
12.23486991570002
 30
0.0
  0
VERTEX
  5
1457
  8
3
 10
61.04849402830007
 20
11.73408374640002
 30
0.0
  0
VERTEX
  5
1458
  8
3
 10
62.09295921900002
 20
11.41892505340002
 30
0.0
  0
VERTEX
  5
1459
  8
3
 10
63.51498200240007
 20
11.2171129708
 30
0.0
  0
VERTEX
  5
145A
  8
3
 10
64.94178834060006
 20
11.26633691699999
 30
0.0
  0
VERTEX
  5
145B
  8
3
 10
65.6056135174
 20
11.37569822860002
 30
0.0
  0
VERTEX
  5
145C
  8
3
 10
66.28430084280001
 20
11.54505345920001
 30
0.0
  0
VERTEX
  5
145D
  8
3
 10
66.97214497829998
 20
11.77756293290003
 30
0.0
  0
VERTEX
  5
145E
  8
3
 10
67.66251311050007
 20
12.07611579280001
 30
0.0
  0
VERTEX
  5
145F
  8
3
 10
68.67998515650004
 20
12.64802396499999
 30
0.0
  0
VERTEX
  5
1460
  8
3
 10
69.96989553060007
 20
13.62680667750001
 30
0.0
  0
VERTEX
  5
1461
  8
3
 10
70.57140728080003
 20
14.20909219380002
 30
0.0
  0
VERTEX
  5
1462
  8
3
 10
71.04169337960002
 20
14.74070391000001
 30
0.0
  0
VERTEX
  5
1463
  8
3
 10
71.40009004870001
 20
15.20699259119999
 30
0.0
  0
VERTEX
  5
1464
  8
3
 10
71.66531042430006
 20
15.59708641100002
 30
0.0
  0
VERTEX
  5
1465
  8
3
 10
72.24829157459999
 20
16.67889243440001
 30
0.0
  0
VERTEX
  5
1466
  8
3
 10
72.57970017740001
 20
17.66049752449999
 30
0.0
  0
VERTEX
  5
1467
  8
3
 10
72.69998257090003
 20
18.62540760260001
 30
0.0
  0
VERTEX
  5
1468
  8
3
 10
72.58563029380002
 20
19.49878313190001
 30
0.0
  0
VERTEX
  5
1469
  8
3
 10
72.45243722589998
 20
19.86904221600003
 30
0.0
  0
VERTEX
  5
146A
  8
3
 10
72.26132396790001
 20
20.2261227278
 30
0.0
  0
VERTEX
  5
146B
  8
3
 10
72.00755901399998
 20
20.5662077563
 30
0.0
  0
VERTEX
  5
146C
  8
3
 10
71.686872
 20
20.8848873778
 30
0.0
  0
VERTEX
  5
146D
  8
3
 10
71.06098642380005
 20
21.3192299822
 30
0.0
  0
VERTEX
  5
146E
  8
3
 10
70.00600301010002
 20
21.77829749120002
 30
0.0
  0
SEQEND
  5
1522
  8
3
  0
POLYLINE
  5
E2C
  8
3
 66
     1
 10
0.0
 20
0.0
 30
0.0
  0
VERTEX
  5
146F
  8
3
 10
63.95000000000005
 20
36.45768042020001
 30
0.0
  0
VERTEX
  5
1470
  8
3
 10
62.50979733500003
 20
36.38097104990001
 30
0.0
  0
VERTEX
  5
1471
  8
3
 10
61.10887964440008
 20
36.1529353704
 30
0.0
  0
VERTEX
  5
1472
  8
3
 10
59.78546031090002
 20
35.77979360080002
 30
0.0
  0
VERTEX
  5
1473
  8
3
 10
58.57563876390009
 20
35.27172407570001
 30
0.0
  0
VERTEX
  5
1474
  8
3
 10
57.5124157816
 20
34.6425856075
 30
0.0
  0
VERTEX
  5
1475
  8
3
 10
56.62479331520001
 20
33.9095394533
 30
0.0
  0
VERTEX
  5
1476
  8
3
 10
55.93698339169998
 20
33.0925812015
 30
0.0
  0
VERTEX
  5
1477
  8
3
 10
55.46774767300008
 20
32.21399534350002
 30
0.0
  0
VERTEX
  5
1478
  8
3
 10
55.22988568620008
 20
31.29774741120002
 30
0.0
  0
VERTEX
  5
1479
  8
3
 10
55.22988568620008
 20
30.36883025970002
 30
0.0
  0
VERTEX
  5
147A
  8
3
 10
55.46774767300008
 20
29.45258232739999
 30
0.0
  0
VERTEX
  5
147B
  8
3
 10
55.93698339169998
 20
28.57399646940002
 30
0.0
  0
VERTEX
  5
147C
  8
3
 10
56.62479331520001
 20
27.75703821760001
 30
0.0
  0
VERTEX
  5
147D
  8
3
 10
57.5124157816
 20
27.0239920635
 30
0.0
  0
VERTEX
  5
147E
  8
3
 10
58.57563876390009
 20
26.39485359529999
 30
0.0
  0
VERTEX
  5
147F
  8
3
 10
59.78546031090002
 20
25.88678407020001
 30
0.0
  0
VERTEX
  5
1480
  8
3
 10
61.10887964440008
 20
25.5136423006
 30
0.0
  0
VERTEX
  5
1481
  8
3
 10
62.50979733500003
 20
25.28560662109999
 30
0.0
  0
VERTEX
  5
1482
  8
3
 10
63.95000000000005
 20
25.20889725070001
 30
0.0
  0
VERTEX
  5
1483
  8
3
 10
65.39020266490002
 20
25.28560662109999
 30
0.0
  0
VERTEX
  5
1484
  8
3
 10
66.79112035550008
 20
25.5136423006
 30
0.0
  0
VERTEX
  5
1485
  8
3
 10
68.11453968900003
 20
25.88678407020001
 30
0.0
  0
VERTEX
  5
1486
  8
3
 10
69.32436123600007
 20
26.39485359529999
 30
0.0
  0
VERTEX
  5
1487
  8
3
 10
70.38758421839998
 20
27.0239920635
 30
0.0
  0
VERTEX
  5
1488
  8
3
 10
71.27520668480008
 20
27.75703821760001
 30
0.0
  0
VERTEX
  5
1489
  8
3
 10
71.96301660820006
 20
28.57399646940002
 30
0.0
  0
VERTEX
  5
148A
  8
3
 10
72.43225232690008
 20
29.45258232739999
 30
0.0
  0
VERTEX
  5
148B
  8
3
 10
72.67011431380001
 20
30.36883025970002
 30
0.0
  0
VERTEX
  5
148C
  8
3
 10
72.67011431380001
 20
31.29774741120002
 30
0.0
  0
VERTEX
  5
148D
  8
3
 10
72.43225232690008
 20
32.21399534350002
 30
0.0
  0
VERTEX
  5
148E
  8
3
 10
71.96301660820006
 20
33.0925812015
 30
0.0
  0
VERTEX
  5
148F
  8
3
 10
71.27520668480008
 20
33.9095394533
 30
0.0
  0
VERTEX
  5
1490
  8
3
 10
70.38758421839998
 20
34.6425856075
 30
0.0
  0
VERTEX
  5
1491
  8
3
 10
69.32436123600007
 20
35.27172407570001
 30
0.0
  0
VERTEX
  5
1492
  8
3
 10
68.11453968900003
 20
35.77979360080002
 30
0.0
  0
VERTEX
  5
1493
  8
3
 10
66.79112035550008
 20
36.1529353704
 30
0.0
  0
VERTEX
  5
1494
  8
3
 10
65.39020266490002
 20
36.38097104990001
 30
0.0
  0
VERTEX
  5
1495
  8
3
 10
63.95000000000005
 20
36.45768042020001
 30
0.0
  0
SEQEND
  5
1521
  8
3
  0
POLYLINE
  5
E2D
  8
3
 66
     1
 10
0.0
 20
0.0
 30
0.0
  0
VERTEX
  5
1496
  8
3
 10
63.95000000000005
 20
-25.20889725079999
 30
0.0
  0
VERTEX
  5
1497
  8
3
 10
62.50979733500003
 20
-25.28560662119997
 30
0.0
  0
VERTEX
  5
1498
  8
3
 10
61.10887964440008
 20
-25.5136423006
 30
0.0
  0
VERTEX
  5
1499
  8
3
 10
59.78546031090002
 20
-25.8867840703
 30
0.0
  0
VERTEX
  5
149A
  8
3
 10
58.57563876390009
 20
-26.39485359529999
 30
0.0
  0
VERTEX
  5
149B
  8
3
 10
57.5124157816
 20
-27.02399206359999
 30
0.0
  0
VERTEX
  5
149C
  8
3
 10
56.62479331520001
 20
-27.75703821769997
 30
0.0
  0
VERTEX
  5
149D
  8
3
 10
55.93698339169998
 20
-28.5739964695
 30
0.0
  0
VERTEX
  5
149E
  8
3
 10
55.46774767300008
 20
-29.45258232750001
 30
0.0
  0
VERTEX
  5
149F
  8
3
 10
55.22988568620008
 20
-30.36883025980001
 30
0.0
  0
VERTEX
  5
14A0
  8
3
 10
55.22988568620008
 20
-31.29774741130001
 30
0.0
  0
VERTEX
  5
14A1
  8
3
 10
55.46774767300008
 20
-32.2139953436
 30
0.0
  0
VERTEX
  5
14A2
  8
3
 10
55.93698339169998
 20
-33.09258120160001
 30
0.0
  0
VERTEX
  5
14A3
  8
3
 10
56.62479331520001
 20
-33.90953945339999
 30
0.0
  0
VERTEX
  5
14A4
  8
3
 10
57.5124157816
 20
-34.64258560759998
 30
0.0
  0
VERTEX
  5
14A5
  8
3
 10
58.57563876390009
 20
-35.27172407579999
 30
0.0
  0
VERTEX
  5
14A6
  8
3
 10
59.78546031090002
 20
-35.77979360090001
 30
0.0
  0
VERTEX
  5
14A7
  8
3
 10
61.10887964440008
 20
-36.15293537049999
 30
0.0
  0
VERTEX
  5
14A8
  8
3
 10
62.50979733500003
 20
-36.38097105
 30
0.0
  0
VERTEX
  5
14A9
  8
3
 10
63.95000000000005
 20
-36.45768042029999
 30
0.0
  0
VERTEX
  5
14AA
  8
3
 10
65.39020266490002
 20
-36.38097105
 30
0.0
  0
VERTEX
  5
14AB
  8
3
 10
66.79112035550008
 20
-36.15293537049999
 30
0.0
  0
VERTEX
  5
14AC
  8
3
 10
68.11453968900003
 20
-35.77979360090001
 30
0.0
  0
VERTEX
  5
14AD
  8
3
 10
69.32436123600007
 20
-35.27172407579999
 30
0.0
  0
VERTEX
  5
14AE
  8
3
 10
70.38758421839998
 20
-34.64258560759998
 30
0.0
  0
VERTEX
  5
14AF
  8
3
 10
71.27520668480008
 20
-33.90953945339999
 30
0.0
  0
VERTEX
  5
14B0
  8
3
 10
71.96301660820006
 20
-33.09258120160001
 30
0.0
  0
VERTEX
  5
14B1
  8
3
 10
72.43225232690008
 20
-32.2139953436
 30
0.0
  0
VERTEX
  5
14B2
  8
3
 10
72.67011431380001
 20
-31.29774741130001
 30
0.0
  0
VERTEX
  5
14B3
  8
3
 10
72.67011431380001
 20
-30.36883025980001
 30
0.0
  0
VERTEX
  5
14B4
  8
3
 10
72.43225232690008
 20
-29.45258232750001
 30
0.0
  0
VERTEX
  5
14B5
  8
3
 10
71.96301660820006
 20
-28.5739964695
 30
0.0
  0
VERTEX
  5
14B6
  8
3
 10
71.27520668480008
 20
-27.75703821769997
 30
0.0
  0
VERTEX
  5
14B7
  8
3
 10
70.38758421839998
 20
-27.02399206359999
 30
0.0
  0
VERTEX
  5
14B8
  8
3
 10
69.32436123600007
 20
-26.39485359529999
 30
0.0
  0
VERTEX
  5
14B9
  8
3
 10
68.11453968900003
 20
-25.8867840703
 30
0.0
  0
VERTEX
  5
14BA
  8
3
 10
66.79112035550008
 20
-25.5136423006
 30
0.0
  0
VERTEX
  5
14BB
  8
3
 10
65.39020266490002
 20
-25.28560662119997
 30
0.0
  0
VERTEX
  5
14BC
  8
3
 10
63.95000000000005
 20
-25.20889725079999
 30
0.0
  0
SEQEND
  5
1520
  8
3
  0
POLYLINE
  5
E32
  8
3
 66
     1
 10
0.0
 20
0.0
 30
0.0
  0
VERTEX
  5
14BD
  8
3
 10
63.95000000000005
 20
-25.48622512610001
 30
0.0
  0
VERTEX
  5
14BE
  8
3
 10
65.55161284510007
 20
-25.56157458659999
 30
0.0
  0
VERTEX
  5
14BF
  8
3
 10
67.11909009300007
 20
-25.78601702549997
 30
0.0
  0
VERTEX
  5
14C0
  8
3
 10
68.61902368760002
 20
-26.1547688416
 30
0.0
  0
VERTEX
  5
14C1
  8
3
 10
70.0194451484
 20
-26.65997073029999
 30
0.0
  0
VERTEX
  5
14C2
  8
3
 10
71.29050692340002
 20
-27.29085519040001
 30
0.0
  0
VERTEX
  5
14C3
  8
3
 10
72.40511853750002
 20
-28.03397601500001
 30
0.0
  0
VERTEX
  5
14C4
  8
3
 10
73.33952397940004
 20
-28.87349487379998
 30
0.0
  0
VERTEX
  5
14C5
  8
3
 10
74.07380801919999
 20
-29.79151888000001
 30
0.0
  0
VERTEX
  5
14C6
  8
3
 10
74.5923206676
 20
-30.7684819456
 30
0.0
  0
VERTEX
  5
14C7
  8
3
 10
74.88401072760007
 20
-31.78356179899998
 30
0.0
  0
VERTEX
  5
14C8
  8
3
 10
74.94266133200006
 20
-32.81512377550001
 30
0.0
  0
VERTEX
  5
14C9
  8
3
 10
74.7670224451
 20
-33.84118192259999
 30
0.0
  0
VERTEX
  5
14CA
  8
3
 10
74.36083750470004
 20
-34.83986759219999
 30
0.0
  0
VERTEX
  5
14CB
  8
3
 10
73.73276363770003
 20
-35.78989553309998
 30
0.0
  0
VERTEX
  5
14CC
  8
3
 10
72.89618714810001
 20
-36.6710175492
 30
0.0
  0
VERTEX
  5
14CD
  8
3
 10
71.86893821130002
 20
-37.46445405439999
 30
0.0
  0
VERTEX
  5
14CE
  8
3
 10
70.67291085500005
 20
-38.1532943272
 30
0.0
  0
VERTEX
  5
14CF
  8
3
 10
69.33359632590009
 20
-38.72285693309999
 30
0.0
  0
VERTEX
  5
14D0
  8
3
 10
67.87953978780001
 20
-39.161002634
 30
0.0
  0
VERTEX
  5
14D1
  8
3
 10
66.34173193139998
 20
-39.45839311489999
 30
0.0
  0
VERTEX
  5
14D2
  8
3
 10
64.75294846120005
 20
-39.60869001409998
 30
0.0
  0
VERTEX
  5
14D3
  8
3
 10
63.1470515387
 20
-39.60869001409998
 30
0.0
  0
VERTEX
  5
14D4
  8
3
 10
61.5582680686
 20
-39.45839311489999
 30
0.0
  0
VERTEX
  5
14D5
  8
3
 10
60.02046021220008
 20
-39.161002634
 30
0.0
  0
VERTEX
  5
14D6
  8
3
 10
58.56640367400007
 20
-38.72285693309999
 30
0.0
  0
VERTEX
  5
14D7
  8
3
 10
57.22708914489999
 20
-38.1532943272
 30
0.0
  0
VERTEX
  5
14D8
  8
3
 10
56.03106178860003
 20
-37.46445405439999
 30
0.0
  0
VERTEX
  5
14D9
  8
3
 10
55.00381285190008
 20
-36.6710175492
 30
0.0
  0
VERTEX
  5
14DA
  8
3
 10
54.16723636230006
 20
-35.78989553309998
 30
0.0
  0
VERTEX
  5
14DB
  8
3
 10
53.5391624952
 20
-34.83986759219999
 30
0.0
  0
VERTEX
  5
14DC
  8
3
 10
53.13297755480005
 20
-33.84118192259999
 30
0.0
  0
VERTEX
  5
14DD
  8
3
 10
52.95733866789999
 20
-32.81512377550001
 30
0.0
  0
VERTEX
  5
14DE
  8
3
 10
53.01598927230009
 20
-31.78356179899998
 30
0.0
  0
VERTEX
  5
14DF
  8
3
 10
53.30767933230004
 20
-30.7684819456
 30
0.0
  0
VERTEX
  5
14E0
  8
3
 10
53.82619198070006
 20
-29.79151888000001
 30
0.0
  0
VERTEX
  5
14E1
  8
3
 10
54.56047602060005
 20
-28.87349487379998
 30
0.0
  0
VERTEX
  5
14E2
  8
3
 10
55.49488146240003
 20
-28.03397601500001
 30
0.0
  0
VERTEX
  5
14E3
  8
3
 10
56.60949307650003
 20
-27.29085519040001
 30
0.0
  0
VERTEX
  5
14E4
  8
3
 10
57.88055485150005
 20
-26.65997073029999
 30
0.0
  0
VERTEX
  5
14E5
  8
3
 10
59.28097631230003
 20
-26.1547688416
 30
0.0
  0
VERTEX
  5
14E6
  8
3
 10
60.78090990689998
 20
-25.78601702549997
 30
0.0
  0
VERTEX
  5
14E7
  8
3
 10
62.34838715490002
 20
-25.56157458659999
 30
0.0
  0
VERTEX
  5
14E8
  8
3
 10
63.95000000000005
 20
-25.48622512610001
 30
0.0
  0
SEQEND
  5
151F
  8
3
  0
POLYLINE
  5
E33
  8
3
 66
     1
 10
0.0
 20
0.0
 30
0.0
  0
VERTEX
  5
14E9
  8
3
 10
63.95000000000005
 20
39.62755253910001
 30
0.0
  0
VERTEX
  5
14EA
  8
3
 10
65.55161284510007
 20
39.55220307850001
 30
0.0
  0
VERTEX
  5
14EB
  8
3
 10
67.11909009300007
 20
39.32776063970002
 30
0.0
  0
VERTEX
  5
14EC
  8
3
 10
68.61902368760002
 20
38.9590088235
 30
0.0
  0
VERTEX
  5
14ED
  8
3
 10
70.0194451484
 20
38.45380693480001
 30
0.0
  0
VERTEX
  5
14EE
  8
3
 10
71.29050692340002
 20
37.82292247470002
 30
0.0
  0
VERTEX
  5
14EF
  8
3
 10
72.40511853750002
 20
37.07980165009999
 30
0.0
  0
VERTEX
  5
14F0
  8
3
 10
73.33952397940004
 20
36.24028279130002
 30
0.0
  0
VERTEX
  5
14F1
  8
3
 10
74.07380801919999
 20
35.32225878510002
 30
0.0
  0
VERTEX
  5
14F2
  8
3
 10
74.5923206676
 20
34.34529571960002
 30
0.0
  0
VERTEX
  5
14F3
  8
3
 10
74.88401072760007
 20
33.33021586610002
 30
0.0
  0
VERTEX
  5
14F4
  8
3
 10
74.94266133200006
 20
32.29865388960002
 30
0.0
  0
VERTEX
  5
14F5
  8
3
 10
74.7670224451
 20
31.27259574250002
 30
0.0
  0
VERTEX
  5
14F6
  8
3
 10
74.36083750470004
 20
30.27391007290001
 30
0.0
  0
VERTEX
  5
14F7
  8
3
 10
73.73276363770003
 20
29.32388213199999
 30
0.0
  0
VERTEX
  5
14F8
  8
3
 10
72.89618714810001
 20
28.4427601159
 30
0.0
  0
VERTEX
  5
14F9
  8
3
 10
71.86893821130002
 20
27.64932361070001
 30
0.0
  0
VERTEX
  5
14FA
  8
3
 10
70.67291085500005
 20
26.9604833379
 30
0.0
  0
VERTEX
  5
14FB
  8
3
 10
69.33359632590009
 20
26.39092073200001
 30
0.0
  0
VERTEX
  5
14FC
  8
3
 10
67.87953978780001
 20
25.95277503120002
 30
0.0
  0
VERTEX
  5
14FD
  8
3
 10
66.34173193139998
 20
25.65538455020001
 30
0.0
  0
VERTEX
  5
14FE
  8
3
 10
64.75294846120005
 20
25.505087651
 30
0.0
  0
VERTEX
  5
14FF
  8
3
 10
63.1470515387
 20
25.505087651
 30
0.0
  0
VERTEX
  5
1500
  8
3
 10
61.5582680686
 20
25.65538455020001
 30
0.0
  0
VERTEX
  5
1501
  8
3
 10
60.02046021220008
 20
25.95277503120002
 30
0.0
  0
VERTEX
  5
1502
  8
3
 10
58.56640367400007
 20
26.39092073200001
 30
0.0
  0
VERTEX
  5
1503
  8
3
 10
57.22708914489999
 20
26.9604833379
 30
0.0
  0
VERTEX
  5
1504
  8
3
 10
56.03106178860003
 20
27.64932361070001
 30
0.0
  0
VERTEX
  5
1505
  8
3
 10
55.00381285190008
 20
28.4427601159
 30
0.0
  0
VERTEX
  5
1506
  8
3
 10
54.16723636230006
 20
29.32388213199999
 30
0.0
  0
VERTEX
  5
1507
  8
3
 10
53.5391624952
 20
30.27391007290001
 30
0.0
  0
VERTEX
  5
1508
  8
3
 10
53.13297755480005
 20
31.27259574250002
 30
0.0
  0
VERTEX
  5
1509
  8
3
 10
52.95733866789999
 20
32.29865388960002
 30
0.0
  0
VERTEX
  5
150A
  8
3
 10
53.01598927230009
 20
33.33021586610002
 30
0.0
  0
VERTEX
  5
150B
  8
3
 10
53.30767933230004
 20
34.34529571960002
 30
0.0
  0
VERTEX
  5
150C
  8
3
 10
53.82619198070006
 20
35.32225878510002
 30
0.0
  0
VERTEX
  5
150D
  8
3
 10
54.56047602060005
 20
36.24028279130002
 30
0.0
  0
VERTEX
  5
150E
  8
3
 10
55.49488146240003
 20
37.07980165009999
 30
0.0
  0
VERTEX
  5
150F
  8
3
 10
56.60949307650003
 20
37.82292247470002
 30
0.0
  0
VERTEX
  5
1510
  8
3
 10
57.88055485150005
 20
38.45380693480001
 30
0.0
  0
VERTEX
  5
1511
  8
3
 10
59.28097631230003
 20
38.9590088235
 30
0.0
  0
VERTEX
  5
1512
  8
3
 10
60.78090990689998
 20
39.32776063970002
 30
0.0
  0
VERTEX
  5
1513
  8
3
 10
62.34838715490002
 20
39.55220307850001
 30
0.0
  0
VERTEX
  5
1514
  8
3
 10
63.95000000000005
 20
39.62755253910001
 30
0.0
  0
SEQEND
  5
151E
  8
3
  0
LINE
  5
E34
  8
3
 10
73.69396604200006
 20
-21.9191371245
 30
0.0
 11
69.90817868550005
 21
-11.37299809519999
 31
0.0
  0
LINE
  5
E35
  8
3
 10
57.9918213144
 20
-11.37299809519999
 30
0.0
 11
54.20603395789999
 21
-21.9191371245
 31
0.0
  0
LINE
  5
E36
  8
3
 10
73.95000000000005
 20
-33.70595549730001
 30
0.0
 11
73.95000000000005
 21
-23.36435551519997
 31
0.0
  0
LINE
  5
E37
  8
3
 10
53.95000000000005
 20
-23.36435551519997
 30
0.0
 11
53.95000000000005
 21
-33.70595549730001
 31
0.0
  0
LINE
  5
E38
  8
3
 10
58.5102223486
 20
-39.09958395939998
 30
0.0
 11
59.05420011379999
 21
-39.3262655563
 31
0.0
  0
LINE
  5
E39
  8
3
 10
68.84579988619998
 20
-39.3262655563
 30
0.0
 11
69.38977765130005
 21
-39.09958395939998
 31
0.0
  0
LINE
  5
E3A
  8
3
 10
54.20603395789999
 20
21.91913712440001
 30
0.0
 11
57.9918213144
 21
11.3729980951
 31
0.0
  0
LINE
  5
E3B
  8
3
 10
69.90817868550005
 20
11.3729980951
 30
0.0
 11
73.69396604200006
 21
21.91913712440001
 31
0.0
  0
LINE
  5
E3C
  8
3
 10
53.95000000000005
 20
33.70595549719999
 30
0.0
 11
53.95000000000005
 21
23.36435551509999
 31
0.0
  0
LINE
  5
E3D
  8
3
 10
73.95000000000005
 20
23.36435551509999
 30
0.0
 11
73.95000000000005
 21
33.70595549719999
 31
0.0
  0
LINE
  5
E3E
  8
3
 10
69.38977765130005
 20
39.09958395930002
 30
0.0
 11
68.84579988619998
 21
39.32626555620001
 31
0.0
  0
LINE
  5
E3F
  8
3
 10
59.05420011379999
 20
39.32626555620001
 30
0.0
 11
58.5102223486
 21
39.09958395930002
 31
0.0
  0
LINE
  5
E42
  8
3
 10
31.0
 20
-23.5
 30
0.0
 11
38.0
 21
-23.5
 31
0.0
  0
LINE
  5
E43
  8
3
 10
38.0
 20
23.5
 30
0.0
 11
31.0
 21
23.5
 31
0.0
  0
LINE
  5
E44
  8
3
 10
60.99999999990007
 20
23.0
 30
0.0
 11
38.0
 21
23.0
 31
0.0
  0
LINE
  5
E45
  8
3
 10
38.0
 20
-23.0
 30
0.0
 11
60.99999999990007
 21
-23.0
 31
0.0
  0
LINE
  5
E46
  8
3
 10
31.0
 20
23.0
 30
0.0
 11
26.66875421220004
 21
11.10000000000002
 31
0.0
  0
LINE
  5
E47
  8
3
 10
26.66875421220004
 20
-11.09999999999999
 30
0.0
 11
31.0
 21
-23.0
 31
0.0
  0
LINE
  5
E4C
  8
3
 10
0.3000000000000824
 20
-11.09999999999999
 30
0.0
 11
26.66875421220004
 21
-11.09999999999999
 31
0.0
  0
LINE
  5
E4D
  8
3
 10
26.66875421220004
 20
11.10000000000002
 30
0.0
 11
0.3000000000000682
 21
11.10000000000002
 31
0.0
  0
LINE
  5
E4E
  8
3
 10
83.0
 20
32.65000000000001
 30
0.0
 11
82.49999999990007
 21
32.15000000000001
 31
0.0
  0
LINE
  5
E4F
  8
3
 10
82.49999999990007
 20
-32.14999999999998
 30
0.0
 11
83.0
 21
-32.65000000009999
 31
0.0
  0
LINE
  5
E54
  8
3
 10
82.49999999990007
 20
32.15000000000001
 30
0.0
 11
60.99999999990007
 21
32.15000000000001
 31
0.0
  0
LINE
  5
E55
  8
3
 10
60.99999999990007
 20
-32.14999999999998
 30
0.0
 11
82.49999999990007
 21
-32.14999999999998
 31
0.0
  0
POLYLINE
  5
E59
  8
3
 66
     1
 10
0.0
 20
0.0
 30
0.0
  0
VERTEX
  5
1515
  8
3
 10
56.53413711630003
 20
-21.26786532879999
 30
0.0
  0
VERTEX
  5
1516
  8
3
 10
57.05969662910002
 20
-21.4680049904
 30
0.0
  0
VERTEX
  5
1517
  8
3
 10
57.57774669270009
 20
-21.6662588257
 30
0.0
  0
SEQEND
  5
151D
  8
3
  0
LINE
  5
E5A
  8
3
 10
70.3092538034
 20
-21.66904745549999
 30
0.0
 11
70.43995718029998
 21
-21.6190878969
 31
0.0
  0
LINE
  5
E5B
  8
3
 10
70.45450514139998
 20
21.61529591830001
 30
0.0
 11
70.32017760170004
 21
21.66669178430001
 31
0.0
  0
POLYLINE
  5
E5C
  8
3
 66
     1
 10
0.0
 20
0.0
 30
0.0
  0
VERTEX
  5
1518
  8
3
 10
57.59080258260008
 20
21.67093171510001
 30
0.0
  0
VERTEX
  5
1519
  8
3
 10
57.09480047800002
 20
21.48111983199999
 30
0.0
  0
VERTEX
  5
151A
  8
3
 10
56.54109642150001
 20
21.27038831900001
 30
0.0
  0
SEQEND
  5
151C
  8
3
  0
LINE
  5
E5D
  8
3
 10
55.20000000000005
 20
30.83328883550001
 30
0.0
 11
55.20000000000005
 21
18.62391303330003
 31
0.0
  0
LINE
  5
E5E
  8
3
 10
72.70000000000005
 20
18.6360957567
 30
0.0
 11
72.70000000000005
 21
30.83328883550001
 31
0.0
  0
LINE
  5
E5F
  8
3
 10
72.70000000000005
 20
-30.8332888356
 30
0.0
 11
72.70000000000005
 21
-18.63588942640001
 31
0.0
  0
LINE
  5
E60
  8
3
 10
55.20000000000005
 20
-18.62591585269999
 30
0.0
 11
55.20000000000005
 21
-30.8332888356
 31
0.0
  0
LINE
  5
E61
  8
3
 10
69.9337554164
 20
-26.62389752429999
 30
0.0
 11
68.70980544489998
 21
-26.1138639312
 31
0.0
  0
LINE
  5
E62
  8
3
 10
59.19019455509999
 20
-26.1138639312
 30
0.0
 11
57.96624458350004
 21
-26.62389752429999
 31
0.0
  0
LINE
  5
E63
  8
3
 10
57.96624458350004
 20
26.6238975242
 30
0.0
 11
59.19019455509999
 21
26.11386393110001
 31
0.0
  0
LINE
  5
E64
  8
3
 10
68.70980544489998
 20
26.11386393110001
 30
0.0
 11
69.9337554164
 21
26.6238975242
 31
0.0
  0
LINE
  5
E65
  8
3
 10
52.95000000000005
 20
34.47199994030001
 30
0.0
 11
52.95000000000005
 21
32.55688883250002
 31
0.0
  0
LINE
  5
E66
  8
3
 10
74.95000000000005
 20
32.55688883250002
 30
0.0
 11
74.95000000000005
 21
34.47199994030001
 31
0.0
  0
LINE
  5
E67
  8
3
 10
74.95000000000005
 20
-34.4719999404
 30
0.0
 11
74.95000000000005
 21
-32.55688883260001
 31
0.0
  0
LINE
  5
E68
  8
3
 10
52.95000000000005
 20
-32.55688883260001
 30
0.0
 11
52.95000000000005
 21
-34.4719999404
 31
0.0
  0
LINE
  5
E69
  8
1
 10
33.05
 20
34.92499999999998
 30
0.0
 11
33.05
 21
-34.92500000000001
 31
0.0
  0
ARC
  5
11E4
  8
1
 10
33.05
 20
36.92499999999998
 30
0.0
 40
2.000000000000007
 50
270.0
 51
0.0
  0
DIMENSION
  5
11E6
  8
SK2
  2
*D6
 10
98.50603834206726
 20
-45.0
 30
0.0
 11
96.63103834206726
 21
0.0
 31
0.0
 70
    32
  3
ISO-25
 13
82.5
 23
45.0
 33
0.0
 14
82.5
 24
-45.0
 34
0.0
 50
90.0
1001
ACAD
1000
DSTYLE
1002
{
1070
   287
1070
     5
1070
   271
1070
     3
1070
   272
1070
     3
1070
   279
1070
     2
1002
}
  0
ARC
  5
11F5
  8
NOCUT
 10
33.05000000000001
 20
36.92499999999998
 30
0.0
 40
2.000000000000007
 50
270.0
 51
0.0
  0
LINE
  5
11F7
  8
NOCUT
 10
40.05000000000001
 20
45.0
 30
0.0
 11
35.05000000000001
 21
40.0
 31
0.0
  0
LINE
  5
11F8
  8
NOCUT
 10
82.5
 20
45.0
 30
0.0
 11
40.05000000000001
 21
45.0
 31
0.0
  0
LINE
  5
11F9
  8
NOCUT
 10
83.0
 20
44.5
 30
0.0
 11
82.5
 21
45.0
 31
0.0
  0
LINE
  5
11FA
  8
NOCUT
 10
83.0
 20
0.0
 30
0.0
 11
83.0
 21
44.5
 31
0.0
  0
LINE
  5
11FD
  8
NOCUT
 10
35.05000000000001
 20
40.0
 30
0.0
 11
35.05000000000002
 21
36.92499999999998
 31
0.0
  0
ENDSEC
  0
EOF
