  0
SECTION
  2
HEADER
  9
$ACADVER
  1
AC1009
  9
$DWGCODEPAGE
  3
ansi_1251
  9
$INSBASE
 10
0.0
 20
0.0
 30
0.0
  9
$EXTMIN
 10
-68.25000000000001
 20
-30.5409271246
 30
0.0
  9
$EXTMAX
 10
88.90000000000003
 20
30.50275418977125
 30
0.0
  9
$LIMMIN
 10
0.0
 20
0.0
  9
$LIMMAX
 10
420.0
 20
297.0
  9
$ORTHOMODE
 70
     1
  9
$REGENMODE
 70
     1
  9
$FILLMODE
 70
     1
  9
$QTEXTMODE
 70
     0
  9
$MIRRTEXT
 70
     0
  9
$DRAGMODE
 70
     2
  9
$LTSCALE
 40
1.0
  9
$OSMODE
 70
   279
  9
$ATTMODE
 70
     1
  9
$TEXTSIZE
 40
2.5
  9
$TRACEWID
 40
1.0
  9
$TEXTSTYLE
  7
STANDARD
  9
$CLAYER
  8
0
  9
$CELTYPE
  6
BYLAYER
  9
$CECOLOR
 62
   256
  9
$DIMSCALE
 40
1.0
  9
$DIMASZ
 40
2.5
  9
$DIMEXO
 40
0.625
  9
$DIMDLI
 40
3.75
  9
$DIMRND
 40
0.0
  9
$DIMDLE
 40
0.0
  9
$DIMEXE
 40
1.25
  9
$DIMTP
 40
0.0
  9
$DIMTM
 40
0.0
  9
$DIMTXT
 40
2.5
  9
$DIMCEN
 40
2.5
  9
$DIMTSZ
 40
0.0
  9
$DIMTOL
 70
     0
  9
$DIMLIM
 70
     0
  9
$DIMTIH
 70
     0
  9
$DIMTOH
 70
     0
  9
$DIMSE1
 70
     0
  9
$DIMSE2
 70
     0
  9
$DIMTAD
 70
     1
  9
$DIMZIN
 70
     8
  9
$DIMBLK
  1

  9
$DIMASO
 70
     1
  9
$DIMSHO
 70
     1
  9
$DIMPOST
  1

  9
$DIMAPOST
  1

  9
$DIMALT
 70
     0
  9
$DIMALTD
 70
     3
  9
$DIMALTF
 40
0.03937007874016
  9
$DIMLFAC
 40
1.0
  9
$DIMTOFL
 70
     1
  9
$DIMTVP
 40
0.0
  9
$DIMTIX
 70
     0
  9
$DIMSOXD
 70
     0
  9
$DIMSAH
 70
     0
  9
$DIMBLK1
  1

  9
$DIMBLK2
  1

  9
$DIMSTYLE
  2
ISO-25
  9
$DIMCLRD
 70
     0
  9
$DIMCLRE
 70
     0
  9
$DIMCLRT
 70
     0
  9
$DIMTFAC
 40
1.0
  9
$DIMGAP
 40
0.625
  9
$LUNITS
 70
     2
  9
$LUPREC
 70
     3
  9
$SKETCHINC
 40
1.0
  9
$FILLETRAD
 40
10.0
  9
$AUNITS
 70
     0
  9
$AUPREC
 70
     0
  9
$MENU
  1
.
  9
$ELEVATION
 40
0.0
  9
$PELEVATION
 40
0.0
  9
$THICKNESS
 40
0.0
  9
$LIMCHECK
 70
     0
  9
$CHAMFERA
 40
10.0
  9
$CHAMFERB
 40
10.0
  9
$SKPOLY
 70
     0
  9
$TDCREATE
 40
2455022.429026158
  9
$TDUPDATE
 40
2458659.538982558
  9
$TDINDWG
 40
0.1506771181
  9
$TDUSRTIMER
 40
2458690.65512331
  9
$USRTIMER
 70
     1
  9
$ANGBASE
 50
0.0
  9
$ANGDIR
 70
     0
  9
$PDMODE
 70
     0
  9
$PDSIZE
 40
0.0
  9
$PLINEWID
 40
0.0
  9
$COORDS
 70
     1
  9
$SPLFRAME
 70
     0
  9
$SPLINETYPE
 70
     6
  9
$SPLINESEGS
 70
     8
  9
$ATTDIA
 70
     0
  9
$ATTREQ
 70
     1
  9
$HANDLING
 70
     1
  9
$HANDSEED
  5
CC0
  9
$SURFTAB1
 70
     6
  9
$SURFTAB2
 70
     6
  9
$SURFTYPE
 70
     6
  9
$SURFU
 70
     6
  9
$SURFV
 70
     6
  9
$UCSNAME
  2

  9
$UCSORG
 10
0.0
 20
0.0
 30
0.0
  9
$UCSXDIR
 10
1.0
 20
0.0
 30
0.0
  9
$UCSYDIR
 10
0.0
 20
1.0
 30
0.0
  9
$PUCSNAME
  2

  9
$PUCSORG
 10
0.0
 20
0.0
 30
0.0
  9
$PUCSXDIR
 10
1.0
 20
0.0
 30
0.0
  9
$PUCSYDIR
 10
0.0
 20
1.0
 30
0.0
  9
$USERI1
 70
     0
  9
$USERI2
 70
     0
  9
$USERI3
 70
     0
  9
$USERI4
 70
     0
  9
$USERI5
 70
     0
  9
$USERR1
 40
0.0
  9
$USERR2
 40
0.0
  9
$USERR3
 40
0.0
  9
$USERR4
 40
0.0
  9
$USERR5
 40
0.0
  9
$WORLDVIEW
 70
     1
  9
$SHADEDGE
 70
     3
  9
$SHADEDIF
 70
    70
  9
$TILEMODE
 70
     1
  9
$MAXACTVP
 70
    64
  9
$PLIMCHECK
 70
     0
  9
$PEXTMIN
 10
1.000000000000000E+20
 20
1.000000000000000E+20
 30
1.000000000000000E+20
  9
$PEXTMAX
 10
-1.000000000000000E+20
 20
-1.000000000000000E+20
 30
-1.000000000000000E+20
  9
$PLIMMIN
 10
0.0
 20
0.0
  9
$PLIMMAX
 10
420.0
 20
297.0
  9
$UNITMODE
 70
     0
  9
$VISRETAIN
 70
     1
  9
$PLINEGEN
 70
     0
  9
$PSLTSCALE
 70
     1
  0
ENDSEC
  0
SECTION
  2
TABLES
  0
TABLE
  2
VPORT
 70
     1
  0
VPORT
  2
*ACTIVE
 70
     0
 10
0.0
 20
0.0
 11
1.0
 21
1.0
 12
26.3096379931286
 22
-6.617267284363621
 13
0.0
 23
0.0
 14
10.0
 24
10.0
 15
10.0
 25
10.0
 16
0.0
 26
0.0
 36
1.0
 17
0.0
 27
0.0
 37
0.0
 40
195.7682434948043
 41
1.332880434782609
 42
50.0
 43
0.0
 44
0.0
 50
0.0
 51
0.0
 71
    16
 72
  1000
 73
     1
 74
     3
 75
     0
 76
     0
 77
     0
 78
     0
  0
ENDTAB
  0
TABLE
  2
LTYPE
 70
     6
  0
LTYPE
  2
CONTINUOUS
 70
     0
  3
Solid line
 72
    65
 73
     0
 40
0.0
  0
LTYPE
  2
CENTER
 70
     0
  3
 Center _____  _  _____  _  _____  _  _____  _ 
 72
    65
 73
     4
 40
50.8
 49
31.75
 49
-6.35
 49
6.35
 49
-6.35
  0
LTYPE
  2
DASHED
 70
     0
  3
Dashed __  __  __  __  __  __  __  __  __  __  
 72
    65
 73
     2
 40
19.05
 49
12.7
 49
-6.35
  0
LTYPE
  2
HIDDEN
 70
     0
  3
Hidden __ __ __ __ __ __ __ __ __ __ __ __ __ __
 72
    65
 73
     2
 40
1.905
 49
1.27
 49
-0.635
  0
LTYPE
  2
CENTERX2
 70
     0
  3
Center (2x) ________  __  ________  __  _____
 72
    65
 73
     4
 40
20.32
 49
12.7
 49
-2.54
 49
2.54
 49
-2.54
  0
LTYPE
  2
PHANTOM
 70
     0
  3
Phantom ______  __  __  ______  __  __  ______
 72
    65
 73
     6
 40
12.7
 49
6.35
 49
-1.27
 49
1.27
 49
-1.27
 49
1.27
 49
-1.27
  0
ENDTAB
  0
TABLE
  2
LAYER
 70
    26
  0
LAYER
  2
0
 70
     0
 62
     7
  6
CONTINUOUS
  0
LAYER
  2
1
 70
     0
 62
     4
  6
CONTINUOUS
  0
LAYER
  2
2
 70
     0
 62
     7
  6
CONTINUOUS
  0
LAYER
  2
3
 70
     0
 62
     1
  6
DASHED
  0
LAYER
  2
4
 70
     0
 62
     2
  6
CENTER
  0
LAYER
  2
6
 70
     0
 62
     5
  6
CONTINUOUS
  0
LAYER
  2
7
 70
     0
 62
     5
  6
CONTINUOUS
  0
LAYER
  2
11
 70
     0
 62
     4
  6
CONTINUOUS
  0
LAYER
  2
SK1
 70
     0
 62
     4
  6
CONTINUOUS
  0
LAYER
  2
SK2
 70
     0
 62
     7
  6
CONTINUOUS
  0
LAYER
  2
SK3
 70
     0
 62
     1
  6
DASHED
  0
LAYER
  2
SK4
 70
     0
 62
     2
  6
CENTER
  0
LAYER
  2
SK6
 70
     0
 62
     5
  6
CONTINUOUS
  0
LAYER
  2
SK7
 70
     0
 62
     5
  6
CONTINUOUS
  0
LAYER
  2
SK11
 70
     0
 62
     4
  6
CONTINUOUS
  0
LAYER
  2
CUT
 70
     0
 62
     1
  6
CONTINUOUS
  0
LAYER
  2
NOCUT
 70
     0
 62
    -7
  6
CONTINUOUS
  0
LAYER
  2
SKVIEW1
 70
     0
 62
     4
  6
CONTINUOUS
  0
LAYER
  2
SKVIEW2
 70
     0
 62
     7
  6
CONTINUOUS
  0
LAYER
  2
SKVIEW3
 70
     0
 62
     1
  6
DASHED
  0
LAYER
  2
SKVIEW4
 70
     0
 62
     2
  6
CENTER
  0
LAYER
  2
SKVIEW6
 70
     0
 62
     5
  6
CONTINUOUS
  0
LAYER
  2
SKVIEW7
 70
     0
 62
     5
  6
CONTINUOUS
  0
LAYER
  2
SKVIEW11
 70
     0
 62
     4
  6
CONTINUOUS
  0
LAYER
  2
INFTOTAL
 70
     0
 62
     9
  6
CONTINUOUS
  0
LAYER
  2
DEFPOINTS
 70
     0
 62
     7
  6
CONTINUOUS
  0
ENDTAB
  0
TABLE
  2
STYLE
 70
     1
  0
STYLE
  2
STANDARD
 70
     0
 40
0.0
 41
1.0
 50
0.0
 71
     0
 42
2.5
  3
txt
  4

  0
ENDTAB
  0
TABLE
  2
VIEW
 70
     0
  0
ENDTAB
  0
TABLE
  2
UCS
 70
     0
  0
ENDTAB
  0
TABLE
  2
APPID
 70
     2
  0
APPID
  2
ACAD
 70
     0
  0
APPID
  2
ACAECLAYERSTANDARD
 70
     0
  0
ENDTAB
  0
TABLE
  2
DIMSTYLE
 70
     1
  0
DIMSTYLE
  2
ISO-25
 70
     0
  3

  4

  5

  6

  7

 40
1.0
 41
2.5
 42
0.625
 43
3.75
 44
1.25
 45
0.0
 46
0.0
 47
0.0
 48
0.0
140
2.5
141
2.5
142
0.0
143
0.03937007874016
144
1.0
145
0.0
146
1.0
147
0.625
 71
     0
 72
     0
 73
     0
 74
     0
 75
     0
 76
     0
 77
     1
 78
     8
170
     0
171
     3
172
     1
173
     0
174
     0
175
     0
176
     0
177
     0
178
     0
  0
ENDTAB
  0
ENDSEC
  0
SECTION
  2
BLOCKS
  0
BLOCK
  8
0
  2
$MODEL_SPACE
 70
     0
 10
0.0
 20
0.0
 30
0.0
  3
$MODEL_SPACE
  1

  0
ENDBLK
  5
21
  8
0
  0
BLOCK
 67
     1
  8
0
  2
$PAPER_SPACE
 70
     0
 10
0.0
 20
0.0
 30
0.0
  3
$PAPER_SPACE
  1

  0
ENDBLK
  5
1D
 67
     1
  8
0
  0
BLOCK
  8
0
  2
*U2
 70
     1
 10
0.0
 20
0.0
 30
0.0
  3
*U2
  1

  0
TEXT
  5
77E
  8
SK6
 10
-50.0
 20
78.25
 30
0.0
 40
3.5
  1
BIG DAISHOWA
 41
0.85
  0
TEXT
  5
781
  8
SK6
 10
-50.0
 20
73.0
 30
0.0
 40
3.5
  1
11.368.664
 41
0.85
  0
ENDBLK
  5
782
  8
0
  0
BLOCK
  8
0
  2
_FILLED
 70
     0
 10
0.0
 20
0.0
 30
0.0
  3
_FILLED
  1

  0
SOLID
  5
789
  8
0
  6
BYBLOCK
 62
     0
 10
0.0
 20
0.0
 30
0.0
 11
-1.0
 21
0.2142857143
 31
0.0
 12
-1.0
 22
-0.2142857143
 32
0.0
 13
-1.0
 23
-0.2142857143
 33
0.0
  0
ENDBLK
  5
78A
  8
0
  6
BYBLOCK
 62
     0
  0
BLOCK
  8
0
  2
*U5
 70
     1
 10
0.0
 20
0.0
 30
0.0
  3
*U5
  1

  0
TEXT
  5
790
  8
SK6
 10
-85.96178542556666
 20
-67.06748653279999
 30
0.0
 40
3.5
  1
BCV50
 41
0.85
  0
ENDBLK
  5
791
  8
0
  0
BLOCK
  8
0
  2
*D6
 70
     1
 10
0.0
 20
0.0
 30
0.0
  3
*D6
  1

  0
LINE
  5
7EA
  8
SK2
 62
     0
 10
35.125
 20
34.92499999999998
 30
0.0
 11
154.2192759862572
 21
34.92499999999998
 31
0.0
  0
LINE
  5
7EB
  8
SK2
 62
     0
 10
35.125
 20
-34.92500000000001
 30
0.0
 11
154.2192759862572
 21
-34.92500000000002
 31
0.0
  0
LINE
  5
7EC
  8
SK2
 62
     0
 10
152.9692759862572
 20
32.42499999999998
 30
0.0
 11
152.9692759862572
 21
-32.42500000000002
 31
0.0
  0
SOLID
  5
7ED
  8
SK2
 62
     0
 10
153.3859426529239
 20
32.42499999999998
 30
0.0
 11
152.5526093195905
 21
32.42499999999998
 31
0.0
 12
152.9692759862572
 22
34.92499999999998
 32
0.0
 13
152.9692759862572
 23
34.92499999999998
 33
0.0
  0
SOLID
  5
7EE
  8
SK2
 62
     0
 10
152.5526093195905
 20
-32.42500000000002
 30
0.0
 11
153.3859426529239
 21
-32.42500000000002
 31
0.0
 12
152.9692759862572
 22
-34.92500000000002
 32
0.0
 13
152.9692759862572
 23
-34.92500000000002
 33
0.0
  0
TEXT
  5
7EF
  8
SK2
  6
CONTINUOUS
 62
     0
 10
152.3442759862572
 20
-5.000000000000028
 30
0.0
 40
2.5
  1
69.85
 50
90.0
  0
POINT
  5
7F0
  8
DEFPOINTS
 62
     0
 10
34.5
 20
34.92499999999998
 30
0.0
  0
POINT
  5
7F1
  8
DEFPOINTS
 62
     0
 10
34.5
 20
-34.92500000000001
 30
0.0
  0
POINT
  5
7F2
  8
DEFPOINTS
 62
     0
 10
152.9692759862572
 20
-34.92500000000002
 30
0.0
  0
ENDBLK
  5
7F4
  8
0
  0
BLOCK
  8
0
  2
*D7
 70
     1
 10
0.0
 20
0.0
 30
0.0
  3
*D7
  1

  0
LINE
  5
7F9
  8
SK2
 62
     0
 10
0.0
 20
-35.55000000000001
 30
0.0
 11
0.0
 21
-74.40665109041375
 31
0.0
  0
LINE
  5
7FA
  8
SK2
 62
     0
 10
35.05
 20
-35.05000000000001
 30
0.0
 11
35.05
 21
-74.40665109041375
 31
0.0
  0
LINE
  5
7FB
  8
SK2
 62
     0
 10
2.5
 20
-73.15665109041375
 30
0.0
 11
32.55
 21
-73.15665109041375
 31
0.0
  0
SOLID
  5
7FC
  8
SK2
 62
     0
 10
2.5
 20
-72.73998442374707
 30
0.0
 11
2.5
 21
-73.57331775708042
 31
0.0
 12
0.0
 22
-73.15665109041375
 32
0.0
 13
0.0
 23
-73.15665109041375
 33
0.0
  0
SOLID
  5
7FD
  8
SK2
 62
     0
 10
32.55
 20
-73.57331775708042
 30
0.0
 11
32.55
 21
-72.73998442374707
 31
0.0
 12
35.05
 22
-73.15665109041375
 32
0.0
 13
35.05
 23
-73.15665109041375
 33
0.0
  0
TEXT
  5
7FE
  8
SK2
  6
CONTINUOUS
 62
     0
 10
12.73333333333333
 20
-72.53165109041375
 30
0.0
 40
2.5
  1
35.05
  0
POINT
  5
7FF
  8
DEFPOINTS
 62
     0
 10
0.0
 20
-34.92500000000001
 30
0.0
  0
POINT
  5
800
  8
DEFPOINTS
 62
     0
 10
35.05
 20
-34.42500000000001
 30
0.0
  0
POINT
  5
801
  8
DEFPOINTS
 62
     0
 10
35.05
 20
-73.15665109041375
 30
0.0
  0
ENDBLK
  5
803
  8
0
  0
BLOCK
  8
0
  2
*D10
 70
     1
 10
0.0
 20
0.0
 30
0.0
  3
*D10
  1

  0
LINE
  5
C32
  8
2
 62
     0
 10
0.0
 20
35.55000000885153
 30
0.0
 11
0.0
 21
59.29711652168649
 31
0.0
  0
LINE
  5
C33
  8
2
 62
     0
 10
129.0
 20
31.62500000885152
 30
0.0
 11
129.0
 21
59.29711652168649
 31
0.0
  0
LINE
  5
C34
  8
2
 62
     0
 10
2.5
 20
58.04711652168649
 30
0.0
 11
126.5
 21
58.04711652168649
 31
0.0
  0
SOLID
  5
C35
  8
2
 62
     0
 10
2.5
 20
58.46378318835315
 30
0.0
 11
2.5
 21
57.63044985501983
 31
0.0
 12
0.0
 22
58.04711652168649
 32
0.0
 13
0.0
 23
58.04711652168649
 33
0.0
  0
SOLID
  5
C36
  8
2
 62
     0
 10
126.5
 20
57.63044985501983
 30
0.0
 11
126.5
 21
58.46378318835315
 31
0.0
 12
129.0
 22
58.04711652168649
 32
0.0
 13
129.0
 23
58.04711652168649
 33
0.0
  0
TEXT
  5
C37
  8
2
  6
CONTINUOUS
 62
     0
 10
61.58333333333334
 20
58.67211652168649
 30
0.0
 40
2.5
  1
129
  0
POINT
  5
C38
  8
DEFPOINTS
 62
     0
 10
0.0
 20
34.92500000885153
 30
0.0
  0
POINT
  5
C39
  8
DEFPOINTS
 62
     0
 10
129.0
 20
31.00000000885152
 30
0.0
  0
POINT
  5
C3A
  8
DEFPOINTS
 62
     0
 10
129.0
 20
58.04711652168649
 30
0.0
  0
ENDBLK
  5
C3B
  8
0
  0
BLOCK
  8
0
  2
*D11
 70
     1
 10
0.0
 20
0.0
 30
0.0
  3
*D11
  1

  0
LINE
  5
C72
  8
SK2
 62
     0
 10
128.875
 20
31.75000000885152
 30
0.0
 11
147.8023624382148
 21
31.75000000885152
 31
0.0
  0
LINE
  5
C73
  8
SK2
 62
     0
 10
128.875
 20
-31.74999999114847
 30
0.0
 11
147.8023624382148
 21
-31.74999999114847
 31
0.0
  0
LINE
  5
C74
  8
SK2
 62
     0
 10
146.5523624382148
 20
29.25000000885152
 30
0.0
 11
146.5523624382148
 21
-29.24999999114847
 31
0.0
  0
SOLID
  5
C75
  8
SK2
 62
     0
 10
146.9690291048815
 20
29.25000000885152
 30
0.0
 11
146.1356957715481
 21
29.25000000885152
 31
0.0
 12
146.5523624382148
 22
31.75000000885152
 32
0.0
 13
146.5523624382148
 23
31.75000000885152
 33
0.0
  0
SOLID
  5
C76
  8
SK2
 62
     0
 10
146.1356957715481
 20
-29.24999999114847
 30
0.0
 11
146.9690291048815
 21
-29.24999999114847
 31
0.0
 12
146.5523624382148
 22
-31.74999999114847
 32
0.0
 13
146.5523624382148
 23
-31.74999999114847
 33
0.0
  0
TEXT
  5
C77
  8
SK2
  6
CONTINUOUS
 62
     0
 10
145.9273624382148
 20
-3.749999991148485
 30
0.0
 40
2.5
  1
63.5
 50
90.0
  0
POINT
  5
C78
  8
DEFPOINTS
 62
     0
 10
128.25
 20
31.75000000885152
 30
0.0
  0
POINT
  5
C79
  8
DEFPOINTS
 62
     0
 10
128.25
 20
-31.74999999114847
 30
0.0
  0
POINT
  5
C7A
  8
DEFPOINTS
 62
     0
 10
146.5523624382148
 20
-31.74999999114847
 30
0.0
  0
ENDBLK
  5
C7B
  8
0
  0
ENDSEC
  0
SECTION
  2
ENTITIES
  0
LINE
  5
685
  8
SK1
 10
0.0
 20
34.92499999999998
 30
0.0
 11
-99.6319088344
 21
20.3952133832
 31
0.0
  0
LINE
  5
686
  8
SK1
 10
-99.6319088344
 20
-20.3952133832
 30
0.0
 11
0.0
 21
-34.92500000000001
 31
0.0
  0
ARC
  5
68D
  8
SK1
 10
-99.3
 20
18.1192879614
 30
0.0
 40
2.299999999999995
 50
98.29722000000018
 51
180.0
  0
ARC
  5
68E
  8
SK1
 10
-99.3
 20
-18.1192879614
 30
0.0
 40
2.299999999999995
 50
180.0
 51
261.7027799999998
  0
LINE
  5
6F6
  8
SK1
 10
-101.6
 20
0.0
 30
0.0
 11
-101.6
 21
-18.1192879614
 31
0.0
  0
LINE
  5
6F7
  8
SK1
 10
-101.6
 20
18.1192879614
 30
0.0
 11
-101.6
 21
0.0
 31
0.0
  0
LINE
  5
71A
  8
SK3
 10
-99.5215390309
 20
-13.10000000000002
 30
0.0
 11
-99.5215390309
 21
13.09999999999999
 31
0.0
  0
LINE
  5
71B
  8
SK3
 10
-95.25
 20
-13.10000000000002
 30
0.0
 11
-95.25
 21
13.09999999999999
 31
0.0
  0
LINE
  5
72A
  8
SK3
 10
-101.6
 20
-14.30000000000001
 30
0.0
 11
-99.5215390309
 21
-13.10000000000002
 31
0.0
  0
LINE
  5
72B
  8
SK3
 10
-99.5215390309
 20
13.09999999999999
 30
0.0
 11
-101.6
 21
14.3
 31
0.0
  0
LINE
  5
72C
  8
SK3
 10
-99.5215390309
 20
-13.10000000000002
 30
0.0
 11
-95.25
 21
-13.10000000000002
 31
0.0
  0
LINE
  5
72D
  8
SK3
 10
-95.25
 20
13.09999999999999
 30
0.0
 11
-99.5215390309
 21
13.09999999999999
 31
0.0
  0
LINE
  5
72E
  8
SK3
 10
-95.25
 20
-11.09980000000002
 30
0.0
 11
0.0
 21
-11.09980000000002
 31
0.0
  0
LINE
  5
72F
  8
SK3
 10
0.0
 20
11.09979999999999
 30
0.0
 11
-95.25
 21
11.09979999999999
 31
0.0
  0
LINE
  5
760
  8
SK3
 10
-57.1
 20
12.69999999999999
 30
0.0
 11
-95.25
 21
12.69999999999999
 31
0.0
  0
LINE
  5
761
  8
SK3
 10
-95.25
 20
-12.69999999999999
 30
0.0
 11
-57.1
 21
-12.69999999999999
 31
0.0
  0
LINE
  5
774
  8
SK3
 10
-57.1
 20
12.69999999999999
 30
0.0
 11
-57.1
 21
-12.69999999999999
 31
0.0
  0
LINE
  5
777
  8
SK4
 10
0.0
 20
0.0
 30
0.0
 11
-101.6
 21
0.0
 31
0.0
  0
INSERT
  5
77B
  8
SK6
  2
*U2
 10
-44.10380399683656
 20
-23.39313954296377
 30
0.0
  0
INSERT
  5
78D
  8
SK6
  2
*U5
 10
17.55665382414153
 20
-2.560320993650734
 30
0.0
  0
LINE
  5
793
  8
0
 10
3.0
 20
3.0
 30
0.0
 11
-3.0
 21
-3.0
 31
0.0
  0
LINE
  5
794
  8
0
 10
-3.0
 20
3.0
 30
0.0
 11
3.0
 21
-3.0
 31
0.0
  0
CIRCLE
  5
795
  8
0
 10
0.0
 20
0.0
 30
0.0
 40
2.5
  0
LINE
  5
799
  8
NOCUT
 10
0.7999999999999972
 20
34.62500000000001
 30
0.0
 11
0.2999999999999972
 21
34.62500000000001
 31
0.0
  0
LINE
  5
79B
  8
NOCUT
 10
35.05
 20
34.42499999999999
 30
0.0
 11
34.55
 21
34.92499999999999
 31
0.0
  0
LINE
  5
79C
  8
NOCUT
 10
0.2999999999999972
 20
34.62500000000001
 30
0.0
 11
0.0
 21
34.92499999999999
 31
0.0
  0
LINE
  5
79D
  8
NOCUT
 10
34.55
 20
34.92499999999999
 30
0.0
 11
20.05
 21
34.92499999999999
 31
0.0
  0
ARC
  5
79E
  8
NOCUT
 10
0.7999999999999972
 20
35.62500000000001
 30
0.0
 40
1.0
 50
270.0
 51
314.4270040008
  0
ARC
  5
79F
  8
NOCUT
 10
20.05
 20
35.92499999999999
 30
0.0
 40
1.0
 50
180.0
 51
270.0
  0
LINE
  5
7A0
  8
NOCUT
 10
12.55499999999999
 20
45.64499999999999
 30
0.0
 11
9.704999999999998
 21
45.64499999999999
 31
0.0
  0
ARC
  5
7A1
  8
NOCUT
 10
12.55499999999999
 20
46.14499999999999
 30
0.0
 40
0.5
 50
270.0
 51
0.0
  0
ARC
  5
7A2
  8
NOCUT
 10
9.704999999999998
 20
46.14499999999999
 30
0.0
 40
0.5
 50
180.0
 51
270.0
  0
ARC
  5
7A3
  8
NOCUT
 10
2.299999999999997
 20
48.4125
 30
0.0
 40
0.7999999999999972
 50
90.0
 51
180.0
  0
ARC
  5
7A4
  8
NOCUT
 10
18.24999999999999
 20
48.4125
 30
0.0
 40
0.799999999999983
 50
0.0
 51
90.0
  0
LINE
  5
7A5
  8
NOCUT
 10
9.204999999999998
 20
46.43919780459999
 30
0.0
 11
7.603833230999996
 21
49.21250000000001
 31
0.0
  0
LINE
  5
7A6
  8
NOCUT
 10
14.65616676910001
 20
49.21250000000001
 30
0.0
 11
13.05499999999999
 21
46.43919780459999
 31
0.0
  0
LINE
  5
7A7
  8
NOCUT
 10
18.24999999999999
 20
49.21250000000001
 30
0.0
 11
14.65616676910001
 21
49.21250000000001
 31
0.0
  0
LINE
  5
7A8
  8
NOCUT
 10
7.603833230999996
 20
49.21250000000001
 30
0.0
 11
2.299999999999997
 21
49.21250000000001
 31
0.0
  0
LINE
  5
7AC
  8
NOCUT
 10
1.5
 20
48.4125
 30
0.0
 11
1.499999999999929
 21
34.91085715714565
 31
0.0
  0
LINE
  5
7AD
  8
NOCUT
 10
19.04999999999997
 20
48.4125
 30
0.0
 11
19.05
 21
35.92499999999999
 31
0.0
  0
LINE
  5
7AE
  8
NOCUT
 10
9.204999999999998
 20
46.43919780459999
 30
0.0
 11
9.204999999999998
 21
46.14499999999999
 31
0.0
  0
LINE
  5
7AF
  8
NOCUT
 10
13.05499999999999
 20
46.43919780459999
 30
0.0
 11
13.05499999999999
 21
46.14499999999999
 31
0.0
  0
DIMENSION
  5
7E6
  8
SK2
  2
*D6
 10
152.9692759862572
 20
-34.92500000000002
 30
0.0
 11
151.0942759862572
 21
-0.0000000000000213
 31
0.0
 70
    32
  3
ISO-25
 13
34.5
 23
34.92499999999998
 33
0.0
 14
34.5
 24
-34.92500000000001
 34
0.0
 50
90.0
1001
ACAD
1000
DSTYLE
1002
{
1070
   287
1070
     5
1070
   271
1070
     3
1070
   272
1070
     3
1070
   279
1070
     2
1002
}
  0
DIMENSION
  5
7F5
  8
SK2
  2
*D7
 10
35.05
 20
-73.15665109041375
 30
0.0
 11
17.525
 21
-71.28165109041375
 31
0.0
 70
    32
  3
ISO-25
 13
0.0
 23
-34.92500000000001
 33
0.0
 14
35.05
 24
-34.42500000000001
 34
0.0
1001
ACAD
1000
DSTYLE
1002
{
1070
   287
1070
     5
1070
   271
1070
     3
1070
   272
1070
     3
1070
   279
1070
     2
1002
}
  0
LINE
  5
8BF
  8
NOCUT
 10
0.0
 20
34.92499999999999
 30
0.0
 11
0.0
 21
0.0
 31
0.0
  0
INSERT
  5
A17
  8
SK6
  2
_FILLED
 10
-20.78186483605847
 20
-31.89428358495073
 30
0.0
 41
3.5
 42
3.5
 43
3.5
 50
52.86965044919886
  0
POLYLINE
  5
A18
  8
SK6
 66
     1
 10
0.0
 20
0.0
 30
0.0
  0
VERTEX
  5
CB2
  8
SK6
 10
-22.89457117648658
 20
-34.68470862768434
 30
0.0
  0
VERTEX
  5
CB3
  8
SK6
 10
-48.02596493475846
 20
-67.87780752645074
 30
0.0
  0
VERTEX
  5
CB4
  8
SK6
 10
-49.90096493475846
 20
-66.12780752645074
 30
0.0
  0
VERTEX
  5
CB5
  8
SK6
 10
-53.40096493475846
 20
-66.12780752645074
 30
0.0
  0
SEQEND
  5
CBF
  8
SK6
  0
ARC
  5
AC7
  8
1
 10
20.04999999999998
 20
35.92499999999998
 30
0.0
 40
1.0
 50
180.0
 51
270.0
  0
ARC
  5
AC9
  8
1
 10
20.04999999999998
 20
-35.92500000000001
 30
0.0
 40
1.0
 50
90.0
 51
180.0
  0
ARC
  5
ACA
  8
1
 10
1.299999999999983
 20
35.125
 30
0.0
 40
0.5
 50
270.0
 51
293.5781784781994
  0
ARC
  5
ACB
  8
1
 10
1.299999999999983
 20
-35.125
 30
0.0
 40
0.500000000000009
 50
66.42182152180017
 51
90.0
  0
LINE
  5
ACC
  8
1
 10
34.55
 20
34.92499999999998
 30
0.0
 11
20.04999999999998
 21
34.92499999999998
 31
0.0
  0
LINE
  5
ACE
  8
1
 10
20.04999999999998
 20
-34.92500000000001
 30
0.0
 11
34.55
 21
-34.92500000000001
 31
0.0
  0
LINE
  5
ACF
  8
1
 10
0.0
 20
-34.92500000000001
 30
0.0
 11
0.2999999999999829
 21
-34.625
 31
0.0
  0
LINE
  5
AD0
  8
1
 10
0.2999999999999829
 20
34.625
 30
0.0
 11
0.0
 21
34.92499999999998
 31
0.0
  0
LINE
  5
AD3
  8
1
 10
34.55
 20
-34.92500000000001
 30
0.0
 11
35.05
 21
-34.42500000000001
 31
0.0
  0
LINE
  5
AD4
  8
1
 10
35.05
 20
34.42499999999998
 30
0.0
 11
34.55
 21
34.92499999999998
 31
0.0
  0
LINE
  5
AD5
  8
1
 10
1.299999999999983
 20
34.625
 30
0.0
 11
0.2999999999999829
 21
34.625
 31
0.0
  0
LINE
  5
AD6
  8
1
 10
0.2999999999999829
 20
-34.625
 30
0.0
 11
1.299999999999983
 21
-34.625
 31
0.0
  0
LINE
  5
ADB
  8
1
 10
14.65616694409999
 20
-47.282880439
 30
0.0
 11
14.68806954659999
 21
-47.29184187660002
 31
0.0
  0
LINE
  5
ADC
  8
1
 10
14.6561667691
 20
47.30816788690001
 30
0.0
 11
14.6561667691
 21
-47.2826327523
 31
0.0
  0
LINE
  5
ADD
  8
1
 10
14.7615962207
 20
47.3314147463
 30
0.0
 11
14.6561668942
 21
47.30816788690001
 31
0.0
  0
LINE
  5
ADE
  8
1
 10
18.25
 20
47.3314147463
 30
0.0
 11
14.7615962207
 21
47.3314147463
 31
0.0
  0
LINE
  5
ADF
  8
1
 10
14.68806954659999
 20
-47.29184187660002
 30
0.0
 11
18.25
 21
-47.29184187660002
 31
0.0
  0
LINE
  5
AE0
  8
1
 10
7.498403779400007
 20
47.3314147463
 30
0.0
 11
4.006414746699988
 21
47.3314147463
 31
0.0
  0
LINE
  5
AE1
  8
1
 10
7.603833105900009
 20
47.30816788690001
 30
0.0
 11
7.498403779400007
 21
47.3314147463
 31
0.0
  0
LINE
  5
AE2
  8
1
 10
7.603833230899994
 20
47.30844201400001
 30
0.0
 11
7.603833230899994
 21
-47.28288044160001
 31
0.0
  0
LINE
  5
AE3
  8
1
 10
7.571930453299984
 20
-47.29184187660002
 30
0.0
 11
7.603833055899997
 21
-47.282880439
 31
0.0
  0
LINE
  5
AE4
  8
1
 10
4.040356993800003
 20
-47.29184187660002
 30
0.0
 11
7.571930453299984
 21
-47.29184187660002
 31
0.0
  0
LINE
  5
AE5
  8
1
 10
2.300001405499984
 20
-46.74795901499999
 30
0.0
 11
4.040356993800003
 21
-47.29184189310001
 31
0.0
  0
LINE
  5
AE6
  8
1
 10
4.006414746699988
 20
47.33141476029999
 30
0.0
 11
2.299999765199999
 21
46.80267569
 31
0.0
  0
ARC
  5
AE7
  8
1
 10
2.557435939599998
 20
-45.59355264690001
 30
0.0
 40
1.184053137363273
 50
207.7147598986998
 51
257.3157095984005
  0
LINE
  5
AE8
  8
1
 10
1.50922466130001
 20
-46.14422037630001
 30
0.0
 11
1.5
 21
-46.01377680920001
 31
0.0
  0
LINE
  5
AE9
  8
1
 10
1.5
 20
-46.01377680920001
 30
0.0
 11
1.5
 21
46.01377680919998
 31
0.0
  0
ARC
  5
AEA
  8
1
 10
2.572884962100005
 20
45.72649004249999
 30
0.0
 40
1.111555736593689
 50
104.3436511600003
 51
164.8417645594994
  0
LINE
  5
AEB
  8
1
 10
9.204999995999998
 20
44.41431970880001
 30
0.0
 11
7.60383322749999
 21
47.3081678945
 31
0.0
  0
LINE
  5
AEC
  8
1
 10
9.204999999999984
 20
44.4143196734
 30
0.0
 11
9.204999999999984
 21
-44.387299867
 31
0.0
  0
LINE
  5
AED
  8
1
 10
7.603833226399985
 20
-47.28288044990001
 30
0.0
 11
9.2049999921
 21
-44.38762367050001
 31
0.0
  0
LINE
  5
AEE
  8
1
 10
14.65616677259999
 20
47.3081678945
 30
0.0
 11
13.05500000399999
 21
44.41431970880001
 31
0.0
  0
LINE
  5
AEF
  8
1
 10
13.05500000800001
 20
-44.38762367050001
 30
0.0
 11
14.65616677360001
 21
-47.28288044990001
 31
0.0
  0
LINE
  5
AF0
  8
1
 10
13.05500000000001
 20
44.41459195280001
 30
0.0
 11
13.05500000000001
 21
-44.38762365650001
 31
0.0
  0
ARC
  5
AF1
  8
1
 10
17.92302328310001
 20
46.41895288640001
 30
0.0
 40
1.127359624435328
 50
1.493363825500091
 51
43.53750291790048
  0
LINE
  5
AF2
  8
1
 10
19.04999999999998
 20
46.44833319130001
 30
0.0
 11
19.04999999999998
 21
-46.44833319130001
 31
0.0
  0
ARC
  5
AF3
  8
1
 10
17.91824827779999
 20
-46.4157978575
 30
0.0
 40
1.1322192847622
 50
319.2464850235001
 51
358.3533278529993
  0
ARC
  5
AF4
  8
1
 10
18.2616113983
 20
-46.25791326929999
 30
0.0
 40
1.033993805426882
 50
269.3565743835002
 51
299.8289453780985
  0
ARC
  5
AF5
  8
1
 10
18.2610591033
 20
46.41902767409999
 30
0.0
 40
0.9124540938653742
 50
58.31881226410037
 51
90.69445187719943
  0
ARC
  5
AF6
  8
1
 10
12.5158206966
 20
-44.1073442162
 30
0.0
 40
0.5397579791454132
 50
357.3466499737992
 51
85.83742202690154
  0
ARC
  5
AF7
  8
1
 10
12.54139279200001
 20
44.09944295630001
 30
0.0
 40
0.4858431210597904
 50
271.6049163143007
 51
333.441972537701
  0
POLYLINE
  5
AF8
  8
1
 66
     1
 10
0.0
 20
0.0
 30
0.0
  0
VERTEX
  5
CB6
  8
1
 10
13.05500000000001
 20
44.14662312639999
 30
0.0
  0
VERTEX
  5
CB7
  8
1
 10
13.03542892280001
 20
44.01594229719998
 30
0.0
  0
VERTEX
  5
CB8
  8
1
 10
12.97787844319998
 20
43.88571451269999
 30
0.0
  0
SEQEND
  5
CBE
  8
1
  0
ARC
  5
AF9
  8
1
 10
9.744214343399989
 20
-44.10737531749999
 30
0.0
 40
0.5397915428070933
 50
94.16604783349855
 51
182.6498801657025
  0
POLYLINE
  5
AFA
  8
1
 66
     1
 10
0.0
 20
0.0
 30
0.0
  0
VERTEX
  5
CB9
  8
1
 10
9.280099379399985
 20
43.88913247470001
 30
0.0
  0
VERTEX
  5
CBA
  8
1
 10
9.224055884099982
 20
44.0177026321
 30
0.0
  0
VERTEX
  5
CBB
  8
1
 10
9.204999999999984
 20
44.14662312639999
 30
0.0
  0
SEQEND
  5
CBD
  8
1
  0
ARC
  5
AFB
  8
1
 10
9.721350266000002
 20
44.10422581969999
 30
0.0
 40
0.4907078648052702
 50
206.0244317763009
 51
268.0905652222996
  0
LINE
  5
AFC
  8
1
 10
12.55500000000001
 20
43.613790424
 30
0.0
 11
9.704999999999984
 21
43.613790424
 31
0.0
  0
LINE
  5
AFD
  8
1
 10
9.704999999999984
 20
-43.5690100651
 30
0.0
 11
12.55500000000001
 21
-43.5690100651
 31
0.0
  0
LINE
  5
AFF
  8
1
 10
34.55
 20
-34.92500000000001
 30
0.0
 11
34.55
 21
34.92499999999998
 31
0.0
  0
LINE
  5
B00
  8
1
 10
0.2999999999999829
 20
34.625
 30
0.0
 11
0.2999999999999829
 21
-34.625
 31
0.0
  0
LINE
  5
B01
  8
1
 10
0.0
 20
34.92499999999998
 30
0.0
 11
0.0
 21
-34.92500000000001
 31
0.0
  0
LINE
  5
B02
  8
1
 10
35.05
 20
34.42499999999998
 30
0.0
 11
35.05
 21
-34.42500000000001
 31
0.0
  0
LINE
  5
B04
  8
1
 10
14.68806954670001
 20
-47.29184187660002
 30
0.0
 11
14.65616694420001
 21
-47.282880439
 31
0.0
  0
LINE
  5
B13
  8
3
 10
1.5
 20
-35.30000000000001
 30
0.0
 11
3.699999999999989
 21
-35.30000000000001
 31
0.0
  0
LINE
  5
B14
  8
3
 10
1.5
 20
37.72
 30
0.0
 11
3.699999999999989
 21
37.72
 31
0.0
  0
LINE
  5
B1A
  8
3
 10
18.25
 20
37.72
 30
0.0
 11
19.04999999999998
 21
37.72
 31
0.0
  0
LINE
  5
B1D
  8
3
 10
19.04999999999998
 20
-35.30000000000001
 30
0.0
 11
18.25
 21
-35.30000000000001
 31
0.0
  0
LINE
  5
B30
  8
3
 10
3.699999999999989
 20
37.72
 30
0.0
 11
18.25
 21
37.72
 31
0.0
  0
LINE
  5
B3B
  8
3
 10
3.699999999999989
 20
-35.30000000000001
 30
0.0
 11
18.25
 21
-35.30000000000001
 31
0.0
  0
LINE
  5
B42
  8
3
 10
26.97499999999999
 20
28.32499999999999
 30
0.0
 11
33.32499999999999
 21
28.32499999999999
 31
0.0
  0
LINE
  5
B43
  8
3
 10
20.625
 20
28.32499999999999
 30
0.0
 11
26.97499999999999
 21
28.32499999999999
 31
0.0
  0
LINE
  5
B44
  8
3
 10
11.375
 20
37.31999999999999
 30
0.0
 11
16.125
 21
37.31999999999999
 31
0.0
  0
LINE
  5
B45
  8
3
 10
6.625
 20
37.31999999999999
 30
0.0
 11
11.375
 21
37.31999999999999
 31
0.0
  0
LINE
  5
B55
  8
3
 10
20.625
 20
28.32499999999999
 30
0.0
 11
26.97499999999999
 21
24.50953506919998
 31
0.0
  0
LINE
  5
B56
  8
3
 10
26.97499999999999
 20
24.50953506919998
 30
0.0
 11
33.32499999999999
 21
28.32499999999999
 31
0.0
  0
LINE
  5
B57
  8
3
 10
20.625
 20
34.92499999999998
 30
0.0
 11
20.625
 21
28.32499999999999
 31
0.0
  0
LINE
  5
B58
  8
3
 10
33.32499999999999
 20
28.32499999999999
 30
0.0
 11
33.32499999999999
 21
34.92499999999998
 31
0.0
  0
LINE
  5
B59
  8
3
 10
6.625
 20
37.72
 30
0.0
 11
6.625
 21
37.31999999999999
 31
0.0
  0
LINE
  5
B5A
  8
3
 10
16.125
 20
37.31999999999999
 30
0.0
 11
16.125
 21
37.72
 31
0.0
  0
LINE
  5
B5B
  8
1
 10
20.04999999999998
 20
-34.92500000000001
 30
0.0
 11
20.04999999999998
 21
34.92499999999998
 31
0.0
  0
LINE
  5
B5C
  8
1
 10
1.299999999999983
 20
-34.625
 30
0.0
 11
1.299999999999983
 21
34.625
 31
0.0
  0
LINE
  5
B5F
  8
1
 10
12.55500000000001
 20
-43.00413183130001
 30
0.0
 11
12.55500000000001
 21
42.79577481850001
 31
0.0
  0
LINE
  5
B60
  8
1
 10
9.704999999999984
 20
-43.00421493109999
 30
0.0
 11
9.704999999999984
 21
42.7957705776
 31
0.0
  0
LINE
  5
B62
  8
1
 10
18.25
 20
47.3314147463
 30
0.0
 11
18.25
 21
-47.29184187660002
 31
0.0
  0
LINE
  5
B64
  8
1
 10
2.299999999999983
 20
-46.74795854910002
 30
0.0
 11
2.299999999999983
 21
46.80267576719999
 31
0.0
  0
LINE
  5
C29
  8
4
 10
129.0
 20
0.0
 30
0.0
 11
0.0
 21
0.0000000088515293
 31
0.0
  0
DIMENSION
  5
C2C
  8
2
  2
*D10
 10
129.0
 20
58.04711652168649
 30
0.0
 11
64.5
 21
59.92211652168649
 31
0.0
 70
    32
  3
ISO-25
 13
0.0
 23
34.92500000885153
 33
0.0
 14
129.0
 24
31.00000000885152
 34
0.0
  0
LINE
  5
C3C
  8
NOCUT
 10
129.0
 20
0.0
 30
0.0
 11
0.0
 21
0.0000000088515293
 31
0.0
  0
LINE
  5
C3E
  8
0
 10
130.9999999999999
 20
2.000000008851529
 30
0.0
 11
127.0
 21
-1.999999991148471
 31
0.0
  0
LINE
  5
C3F
  8
0
 10
127.0
 20
2.000000008851529
 30
0.0
 11
130.9999999999999
 21
-1.999999991148471
 31
0.0
  0
CIRCLE
  5
C40
  8
0
 10
129.0
 20
0.0000000088515293
 30
0.0
 40
1.5
  0
LINE
  5
C41
  8
1
 10
128.25
 20
-31.74999999114847
 30
0.0
 11
129.0
 21
-30.99999999114847
 31
0.0
  0
LINE
  5
C43
  8
1
 10
129.0
 20
31.00000000885152
 30
0.0
 11
128.25
 21
31.75000000885152
 31
0.0
  0
LINE
  5
C44
  8
1
 10
38.03234387688607
 20
-31.74999999114847
 30
0.0
 11
128.25
 21
-31.74999999114847
 31
0.0
  0
LINE
  5
C45
  8
1
 10
128.25
 20
31.75000000885152
 30
0.0
 11
38.03234387688605
 21
31.75000000885152
 31
0.0
  0
CIRCLE
  5
C46
  8
1
 10
112.95
 20
0.0000000088515293
 30
0.0
 40
5.500000000000023
  0
LINE
  5
C47
  8
1
 10
109.95
 20
1.732050816451519
 30
0.0
 11
109.95
 21
-1.732050798648473
 31
0.0
  0
LINE
  5
C48
  8
1
 10
115.95
 20
-1.732050798648473
 30
0.0
 11
115.95
 21
1.732050816451519
 31
0.0
  0
LINE
  5
C49
  8
1
 10
115.95
 20
1.732050816451519
 30
0.0
 11
112.95
 21
3.464101624051509
 31
0.0
  0
LINE
  5
C4A
  8
1
 10
112.95
 20
3.464101624051509
 30
0.0
 11
109.95
 21
1.732050816451519
 31
0.0
  0
LINE
  5
C4B
  8
1
 10
109.95
 20
-1.732050798648473
 30
0.0
 11
112.95
 21
-3.464101606248462
 31
0.0
  0
LINE
  5
C4C
  8
1
 10
112.95
 20
-3.464101606248462
 30
0.0
 11
115.95
 21
-1.732050798648473
 31
0.0
  0
LINE
  5
C4D
  8
1
 10
128.25
 20
0.0000000088515293
 30
0.0
 11
128.25
 21
31.75000000885152
 31
0.0
  0
LINE
  5
C4E
  8
1
 10
128.25
 20
-31.74999999114847
 30
0.0
 11
128.25
 21
0.0000000088515293
 31
0.0
  0
LINE
  5
C4F
  8
1
 10
129.0
 20
0.0000000088515293
 30
0.0
 11
129.0
 21
31.00000000885152
 31
0.0
  0
LINE
  5
C50
  8
1
 10
129.0
 20
-30.99999999114847
 30
0.0
 11
129.0
 21
0.0000000088515293
 31
0.0
  0
ARC
  5
C51
  8
1
 10
112.95
 20
0.0000000088515293
 30
0.0
 40
6.150000000000318
 50
0.0
 51
180.0
  0
ARC
  5
C52
  8
1
 10
112.95
 20
0.0000000088515293
 30
0.0
 40
6.150000000000091
 50
180.0
 51
0.0
  0
LINE
  5
C53
  8
3
 10
128.5999999999999
 20
-15.8164448874485
 30
0.0
 11
112.4000000000001
 21
-15.8164448874485
 31
0.0
  0
LINE
  5
C56
  8
3
 10
112.4000000000001
 20
15.81644490525152
 30
0.0
 11
128.5999999999999
 21
15.81644490525152
 31
0.0
  0
LINE
  5
C57
  8
3
 10
128.5999999999999
 20
15.81644490525152
 30
0.0
 11
128.5999999999999
 21
-15.8164448874485
 31
0.0
  0
LINE
  5
C58
  8
3
 10
128.5999999999999
 20
15.81644490525152
 30
0.0
 11
129.0
 21
16.1135147415515
 31
0.0
  0
LINE
  5
C59
  8
3
 10
129.0
 20
-16.11351472374848
 30
0.0
 11
128.5999999999999
 21
-15.8164448874485
 31
0.0
  0
LINE
  5
C5A
  8
3
 10
128.5999999999999
 20
22.4500000088515
 30
0.0
 11
128.5999999999999
 21
15.81644490525152
 31
0.0
  0
LINE
  5
C5B
  8
3
 10
112.4000000000001
 20
22.4500000088515
 30
0.0
 11
112.4000000000001
 21
15.81644490525152
 31
0.0
  0
LINE
  5
C5C
  8
3
 10
128.5999999999999
 20
-15.8164448874485
 30
0.0
 11
128.5999999999999
 21
-22.44999999114849
 31
0.0
  0
LINE
  5
C5D
  8
3
 10
112.4000000000001
 20
-15.8164448874485
 30
0.0
 11
112.4000000000001
 21
-22.44999999114849
 31
0.0
  0
LINE
  5
C5E
  8
3
 10
128.5999999999999
 20
-22.44999999114849
 30
0.0
 11
128.5999999999999
 21
-25.19999999114849
 31
0.0
  0
LINE
  5
C5F
  8
3
 10
128.5999999999999
 20
25.2000000088515
 30
0.0
 11
128.5999999999999
 21
22.4500000088515
 31
0.0
  0
LINE
  5
C60
  8
3
 10
112.4000000000001
 20
-22.44999999114849
 30
0.0
 11
112.4000000000001
 21
-25.19999999114849
 31
0.0
  0
LINE
  5
C61
  8
3
 10
112.4000000000001
 20
25.2000000088515
 30
0.0
 11
112.4000000000001
 21
22.4500000088515
 31
0.0
  0
LINE
  5
C62
  8
3
 10
104.3
 20
2.500000008851529
 30
0.0
 11
104.3
 21
-2.499999991148471
 31
0.0
  0
LINE
  5
C63
  8
3
 10
112.4000000000001
 20
18.00000000885153
 30
0.0
 11
92.0
 21
18.00000000885153
 31
0.0
  0
LINE
  5
C64
  8
3
 10
92.0
 20
-17.99999999114847
 30
0.0
 11
112.4000000000001
 21
-17.99999999114847
 31
0.0
  0
LINE
  5
C65
  8
3
 10
128.5999999999999
 20
-25.19999999114849
 30
0.0
 11
129.0
 21
-25.59999999114849
 31
0.0
  0
LINE
  5
C66
  8
3
 10
129.0
 20
25.60000000885151
 30
0.0
 11
128.5999999999999
 21
25.2000000088515
 31
0.0
  0
LINE
  5
C67
  8
3
 10
112.4000000000001
 20
-25.19999999114849
 30
0.0
 11
128.5999999999999
 21
-25.19999999114849
 31
0.0
  0
LINE
  5
C68
  8
3
 10
128.5999999999999
 20
25.2000000088515
 30
0.0
 11
112.4000000000001
 21
25.2000000088515
 31
0.0
  0
LINE
  5
C69
  8
3
 10
129.0
 20
2.500000008851529
 30
0.0
 11
104.3
 21
2.500000008851529
 31
0.0
  0
LINE
  5
C6A
  8
3
 10
104.3
 20
-2.499999991148471
 30
0.0
 11
129.0
 21
-2.499999991148471
 31
0.0
  0
LINE
  5
C6B
  8
3
 10
104.3
 20
2.500000008851529
 30
0.0
 11
102.7978484523999
 21
0.0000000088515293
 31
0.0
  0
LINE
  5
C6C
  8
3
 10
102.7978484523999
 20
0.0000000088515293
 30
0.0
 11
104.3
 21
-2.499999991148471
 31
0.0
  0
LINE
  5
C6D
  8
1
 10
38.03234387688607
 20
-31.74999999114847
 30
0.0
 11
38.03234387688607
 21
31.75000000885152
 31
0.0
  0
DIMENSION
  5
C6E
  8
SK2
  2
*D11
 10
146.5523624382148
 20
-31.74999999114847
 30
0.0
 11
144.6773624382148
 21
0.0000000088515222
 31
0.0
 70
    32
  3
ISO-25
 13
128.25
 23
31.75000000885152
 33
0.0
 14
128.25
 24
-31.74999999114847
 34
0.0
 50
90.0
1001
ACAD
1000
DSTYLE
1002
{
1070
   287
1070
     5
1070
   271
1070
     3
1070
   272
1070
     3
1070
   279
1070
     2
1002
}
  0
LINE
  5
C7C
  8
NOCUT
 10
129.0
 20
31.00000000885152
 30
0.0
 11
128.25
 21
31.75000000885152
 31
0.0
  0
LINE
  5
C7D
  8
NOCUT
 10
129.0
 20
0.0000000088515293
 30
0.0
 11
129.0
 21
31.00000000885152
 31
0.0
  0
ARC
  5
C7E
  8
1
 10
38.0323438768861
 20
34.75000000885152
 30
0.0
 40
3.0
 50
186.2192484428807
 51
270.0
  0
ARC
  5
C7F
  8
1
 10
38.0323438768861
 20
-34.75000000061755
 30
0.0
 40
3.0
 50
90.0
 51
173.7807515571193
  0
ARC
  5
C80
  8
NOCUT
 10
38.0323438768861
 20
34.75000000559223
 30
0.0
 40
3.0
 50
186.2192484428807
 51
270.0
  0
LINE
  5
C81
  8
NOCUT
 10
128.25
 20
31.75000000559223
 30
0.0
 11
38.03234387688605
 21
31.75000000559223
 31
0.0
  0
LINE
  5
C82
  8
3
 10
92.0
 20
0.0000000088515577
 30
0.0
 11
92.0
 21
18.00000000885156
 31
0.0
  0
LINE
  5
C83
  8
3
 10
92.0
 20
-17.99999999114844
 30
0.0
 11
92.0
 21
0.0000000088515577
 31
0.0
  0
LINE
  5
C84
  8
3
 10
91.5669872981
 20
0.0000000088515577
 30
0.0
 11
91.5669872981
 21
18.25000000885156
 31
0.0
  0
LINE
  5
C85
  8
3
 10
91.5669872981
 20
-18.24999999114844
 30
0.0
 11
91.5669872981
 21
0.0000000088515577
 31
0.0
  0
LINE
  5
C86
  8
3
 10
87.0
 20
0.0000000088515577
 30
0.0
 11
87.0
 21
18.25000000885156
 31
0.0
  0
LINE
  5
C87
  8
3
 10
87.0
 20
-18.24999999114844
 30
0.0
 11
87.0
 21
0.0000000088515577
 31
0.0
  0
LINE
  5
C88
  8
3
 10
83.45492234769995
 20
-11.09999999114844
 30
0.0
 11
83.45492234769995
 21
11.10000000885155
 31
0.0
  0
LINE
  5
C89
  8
3
 10
91.5669872981
 20
-18.24999999114844
 30
0.0
 11
92.0
 21
-17.99999999114844
 31
0.0
  0
LINE
  5
C8A
  8
3
 10
92.0
 20
18.00000000885156
 30
0.0
 11
91.5669872981
 21
18.25000000885156
 31
0.0
  0
LINE
  5
C8B
  8
3
 10
87.0
 20
-18.24999999114844
 30
0.0
 11
91.5669872981
 21
-18.24999999114844
 31
0.0
  0
LINE
  5
C8C
  8
3
 10
91.5669872981
 20
18.25000000885156
 30
0.0
 11
87.0
 21
18.25000000885156
 31
0.0
  0
LINE
  5
C8D
  8
3
 10
87.0
 20
17.00000000885156
 30
0.0
 11
83.45492234769995
 21
11.10000000885155
 31
0.0
  0
LINE
  5
C8E
  8
3
 10
83.45492234769995
 20
-11.09999999114844
 30
0.0
 11
87.0
 21
-16.99999999114844
 31
0.0
  0
LINE
  5
C8F
  8
3
 10
-0.0000000000000568
 20
11.09980001810155
 30
0.0
 11
83.45492234769995
 21
11.10000000885155
 31
0.0
  0
LINE
  5
C90
  8
3
 10
0.0
 20
-11.09979998189847
 30
0.0
 11
83.45492234769995
 21
-11.09999999114844
 31
0.0
  0
ENDSEC
  0
EOF
