  0
SECTION
  2
HEADER
  9
$ACADVER
  1
AC1009
  9
$DWGCODEPAGE
  3
ansi_1251
  9
$INSBASE
 10
0.0
 20
0.0
 30
0.0
  9
$EXTMIN
 10
-68.25000000000001
 20
-30.5409271246
 30
0.0
  9
$EXTMAX
 10
88.90000000000003
 20
30.50275418977125
 30
0.0
  9
$LIMMIN
 10
0.0
 20
0.0
  9
$LIMMAX
 10
420.0
 20
297.0
  9
$ORTHOMODE
 70
     1
  9
$REGENMODE
 70
     1
  9
$FILLMODE
 70
     1
  9
$QTEXTMODE
 70
     0
  9
$MIRRTEXT
 70
     0
  9
$DRAGMODE
 70
     2
  9
$LTSCALE
 40
1.0
  9
$OSMODE
 70
   279
  9
$ATTMODE
 70
     1
  9
$TEXTSIZE
 40
2.5
  9
$TRACEWID
 40
1.0
  9
$TEXTSTYLE
  7
STANDARD
  9
$CLAYER
  8
0
  9
$CELTYPE
  6
BYLAYER
  9
$CECOLOR
 62
   256
  9
$DIMSCALE
 40
1.0
  9
$DIMASZ
 40
2.5
  9
$DIMEXO
 40
0.625
  9
$DIMDLI
 40
3.75
  9
$DIMRND
 40
0.0
  9
$DIMDLE
 40
0.0
  9
$DIMEXE
 40
1.25
  9
$DIMTP
 40
0.0
  9
$DIMTM
 40
0.0
  9
$DIMTXT
 40
2.5
  9
$DIMCEN
 40
2.5
  9
$DIMTSZ
 40
0.0
  9
$DIMTOL
 70
     0
  9
$DIMLIM
 70
     0
  9
$DIMTIH
 70
     0
  9
$DIMTOH
 70
     0
  9
$DIMSE1
 70
     0
  9
$DIMSE2
 70
     0
  9
$DIMTAD
 70
     1
  9
$DIMZIN
 70
     8
  9
$DIMBLK
  1

  9
$DIMASO
 70
     1
  9
$DIMSHO
 70
     1
  9
$DIMPOST
  1

  9
$DIMAPOST
  1

  9
$DIMALT
 70
     0
  9
$DIMALTD
 70
     3
  9
$DIMALTF
 40
0.03937007874016
  9
$DIMLFAC
 40
1.0
  9
$DIMTOFL
 70
     1
  9
$DIMTVP
 40
0.0
  9
$DIMTIX
 70
     0
  9
$DIMSOXD
 70
     0
  9
$DIMSAH
 70
     0
  9
$DIMBLK1
  1

  9
$DIMBLK2
  1

  9
$DIMSTYLE
  2
ISO-25
  9
$DIMCLRD
 70
     0
  9
$DIMCLRE
 70
     0
  9
$DIMCLRT
 70
     0
  9
$DIMTFAC
 40
1.0
  9
$DIMGAP
 40
0.625
  9
$LUNITS
 70
     2
  9
$LUPREC
 70
     3
  9
$SKETCHINC
 40
1.0
  9
$FILLETRAD
 40
10.0
  9
$AUNITS
 70
     0
  9
$AUPREC
 70
     0
  9
$MENU
  1
.
  9
$ELEVATION
 40
0.0
  9
$PELEVATION
 40
0.0
  9
$THICKNESS
 40
0.0
  9
$LIMCHECK
 70
     0
  9
$CHAMFERA
 40
10.0
  9
$CHAMFERB
 40
10.0
  9
$SKPOLY
 70
     0
  9
$TDCREATE
 40
2455022.429026158
  9
$TDUPDATE
 40
2458659.538982558
  9
$TDINDWG
 40
0.1506771181
  9
$TDUSRTIMER
 40
2458716.837099167
  9
$USRTIMER
 70
     1
  9
$ANGBASE
 50
0.0
  9
$ANGDIR
 70
     0
  9
$PDMODE
 70
     0
  9
$PDSIZE
 40
0.0
  9
$PLINEWID
 40
0.0
  9
$COORDS
 70
     1
  9
$SPLFRAME
 70
     0
  9
$SPLINETYPE
 70
     6
  9
$SPLINESEGS
 70
     8
  9
$ATTDIA
 70
     0
  9
$ATTREQ
 70
     1
  9
$HANDLING
 70
     1
  9
$HANDSEED
  5
1818
  9
$SURFTAB1
 70
     6
  9
$SURFTAB2
 70
     6
  9
$SURFTYPE
 70
     6
  9
$SURFU
 70
     6
  9
$SURFV
 70
     6
  9
$UCSNAME
  2

  9
$UCSORG
 10
0.0
 20
0.0
 30
0.0
  9
$UCSXDIR
 10
1.0
 20
0.0
 30
0.0
  9
$UCSYDIR
 10
0.0
 20
1.0
 30
0.0
  9
$PUCSNAME
  2

  9
$PUCSORG
 10
0.0
 20
0.0
 30
0.0
  9
$PUCSXDIR
 10
1.0
 20
0.0
 30
0.0
  9
$PUCSYDIR
 10
0.0
 20
1.0
 30
0.0
  9
$USERI1
 70
     0
  9
$USERI2
 70
     0
  9
$USERI3
 70
     0
  9
$USERI4
 70
     0
  9
$USERI5
 70
     0
  9
$USERR1
 40
0.0
  9
$USERR2
 40
0.0
  9
$USERR3
 40
0.0
  9
$USERR4
 40
0.0
  9
$USERR5
 40
0.0
  9
$WORLDVIEW
 70
     1
  9
$SHADEDGE
 70
     3
  9
$SHADEDIF
 70
    70
  9
$TILEMODE
 70
     1
  9
$MAXACTVP
 70
    64
  9
$PLIMCHECK
 70
     0
  9
$PEXTMIN
 10
1.000000000000000E+20
 20
1.000000000000000E+20
 30
1.000000000000000E+20
  9
$PEXTMAX
 10
-1.000000000000000E+20
 20
-1.000000000000000E+20
 30
-1.000000000000000E+20
  9
$PLIMMIN
 10
0.0
 20
0.0
  9
$PLIMMAX
 10
420.0
 20
297.0
  9
$UNITMODE
 70
     0
  9
$VISRETAIN
 70
     1
  9
$PLINEGEN
 70
     0
  9
$PSLTSCALE
 70
     1
  0
ENDSEC
  0
SECTION
  2
TABLES
  0
TABLE
  2
VPORT
 70
     1
  0
VPORT
  2
*ACTIVE
 70
     0
 10
0.0
 20
0.0
 11
1.0
 21
1.0
 12
6.934577471450751
 22
-4.409747193426497
 13
0.0
 23
0.0
 14
10.0
 24
10.0
 15
10.0
 25
10.0
 16
0.0
 26
0.0
 36
1.0
 17
0.0
 27
0.0
 37
0.0
 40
171.305400992554
 41
1.292490118577075
 42
50.0
 43
0.0
 44
0.0
 50
0.0
 51
0.0
 71
    16
 72
  1000
 73
     1
 74
     3
 75
     0
 76
     0
 77
     0
 78
     0
  0
ENDTAB
  0
TABLE
  2
LTYPE
 70
     6
  0
LTYPE
  2
CONTINUOUS
 70
     0
  3
Solid line
 72
    65
 73
     0
 40
0.0
  0
LTYPE
  2
CENTER
 70
     0
  3
 Center _____  _  _____  _  _____  _  _____  _ 
 72
    65
 73
     4
 40
50.8
 49
31.75
 49
-6.35
 49
6.35
 49
-6.35
  0
LTYPE
  2
DASHED
 70
     0
  3
Dashed __  __  __  __  __  __  __  __  __  __  
 72
    65
 73
     2
 40
19.05
 49
12.7
 49
-6.35
  0
LTYPE
  2
HIDDEN
 70
     0
  3
Hidden __ __ __ __ __ __ __ __ __ __ __ __ __ __
 72
    65
 73
     2
 40
1.905
 49
1.27
 49
-0.635
  0
LTYPE
  2
CENTERX2
 70
     0
  3
Center (2x) ________  __  ________  __  _____
 72
    65
 73
     4
 40
20.32
 49
12.7
 49
-2.54
 49
2.54
 49
-2.54
  0
LTYPE
  2
PHANTOM
 70
     0
  3
Phantom ______  __  __  ______  __  __  ______
 72
    65
 73
     6
 40
12.7
 49
6.35
 49
-1.27
 49
1.27
 49
-1.27
 49
1.27
 49
-1.27
  0
ENDTAB
  0
TABLE
  2
LAYER
 70
    26
  0
LAYER
  2
0
 70
     0
 62
     7
  6
CONTINUOUS
  0
LAYER
  2
1
 70
     0
 62
     4
  6
CONTINUOUS
  0
LAYER
  2
2
 70
     0
 62
     7
  6
CONTINUOUS
  0
LAYER
  2
3
 70
     0
 62
     1
  6
DASHED
  0
LAYER
  2
4
 70
     0
 62
     2
  6
CENTER
  0
LAYER
  2
6
 70
     0
 62
     5
  6
CONTINUOUS
  0
LAYER
  2
7
 70
     0
 62
     5
  6
CONTINUOUS
  0
LAYER
  2
11
 70
     0
 62
     4
  6
CONTINUOUS
  0
LAYER
  2
SK1
 70
     0
 62
     4
  6
CONTINUOUS
  0
LAYER
  2
SK2
 70
     0
 62
     7
  6
CONTINUOUS
  0
LAYER
  2
SK3
 70
     0
 62
     1
  6
DASHED
  0
LAYER
  2
SK4
 70
     0
 62
     2
  6
CENTER
  0
LAYER
  2
SK6
 70
     0
 62
     5
  6
CONTINUOUS
  0
LAYER
  2
SK7
 70
     0
 62
     5
  6
CONTINUOUS
  0
LAYER
  2
SK11
 70
     0
 62
     4
  6
CONTINUOUS
  0
LAYER
  2
CUT
 70
     0
 62
     1
  6
CONTINUOUS
  0
LAYER
  2
NOCUT
 70
     0
 62
    -7
  6
CONTINUOUS
  0
LAYER
  2
SKVIEW1
 70
     0
 62
     4
  6
CONTINUOUS
  0
LAYER
  2
SKVIEW2
 70
     0
 62
     7
  6
CONTINUOUS
  0
LAYER
  2
SKVIEW3
 70
     0
 62
     1
  6
DASHED
  0
LAYER
  2
SKVIEW4
 70
     0
 62
     2
  6
CENTER
  0
LAYER
  2
SKVIEW6
 70
     0
 62
     5
  6
CONTINUOUS
  0
LAYER
  2
SKVIEW7
 70
     0
 62
     5
  6
CONTINUOUS
  0
LAYER
  2
SKVIEW11
 70
     0
 62
     4
  6
CONTINUOUS
  0
LAYER
  2
INFTOTAL
 70
     0
 62
     9
  6
CONTINUOUS
  0
LAYER
  2
DEFPOINTS
 70
     0
 62
     7
  6
CONTINUOUS
  0
ENDTAB
  0
TABLE
  2
STYLE
 70
     1
  0
STYLE
  2
STANDARD
 70
     0
 40
0.0
 41
1.0
 50
0.0
 71
     0
 42
2.5
  3
txt
  4

  0
ENDTAB
  0
TABLE
  2
VIEW
 70
     0
  0
ENDTAB
  0
TABLE
  2
UCS
 70
     0
  0
ENDTAB
  0
TABLE
  2
APPID
 70
     2
  0
APPID
  2
ACAD
 70
     0
  0
APPID
  2
ACAECLAYERSTANDARD
 70
     0
  0
ENDTAB
  0
TABLE
  2
DIMSTYLE
 70
     1
  0
DIMSTYLE
  2
ISO-25
 70
     0
  3

  4

  5

  6

  7

 40
1.0
 41
2.5
 42
0.625
 43
3.75
 44
1.25
 45
0.0
 46
0.0
 47
0.0
 48
0.0
140
2.5
141
2.5
142
0.0
143
0.03937007874016
144
1.0
145
0.0
146
1.0
147
0.625
 71
     0
 72
     0
 73
     0
 74
     0
 75
     0
 76
     0
 77
     1
 78
     8
170
     0
171
     3
172
     1
173
     0
174
     0
175
     0
176
     0
177
     0
178
     0
  0
ENDTAB
  0
ENDSEC
  0
SECTION
  2
BLOCKS
  0
BLOCK
  8
0
  2
$MODEL_SPACE
 70
     0
 10
0.0
 20
0.0
 30
0.0
  3
$MODEL_SPACE
  1

  0
ENDBLK
  5
21
  8
0
  0
BLOCK
 67
     1
  8
0
  2
$PAPER_SPACE
 70
     0
 10
0.0
 20
0.0
 30
0.0
  3
$PAPER_SPACE
  1

  0
ENDBLK
  5
1D
 67
     1
  8
0
  0
BLOCK
  8
0
  2
*U0
 70
     1
 10
0.0
 20
0.0
 30
0.0
  3
*U0
  1

  0
TEXT
  5
77E
  8
SK6
 10
-50.0
 20
78.25
 30
0.0
 40
3.5
  1
BIG KAISER
 41
0.85
  0
TEXT
  5
781
  8
SK6
 10
-50.0
 20
73.0
 30
0.0
 40
3.5
  1
11.368.662N
 41
0.85
  0
ENDBLK
  5
782
  8
0
  0
BLOCK
  8
0
  2
_FILLED
 70
     0
 10
0.0
 20
0.0
 30
0.0
  3
_FILLED
  1

  0
SOLID
  5
789
  8
0
  6
BYBLOCK
 62
     0
 10
0.0
 20
0.0
 30
0.0
 11
-1.0
 21
0.2142857143
 31
0.0
 12
-1.0
 22
-0.2142857143
 32
0.0
 13
-1.0
 23
-0.2142857143
 33
0.0
  0
ENDBLK
  5
78A
  8
0
  6
BYBLOCK
 62
     0
  0
BLOCK
  8
0
  2
*U2
 70
     1
 10
0.0
 20
0.0
 30
0.0
  3
*U2
  1

  0
TEXT
  5
790
  8
SK6
 10
-85.96178542556666
 20
-67.06748653279999
 30
0.0
 40
3.5
  1
BCV50
 41
0.85
  0
ENDBLK
  5
791
  8
0
  0
BLOCK
  8
0
  2
*D3
 70
     1
 10
0.0
 20
0.0
 30
0.0
  3
*D3
  1

  0
LINE
  5
7EA
  8
SK2
 62
     0
 10
35.17716027909717
 20
34.92499999999999
 30
0.0
 11
115.4691549429015
 21
34.92499999999999
 31
0.0
  0
LINE
  5
7EB
  8
SK2
 62
     0
 10
35.17716027909713
 20
-34.92500000000001
 30
0.0
 11
115.4691549429015
 21
-34.92500000000002
 31
0.0
  0
LINE
  5
7EC
  8
SK2
 62
     0
 10
114.2191549429015
 20
32.42499999999999
 30
0.0
 11
114.2191549429015
 21
-32.42500000000002
 31
0.0
  0
SOLID
  5
7ED
  8
SK2
 62
     0
 10
114.6358216095682
 20
32.42499999999999
 30
0.0
 11
113.8024882762348
 21
32.42499999999999
 31
0.0
 12
114.2191549429015
 22
34.92499999999999
 32
0.0
 13
114.2191549429015
 23
34.92499999999999
 33
0.0
  0
SOLID
  5
7EE
  8
SK2
 62
     0
 10
113.8024882762348
 20
-32.42500000000002
 30
0.0
 11
114.6358216095682
 21
-32.42500000000002
 31
0.0
 12
114.2191549429015
 22
-34.92500000000002
 32
0.0
 13
114.2191549429015
 23
-34.92500000000002
 33
0.0
  0
TEXT
  5
7EF
  8
SK2
  6
CONTINUOUS
 62
     0
 10
113.5941549429015
 20
-5.000000000000014
 30
0.0
 40
2.5
  1
69.85
 50
90.0
  0
POINT
  5
7F0
  8
DEFPOINTS
 62
     0
 10
34.55216027909717
 20
34.92499999999999
 30
0.0
  0
POINT
  5
7F1
  8
DEFPOINTS
 62
     0
 10
34.55216027909713
 20
-34.92500000000001
 30
0.0
  0
POINT
  5
7F2
  8
DEFPOINTS
 62
     0
 10
114.2191549429015
 20
-34.92500000000002
 30
0.0
  0
ENDBLK
  5
7F4
  8
0
  0
BLOCK
  8
0
  2
*D4
 70
     1
 10
0.0
 20
0.0
 30
0.0
  3
*D4
  1

  0
LINE
  5
7F9
  8
SK2
 62
     0
 10
0.0
 20
-35.55000000000001
 30
0.0
 11
0.0
 21
-74.40665109041375
 31
0.0
  0
LINE
  5
7FA
  8
SK2
 62
     0
 10
35.04999999999719
 20
-35.0964285714
 30
0.0
 11
35.04999999999719
 21
-74.40665109041375
 31
0.0
  0
LINE
  5
7FB
  8
SK2
 62
     0
 10
2.5
 20
-73.15665109041375
 30
0.0
 11
32.54999999999719
 21
-73.15665109041375
 31
0.0
  0
SOLID
  5
7FC
  8
SK2
 62
     0
 10
2.5
 20
-72.73998442374707
 30
0.0
 11
2.5
 21
-73.57331775708042
 31
0.0
 12
0.0
 22
-73.15665109041375
 32
0.0
 13
0.0
 23
-73.15665109041375
 33
0.0
  0
SOLID
  5
7FD
  8
SK2
 62
     0
 10
32.54999999999719
 20
-73.57331775708042
 30
0.0
 11
32.54999999999719
 21
-72.73998442374707
 31
0.0
 12
35.04999999999719
 22
-73.15665109041375
 32
0.0
 13
35.04999999999719
 23
-73.15665109041375
 33
0.0
  0
TEXT
  5
7FE
  8
SK2
  6
CONTINUOUS
 62
     0
 10
12.73333333333193
 20
-72.53165109041375
 30
0.0
 40
2.5
  1
35.05
  0
POINT
  5
7FF
  8
DEFPOINTS
 62
     0
 10
0.0
 20
-34.92500000000001
 30
0.0
  0
POINT
  5
800
  8
DEFPOINTS
 62
     0
 10
35.04999999999719
 20
-34.4714285714
 30
0.0
  0
POINT
  5
801
  8
DEFPOINTS
 62
     0
 10
35.04999999999719
 20
-73.15665109041375
 30
0.0
  0
ENDBLK
  5
803
  8
0
  0
BLOCK
  8
0
  2
*D5
 70
     1
 10
0.0
 20
0.0
 30
0.0
  3
*D5
  1

  0
LINE
  5
808
  8
SK2
 62
     0
 10
0.0
 20
35.54999999999998
 30
0.0
 11
0.0
 21
63.71215670356074
 31
0.0
  0
LINE
  5
809
  8
SK2
 62
     0
 10
69.0
 20
31.875
 30
0.0
 11
69.0
 21
63.71215670356074
 31
0.0
  0
LINE
  5
80A
  8
SK2
 62
     0
 10
2.5
 20
62.46215670356074
 30
0.0
 11
66.5
 21
62.46215670356074
 31
0.0
  0
SOLID
  5
80B
  8
SK2
 62
     0
 10
2.5
 20
62.8788233702274
 30
0.0
 11
2.5
 21
62.04549003689407
 31
0.0
 12
0.0
 22
62.46215670356074
 32
0.0
 13
0.0
 23
62.46215670356074
 33
0.0
  0
SOLID
  5
80C
  8
SK2
 62
     0
 10
66.5
 20
62.04549003689407
 30
0.0
 11
66.5
 21
62.8788233702274
 31
0.0
 12
69.0
 22
62.46215670356074
 32
0.0
 13
69.0
 23
62.46215670356074
 33
0.0
  0
TEXT
  5
80D
  8
SK2
  6
CONTINUOUS
 62
     0
 10
32.41666666666666
 20
63.08715670356074
 30
0.0
 40
2.5
  1
69
  0
POINT
  5
80E
  8
DEFPOINTS
 62
     0
 10
0.0
 20
34.92499999999998
 30
0.0
  0
POINT
  5
80F
  8
DEFPOINTS
 62
     0
 10
69.0
 20
31.25
 30
0.0
  0
POINT
  5
810
  8
DEFPOINTS
 62
     0
 10
69.0
 20
62.46215670356074
 30
0.0
  0
ENDBLK
  5
812
  8
0
  0
BLOCK
  8
0
  2
*D6
 70
     1
 10
0.0
 20
0.0
 30
0.0
  3
*D6
  1

  0
LINE
  5
E8B
  8
SK2
 62
     0
 10
69.125
 20
31.75
 30
0.0
 11
94.45598750256244
 21
31.75
 31
0.0
  0
LINE
  5
E8C
  8
SK2
 62
     0
 10
69.125
 20
-31.75
 30
0.0
 11
94.45598750256244
 21
-31.75
 31
0.0
  0
LINE
  5
E8D
  8
SK2
 62
     0
 10
93.20598750256244
 20
29.25
 30
0.0
 11
93.20598750256244
 21
-29.25
 31
0.0
  0
SOLID
  5
E8E
  8
SK2
 62
     0
 10
93.62265416922911
 20
29.25
 30
0.0
 11
92.78932083589577
 21
29.25
 31
0.0
 12
93.20598750256244
 22
31.75
 32
0.0
 13
93.20598750256244
 23
31.75
 33
0.0
  0
SOLID
  5
E8F
  8
SK2
 62
     0
 10
92.78932083589577
 20
-29.25
 30
0.0
 11
93.62265416922911
 21
-29.25
 31
0.0
 12
93.20598750256244
 22
-31.75
 32
0.0
 13
93.20598750256244
 23
-31.75
 33
0.0
  0
TEXT
  5
E90
  8
SK2
  6
CONTINUOUS
 62
     0
 10
92.58098750256244
 20
-3.75
 30
0.0
 40
2.5
  1
63.5
 50
90.0
  0
POINT
  5
E91
  8
DEFPOINTS
 62
     0
 10
68.5
 20
31.75
 30
0.0
  0
POINT
  5
E92
  8
DEFPOINTS
 62
     0
 10
68.5
 20
-31.75
 30
0.0
  0
POINT
  5
E93
  8
DEFPOINTS
 62
     0
 10
93.20598750256244
 20
-31.75
 30
0.0
  0
ENDBLK
  5
E95
  8
0
  0
ENDSEC
  0
SECTION
  2
ENTITIES
  0
LINE
  5
685
  8
SK1
 10
0.0
 20
34.92499999999998
 30
0.0
 11
-99.6319088344
 21
20.3952133832
 31
0.0
  0
LINE
  5
686
  8
SK1
 10
-99.6319088344
 20
-20.3952133832
 30
0.0
 11
0.0
 21
-34.92500000000001
 31
0.0
  0
ARC
  5
68D
  8
SK1
 10
-99.3
 20
18.1192879614
 30
0.0
 40
2.299999999999995
 50
98.29722000000018
 51
180.0
  0
ARC
  5
68E
  8
SK1
 10
-99.3
 20
-18.1192879614
 30
0.0
 40
2.299999999999995
 50
180.0
 51
261.7027799999998
  0
LINE
  5
6F6
  8
SK1
 10
-101.6
 20
0.0
 30
0.0
 11
-101.6
 21
-18.1192879614
 31
0.0
  0
LINE
  5
6F7
  8
SK1
 10
-101.6
 20
18.1192879614
 30
0.0
 11
-101.6
 21
0.0
 31
0.0
  0
LINE
  5
71A
  8
SK3
 10
-99.5215390309
 20
-13.10000000000002
 30
0.0
 11
-99.5215390309
 21
13.09999999999999
 31
0.0
  0
LINE
  5
71B
  8
SK3
 10
-95.25
 20
-13.10000000000002
 30
0.0
 11
-95.25
 21
13.09999999999999
 31
0.0
  0
LINE
  5
72A
  8
SK3
 10
-101.6
 20
-14.30000000000001
 30
0.0
 11
-99.5215390309
 21
-13.10000000000002
 31
0.0
  0
LINE
  5
72B
  8
SK3
 10
-99.5215390309
 20
13.09999999999999
 30
0.0
 11
-101.6
 21
14.3
 31
0.0
  0
LINE
  5
72C
  8
SK3
 10
-99.5215390309
 20
-13.10000000000002
 30
0.0
 11
-95.25
 21
-13.10000000000002
 31
0.0
  0
LINE
  5
72D
  8
SK3
 10
-95.25
 20
13.09999999999999
 30
0.0
 11
-99.5215390309
 21
13.09999999999999
 31
0.0
  0
LINE
  5
72E
  8
SK3
 10
-95.25
 20
-11.09980000000002
 30
0.0
 11
0.0
 21
-11.09980000000002
 31
0.0
  0
LINE
  5
72F
  8
SK3
 10
0.0
 20
11.09979999999999
 30
0.0
 11
-95.25
 21
11.09979999999999
 31
0.0
  0
LINE
  5
760
  8
SK3
 10
-57.1
 20
12.69999999999999
 30
0.0
 11
-95.25
 21
12.69999999999999
 31
0.0
  0
LINE
  5
761
  8
SK3
 10
-95.25
 20
-12.69999999999999
 30
0.0
 11
-57.1
 21
-12.69999999999999
 31
0.0
  0
LINE
  5
774
  8
SK3
 10
-57.1
 20
12.69999999999999
 30
0.0
 11
-57.1
 21
-12.69999999999999
 31
0.0
  0
LINE
  5
777
  8
SK4
 10
0.0
 20
0.0
 30
0.0
 11
-101.6
 21
0.0
 31
0.0
  0
LINE
  5
779
  8
4
 10
0.0
 20
0.0
 30
0.0
 11
69.0
 21
0.0
 31
0.0
  0
INSERT
  5
77B
  8
SK6
  2
*U0
 10
-44.10380399683656
 20
-23.39313954296377
 30
0.0
  0
INSERT
  5
78D
  8
SK6
  2
*U2
 10
17.55665382414153
 20
-2.560320993650734
 30
0.0
  0
LINE
  5
793
  8
0
 10
3.0
 20
3.0
 30
0.0
 11
-3.0
 21
-3.0
 31
0.0
  0
LINE
  5
794
  8
0
 10
-3.0
 20
3.0
 30
0.0
 11
3.0
 21
-3.0
 31
0.0
  0
CIRCLE
  5
795
  8
0
 10
0.0
 20
0.0
 30
0.0
 40
2.5
  0
LINE
  5
796
  8
0
 10
72.0
 20
-3.0
 30
0.0
 11
66.0
 21
3.0
 31
0.0
  0
CIRCLE
  5
797
  8
0
 10
69.0
 20
0.0
 30
0.0
 40
2.5
  0
LINE
  5
798
  8
0
 10
66.0
 20
-3.0
 30
0.0
 11
72.0
 21
3.0
 31
0.0
  0
LINE
  5
799
  8
NOCUT
 10
0.7999999999999972
 20
34.62500000000001
 30
0.0
 11
0.2999999999999972
 21
34.62500000000001
 31
0.0
  0
LINE
  5
79C
  8
NOCUT
 10
0.2999999999999972
 20
34.62500000000001
 30
0.0
 11
0.0
 21
34.92499999999999
 31
0.0
  0
LINE
  5
79D
  8
NOCUT
 10
34.55216027909717
 20
34.92499999999999
 30
0.0
 11
20.05
 21
34.92499999999999
 31
0.0
  0
ARC
  5
79E
  8
NOCUT
 10
0.7999999999999972
 20
35.62500000000001
 30
0.0
 40
1.0
 50
270.0
 51
314.4270040008
  0
ARC
  5
79F
  8
NOCUT
 10
20.05
 20
35.92499999999999
 30
0.0
 40
1.0
 50
180.0
 51
270.0
  0
LINE
  5
7A0
  8
NOCUT
 10
12.55499999999999
 20
45.64499999999999
 30
0.0
 11
9.704999999999998
 21
45.64499999999999
 31
0.0
  0
ARC
  5
7A1
  8
NOCUT
 10
12.55499999999999
 20
46.14499999999999
 30
0.0
 40
0.5
 50
270.0
 51
0.0
  0
ARC
  5
7A2
  8
NOCUT
 10
9.704999999999998
 20
46.14499999999999
 30
0.0
 40
0.5
 50
180.0
 51
270.0
  0
ARC
  5
7A3
  8
NOCUT
 10
2.299999999999997
 20
48.4125
 30
0.0
 40
0.7999999999999972
 50
90.0
 51
180.0
  0
ARC
  5
7A4
  8
NOCUT
 10
18.24999999999999
 20
48.4125
 30
0.0
 40
0.799999999999983
 50
0.0
 51
90.0
  0
LINE
  5
7A5
  8
NOCUT
 10
9.204999999999998
 20
46.43919780459999
 30
0.0
 11
7.603833230999996
 21
49.21250000000001
 31
0.0
  0
LINE
  5
7A6
  8
NOCUT
 10
14.65616676910001
 20
49.21250000000001
 30
0.0
 11
13.05499999999999
 21
46.43919780459999
 31
0.0
  0
LINE
  5
7A7
  8
NOCUT
 10
18.24999999999999
 20
49.21250000000001
 30
0.0
 11
14.65616676910001
 21
49.21250000000001
 31
0.0
  0
LINE
  5
7A8
  8
NOCUT
 10
7.603833230999996
 20
49.21250000000001
 30
0.0
 11
2.299999999999997
 21
49.21250000000001
 31
0.0
  0
LINE
  5
7AC
  8
NOCUT
 10
1.5
 20
48.4125
 30
0.0
 11
1.499999999999929
 21
34.91085715714565
 31
0.0
  0
LINE
  5
7AD
  8
NOCUT
 10
19.04999999999997
 20
48.4125
 30
0.0
 11
19.05
 21
35.92499999999999
 31
0.0
  0
LINE
  5
7AE
  8
NOCUT
 10
9.204999999999998
 20
46.43919780459999
 30
0.0
 11
9.204999999999998
 21
46.14499999999999
 31
0.0
  0
LINE
  5
7AF
  8
NOCUT
 10
13.05499999999999
 20
46.43919780459999
 30
0.0
 11
13.05499999999999
 21
46.14499999999999
 31
0.0
  0
DIMENSION
  5
7E6
  8
SK2
  2
*D3
 10
114.2191549429015
 20
-34.92500000000002
 30
0.0
 11
112.3441549429015
 21
-0.0000000000000142
 31
0.0
 70
    32
  3
ISO-25
 13
34.55216027909717
 23
34.92499999999999
 33
0.0
 14
34.55216027909713
 24
-34.92500000000001
 34
0.0
 50
90.0
1001
ACAD
1000
DSTYLE
1002
{
1070
   287
1070
     5
1070
   271
1070
     3
1070
   272
1070
     3
1070
   279
1070
     2
1002
}
  0
DIMENSION
  5
7F5
  8
SK2
  2
*D4
 10
35.04999999999719
 20
-73.15665109041375
 30
0.0
 11
17.5249999999986
 21
-71.28165109041375
 31
0.0
 70
    32
  3
ISO-25
 13
0.0
 23
-34.92500000000001
 33
0.0
 14
35.04999999999719
 24
-34.4714285714
 34
0.0
1001
ACAD
1000
DSTYLE
1002
{
1070
   287
1070
     5
1070
   271
1070
     3
1070
   272
1070
     3
1070
   279
1070
     2
1002
}
  0
DIMENSION
  5
804
  8
SK2
  2
*D5
 10
69.0
 20
62.46215670356074
 30
0.0
 11
34.5
 21
64.33715670356074
 31
0.0
 70
    32
  3
ISO-25
 13
0.0
 23
34.92499999999998
 33
0.0
 14
69.0
 24
31.25
 34
0.0
1001
ACAD
1000
DSTYLE
1002
{
1070
   287
1070
     5
1070
   271
1070
     3
1070
   272
1070
     3
1070
   279
1070
     2
1002
}
  0
LINE
  5
8BF
  8
NOCUT
 10
0.0
 20
34.92499999999999
 30
0.0
 11
0.0
 21
0.0
 31
0.0
  0
LINE
  5
8C0
  8
NOCUT
 10
0.0
 20
0.0
 30
0.0
 11
69.0
 21
0.0
 31
0.0
  0
INSERT
  5
A17
  8
SK6
  2
_FILLED
 10
-20.78186483605847
 20
-31.89428358495073
 30
0.0
 41
3.5
 42
3.5
 43
3.5
 50
52.86965044919886
  0
POLYLINE
  5
A18
  8
SK6
 66
     1
 10
0.0
 20
0.0
 30
0.0
  0
VERTEX
  5
15FD
  8
SK6
 10
-22.89457117648658
 20
-34.68470862768434
 30
0.0
  0
VERTEX
  5
15FE
  8
SK6
 10
-48.02596493475846
 20
-67.87780752645074
 30
0.0
  0
VERTEX
  5
15FF
  8
SK6
 10
-49.90096493475846
 20
-66.12780752645074
 30
0.0
  0
VERTEX
  5
1600
  8
SK6
 10
-53.40096493475846
 20
-66.12780752645074
 30
0.0
  0
SEQEND
  5
1817
  8
SK6
  0
ARC
  5
AC7
  8
1
 10
20.04999999999998
 20
35.92499999999998
 30
0.0
 40
1.0
 50
180.0
 51
270.0
  0
ARC
  5
AC9
  8
1
 10
20.04999999999998
 20
-35.92500000000001
 30
0.0
 40
1.0
 50
90.0
 51
180.0
  0
ARC
  5
ACA
  8
1
 10
1.299999999999983
 20
35.125
 30
0.0
 40
0.5
 50
270.0
 51
293.5781784781994
  0
ARC
  5
ACB
  8
1
 10
1.299999999999983
 20
-35.125
 30
0.0
 40
0.500000000000009
 50
66.42182152180017
 51
90.0
  0
LINE
  5
ACC
  8
1
 10
34.55216027909718
 20
34.92499999999998
 30
0.0
 11
20.04999999999998
 21
34.92499999999998
 31
0.0
  0
LINE
  5
ACE
  8
1
 10
20.04999999999998
 20
-34.92500000000001
 30
0.0
 11
34.55216027909713
 21
-34.92500000000001
 31
0.0
  0
LINE
  5
ACF
  8
1
 10
0.0
 20
-34.92500000000001
 30
0.0
 11
0.2999999999999829
 21
-34.625
 31
0.0
  0
LINE
  5
AD0
  8
1
 10
0.2999999999999829
 20
34.625
 30
0.0
 11
0.0
 21
34.92499999999998
 31
0.0
  0
LINE
  5
AD5
  8
1
 10
1.299999999999983
 20
34.625
 30
0.0
 11
0.2999999999999829
 21
34.625
 31
0.0
  0
LINE
  5
AD6
  8
1
 10
0.2999999999999829
 20
-34.625
 30
0.0
 11
1.299999999999983
 21
-34.625
 31
0.0
  0
LINE
  5
ADB
  8
1
 10
14.65616694409999
 20
-47.282880439
 30
0.0
 11
14.68806954659999
 21
-47.29184187660002
 31
0.0
  0
LINE
  5
ADC
  8
1
 10
14.6561667691
 20
47.30816788690001
 30
0.0
 11
14.6561667691
 21
-47.2826327523
 31
0.0
  0
LINE
  5
ADD
  8
1
 10
14.7615962207
 20
47.3314147463
 30
0.0
 11
14.6561668942
 21
47.30816788690001
 31
0.0
  0
LINE
  5
ADE
  8
1
 10
18.25
 20
47.3314147463
 30
0.0
 11
14.7615962207
 21
47.3314147463
 31
0.0
  0
LINE
  5
ADF
  8
1
 10
14.68806954659999
 20
-47.29184187660002
 30
0.0
 11
18.25
 21
-47.29184187660002
 31
0.0
  0
LINE
  5
AE0
  8
1
 10
7.498403779400007
 20
47.3314147463
 30
0.0
 11
4.006414746699988
 21
47.3314147463
 31
0.0
  0
LINE
  5
AE1
  8
1
 10
7.603833105900009
 20
47.30816788690001
 30
0.0
 11
7.498403779400007
 21
47.3314147463
 31
0.0
  0
LINE
  5
AE2
  8
1
 10
7.603833230899994
 20
47.30844201400001
 30
0.0
 11
7.603833230899994
 21
-47.28288044160001
 31
0.0
  0
LINE
  5
AE3
  8
1
 10
7.571930453299984
 20
-47.29184187660002
 30
0.0
 11
7.603833055899997
 21
-47.282880439
 31
0.0
  0
LINE
  5
AE4
  8
1
 10
4.040356993800003
 20
-47.29184187660002
 30
0.0
 11
7.571930453299984
 21
-47.29184187660002
 31
0.0
  0
LINE
  5
AE5
  8
1
 10
2.300001405499984
 20
-46.74795901499999
 30
0.0
 11
4.040356993800003
 21
-47.29184189310001
 31
0.0
  0
LINE
  5
AE6
  8
1
 10
4.006414746699988
 20
47.33141476029999
 30
0.0
 11
2.299999765199999
 21
46.80267569
 31
0.0
  0
ARC
  5
AE7
  8
1
 10
2.557435939599998
 20
-45.59355264690001
 30
0.0
 40
1.184053137363273
 50
207.7147598986998
 51
257.3157095984005
  0
LINE
  5
AE8
  8
1
 10
1.50922466130001
 20
-46.14422037630001
 30
0.0
 11
1.5
 21
-46.01377680920001
 31
0.0
  0
LINE
  5
AE9
  8
1
 10
1.5
 20
-46.01377680920001
 30
0.0
 11
1.5
 21
46.01377680919998
 31
0.0
  0
ARC
  5
AEA
  8
1
 10
2.572884962100005
 20
45.72649004249999
 30
0.0
 40
1.111555736593689
 50
104.3436511600003
 51
164.8417645594994
  0
LINE
  5
AEB
  8
1
 10
9.204999995999998
 20
44.41431970880001
 30
0.0
 11
7.60383322749999
 21
47.3081678945
 31
0.0
  0
LINE
  5
AEC
  8
1
 10
9.204999999999984
 20
44.4143196734
 30
0.0
 11
9.204999999999984
 21
-44.387299867
 31
0.0
  0
LINE
  5
AED
  8
1
 10
7.603833226399985
 20
-47.28288044990001
 30
0.0
 11
9.2049999921
 21
-44.38762367050001
 31
0.0
  0
LINE
  5
AEE
  8
1
 10
14.65616677259999
 20
47.3081678945
 30
0.0
 11
13.05500000399999
 21
44.41431970880001
 31
0.0
  0
LINE
  5
AEF
  8
1
 10
13.05500000800001
 20
-44.38762367050001
 30
0.0
 11
14.65616677360001
 21
-47.28288044990001
 31
0.0
  0
LINE
  5
AF0
  8
1
 10
13.05500000000001
 20
44.41459195280001
 30
0.0
 11
13.05500000000001
 21
-44.38762365650001
 31
0.0
  0
ARC
  5
AF1
  8
1
 10
17.92302328310001
 20
46.41895288640001
 30
0.0
 40
1.127359624435328
 50
1.493363825500091
 51
43.53750291790048
  0
LINE
  5
AF2
  8
1
 10
19.04999999999998
 20
46.44833319130001
 30
0.0
 11
19.04999999999998
 21
-46.44833319130001
 31
0.0
  0
ARC
  5
AF3
  8
1
 10
17.91824827779999
 20
-46.4157978575
 30
0.0
 40
1.1322192847622
 50
319.2464850235001
 51
358.3533278529993
  0
ARC
  5
AF4
  8
1
 10
18.2616113983
 20
-46.25791326929999
 30
0.0
 40
1.033993805426882
 50
269.3565743835002
 51
299.8289453780985
  0
ARC
  5
AF5
  8
1
 10
18.2610591033
 20
46.41902767409999
 30
0.0
 40
0.9124540938653742
 50
58.31881226410037
 51
90.69445187719943
  0
ARC
  5
AF6
  8
1
 10
12.5158206966
 20
-44.1073442162
 30
0.0
 40
0.5397579791454132
 50
357.3466499737992
 51
85.83742202690154
  0
ARC
  5
AF7
  8
1
 10
12.54139279200001
 20
44.09944295630001
 30
0.0
 40
0.4858431210597904
 50
271.6049163143007
 51
333.441972537701
  0
POLYLINE
  5
AF8
  8
1
 66
     1
 10
0.0
 20
0.0
 30
0.0
  0
VERTEX
  5
1601
  8
1
 10
13.05500000000001
 20
44.14662312639999
 30
0.0
  0
VERTEX
  5
1602
  8
1
 10
13.03542892280001
 20
44.01594229719998
 30
0.0
  0
VERTEX
  5
1603
  8
1
 10
12.97787844319998
 20
43.88571451269999
 30
0.0
  0
SEQEND
  5
1816
  8
1
  0
ARC
  5
AF9
  8
1
 10
9.744214343399989
 20
-44.10737531749999
 30
0.0
 40
0.5397915428070933
 50
94.16604783349855
 51
182.6498801657025
  0
POLYLINE
  5
AFA
  8
1
 66
     1
 10
0.0
 20
0.0
 30
0.0
  0
VERTEX
  5
1604
  8
1
 10
9.280099379399985
 20
43.88913247470001
 30
0.0
  0
VERTEX
  5
1605
  8
1
 10
9.224055884099982
 20
44.0177026321
 30
0.0
  0
VERTEX
  5
1606
  8
1
 10
9.204999999999984
 20
44.14662312639999
 30
0.0
  0
SEQEND
  5
1815
  8
1
  0
ARC
  5
AFB
  8
1
 10
9.721350266000002
 20
44.10422581969999
 30
0.0
 40
0.4907078648052702
 50
206.0244317763009
 51
268.0905652222996
  0
LINE
  5
AFC
  8
1
 10
12.55500000000001
 20
43.613790424
 30
0.0
 11
9.704999999999984
 21
43.613790424
 31
0.0
  0
LINE
  5
AFD
  8
1
 10
9.704999999999984
 20
-43.5690100651
 30
0.0
 11
12.55500000000001
 21
-43.5690100651
 31
0.0
  0
LINE
  5
B00
  8
1
 10
0.2999999999999829
 20
34.625
 30
0.0
 11
0.2999999999999829
 21
-34.625
 31
0.0
  0
LINE
  5
B01
  8
1
 10
0.0
 20
34.92499999999998
 30
0.0
 11
0.0
 21
-34.92500000000001
 31
0.0
  0
LINE
  5
B04
  8
1
 10
14.68806954670001
 20
-47.29184187660002
 30
0.0
 11
14.65616694420001
 21
-47.282880439
 31
0.0
  0
LINE
  5
B1A
  8
3
 10
1.500000000000004
 20
37.72
 30
0.0
 11
19.04999999999998
 21
37.72
 31
0.0
  0
LINE
  5
B3B
  8
3
 10
1.5
 20
-35.30000000000001
 30
0.0
 11
19.26937525020018
 21
-35.30000000000001
 31
0.0
  0
LINE
  5
B42
  8
3
 10
26.97499999999999
 20
28.32499999999999
 30
0.0
 11
33.32499999999999
 21
28.32499999999999
 31
0.0
  0
LINE
  5
B43
  8
3
 10
20.625
 20
28.32499999999999
 30
0.0
 11
26.97499999999999
 21
28.32499999999999
 31
0.0
  0
LINE
  5
B44
  8
3
 10
11.375
 20
37.31999999999999
 30
0.0
 11
16.125
 21
37.31999999999999
 31
0.0
  0
LINE
  5
B45
  8
3
 10
6.625
 20
37.31999999999999
 30
0.0
 11
11.375
 21
37.31999999999999
 31
0.0
  0
LINE
  5
B55
  8
3
 10
20.625
 20
28.32499999999999
 30
0.0
 11
26.97499999999999
 21
24.50953506919998
 31
0.0
  0
LINE
  5
B56
  8
3
 10
26.97499999999999
 20
24.50953506919998
 30
0.0
 11
33.32499999999999
 21
28.32499999999999
 31
0.0
  0
LINE
  5
B57
  8
3
 10
20.625
 20
34.92499999999998
 30
0.0
 11
20.625
 21
28.32499999999999
 31
0.0
  0
LINE
  5
B58
  8
3
 10
33.32499999999999
 20
28.32499999999999
 30
0.0
 11
33.32499999999999
 21
34.92499999999998
 31
0.0
  0
LINE
  5
B59
  8
3
 10
6.625
 20
37.72
 30
0.0
 11
6.625
 21
37.31999999999999
 31
0.0
  0
LINE
  5
B5A
  8
3
 10
16.125
 20
37.31999999999999
 30
0.0
 11
16.125
 21
37.72
 31
0.0
  0
LINE
  5
B5B
  8
1
 10
20.04999999999998
 20
-34.92500000000001
 30
0.0
 11
20.04999999999998
 21
34.92499999999998
 31
0.0
  0
LINE
  5
B5C
  8
1
 10
1.299999999999983
 20
-34.625
 30
0.0
 11
1.299999999999983
 21
34.625
 31
0.0
  0
LINE
  5
B5F
  8
1
 10
12.55500000000001
 20
-43.00413183130001
 30
0.0
 11
12.55500000000001
 21
42.79577481850001
 31
0.0
  0
LINE
  5
B60
  8
1
 10
9.704999999999984
 20
-43.00421493109999
 30
0.0
 11
9.704999999999984
 21
42.7957705776
 31
0.0
  0
LINE
  5
B62
  8
1
 10
18.25
 20
47.3314147463
 30
0.0
 11
18.25
 21
-47.29184187660002
 31
0.0
  0
LINE
  5
B64
  8
1
 10
2.299999999999983
 20
-46.74795854910002
 30
0.0
 11
2.299999999999983
 21
46.80267576719999
 31
0.0
  0
LINE
  5
D65
  8
1
 10
34.55216027909713
 20
-34.925
 30
0.0
 11
35.04999999999719
 21
-34.4714285714
 31
0.0
  0
LINE
  5
D66
  8
1
 10
35.04999999999719
 20
34.47142857140001
 30
0.0
 11
34.55216027909713
 21
34.92500000000003
 31
0.0
  0
ARC
  5
D6D
  8
1
 10
38.03703832569717
 20
34.75000000000001
 30
0.0
 40
3.000000000000012
 50
185.3279979039997
 51
270.0
  0
ARC
  5
D6E
  8
1
 10
38.03703832569717
 20
-34.74999999999999
 30
0.0
 40
3.000000000000016
 50
90.0
 51
174.672002096
  0
LINE
  5
D6F
  8
1
 10
38.03703832569717
 20
-31.75
 30
0.0
 11
68.5
 21
-31.75
 31
0.0
  0
LINE
  5
D70
  8
1
 10
68.5
 20
31.75
 30
0.0
 11
38.03703832569717
 21
31.75
 31
0.0
  0
LINE
  5
D71
  8
1
 10
68.5
 20
-31.75
 30
0.0
 11
69.0
 21
-31.25
 31
0.0
  0
LINE
  5
D72
  8
1
 10
69.0
 20
31.25
 30
0.0
 11
68.5
 21
31.75
 31
0.0
  0
CIRCLE
  5
D75
  8
1
 10
52.94999999999999
 20
0.0
 30
0.0
 40
5.499999999999938
  0
LINE
  5
D76
  8
1
 10
49.94999999999999
 20
1.73205080759999
 30
0.0
 11
49.94999999999999
 21
-1.732050807600004
 31
0.0
  0
LINE
  5
D77
  8
1
 10
49.94999999999999
 20
-1.732050807600004
 30
0.0
 11
52.94999999999999
 21
-3.464101615100006
 31
0.0
  0
LINE
  5
D78
  8
1
 10
52.94999999999999
 20
-3.464101615100006
 30
0.0
 11
55.94999999999999
 21
-1.732050807600004
 31
0.0
  0
LINE
  5
D79
  8
1
 10
55.94999999999999
 20
1.73205080759999
 30
0.0
 11
52.94999999999999
 21
3.464101615199993
 31
0.0
  0
LINE
  5
D7A
  8
1
 10
52.94999999999999
 20
3.464101615199993
 30
0.0
 11
49.94999999999999
 21
1.73205080759999
 31
0.0
  0
LINE
  5
D7B
  8
1
 10
55.94999999999999
 20
-1.732050807600004
 30
0.0
 11
55.94999999999999
 21
1.73205080759999
 31
0.0
  0
CIRCLE
  5
D7C
  8
1
 10
52.94999999999999
 20
0.0
 30
0.0
 40
5.999999999999939
  0
LINE
  5
DA1
  8
1
 10
34.55216027909713
 20
-34.925
 30
0.0
 11
34.55216027909713
 21
34.92500000000003
 31
0.0
  0
LINE
  5
DA2
  8
1
 10
35.04999999999719
 20
34.47142857140001
 30
0.0
 11
35.04999999999719
 21
-34.4714285714
 31
0.0
  0
CIRCLE
  5
DA5
  8
1
 10
64.09999999999997
 20
0.0
 30
0.0
 40
2.499999999999972
  0
LINE
  5
DA6
  8
1
 10
68.5
 20
0.0
 30
0.0
 11
68.5
 21
31.75
 31
0.0
  0
LINE
  5
DA7
  8
1
 10
68.5
 20
-31.75
 30
0.0
 11
68.5
 21
0.0
 31
0.0
  0
ARC
  5
DA8
  8
1
 10
52.94999999999999
 20
0.0
 30
0.0
 40
6.699999999999989
 50
180.0
 51
0.0
  0
ARC
  5
DA9
  8
1
 10
52.94999999999999
 20
0.0
 30
0.0
 40
6.699999999999989
 50
0.0
 51
180.0
  0
LINE
  5
DAA
  8
1
 10
69.0
 20
0.0
 30
0.0
 11
69.0
 21
31.25
 31
0.0
  0
LINE
  5
DAB
  8
1
 10
69.0
 20
-31.25
 30
0.0
 11
69.0
 21
0.0
 31
0.0
  0
CIRCLE
  5
DB7
  8
3
 10
52.94999999999999
 20
0.0
 30
0.0
 40
3.588457268119878
  0
POLYLINE
  5
DBA
  8
3
 66
     1
 10
0.0
 20
0.0
 30
0.0
  0
VERTEX
  5
1607
  8
3
 10
49.3708732353
 20
-10.69933995480001
 30
0.0
  0
VERTEX
  5
1608
  8
3
 10
49.54763083120002
 20
-11.26625808430001
 30
0.0
  0
VERTEX
  5
1609
  8
3
 10
49.93817179499996
 20
-11.787109892
 30
0.0
  0
VERTEX
  5
160A
  8
3
 10
50.5179570016
 20
-12.2291683432
 30
0.0
  0
VERTEX
  5
160B
  8
3
 10
51.25055641429998
 20
-12.5646572798
 30
0.0
  0
VERTEX
  5
160C
  8
3
 10
52.08993811750003
 20
-12.77249669790001
 30
0.0
  0
VERTEX
  5
160D
  8
3
 10
52.983360672
 20
-12.83962728260001
 30
0.0
  0
VERTEX
  5
160E
  8
3
 10
53.87468705269998
 20
-12.7618309723
 30
0.0
  0
VERTEX
  5
160F
  8
3
 10
54.70791194509997
 20
-12.54399599530001
 30
0.0
  0
VERTEX
  5
1610
  8
3
 10
55.43068076489999
 20
-12.1998097244
 30
0.0
  0
VERTEX
  5
1611
  8
3
 10
55.9975792889
 20
-11.7508986487
 30
0.0
  0
VERTEX
  5
1612
  8
3
 10
56.37298719799998
 20
-11.2254695023
 30
0.0
  0
VERTEX
  5
1613
  8
3
 10
56.53331623259999
 20
-10.6565369306
 30
0.0
  0
VERTEX
  5
1614
  8
3
 10
56.46849232969998
 20
-10.07984905970001
 30
0.0
  0
VERTEX
  5
1615
  8
3
 10
56.18258861370003
 20
-9.531641309199998
 30
0.0
  0
VERTEX
  5
1616
  8
3
 10
55.69356946639999
 20
-9.04635958850001
 30
0.0
  0
VERTEX
  5
1617
  8
3
 10
55.03216175949996
 20
-8.6544959326
 30
0.0
  0
VERTEX
  5
1618
  8
3
 10
54.23992417150004
 20
-8.3806725763
 30
0.0
  0
VERTEX
  5
1619
  8
3
 10
53.36663590379999
 20
-8.24209484810001
 30
0.0
  0
VERTEX
  5
161A
  8
3
 10
52.46716886999997
 20
-8.247470096400008
 30
0.0
  0
VERTEX
  5
161B
  8
3
 10
51.59803989189999
 20
-8.39646057440001
 30
0.0
  0
VERTEX
  5
161C
  8
3
 10
50.81385953939997
 20
-8.679704662600003
 30
0.0
  0
VERTEX
  5
161D
  8
3
 10
50.16390074830002
 20
-9.079405093200009
 30
0.0
  0
VERTEX
  5
161E
  8
3
 10
49.68900281980001
 20
-9.570447217999998
 30
0.0
  0
VERTEX
  5
161F
  8
3
 10
49.41900533719996
 20
-10.12197705460001
 30
0.0
  0
VERTEX
  5
1620
  8
3
 10
49.3708732353
 20
-10.69933995480001
 30
0.0
  0
SEQEND
  5
1814
  8
3
  0
POLYLINE
  5
DBB
  8
3
 66
     1
 10
0.0
 20
0.0
 30
0.0
  0
VERTEX
  5
1621
  8
3
 10
46.96560086029996
 20
-17.7054503448
 30
0.0
  0
VERTEX
  5
1622
  8
3
 10
46.99623299339999
 20
-16.94965634270001
 30
0.0
  0
VERTEX
  5
1623
  8
3
 10
47.2556650537
 20
-16.2122260303
 30
0.0
  0
VERTEX
  5
1624
  8
3
 10
47.73392721249996
 20
-15.5214984407
 30
0.0
  0
VERTEX
  5
1625
  8
3
 10
48.41264012330004
 20
-14.90401784800001
 30
0.0
  0
VERTEX
  5
1626
  8
3
 10
49.26572122959999
 20
-14.3835136851
 30
0.0
  0
VERTEX
  5
1627
  8
3
 10
50.26038710289998
 20
-13.979988635
 30
0.0
  0
VERTEX
  5
1628
  8
3
 10
51.35841329149997
 20
-13.70894993910001
 30
0.0
  0
VERTEX
  5
1629
  8
3
 10
52.51760326469997
 20
-13.5808134625
 30
0.0
  0
VERTEX
  5
162A
  8
3
 10
53.69341000200001
 20
-13.6005034181
 30
0.0
  0
VERTEX
  5
162B
  8
3
 10
54.8406479098
 20
-13.76726313200001
 30
0.0
  0
VERTEX
  5
162C
  8
3
 10
55.9152292787
 20
-14.07468412190001
 30
0.0
  0
VERTEX
  5
162D
  8
3
 10
56.87585854930001
 20
-14.51095237150001
 30
0.0
  0
VERTEX
  5
162E
  8
3
 10
57.68561927759998
 20
-15.0593023367
 30
0.0
  0
VERTEX
  5
162F
  8
3
 10
58.31339281280003
 20
-15.6986612358
 30
0.0
  0
VERTEX
  5
1630
  8
3
 10
58.73505416999996
 20
-16.40445886500001
 30
0.0
  0
VERTEX
  5
1631
  8
3
 10
58.93439913970002
 20
-17.14957181700001
 30
0.0
  0
VERTEX
  5
1632
  8
3
 10
58.90376700659999
 20
-17.9053658191
 30
0.0
  0
VERTEX
  5
1633
  8
3
 10
58.64433494639997
 20
-18.64279613160001
 30
0.0
  0
VERTEX
  5
1634
  8
3
 10
58.16607278750001
 20
-19.33352372120001
 30
0.0
  0
VERTEX
  5
1635
  8
3
 10
57.4873598767
 20
-19.9510043138
 30
0.0
  0
VERTEX
  5
1636
  8
3
 10
56.63427877039999
 20
-20.47150847680001
 30
0.0
  0
VERTEX
  5
1637
  8
3
 10
55.63961289709999
 20
-20.8750335269
 30
0.0
  0
VERTEX
  5
1638
  8
3
 10
54.54158670850001
 20
-21.1460722228
 30
0.0
  0
VERTEX
  5
1639
  8
3
 10
53.38239673530001
 20
-21.27420869940001
 30
0.0
  0
VERTEX
  5
163A
  8
3
 10
52.20658999799997
 20
-21.2545187437
 30
0.0
  0
VERTEX
  5
163B
  8
3
 10
51.05935209019998
 20
-21.0877590299
 30
0.0
  0
VERTEX
  5
163C
  8
3
 10
49.98477072129998
 20
-20.78033804
 30
0.0
  0
VERTEX
  5
163D
  8
3
 10
49.02414145070003
 20
-20.3440697904
 30
0.0
  0
VERTEX
  5
163E
  8
3
 10
48.21438072239999
 20
-19.79571982520001
 30
0.0
  0
VERTEX
  5
163F
  8
3
 10
47.58660718729999
 20
-19.156360926
 30
0.0
  0
VERTEX
  5
1640
  8
3
 10
47.16494583009995
 20
-18.4505632969
 30
0.0
  0
VERTEX
  5
1641
  8
3
 10
46.96560086029996
 20
-17.7054503448
 30
0.0
  0
SEQEND
  5
1813
  8
3
  0
POLYLINE
  5
DBC
  8
3
 66
     1
 10
0.0
 20
0.0
 30
0.0
  0
VERTEX
  5
1642
  8
3
 10
46.96560086029996
 20
-24.21682811140001
 30
0.0
  0
VERTEX
  5
1643
  8
3
 10
47.16494583009995
 20
-24.9619410634
 30
0.0
  0
VERTEX
  5
1644
  8
3
 10
47.58660718729999
 20
-25.66773869250001
 30
0.0
  0
VERTEX
  5
1645
  8
3
 10
48.21438072239999
 20
-26.3070975917
 30
0.0
  0
VERTEX
  5
1646
  8
3
 10
49.02414145070003
 20
-26.8554475569
 30
0.0
  0
VERTEX
  5
1647
  8
3
 10
49.98477072129998
 20
-27.29171580650001
 30
0.0
  0
VERTEX
  5
1648
  8
3
 10
51.05935209019998
 20
-27.5991367964
 30
0.0
  0
VERTEX
  5
1649
  8
3
 10
52.20658999799997
 20
-27.76589651030001
 30
0.0
  0
VERTEX
  5
164A
  8
3
 10
53.38239673530001
 20
-27.78558646590001
 30
0.0
  0
VERTEX
  5
164B
  8
3
 10
54.54158670850001
 20
-27.65744998930001
 30
0.0
  0
VERTEX
  5
164C
  8
3
 10
55.63961289709999
 20
-27.3864112934
 30
0.0
  0
VERTEX
  5
164D
  8
3
 10
56.63427877039999
 20
-26.9828862433
 30
0.0
  0
VERTEX
  5
164E
  8
3
 10
57.4873598767
 20
-26.4623820803
 30
0.0
  0
VERTEX
  5
164F
  8
3
 10
58.16607278750001
 20
-25.8449014877
 30
0.0
  0
VERTEX
  5
1650
  8
3
 10
58.64433494639997
 20
-25.1541738981
 30
0.0
  0
VERTEX
  5
1651
  8
3
 10
58.90376700659999
 20
-24.4167435856
 30
0.0
  0
VERTEX
  5
1652
  8
3
 10
58.93439913970002
 20
-23.6609495835
 30
0.0
  0
VERTEX
  5
1653
  8
3
 10
58.73505416999996
 20
-22.9158366315
 30
0.0
  0
VERTEX
  5
1654
  8
3
 10
58.31339281280003
 20
-22.21003900240001
 30
0.0
  0
VERTEX
  5
1655
  8
3
 10
57.68561927759998
 20
-21.5706801032
 30
0.0
  0
VERTEX
  5
1656
  8
3
 10
56.87585854930001
 20
-21.022330138
 30
0.0
  0
VERTEX
  5
1657
  8
3
 10
55.9152292787
 20
-20.58606188840001
 30
0.0
  0
VERTEX
  5
1658
  8
3
 10
54.8406479098
 20
-20.2786408985
 30
0.0
  0
VERTEX
  5
1659
  8
3
 10
53.69341000200001
 20
-20.11188118460001
 30
0.0
  0
VERTEX
  5
165A
  8
3
 10
52.51760326469997
 20
-20.09219122900001
 30
0.0
  0
VERTEX
  5
165B
  8
3
 10
51.35841329149997
 20
-20.2203277056
 30
0.0
  0
VERTEX
  5
165C
  8
3
 10
50.26038710289998
 20
-20.4913664015
 30
0.0
  0
VERTEX
  5
165D
  8
3
 10
49.26572122959999
 20
-20.8948914516
 30
0.0
  0
VERTEX
  5
165E
  8
3
 10
48.41264012330004
 20
-21.4153956146
 30
0.0
  0
VERTEX
  5
165F
  8
3
 10
47.73392721249996
 20
-22.0328762072
 30
0.0
  0
VERTEX
  5
1660
  8
3
 10
47.2556650537
 20
-22.72360379680001
 30
0.0
  0
VERTEX
  5
1661
  8
3
 10
46.99623299339999
 20
-23.4610341093
 30
0.0
  0
VERTEX
  5
1662
  8
3
 10
46.96560086029996
 20
-24.21682811140001
 30
0.0
  0
SEQEND
  5
1812
  8
3
  0
LINE
  5
DBD
  8
3
 10
52.94999999999999
 20
-19.6541926778
 30
0.0
 11
49.94999999999999
 21
-18.54085187940001
 31
0.0
  0
LINE
  5
DBE
  8
3
 10
55.94999999999999
 20
-18.54085187940001
 30
0.0
 11
52.94999999999999
 21
-19.6541926778
 31
0.0
  0
LINE
  5
DBF
  8
3
 10
52.94999999999999
 20
-19.6541926778
 30
0.0
 11
52.94999999999999
 21
-26.5485926659
 31
0.0
  0
LINE
  5
DC0
  8
3
 10
55.94999999999999
 20
-18.54085187940001
 30
0.0
 11
55.94999999999999
 21
-25.4352518675
 31
0.0
  0
LINE
  5
DC1
  8
3
 10
55.94999999999999
 20
-16.3141702825
 30
0.0
 11
55.94999999999999
 21
-18.54085187940001
 31
0.0
  0
LINE
  5
DC2
  8
3
 10
49.94999999999999
 20
-18.54085187940001
 30
0.0
 11
49.94999999999999
 21
-16.3141702825
 31
0.0
  0
LINE
  5
DC3
  8
3
 10
49.94999999999999
 20
-18.54085187940001
 30
0.0
 11
49.94999999999999
 21
-25.4352518675
 31
0.0
  0
POLYLINE
  5
DC4
  8
3
 66
     1
 10
0.0
 20
0.0
 30
0.0
  0
VERTEX
  5
1663
  8
3
 10
47.46430078859999
 20
-24.5766887276
 30
0.0
  0
VERTEX
  5
1664
  8
3
 10
47.49680595269996
 20
-23.8616667543
 30
0.0
  0
VERTEX
  5
1665
  8
3
 10
47.75256552189995
 20
-23.1654872373
 30
0.0
  0
VERTEX
  5
1666
  8
3
 10
48.22110866930001
 20
-22.51665184790001
 30
0.0
  0
VERTEX
  5
1667
  8
3
 10
48.88325318329998
 20
-21.941723983
 30
0.0
  0
VERTEX
  5
1668
  8
3
 10
49.7118907899
 20
-21.4642412572
 30
0.0
  0
VERTEX
  5
1669
  8
3
 10
50.67309696799998
 20
-21.10375186920001
 30
0.0
  0
VERTEX
  5
166A
  8
3
 10
51.72751982369999
 20
-20.87501429700001
 30
0.0
  0
VERTEX
  5
166B
  8
3
 10
52.83199116149996
 20
-20.78739308360001
 30
0.0
  0
VERTEX
  5
166C
  8
3
 10
53.94129379500004
 20
-20.84447545180001
 30
0.0
  0
VERTEX
  5
166D
  8
3
 10
55.01001274409998
 20
-21.0439244427
 30
0.0
  0
VERTEX
  5
166E
  8
3
 10
55.99439452939998
 20
-21.3775745913
 30
0.0
  0
VERTEX
  5
166F
  8
3
 10
56.8541384449
 20
-21.8317662213
 30
0.0
  0
VERTEX
  5
1670
  8
3
 10
57.55404647379999
 20
-22.38790467380001
 30
0.0
  0
VERTEX
  5
1671
  8
3
 10
58.06546429910003
 20
-23.0232215755
 30
0.0
  0
VERTEX
  5
1672
  8
3
 10
58.367454415
 20
-23.7117069776
 30
0.0
  0
VERTEX
  5
1673
  8
3
 10
58.4476533106
 20
-24.42517420680001
 30
0.0
  0
VERTEX
  5
1674
  8
3
 10
58.30277763370003
 20
-25.13441383110001
 30
0.0
  0
VERTEX
  5
1675
  8
3
 10
57.93875861160001
 20
-25.8103894969
 30
0.0
  0
VERTEX
  5
1676
  8
3
 10
57.37049922570003
 20
-26.4254266809
 30
0.0
  0
VERTEX
  5
1677
  8
3
 10
56.62126408219996
 20
-26.9543456886
 30
0.0
  0
VERTEX
  5
1678
  8
3
 10
55.72172695579997
 20
-27.37549251370001
 30
0.0
  0
VERTEX
  5
1679
  8
3
 10
54.70871500210001
 20
-27.6716253557
 30
0.0
  0
VERTEX
  5
167A
  8
3
 10
53.62370104960002
 20
-27.8306205012
 30
0.0
  0
VERTEX
  5
167B
  8
3
 10
52.511105697
 20
-27.84596867030001
 30
0.0
  0
VERTEX
  5
167C
  8
3
 10
51.41647872879997
 20
-27.71704150710001
 30
0.0
  0
VERTEX
  5
167D
  8
3
 10
50.3846343015
 20
-27.4491173049
 30
0.0
  0
VERTEX
  5
167E
  8
3
 10
49.45781624739999
 20
-27.0531649119
 30
0.0
  0
VERTEX
  5
167F
  8
3
 10
48.67396860640002
 20
-26.5453946658
 30
0.0
  0
VERTEX
  5
1680
  8
3
 10
48.06518219309999
 20
-25.94659473990001
 30
0.0
  0
VERTEX
  5
1681
  8
3
 10
47.6563807947
 20
-25.2812800736
 30
0.0
  0
VERTEX
  5
1682
  8
3
 10
47.46430078859999
 20
-24.5766887276
 30
0.0
  0
SEQEND
  5
1811
  8
3
  0
LINE
  5
DC5
  8
3
 10
52.94999999999999
 20
-15.20082948400001
 30
0.0
 11
52.94999999999999
 21
-19.6541926778
 31
0.0
  0
LINE
  5
DC6
  8
3
 10
52.94999999999999
 20
-22.0952294721
 30
0.0
 11
55.94999999999999
 21
-23.20857027060001
 31
0.0
  0
LINE
  5
DC7
  8
3
 10
52.94999999999999
 20
-15.20082948400001
 30
0.0
 11
55.94999999999999
 21
-16.3141702825
 31
0.0
  0
LINE
  5
DC8
  8
3
 10
55.94999999999999
 20
-25.4352518675
 30
0.0
 11
52.94999999999999
 21
-26.5485926659
 31
0.0
  0
LINE
  5
DC9
  8
3
 10
52.94999999999999
 20
-26.5485926659
 30
0.0
 11
49.94999999999999
 21
-25.4352518675
 31
0.0
  0
LINE
  5
DCA
  8
3
 10
49.94999999999999
 20
-23.20857027060001
 30
0.0
 11
52.94999999999999
 21
-22.0952294721
 31
0.0
  0
LINE
  5
DCB
  8
3
 10
49.94999999999999
 20
-16.3141702825
 30
0.0
 11
52.94999999999999
 21
-15.20082948400001
 31
0.0
  0
POLYLINE
  5
DCC
  8
3
 66
     1
 10
0.0
 20
0.0
 30
0.0
  0
VERTEX
  5
1683
  8
3
 10
50.93647707780002
 20
12.44239058689999
 30
0.0
  0
VERTEX
  5
1684
  8
3
 10
50.26104914609999
 20
12.06053580069999
 30
0.0
  0
VERTEX
  5
1685
  8
3
 10
49.75457788590001
 20
11.58270730269999
 30
0.0
  0
VERTEX
  5
1686
  8
3
 10
49.448886749
 20
11.03892881460001
 30
0.0
  0
VERTEX
  5
1687
  8
3
 10
49.36318343379997
 20
10.46336793879999
 30
0.0
  0
VERTEX
  5
1688
  8
3
 10
49.50285299490002
 20
9.892189281900016
 30
0.0
  0
VERTEX
  5
1689
  8
3
 10
49.85911948009999
 20
9.361282099499988
 30
0.0
  0
VERTEX
  5
168A
  8
3
 10
50.40959735580003
 20
8.90400524239999
 30
0.0
  0
VERTEX
  5
168B
  8
3
 10
51.11969807259999
 20
8.54909109739998
 30
0.0
  0
VERTEX
  5
168C
  8
3
 10
51.94480339080002
 20
8.318840225399981
 30
0.0
  0
VERTEX
  5
168D
  8
3
 10
52.83306890889997
 20
8.227720135500022
 30
0.0
  0
VERTEX
  5
168E
  8
3
 10
53.72868163740003
 20
8.281456238200008
 30
0.0
  0
VERTEX
  5
168F
  8
3
 10
54.57536693489999
 20
8.476672096299978
 30
0.0
  0
VERTEX
  5
1690
  8
3
 10
55.31992445020001
 20
8.801101579600015
 30
0.0
  0
VERTEX
  5
1691
  8
3
 10
55.91557089629998
 20
9.23435959059998
 30
0.0
  0
VERTEX
  5
1692
  8
3
 10
56.32487961639998
 20
9.74922293489999
 30
0.0
  0
VERTEX
  5
1693
  8
3
 10
56.5221322383
 20
10.31334085520001
 30
0.0
  0
VERTEX
  5
1694
  8
3
 10
56.49493465419999
 20
10.8912677477
 30
0.0
  0
VERTEX
  5
1695
  8
3
 10
56.24499578850003
 20
11.44669034039998
 30
0.0
  0
VERTEX
  5
1696
  8
3
 10
55.78802021920001
 20
11.94470938899997
 30
0.0
  0
VERTEX
  5
1697
  8
3
 10
55.152721402
 20
12.3540325253
 30
0.0
  0
VERTEX
  5
1698
  8
3
 10
54.37901749809998
 20
12.648940471
 30
0.0
  0
VERTEX
  5
1699
  8
3
 10
53.51552316930002
 20
12.81090307549999
 30
0.0
  0
VERTEX
  5
169A
  8
3
 10
52.61649493990001
 20
12.82974363249997
 30
0.0
  0
VERTEX
  5
169B
  8
3
 10
51.73842205989996
 20
12.70427832069998
 30
0.0
  0
VERTEX
  5
169C
  8
3
 10
50.93647707780002
 20
12.44239058689999
 30
0.0
  0
SEQEND
  5
1810
  8
3
  0
POLYLINE
  5
DCD
  8
3
 66
     1
 10
0.0
 20
0.0
 30
0.0
  0
VERTEX
  5
169D
  8
3
 10
49.58333387290003
 20
20.61987930729998
 30
0.0
  0
VERTEX
  5
169E
  8
3
 10
50.61692844379996
 20
20.98072430650001
 30
0.0
  0
VERTEX
  5
169F
  8
3
 10
51.74018164629996
 20
21.2050213142
 30
0.0
  0
VERTEX
  5
16A0
  8
3
 10
52.90992748959997
 20
21.28415072209998
 30
0.0
  0
VERTEX
  5
16A1
  8
3
 10
54.08121329700003
 20
21.21507163140001
 30
0.0
  0
VERTEX
  5
16A2
  8
3
 10
55.20902721190004
 20
21.00043871280002
 30
0.0
  0
VERTEX
  5
16A3
  8
3
 10
56.25002797780002
 20
20.64850018909999
 30
0.0
  0
VERTEX
  5
16A4
  8
3
 10
57.16421051920003
 20
20.17278086030001
 30
0.0
  0
VERTEX
  5
16A5
  8
3
 10
57.91644331369997
 20
19.59156235339998
 30
0.0
  0
VERTEX
  5
16A6
  8
3
 10
58.47781847689998
 20
18.92718056979999
 30
0.0
  0
VERTEX
  5
16A7
  8
3
 10
58.82676267610003
 20
18.20516732869999
 30
0.0
  0
VERTEX
  5
16A8
  8
3
 10
58.94986618130002
 20
17.45326919410002
 30
0.0
  0
VERTEX
  5
16A9
  8
3
 10
58.842398194
 20
16.70038118970001
 30
0.0
  0
VERTEX
  5
16AA
  8
3
 10
58.50848864860001
 20
15.97543637929999
 30
0.0
  0
VERTEX
  5
16AB
  8
3
 10
57.9609695016
 20
15.3062939852
 30
0.0
  0
VERTEX
  5
16AC
  8
3
 10
57.22088160690004
 20
14.71866877460002
 30
0.0
  0
VERTEX
  5
16AD
  8
3
 10
56.31666612710001
 20
14.23514285469997
 30
0.0
  0
VERTEX
  5
16AE
  8
3
 10
55.28307155620001
 20
13.87429785540002
 30
0.0
  0
VERTEX
  5
16AF
  8
3
 10
54.15981835370002
 20
13.65000084769997
 30
0.0
  0
VERTEX
  5
16B0
  8
3
 10
52.99007251040001
 20
13.57087143979999
 30
0.0
  0
VERTEX
  5
16B1
  8
3
 10
51.818786703
 20
13.63995053050002
 30
0.0
  0
VERTEX
  5
16B2
  8
3
 10
50.69097278819999
 20
13.85458344910001
 30
0.0
  0
VERTEX
  5
16B3
  8
3
 10
49.64997202219996
 20
14.20652197279998
 30
0.0
  0
VERTEX
  5
16B4
  8
3
 10
48.73578948080001
 20
14.68224130160002
 30
0.0
  0
VERTEX
  5
16B5
  8
3
 10
47.98355668630001
 20
15.26345980849999
 30
0.0
  0
VERTEX
  5
16B6
  8
3
 10
47.42218152309999
 20
15.92784159219997
 30
0.0
  0
VERTEX
  5
16B7
  8
3
 10
47.0732373239
 20
16.64985483319998
 30
0.0
  0
VERTEX
  5
16B8
  8
3
 10
46.95013381869995
 20
17.40175296780001
 30
0.0
  0
VERTEX
  5
16B9
  8
3
 10
47.05760180600004
 20
18.15464097220001
 30
0.0
  0
VERTEX
  5
16BA
  8
3
 10
47.39151135150001
 20
18.87958578270002
 30
0.0
  0
VERTEX
  5
16BB
  8
3
 10
47.93903049839997
 20
19.54872817669997
 30
0.0
  0
VERTEX
  5
16BC
  8
3
 10
48.6791183931
 20
20.13635338730001
 30
0.0
  0
VERTEX
  5
16BD
  8
3
 10
49.58333387290003
 20
20.61987930729998
 30
0.0
  0
SEQEND
  5
180F
  8
3
  0
POLYLINE
  5
DCE
  8
3
 66
     1
 10
0.0
 20
0.0
 30
0.0
  0
VERTEX
  5
16BE
  8
3
 10
49.58333387290003
 20
27.13125707379999
 30
0.0
  0
VERTEX
  5
16BF
  8
3
 10
48.6791183931
 20
26.64773115380001
 30
0.0
  0
VERTEX
  5
16C0
  8
3
 10
47.93903049839997
 20
26.06010594319997
 30
0.0
  0
VERTEX
  5
16C1
  8
3
 10
47.39151135150001
 20
25.39096354920002
 30
0.0
  0
VERTEX
  5
16C2
  8
3
 10
47.05760180600004
 20
24.66601873870002
 30
0.0
  0
VERTEX
  5
16C3
  8
3
 10
46.95013381869995
 20
23.91313073430001
 30
0.0
  0
VERTEX
  5
16C4
  8
3
 10
47.0732373239
 20
23.16123259979997
 30
0.0
  0
VERTEX
  5
16C5
  8
3
 10
47.42218152309999
 20
22.43921935869997
 30
0.0
  0
VERTEX
  5
16C6
  8
3
 10
47.98355668630001
 20
21.77483757499999
 30
0.0
  0
VERTEX
  5
16C7
  8
3
 10
48.73578948080001
 20
21.19361906820001
 30
0.0
  0
VERTEX
  5
16C8
  8
3
 10
49.64997202219996
 20
20.71789973929998
 30
0.0
  0
VERTEX
  5
16C9
  8
3
 10
50.69097278819999
 20
20.36596121560001
 30
0.0
  0
VERTEX
  5
16CA
  8
3
 10
51.818786703
 20
20.15132829700002
 30
0.0
  0
VERTEX
  5
16CB
  8
3
 10
52.99007251040001
 20
20.08224920629999
 30
0.0
  0
VERTEX
  5
16CC
  8
3
 10
54.15981835370002
 20
20.16137861419998
 30
0.0
  0
VERTEX
  5
16CD
  8
3
 10
55.28307155620001
 20
20.38567562190002
 30
0.0
  0
VERTEX
  5
16CE
  8
3
 10
56.31666612710001
 20
20.74652062119998
 30
0.0
  0
VERTEX
  5
16CF
  8
3
 10
57.22088160690004
 20
21.23004654110002
 30
0.0
  0
VERTEX
  5
16D0
  8
3
 10
57.9609695016
 20
21.8176717517
 30
0.0
  0
VERTEX
  5
16D1
  8
3
 10
58.50848864860001
 20
22.4868141458
 30
0.0
  0
VERTEX
  5
16D2
  8
3
 10
58.842398194
 20
23.21175895620001
 30
0.0
  0
VERTEX
  5
16D3
  8
3
 10
58.94986618130002
 20
23.96464696060002
 30
0.0
  0
VERTEX
  5
16D4
  8
3
 10
58.82676267610003
 20
24.71654509519999
 30
0.0
  0
VERTEX
  5
16D5
  8
3
 10
58.47781847689998
 20
25.43855833629999
 30
0.0
  0
VERTEX
  5
16D6
  8
3
 10
57.91644331369997
 20
26.10294011989998
 30
0.0
  0
VERTEX
  5
16D7
  8
3
 10
57.16421051920003
 20
26.68415862680001
 30
0.0
  0
VERTEX
  5
16D8
  8
3
 10
56.25002797780002
 20
27.1598779556
 30
0.0
  0
VERTEX
  5
16D9
  8
3
 10
55.20902721190004
 20
27.51181647940001
 30
0.0
  0
VERTEX
  5
16DA
  8
3
 10
54.08121329700003
 20
27.72644939790001
 30
0.0
  0
VERTEX
  5
16DB
  8
3
 10
52.90992748959997
 20
27.79552848859998
 30
0.0
  0
VERTEX
  5
16DC
  8
3
 10
51.74018164629996
 20
27.7163990807
 30
0.0
  0
VERTEX
  5
16DD
  8
3
 10
50.61692844379996
 20
27.49210207300001
 30
0.0
  0
VERTEX
  5
16DE
  8
3
 10
49.58333387290003
 20
27.13125707379999
 30
0.0
  0
SEQEND
  5
180E
  8
3
  0
LINE
  5
DCF
  8
3
 10
52.94999999999999
 20
19.65419267789997
 30
0.0
 11
55.94999999999999
 21
18.54085187940001
 31
0.0
  0
LINE
  5
DD0
  8
3
 10
52.94999999999999
 20
19.65419267789997
 30
0.0
 11
52.94999999999999
 21
26.54859266599999
 31
0.0
  0
LINE
  5
DD1
  8
3
 10
49.94999999999999
 20
18.54085187940001
 30
0.0
 11
52.94999999999999
 21
19.65419267789997
 31
0.0
  0
LINE
  5
DD2
  8
3
 10
55.94999999999999
 20
18.54085187940001
 30
0.0
 11
55.94999999999999
 21
25.43525186749997
 31
0.0
  0
LINE
  5
DD3
  8
3
 10
55.94999999999999
 20
18.54085187940001
 30
0.0
 11
55.94999999999999
 21
16.31417028250002
 31
0.0
  0
LINE
  5
DD4
  8
3
 10
49.94999999999999
 20
18.54085187940001
 30
0.0
 11
49.94999999999999
 21
25.43525186749997
 31
0.0
  0
LINE
  5
DD5
  8
3
 10
49.94999999999999
 20
16.31417028250002
 30
0.0
 11
49.94999999999999
 21
18.54085187940001
 31
0.0
  0
POLYLINE
  5
DD6
  8
3
 66
     1
 10
0.0
 20
0.0
 30
0.0
  0
VERTEX
  5
16DF
  8
3
 10
49.86388938349995
 20
27.24824860979999
 30
0.0
  0
VERTEX
  5
16E0
  8
3
 10
50.84348846419999
 20
27.5876649338
 30
0.0
  0
VERTEX
  5
16E1
  8
3
 10
51.90932837459997
 20
27.79338091080001
 30
0.0
  0
VERTEX
  5
16E2
  8
3
 10
53.01777350369997
 20
27.85697450459998
 30
0.0
  0
VERTEX
  5
16E3
  8
3
 10
54.1234439776
 20
27.77584218599998
 30
0.0
  0
VERTEX
  5
16E4
  8
3
 10
55.18107351719999
 20
27.5533055217
 30
0.0
  0
VERTEX
  5
16E5
  8
3
 10
56.14736264480001
 20
27.19847518879999
 30
0.0
  0
VERTEX
  5
16E6
  8
3
 10
56.9827513701
 20
26.72587798289999
 30
0.0
  0
VERTEX
  5
16E7
  8
3
 10
57.65303878039998
 20
26.15486208900001
 30
0.0
  0
VERTEX
  5
16E8
  8
3
 10
58.13078323049996
 20
25.50880496510001
 30
0.0
  0
VERTEX
  5
16E9
  8
3
 10
58.39642580649996
 20
24.8141562655
 30
0.0
  0
VERTEX
  5
16EA
  8
3
 10
58.43909106990003
 20
24.09935498980002
 30
0.0
  0
VERTEX
  5
16EB
  8
3
 10
58.25703230009998
 20
23.3936651862
 30
0.0
  0
VERTEX
  5
16EC
  8
3
 10
57.85770300429999
 20
22.72597787799998
 30
0.0
  0
VERTEX
  5
16ED
  8
3
 10
57.25745177089999
 20
22.12362826219999
 30
0.0
  0
VERTEX
  5
16EE
  8
3
 10
56.48085295589999
 20
21.61127660279999
 30
0.0
  0
VERTEX
  5
16EF
  8
3
 10
55.55970060600004
 20
21.20989863689999
 30
0.0
  0
VERTEX
  5
16F0
  8
3
 10
54.53170680670002
 20
20.93592682569999
 30
0.0
  0
VERTEX
  5
16F1
  8
3
 10
53.43895774489999
 20
20.80057760720001
 30
0.0
  0
VERTEX
  5
16F2
  8
3
 10
52.32619069560002
 20
20.80939219430002
 30
0.0
  0
VERTEX
  5
16F3
  8
3
 10
51.23896247240003
 20
20.962009717
 30
0.0
  0
VERTEX
  5
16F4
  8
3
 10
50.2217843267
 20
21.25218199569997
 30
0.0
  0
VERTEX
  5
16F5
  8
3
 10
49.31629965119998
 20
21.66802934340001
 30
0.0
  0
VERTEX
  5
16F6
  8
3
 10
48.55957909490002
 20
22.1925269207
 30
0.0
  0
VERTEX
  5
16F7
  8
3
 10
47.9826028864
 20
22.80420173530001
 30
0.0
  0
VERTEX
  5
16F8
  8
3
 10
47.60899249929997
 20
23.47801174829999
 30
0.0
  0
VERTEX
  5
16F9
  8
3
 10
47.45404358679997
 20
24.18637109859998
 30
0.0
  0
VERTEX
  5
16FA
  8
3
 10
47.52409977560001
 20
24.9002794713
 30
0.0
  0
VERTEX
  5
16FB
  8
3
 10
47.81629295720001
 20
25.59050937360001
 30
0.0
  0
VERTEX
  5
16FC
  8
3
 10
48.31866070819996
 20
26.22880271230002
 30
0.0
  0
VERTEX
  5
16FD
  8
3
 10
49.01063603400002
 20
26.78902768310002
 30
0.0
  0
VERTEX
  5
16FE
  8
3
 10
49.86388938349995
 20
27.24824860979999
 30
0.0
  0
SEQEND
  5
180D
  8
3
  0
LINE
  5
DD7
  8
3
 10
49.94999999999999
 20
25.43525186749997
 30
0.0
 11
52.94999999999999
 21
26.54859266599999
 31
0.0
  0
LINE
  5
DD8
  8
3
 10
52.94999999999999
 20
26.54859266599999
 30
0.0
 11
55.94999999999999
 21
25.43525186749997
 31
0.0
  0
LINE
  5
DD9
  8
3
 10
52.94999999999999
 20
15.20082948409998
 30
0.0
 11
52.94999999999999
 21
19.65419267789997
 31
0.0
  0
LINE
  5
DDA
  8
3
 10
52.94999999999999
 20
22.09522947210002
 30
0.0
 11
49.94999999999999
 21
23.20857027059998
 31
0.0
  0
LINE
  5
DDB
  8
3
 10
52.94999999999999
 20
15.20082948409998
 30
0.0
 11
49.94999999999999
 21
16.31417028250002
 31
0.0
  0
LINE
  5
DDC
  8
3
 10
55.94999999999999
 20
23.20857027059998
 30
0.0
 11
52.94999999999999
 21
22.09522947210002
 31
0.0
  0
LINE
  5
DDD
  8
3
 10
55.94999999999999
 20
16.31417028250002
 30
0.0
 11
52.94999999999999
 21
15.20082948409998
 31
0.0
  0
POLYLINE
  5
DDF
  8
3
 66
     1
 10
0.0
 20
0.0
 30
0.0
  0
VERTEX
  5
16FF
  8
3
 10
46.25
 20
24.32191106900001
 30
0.0
  0
VERTEX
  5
1700
  8
3
 10
46.28717140679998
 20
23.86289412870002
 30
0.0
  0
VERTEX
  5
1701
  8
3
 10
46.87523963609999
 20
22.40873057189998
 30
0.0
  0
VERTEX
  5
1702
  8
3
 10
48.12489238730001
 20
21.07183935529997
 30
0.0
  0
VERTEX
  5
1703
  8
3
 10
49.93738027570004
 20
20.03919724730002
 30
0.0
  0
VERTEX
  5
1704
  8
3
 10
52.10300861909997
 20
19.5109316512
 30
0.0
  0
VERTEX
  5
1705
  8
3
 10
54.32639464740004
 20
19.58275273629999
 30
0.0
  0
VERTEX
  5
1706
  8
3
 10
56.3724350773
 20
20.21590656839999
 30
0.0
  0
VERTEX
  5
1707
  8
3
 10
58.06769105609999
 20
21.31569151560001
 30
0.0
  0
VERTEX
  5
1708
  8
3
 10
59.21508451799997
 20
22.7274297285
 30
0.0
  0
VERTEX
  5
1709
  8
3
 10
59.64806390819996
 20
24.21807164580002
 30
0.0
  0
VERTEX
  5
170A
  8
3
 10
59.65000000000003
 20
24.32191106900001
 30
0.0
  0
SEQEND
  5
180C
  8
3
  0
POLYLINE
  5
DE0
  8
3
 66
     1
 10
0.0
 20
0.0
 30
0.0
  0
VERTEX
  5
170B
  8
3
 10
59.65000000000003
 20
24.32191106900001
 30
0.0
  0
VERTEX
  5
170C
  8
3
 10
59.33524923369998
 20
25.57666821219999
 30
0.0
  0
VERTEX
  5
170D
  8
3
 10
58.33370539039998
 20
26.69283016830002
 30
0.0
  0
VERTEX
  5
170E
  8
3
 10
56.72233643980002
 20
27.50836802309999
 30
0.0
  0
VERTEX
  5
170F
  8
3
 10
54.66030365679995
 20
27.97427544879997
 30
0.0
  0
VERTEX
  5
1710
  8
3
 10
52.94999999999999
 20
28.08088201269999
 30
0.0
  0
VERTEX
  5
1711
  8
3
 10
50.7604124925
 20
27.90350728940001
 30
0.0
  0
VERTEX
  5
1712
  8
3
 10
48.81813868730001
 20
27.37420209980002
 30
0.0
  0
VERTEX
  5
1713
  8
3
 10
47.31081258210003
 20
26.4890603289
 30
0.0
  0
VERTEX
  5
1714
  8
3
 10
46.42712779909999
 20
25.27736492050002
 30
0.0
  0
VERTEX
  5
1715
  8
3
 10
46.25
 20
24.32191106900001
 30
0.0
  0
SEQEND
  5
180B
  8
3
  0
POLYLINE
  5
DE1
  8
3
 66
     1
 10
0.0
 20
0.0
 30
0.0
  0
VERTEX
  5
1716
  8
3
 10
46.25
 20
-24.32191106900001
 30
0.0
  0
VERTEX
  5
1717
  8
3
 10
46.28717140679998
 20
-24.7689420958
 30
0.0
  0
VERTEX
  5
1718
  8
3
 10
46.87523963609999
 20
-26.0419959826
 30
0.0
  0
VERTEX
  5
1719
  8
3
 10
48.12489238730001
 20
-27.0478059325
 30
0.0
  0
VERTEX
  5
171A
  8
3
 10
49.93738027570004
 20
-27.7327094891
 30
0.0
  0
VERTEX
  5
171B
  8
3
 10
52.10300861909997
 20
-28.0551827167
 30
0.0
  0
VERTEX
  5
171C
  8
3
 10
54.32639464740004
 20
-28.0123957883
 30
0.0
  0
VERTEX
  5
171D
  8
3
 10
56.3724350773
 20
-27.6207459714
 30
0.0
  0
VERTEX
  5
171E
  8
3
 10
58.06769105609999
 20
-26.8748550511
 30
0.0
  0
VERTEX
  5
171F
  8
3
 10
59.21508451799997
 20
-25.7801541602
 30
0.0
  0
VERTEX
  5
1720
  8
3
 10
59.64806390819996
 20
-24.4251246268
 30
0.0
  0
VERTEX
  5
1721
  8
3
 10
59.65000000000003
 20
-24.32191106900001
 30
0.0
  0
SEQEND
  5
180A
  8
3
  0
POLYLINE
  5
DE2
  8
3
 66
     1
 10
0.0
 20
0.0
 30
0.0
  0
VERTEX
  5
1722
  8
3
 10
59.65000000000003
 20
-24.32191106900001
 30
0.0
  0
VERTEX
  5
1723
  8
3
 10
59.33524923369998
 20
-22.96768136300001
 30
0.0
  0
VERTEX
  5
1724
  8
3
 10
58.33370539039998
 20
-21.5657027805
 30
0.0
  0
VERTEX
  5
1725
  8
3
 10
56.72233643980002
 20
-20.39000931620001
 30
0.0
  0
VERTEX
  5
1726
  8
3
 10
54.66030365679995
 20
-19.64628172960001
 30
0.0
  0
VERTEX
  5
1727
  8
3
 10
52.94999999999999
 20
-19.4675280428
 30
0.0
  0
VERTEX
  5
1728
  8
3
 10
50.7604124925
 20
-19.7630945022
 30
0.0
  0
VERTEX
  5
1729
  8
3
 10
48.81813868730001
 20
-20.5937558984
 30
0.0
  0
VERTEX
  5
172A
  8
3
 10
47.31081258210003
 20
-21.8379129196
 30
0.0
  0
VERTEX
  5
172B
  8
3
 10
46.42712779909999
 20
-23.30991468660001
 30
0.0
  0
VERTEX
  5
172C
  8
3
 10
46.25
 20
-24.32191106900001
 30
0.0
  0
SEQEND
  5
1809
  8
3
  0
CIRCLE
  5
DE3
  8
3
 10
52.94999999999999
 20
0.0
 30
0.0
 40
5.099999999999994
  0
LINE
  5
DE4
  8
3
 10
22.8719455753
 20
11.10000000000002
 30
0.0
 11
22.8719455753
 21
-11.10000000000001
 31
0.0
  0
LINE
  5
DE5
  8
3
 10
27.0
 20
18.25
 30
0.0
 11
27.0
 21
-18.25
 31
0.0
  0
LINE
  5
DE6
  8
3
 10
32.0
 20
18.25
 30
0.0
 11
32.0
 21
-18.25
 31
0.0
  0
LINE
  5
DE7
  8
3
 10
52.40000000000003
 20
-15.8164448963
 30
0.0
 11
68.59999999999997
 21
-15.8164448963
 31
0.0
  0
LINE
  5
DE8
  8
3
 10
68.75
 20
-15.67543374200001
 30
0.0
 11
68.59999999999997
 21
-15.8164448963
 31
0.0
  0
LINE
  5
DE9
  8
3
 10
68.59999999999997
 20
15.81644489629997
 30
0.0
 11
68.75
 21
15.67543374209998
 31
0.0
  0
LINE
  5
DEA
  8
3
 10
52.40000000000003
 20
15.81644489629997
 30
0.0
 11
68.59999999999997
 21
15.81644489629997
 31
0.0
  0
POLYLINE
  5
DEB
  8
3
 66
     1
 10
0.0
 20
0.0
 30
0.0
  0
VERTEX
  5
172D
  8
3
 10
57.49307920479998
 20
15.81604959089998
 30
0.0
  0
VERTEX
  5
172E
  8
3
 10
58.44938016830002
 20
14.96891829509997
 30
0.0
  0
VERTEX
  5
172F
  8
3
 10
58.80992927099999
 20
13.86569181649998
 30
0.0
  0
VERTEX
  5
1730
  8
3
 10
58.54247940429997
 20
12.61374251000001
 30
0.0
  0
VERTEX
  5
1731
  8
3
 10
57.64255945040003
 20
11.35937345000002
 30
0.0
  0
VERTEX
  5
1732
  8
3
 10
56.24713793839999
 20
10.29332485589998
 30
0.0
  0
VERTEX
  5
1733
  8
3
 10
54.50055054429998
 20
9.629485760199998
 30
0.0
  0
VERTEX
  5
1734
  8
3
 10
52.55541275729996
 20
9.452298225899995
 30
0.0
  0
VERTEX
  5
1735
  8
3
 10
50.67290588290001
 20
9.83999301739999
 30
0.0
  0
VERTEX
  5
1736
  8
3
 10
49.04614571489998
 20
10.68721366850002
 30
0.0
  0
VERTEX
  5
1737
  8
3
 10
47.83851492859998
 20
11.83644965569999
 30
0.0
  0
VERTEX
  5
1738
  8
3
 10
47.18472160319999
 20
13.11052326390001
 30
0.0
  0
VERTEX
  5
1739
  8
3
 10
47.15181157620003
 20
14.3244650776
 30
0.0
  0
VERTEX
  5
173A
  8
3
 10
47.76361212500001
 20
15.33531438379998
 30
0.0
  0
VERTEX
  5
173B
  8
3
 10
48.92765905689998
 20
16.07161434699998
 30
0.0
  0
VERTEX
  5
173C
  8
3
 10
50.52633624160001
 20
16.52704667030002
 30
0.0
  0
VERTEX
  5
173D
  8
3
 10
52.4000000195
 20
16.72041278849997
 30
0.0
  0
SEQEND
  5
1808
  8
3
  0
POLYLINE
  5
DEC
  8
3
 66
     1
 10
0.0
 20
0.0
 30
0.0
  0
VERTEX
  5
173E
  8
3
 10
52.39999999989999
 20
-16.7199309648
 30
0.0
  0
VERTEX
  5
173F
  8
3
 10
50.52478499590001
 20
-16.5263103389
 30
0.0
  0
VERTEX
  5
1740
  8
3
 10
48.92502493620003
 20
-16.07104242940001
 30
0.0
  0
VERTEX
  5
1741
  8
3
 10
47.76331009489996
 20
-15.33625522
 30
0.0
  0
VERTEX
  5
1742
  8
3
 10
47.15326141320003
 20
-14.3281463477
 30
0.0
  0
VERTEX
  5
1743
  8
3
 10
47.18408683130002
 20
-13.1148748164
 30
0.0
  0
VERTEX
  5
1744
  8
3
 10
47.83679465820001
 20
-11.83877642040001
 30
0.0
  0
VERTEX
  5
1745
  8
3
 10
49.04697525519998
 20
-10.6879663966
 30
0.0
  0
VERTEX
  5
1746
  8
3
 10
50.67423848269999
 20
-9.840801417500003
 30
0.0
  0
VERTEX
  5
1747
  8
3
 10
52.55557176589997
 20
-9.45166190830001
 30
0.0
  0
VERTEX
  5
1748
  8
3
 10
54.4964882077
 20
-9.627064185700007
 30
0.0
  0
VERTEX
  5
1749
  8
3
 10
56.24156822769999
 20
-10.2903900803
 30
0.0
  0
VERTEX
  5
174A
  8
3
 10
57.63921287099998
 20
-11.3575026916
 30
0.0
  0
VERTEX
  5
174B
  8
3
 10
58.54105063039998
 20
-12.6116906922
 30
0.0
  0
VERTEX
  5
174C
  8
3
 10
58.80972003540001
 20
-13.86332207170001
 30
0.0
  0
VERTEX
  5
174D
  8
3
 10
58.44921618439997
 20
-14.96799848180001
 30
0.0
  0
VERTEX
  5
174E
  8
3
 10
57.49295664330003
 20
-15.81612077140001
 30
0.0
  0
SEQEND
  5
1807
  8
3
  0
LINE
  5
DED
  8
3
 10
68.75
 20
15.67543374209998
 30
0.0
 11
68.75
 21
-15.67543374200001
 31
0.0
  0
ARC
  5
DEE
  8
3
 10
53.68043113439995
 20
0.0663216143999961
 30
0.0
 40
4.820025216360897
 50
359.2116081686
 51
43.47722477119968
  0
ARC
  5
DEF
  8
3
 10
52.33540891360002
 20
0.0987716619999901
 30
0.0
 40
4.961733025679629
 50
133.8727401163001
 51
218.5402554978997
  0
ARC
  5
DF0
  8
3
 10
53.72271790919996
 20
-0.2190727911000039
 30
0.0
 40
4.782302535243281
 50
310.2957569697004
 51
2.62558472120004
  0
LINE
  5
E1E
  8
3
 10
69.0
 20
-15.6766577928
 30
0.0
 11
68.75
 21
-15.67543374200001
 31
0.0
  0
LINE
  5
E1F
  8
3
 10
68.75
 20
15.67543374209998
 30
0.0
 11
69.0
 21
15.67665779290002
 31
0.0
  0
LINE
  5
E20
  8
3
 10
52.40000000000003
 20
22.44999999999999
 30
0.0
 11
52.40000000000003
 21
15.81644489629997
 31
0.0
  0
LINE
  5
E21
  8
3
 10
68.59999999999997
 20
22.44999999999999
 30
0.0
 11
68.59999999999997
 21
15.81644489629997
 31
0.0
  0
LINE
  5
E22
  8
3
 10
52.40000000000003
 20
-15.8164448963
 30
0.0
 11
52.40000000000003
 21
-22.45
 31
0.0
  0
LINE
  5
E23
  8
3
 10
68.59999999999997
 20
-15.8164448963
 30
0.0
 11
68.59999999999997
 21
-22.45
 31
0.0
  0
LINE
  5
E26
  8
3
 10
68.59999999999997
 20
-22.45
 30
0.0
 11
68.59999999999997
 21
-25.2
 31
0.0
  0
LINE
  5
E27
  8
3
 10
68.59999999999997
 20
25.19999999999999
 30
0.0
 11
68.59999999999997
 21
22.44999999999999
 31
0.0
  0
LINE
  5
E28
  8
3
 10
52.40000000000003
 20
-22.45
 30
0.0
 11
52.40000000000003
 21
-25.2
 31
0.0
  0
LINE
  5
E29
  8
3
 10
52.40000000000003
 20
25.19999999999999
 30
0.0
 11
52.40000000000003
 21
22.44999999999999
 31
0.0
  0
LINE
  5
E2C
  8
3
 10
55.55078722709999
 20
16.55496105489999
 30
0.0
 11
57.49285656679996
 21
15.81488699429997
 31
0.0
  0
ARC
  5
E2D
  8
3
 10
52.9535716712
 20
11.75841343079998
 30
0.0
 40
5.455950692356026
 50
61.56004255080023
 51
95.82336517609988
  0
ARC
  5
E2E
  8
3
 10
52.95357404909998
 20
-11.75843865200001
 30
0.0
 40
5.455925842521387
 50
264.1765831071998
 51
298.4441889075995
  0
LINE
  5
E2F
  8
3
 10
57.4927211502
 20
-15.8149970195
 30
0.0
 11
55.55115222789999
 21
-16.5550045921
 31
0.0
  0
POLYLINE
  5
E30
  8
3
 66
     1
 10
0.0
 20
0.0
 30
0.0
  0
VERTEX
  5
174F
  8
3
 10
52.40000000000003
 20
16.81262468630001
 30
0.0
  0
VERTEX
  5
1750
  8
3
 10
50.68021213169999
 20
16.62621235979998
 30
0.0
  0
VERTEX
  5
1751
  8
3
 10
50.12134446520002
 20
16.50112301830001
 30
0.0
  0
VERTEX
  5
1752
  8
3
 10
49.2482342042
 20
16.18620589670002
 30
0.0
  0
VERTEX
  5
1753
  8
3
 10
48.26628004180003
 20
15.45434659929998
 30
0.0
  0
VERTEX
  5
1754
  8
3
 10
47.85704718079995
 20
14.43915025770002
 30
0.0
  0
VERTEX
  5
1755
  8
3
 10
48.04389500889999
 20
13.31553561559997
 30
0.0
  0
VERTEX
  5
1756
  8
3
 10
48.89924106990003
 20
12.01392015980002
 30
0.0
  0
VERTEX
  5
1757
  8
3
 10
50.20877666029997
 20
10.99423155310001
 30
0.0
  0
VERTEX
  5
1758
  8
3
 10
51.8628526457
 20
10.3748524467
 30
0.0
  0
VERTEX
  5
1759
  8
3
 10
53.5838885009
 20
10.30677927929997
 30
0.0
  0
VERTEX
  5
175A
  8
3
 10
55.36697586279996
 20
10.8233275897
 30
0.0
  0
VERTEX
  5
175B
  8
3
 10
55.54792087339996
 20
10.91578314560002
 30
0.0
  0
VERTEX
  5
175C
  8
3
 10
56.76201882050003
 20
11.77622260710001
 30
0.0
  0
VERTEX
  5
175D
  8
3
 10
57.69499048910001
 20
12.97180725729999
 30
0.0
  0
VERTEX
  5
175E
  8
3
 10
58.04853945409997
 20
14.1856023286
 30
0.0
  0
VERTEX
  5
175F
  8
3
 10
57.76983561740002
 20
15.26408260839997
 30
0.0
  0
VERTEX
  5
1760
  8
3
 10
56.90043283439996
 20
16.05636981480001
 30
0.0
  0
VERTEX
  5
1761
  8
3
 10
55.99526452469996
 20
16.43832379330001
 30
0.0
  0
VERTEX
  5
1762
  8
3
 10
55.70181042639996
 20
16.51972911450002
 30
0.0
  0
VERTEX
  5
1763
  8
3
 10
55.60797935919999
 20
16.54250506390002
 30
0.0
  0
VERTEX
  5
1764
  8
3
 10
55.55183394470004
 20
16.55562905170001
 30
0.0
  0
SEQEND
  5
1806
  8
3
  0
POLYLINE
  5
E31
  8
3
 66
     1
 10
0.0
 20
0.0
 30
0.0
  0
VERTEX
  5
1765
  8
3
 10
55.55219136609998
 20
-16.5554960426
 30
0.0
  0
VERTEX
  5
1766
  8
3
 10
55.60805030399996
 20
-16.5424407392
 30
0.0
  0
VERTEX
  5
1767
  8
3
 10
55.99502630859996
 20
-16.43835005860001
 30
0.0
  0
VERTEX
  5
1768
  8
3
 10
56.90083538580001
 20
-16.05605559920001
 30
0.0
  0
VERTEX
  5
1769
  8
3
 10
57.77057279889999
 20
-15.26275086770001
 30
0.0
  0
VERTEX
  5
176A
  8
3
 10
58.04847287169997
 20
-14.1836369387
 30
0.0
  0
VERTEX
  5
176B
  8
3
 10
57.69343022699996
 20
-12.9687288648
 30
0.0
  0
VERTEX
  5
176C
  8
3
 10
56.75926018809997
 20
-11.7736303252
 30
0.0
  0
VERTEX
  5
176D
  8
3
 10
55.85161015379998
 20
-11.0895469296
 30
0.0
  0
VERTEX
  5
176E
  8
3
 10
55.54250548759995
 20
-10.91283030210001
 30
0.0
  0
VERTEX
  5
176F
  8
3
 10
55.3623086206
 20
-10.8209278855
 30
0.0
  0
VERTEX
  5
1770
  8
3
 10
53.62677392009999
 20
-10.3110508363
 30
0.0
  0
VERTEX
  5
1771
  8
3
 10
51.86237675449996
 20
-10.37487730880001
 30
0.0
  0
VERTEX
  5
1772
  8
3
 10
50.20887030219995
 20
-10.9943709356
 30
0.0
  0
VERTEX
  5
1773
  8
3
 10
48.8980834276
 20
-12.0150919127
 30
0.0
  0
VERTEX
  5
1774
  8
3
 10
48.0606939868
 20
-13.27909027780001
 30
0.0
  0
VERTEX
  5
1775
  8
3
 10
47.85739198409999
 20
-14.4430003814
 30
0.0
  0
VERTEX
  5
1776
  8
3
 10
48.26735501399997
 20
-15.45564788350001
 30
0.0
  0
VERTEX
  5
1777
  8
3
 10
49.24704298859996
 20
-16.1855401521
 30
0.0
  0
VERTEX
  5
1778
  8
3
 10
50.11842553629998
 20
-16.500249368
 30
0.0
  0
VERTEX
  5
1779
  8
3
 10
50.67857943309997
 20
-16.6258922011
 30
0.0
  0
VERTEX
  5
177A
  8
3
 10
52.40000000000003
 20
-16.81273890590001
 30
0.0
  0
SEQEND
  5
1805
  8
3
  0
POLYLINE
  5
E32
  8
3
 66
     1
 10
0.0
 20
0.0
 30
0.0
  0
VERTEX
  5
177B
  8
3
 10
52.94999999999999
 20
24.99557677180002
 30
0.0
  0
VERTEX
  5
177C
  8
3
 10
51.88965037680003
 20
24.92393986920001
 30
0.0
  0
VERTEX
  5
177D
  8
3
 10
50.87564312030003
 20
24.7121600378
 30
0.0
  0
VERTEX
  5
177E
  8
3
 10
49.95229521330003
 20
24.36949307250001
 30
0.0
  0
VERTEX
  5
177F
  8
3
 10
49.15996139010002
 20
23.91091516389997
 30
0.0
  0
VERTEX
  5
1780
  8
3
 10
48.53327044069999
 20
23.35646836709998
 30
0.0
  0
VERTEX
  5
1781
  8
3
 10
48.09961176689995
 20
22.73038466779997
 30
0.0
  0
VERTEX
  5
1782
  8
3
 10
47.87793833359996
 20
22.06002692779998
 30
0.0
  0
VERTEX
  5
1783
  8
3
 10
47.87793833359996
 20
21.3746929971
 30
0.0
  0
VERTEX
  5
1784
  8
3
 10
48.09961176689995
 20
20.70433525710001
 30
0.0
  0
VERTEX
  5
1785
  8
3
 10
48.53327044069999
 20
20.07825155770001
 30
0.0
  0
VERTEX
  5
1786
  8
3
 10
49.15996139010002
 20
19.52380476100001
 30
0.0
  0
VERTEX
  5
1787
  8
3
 10
49.95229521330003
 20
19.06522685239997
 30
0.0
  0
VERTEX
  5
1788
  8
3
 10
50.87564312030003
 20
18.72255988699999
 30
0.0
  0
VERTEX
  5
1789
  8
3
 10
51.88965037680003
 20
18.51078005559998
 30
0.0
  0
VERTEX
  5
178A
  8
3
 10
52.94999999999999
 20
18.43914315299997
 30
0.0
  0
VERTEX
  5
178B
  8
3
 10
54.0103496232
 20
18.51078005559998
 30
0.0
  0
VERTEX
  5
178C
  8
3
 10
55.02435687970001
 20
18.72255988699999
 30
0.0
  0
VERTEX
  5
178D
  8
3
 10
55.9477047867
 20
19.06522685239997
 30
0.0
  0
VERTEX
  5
178E
  8
3
 10
56.74003860989995
 20
19.52380476100001
 30
0.0
  0
VERTEX
  5
178F
  8
3
 10
57.36672955929998
 20
20.07825155770001
 30
0.0
  0
VERTEX
  5
1790
  8
3
 10
57.80038823310002
 20
20.70433525710001
 30
0.0
  0
VERTEX
  5
1791
  8
3
 10
58.02206166640002
 20
21.3746929971
 30
0.0
  0
VERTEX
  5
1792
  8
3
 10
58.02206166640002
 20
22.06002692779998
 30
0.0
  0
VERTEX
  5
1793
  8
3
 10
57.80038823310002
 20
22.73038466779997
 30
0.0
  0
VERTEX
  5
1794
  8
3
 10
57.36672955929998
 20
23.35646836709998
 30
0.0
  0
VERTEX
  5
1795
  8
3
 10
56.74003860989995
 20
23.91091516389997
 30
0.0
  0
VERTEX
  5
1796
  8
3
 10
55.9477047867
 20
24.36949307250001
 30
0.0
  0
VERTEX
  5
1797
  8
3
 10
55.02435687970001
 20
24.7121600378
 30
0.0
  0
VERTEX
  5
1798
  8
3
 10
54.0103496232
 20
24.92393986920001
 30
0.0
  0
VERTEX
  5
1799
  8
3
 10
52.94999999999999
 20
24.99557677180002
 30
0.0
  0
SEQEND
  5
1804
  8
3
  0
POLYLINE
  5
E33
  8
3
 66
     1
 10
0.0
 20
0.0
 30
0.0
  0
VERTEX
  5
179A
  8
3
 10
52.94999999999999
 20
-18.439143153
 30
0.0
  0
VERTEX
  5
179B
  8
3
 10
51.88965037680003
 20
-18.51078005560001
 30
0.0
  0
VERTEX
  5
179C
  8
3
 10
50.87564312030003
 20
-18.722559887
 30
0.0
  0
VERTEX
  5
179D
  8
3
 10
49.95229521330003
 20
-19.0652268524
 30
0.0
  0
VERTEX
  5
179E
  8
3
 10
49.15996139010002
 20
-19.52380476100001
 30
0.0
  0
VERTEX
  5
179F
  8
3
 10
48.53327044069999
 20
-20.0782515577
 30
0.0
  0
VERTEX
  5
17A0
  8
3
 10
48.09961176689995
 20
-20.7043352571
 30
0.0
  0
VERTEX
  5
17A1
  8
3
 10
47.87793833359996
 20
-21.3746929971
 30
0.0
  0
VERTEX
  5
17A2
  8
3
 10
47.87793833359996
 20
-22.06002692780001
 30
0.0
  0
VERTEX
  5
17A3
  8
3
 10
48.09961176689995
 20
-22.73038466780001
 30
0.0
  0
VERTEX
  5
17A4
  8
3
 10
48.53327044069999
 20
-23.35646836710001
 30
0.0
  0
VERTEX
  5
17A5
  8
3
 10
49.15996139010002
 20
-23.9109151639
 30
0.0
  0
VERTEX
  5
17A6
  8
3
 10
49.95229521330003
 20
-24.36949307250001
 30
0.0
  0
VERTEX
  5
17A7
  8
3
 10
50.87564312030003
 20
-24.7121600378
 30
0.0
  0
VERTEX
  5
17A8
  8
3
 10
51.88965037680003
 20
-24.9239398692
 30
0.0
  0
VERTEX
  5
17A9
  8
3
 10
52.94999999999999
 20
-24.9955767718
 30
0.0
  0
VERTEX
  5
17AA
  8
3
 10
54.0103496232
 20
-24.9239398692
 30
0.0
  0
VERTEX
  5
17AB
  8
3
 10
55.02435687970001
 20
-24.7121600378
 30
0.0
  0
VERTEX
  5
17AC
  8
3
 10
55.9477047867
 20
-24.36949307250001
 30
0.0
  0
VERTEX
  5
17AD
  8
3
 10
56.74003860989995
 20
-23.9109151639
 30
0.0
  0
VERTEX
  5
17AE
  8
3
 10
57.36672955929998
 20
-23.35646836710001
 30
0.0
  0
VERTEX
  5
17AF
  8
3
 10
57.80038823310002
 20
-22.73038466780001
 30
0.0
  0
VERTEX
  5
17B0
  8
3
 10
58.02206166640002
 20
-22.06002692780001
 30
0.0
  0
VERTEX
  5
17B1
  8
3
 10
58.02206166640002
 20
-21.3746929971
 30
0.0
  0
VERTEX
  5
17B2
  8
3
 10
57.80038823310002
 20
-20.7043352571
 30
0.0
  0
VERTEX
  5
17B3
  8
3
 10
57.36672955929998
 20
-20.0782515577
 30
0.0
  0
VERTEX
  5
17B4
  8
3
 10
56.74003860989995
 20
-19.52380476100001
 30
0.0
  0
VERTEX
  5
17B5
  8
3
 10
55.9477047867
 20
-19.0652268524
 30
0.0
  0
VERTEX
  5
17B6
  8
3
 10
55.02435687970001
 20
-18.722559887
 30
0.0
  0
VERTEX
  5
17B7
  8
3
 10
54.0103496232
 20
-18.51078005560001
 30
0.0
  0
VERTEX
  5
17B8
  8
3
 10
52.94999999999999
 20
-18.439143153
 30
0.0
  0
SEQEND
  5
1803
  8
3
  0
POLYLINE
  5
E38
  8
3
 66
     1
 10
0.0
 20
0.0
 30
0.0
  0
VERTEX
  5
17B9
  8
3
 10
52.94999999999999
 20
27.24970805629999
 30
0.0
  0
VERTEX
  5
17BA
  8
3
 10
54.18112176940002
 20
27.17637869660001
 30
0.0
  0
VERTEX
  5
17BB
  8
3
 10
55.37031916350003
 20
26.95888776089998
 30
0.0
  0
VERTEX
  5
17BC
  8
3
 10
56.47709549129996
 20
26.60464164199999
 30
0.0
  0
VERTEX
  5
17BD
  8
3
 10
57.46376081239998
 20
26.12570376690002
 30
0.0
  0
VERTEX
  5
17BE
  8
3
 10
58.29671542279999
 20
25.53838379019999
 30
0.0
  0
VERTEX
  5
17BF
  8
3
 10
58.94759405209999
 20
24.86268218949999
 30
0.0
  0
VERTEX
  5
17C0
  8
3
 10
59.39423180929998
 20
24.12160917239999
 30
0.0
  0
VERTEX
  5
17C1
  8
3
 10
59.62141898120001
 20
23.34040109159997
 30
0.0
  0
VERTEX
  5
17C2
  8
3
 10
59.62141898120001
 20
22.54566105129999
 30
0.0
  0
VERTEX
  5
17C3
  8
3
 10
59.39423180929998
 20
21.76445297049997
 30
0.0
  0
VERTEX
  5
17C4
  8
3
 10
58.94759405209999
 20
21.02337995329998
 30
0.0
  0
VERTEX
  5
17C5
  8
3
 10
58.29671542279999
 20
20.34767835259998
 30
0.0
  0
VERTEX
  5
17C6
  8
3
 10
57.46376081239998
 20
19.760358376
 30
0.0
  0
VERTEX
  5
17C7
  8
3
 10
56.47709549129996
 20
19.28142050079998
 30
0.0
  0
VERTEX
  5
17C8
  8
3
 10
55.37031916350003
 20
18.92717438199998
 30
0.0
  0
VERTEX
  5
17C9
  8
3
 10
54.18112176940002
 20
18.70968344620002
 30
0.0
  0
VERTEX
  5
17CA
  8
3
 10
52.94999999999999
 20
18.63635408649998
 30
0.0
  0
VERTEX
  5
17CB
  8
3
 10
51.71887823059996
 20
18.70968344620002
 30
0.0
  0
VERTEX
  5
17CC
  8
3
 10
50.52968083659999
 20
18.92717438199998
 30
0.0
  0
VERTEX
  5
17CD
  8
3
 10
49.42290450870001
 20
19.28142050079998
 30
0.0
  0
VERTEX
  5
17CE
  8
3
 10
48.43623918759999
 20
19.760358376
 30
0.0
  0
VERTEX
  5
17CF
  8
3
 10
47.60328457719999
 20
20.34767835259998
 30
0.0
  0
VERTEX
  5
17D0
  8
3
 10
46.95240594789999
 20
21.02337995329998
 30
0.0
  0
VERTEX
  5
17D1
  8
3
 10
46.50576819079998
 20
21.76445297049997
 30
0.0
  0
VERTEX
  5
17D2
  8
3
 10
46.27858101880003
 20
22.54566105129999
 30
0.0
  0
VERTEX
  5
17D3
  8
3
 10
46.27858101880003
 20
23.34040109159997
 30
0.0
  0
VERTEX
  5
17D4
  8
3
 10
46.50576819079998
 20
24.12160917239999
 30
0.0
  0
VERTEX
  5
17D5
  8
3
 10
46.95240594789999
 20
24.86268218949999
 30
0.0
  0
VERTEX
  5
17D6
  8
3
 10
47.60328457719999
 20
25.53838379019999
 30
0.0
  0
VERTEX
  5
17D7
  8
3
 10
48.43623918759999
 20
26.12570376690002
 30
0.0
  0
VERTEX
  5
17D8
  8
3
 10
49.42290450870001
 20
26.60464164199999
 30
0.0
  0
VERTEX
  5
17D9
  8
3
 10
50.52968083659999
 20
26.95888776089998
 30
0.0
  0
VERTEX
  5
17DA
  8
3
 10
51.71887823059996
 20
27.17637869660001
 30
0.0
  0
VERTEX
  5
17DB
  8
3
 10
52.94999999999999
 20
27.24970805629999
 30
0.0
  0
SEQEND
  5
1802
  8
3
  0
POLYLINE
  5
E39
  8
3
 66
     1
 10
0.0
 20
0.0
 30
0.0
  0
VERTEX
  5
17DC
  8
3
 10
52.94999999999999
 20
-18.63635408650001
 30
0.0
  0
VERTEX
  5
17DD
  8
3
 10
54.18112176940002
 20
-18.7096834462
 30
0.0
  0
VERTEX
  5
17DE
  8
3
 10
55.37031916350003
 20
-18.927174382
 30
0.0
  0
VERTEX
  5
17DF
  8
3
 10
56.47709549129996
 20
-19.28142050080001
 30
0.0
  0
VERTEX
  5
17E0
  8
3
 10
57.46376081239998
 20
-19.760358376
 30
0.0
  0
VERTEX
  5
17E1
  8
3
 10
58.29671542279999
 20
-20.3476783526
 30
0.0
  0
VERTEX
  5
17E2
  8
3
 10
58.94759405209999
 20
-21.02337995330001
 30
0.0
  0
VERTEX
  5
17E3
  8
3
 10
59.39423180929998
 20
-21.7644529704
 30
0.0
  0
VERTEX
  5
17E4
  8
3
 10
59.62141898120001
 20
-22.5456610513
 30
0.0
  0
VERTEX
  5
17E5
  8
3
 10
59.62141898120001
 20
-23.3404010915
 30
0.0
  0
VERTEX
  5
17E6
  8
3
 10
59.39423180929998
 20
-24.1216091724
 30
0.0
  0
VERTEX
  5
17E7
  8
3
 10
58.94759405209999
 20
-24.86268218950001
 30
0.0
  0
VERTEX
  5
17E8
  8
3
 10
58.29671542279999
 20
-25.5383837902
 30
0.0
  0
VERTEX
  5
17E9
  8
3
 10
57.46376081239998
 20
-26.1257037668
 30
0.0
  0
VERTEX
  5
17EA
  8
3
 10
56.47709549129996
 20
-26.604641642
 30
0.0
  0
VERTEX
  5
17EB
  8
3
 10
55.37031916350003
 20
-26.95888776080001
 30
0.0
  0
VERTEX
  5
17EC
  8
3
 10
54.18112176940002
 20
-27.17637869660001
 30
0.0
  0
VERTEX
  5
17ED
  8
3
 10
52.94999999999999
 20
-27.24970805630001
 30
0.0
  0
VERTEX
  5
17EE
  8
3
 10
51.71887823059996
 20
-27.17637869660001
 30
0.0
  0
VERTEX
  5
17EF
  8
3
 10
50.52968083659999
 20
-26.95888776080001
 30
0.0
  0
VERTEX
  5
17F0
  8
3
 10
49.42290450870001
 20
-26.604641642
 30
0.0
  0
VERTEX
  5
17F1
  8
3
 10
48.43623918759999
 20
-26.1257037668
 30
0.0
  0
VERTEX
  5
17F2
  8
3
 10
47.60328457719999
 20
-25.5383837902
 30
0.0
  0
VERTEX
  5
17F3
  8
3
 10
46.95240594789999
 20
-24.86268218950001
 30
0.0
  0
VERTEX
  5
17F4
  8
3
 10
46.50576819079998
 20
-24.1216091724
 30
0.0
  0
VERTEX
  5
17F5
  8
3
 10
46.27858101880003
 20
-23.3404010915
 30
0.0
  0
VERTEX
  5
17F6
  8
3
 10
46.27858101880003
 20
-22.5456610513
 30
0.0
  0
VERTEX
  5
17F7
  8
3
 10
46.50576819079998
 20
-21.7644529704
 30
0.0
  0
VERTEX
  5
17F8
  8
3
 10
46.95240594789999
 20
-21.02337995330001
 30
0.0
  0
VERTEX
  5
17F9
  8
3
 10
47.60328457719999
 20
-20.3476783526
 30
0.0
  0
VERTEX
  5
17FA
  8
3
 10
48.43623918759999
 20
-19.760358376
 30
0.0
  0
VERTEX
  5
17FB
  8
3
 10
49.42290450870001
 20
-19.28142050080001
 30
0.0
  0
VERTEX
  5
17FC
  8
3
 10
50.52968083659999
 20
-18.927174382
 30
0.0
  0
VERTEX
  5
17FD
  8
3
 10
51.71887823059996
 20
-18.7096834462
 30
0.0
  0
VERTEX
  5
17FE
  8
3
 10
52.94999999999999
 20
-18.63635408650001
 30
0.0
  0
SEQEND
  5
1801
  8
3
  0
LINE
  5
E3A
  8
3
 10
58.79637962520002
 20
-16.5603800465
 30
0.0
 11
56.44658057639998
 21
-10.0145006491
 31
0.0
  0
LINE
  5
E3B
  8
3
 10
49.4534194236
 20
-10.0145006491
 30
0.0
 11
47.10362037479996
 21
-16.5603800465
 31
0.0
  0
LINE
  5
E3C
  8
3
 10
58.94999999999999
 20
-23.93888884750001
 30
0.0
 11
58.94999999999999
 21
-17.4275110809
 31
0.0
  0
LINE
  5
E3D
  8
3
 10
46.94999999999999
 20
-17.4275110809
 30
0.0
 11
46.94999999999999
 21
-23.93888884750001
 31
0.0
  0
LINE
  5
E3E
  8
3
 10
49.68613340919995
 20
-27.17506592470001
 30
0.0
 11
49.95812229179995
 21
-27.2884067232
 31
0.0
  0
LINE
  5
E3F
  8
3
 10
55.94187770820002
 20
-27.2884067232
 30
0.0
 11
56.21386659080002
 21
-27.17506592470001
 31
0.0
  0
LINE
  5
E40
  8
3
 10
47.10362037479996
 20
16.56038004660002
 30
0.0
 11
49.4534194236
 21
10.0145006491
 31
0.0
  0
LINE
  5
E41
  8
3
 10
56.44658057639998
 20
10.0145006491
 30
0.0
 11
58.79637962520002
 21
16.56038004660002
 31
0.0
  0
LINE
  5
E42
  8
3
 10
46.94999999999999
 20
23.93888884749998
 30
0.0
 11
46.94999999999999
 21
17.42751108099998
 31
0.0
  0
LINE
  5
E43
  8
3
 10
58.94999999999999
 20
17.42751108099998
 30
0.0
 11
58.94999999999999
 21
23.93888884749998
 31
0.0
  0
LINE
  5
E44
  8
3
 10
56.21386659080002
 20
27.17506592479998
 30
0.0
 11
55.94187770820002
 21
27.28840672320001
 31
0.0
  0
LINE
  5
E45
  8
3
 10
49.95812229179995
 20
27.28840672320001
 30
0.0
 11
49.68613340919995
 21
27.17506592479998
 31
0.0
  0
LINE
  5
E49
  8
3
 10
27.0
 20
18.25
 30
0.0
 11
22.8719455753
 21
11.10000000000002
 31
0.0
  0
LINE
  5
E4A
  8
3
 10
22.8719455753
 20
-11.10000000000001
 30
0.0
 11
27.0
 21
-18.25
 31
0.0
  0
LINE
  5
E4B
  8
3
 10
27.0
 20
-18.25
 30
0.0
 11
32.0
 21
-18.25
 31
0.0
  0
LINE
  5
E4C
  8
3
 10
32.0
 20
18.25
 30
0.0
 11
27.0
 21
18.25
 31
0.0
  0
LINE
  5
E4D
  8
3
 10
52.40000000000003
 20
18.0
 30
0.0
 11
32.0
 21
18.0
 31
0.0
  0
LINE
  5
E4E
  8
3
 10
32.0
 20
-18.0
 30
0.0
 11
52.40000000000003
 21
-18.0
 31
0.0
  0
LINE
  5
E53
  8
3
 10
0.0
 20
-11.10000000000001
 30
0.0
 11
22.8719455753
 21
-11.10000000000001
 31
0.0
  0
LINE
  5
E54
  8
3
 10
22.8719455753
 20
11.10000000000002
 30
0.0
 11
0.0
 21
11.10000000000002
 31
0.0
  0
LINE
  5
E59
  8
3
 10
68.59999999999997
 20
-25.2
 30
0.0
 11
69.0
 21
-25.60000000000001
 31
0.0
  0
LINE
  5
E5A
  8
3
 10
69.0
 20
25.60000000010001
 30
0.0
 11
68.59999999999997
 21
25.19999999999999
 31
0.0
  0
LINE
  5
E5B
  8
3
 10
52.40000000000003
 20
-25.2
 30
0.0
 11
68.59999999999997
 21
-25.2
 31
0.0
  0
LINE
  5
E5C
  8
3
 10
68.59999999999997
 20
25.19999999999999
 30
0.0
 11
52.40000000000003
 21
25.19999999999999
 31
0.0
  0
LINE
  5
E5F
  8
3
 10
56.82592467030003
 20
16.12467492399998
 30
0.0
 11
56.52171155619999
 21
16.24202878069997
 31
0.0
  0
LINE
  5
E60
  8
3
 10
49.58688677139997
 20
16.32794922659997
 30
0.0
 11
49.14503248419999
 21
16.15898231389997
 31
0.0
  0
LINE
  5
E61
  8
3
 10
49.1400671001
 20
-16.15755851530001
 30
0.0
 11
49.58256630130001
 21
-16.3267910567
 31
0.0
  0
LINE
  5
E62
  8
3
 10
56.52179748219999
 20
-16.2420642039
 30
0.0
 11
56.8259116799
 21
-16.1247302892
 31
0.0
  0
LINE
  5
E63
  8
3
 10
47.84999999999997
 20
21.7173599624
 30
0.0
 11
47.84999999999997
 21
14.2579756028
 31
0.0
  0
LINE
  5
E64
  8
3
 10
58.05000000000001
 20
14.2592959708
 30
0.0
 11
58.05000000000001
 21
21.7173599624
 31
0.0
  0
LINE
  5
E65
  8
3
 10
58.05000000000001
 20
-21.71735996240001
 30
0.0
 11
58.05000000000001
 21
-14.2590085569
 31
0.0
  0
LINE
  5
E66
  8
3
 10
47.84999999999997
 20
-14.2579680801
 30
0.0
 11
47.84999999999997
 21
-21.71735996240001
 31
0.0
  0
LINE
  5
E67
  8
3
 10
46.25
 20
24.32191106900001
 30
0.0
 11
46.25
 21
22.94303107140001
 31
0.0
  0
LINE
  5
E68
  8
3
 10
59.65000000000003
 20
22.94303107140001
 30
0.0
 11
59.65000000000003
 21
24.32191106900001
 31
0.0
  0
LINE
  5
E69
  8
3
 10
56.59465102639996
 20
-19.32930000180001
 30
0.0
 11
55.72428660219998
 21
-18.96660944670001
 31
0.0
  0
LINE
  5
E6A
  8
3
 10
50.1757133978
 20
-18.96660944670001
 30
0.0
 11
49.30534897360002
 21
-19.32930000180001
 31
0.0
  0
LINE
  5
E6B
  8
3
 10
49.30534897360002
 20
19.32930000179999
 30
0.0
 11
50.1757133978
 21
18.96660944680002
 31
0.0
  0
LINE
  5
E6C
  8
3
 10
55.72428660219998
 20
18.96660944680002
 30
0.0
 11
56.59465102639996
 21
19.32930000179999
 31
0.0
  0
LINE
  5
E6D
  8
3
 10
59.65000000000003
 20
-24.32191106900001
 30
0.0
 11
59.65000000000003
 21
-22.9430310714
 31
0.0
  0
LINE
  5
E6E
  8
3
 10
46.25
 20
-22.9430310714
 30
0.0
 11
46.25
 21
-24.32191106900001
 31
0.0
  0
LINE
  5
E72
  8
1
 10
38.03703832569717
 20
-31.74999999999999
 30
0.0
 11
38.03703832569717
 21
31.75000000000001
 31
0.0
  0
DIMENSION
  5
E87
  8
SK2
  2
*D6
 10
93.20598750256244
 20
-31.75
 30
0.0
 11
91.33098750256244
 21
0.0
 31
0.0
 70
    32
  3
ISO-25
 13
68.5
 23
31.75
 33
0.0
 14
68.5
 24
-31.75
 34
0.0
 50
90.0
1001
ACAD
1000
DSTYLE
1002
{
1070
   287
1070
     5
1070
   271
1070
     3
1070
   272
1070
     3
1070
   279
1070
     2
1002
}
  0
LINE
  5
10C9
  8
NOCUT
 10
35.0499999999972
 20
34.47142857140001
 30
0.0
 11
34.55216027909714
 21
34.92500000000003
 31
0.0
  0
ARC
  5
10CB
  8
NOCUT
 10
38.03703832569718
 20
34.75000000000001
 30
0.0
 40
3.000000000000012
 50
185.3279979039998
 51
270.0
  0
LINE
  5
10CC
  8
NOCUT
 10
68.5
 20
31.75
 30
0.0
 11
38.03703832569715
 21
31.75
 31
0.0
  0
LINE
  5
10CD
  8
NOCUT
 10
69.0
 20
31.25
 30
0.0
 11
68.5
 21
31.75
 31
0.0
  0
LINE
  5
10CE
  8
NOCUT
 10
69.0
 20
0.0
 30
0.0
 11
69.0
 21
31.25
 31
0.0
  0
ENDSEC
  0
EOF
