  0
SECTION
  2
HEADER
  9
$ACADVER
  1
AC1009
  9
$DWGCODEPAGE
  3
ansi_1251
  9
$INSBASE
 10
0.0
 20
0.0
 30
0.0
  9
$EXTMIN
 10
1.000000000000000E+20
 20
1.000000000000000E+20
 30
1.000000000000000E+20
  9
$EXTMAX
 10
-1.000000000000000E+20
 20
-1.000000000000000E+20
 30
-1.000000000000000E+20
  9
$LIMMIN
 10
0.0
 20
0.0
  9
$LIMMAX
 10
420.0
 20
297.0
  9
$ORTHOMODE
 70
     1
  9
$REGENMODE
 70
     1
  9
$FILLMODE
 70
     1
  9
$QTEXTMODE
 70
     0
  9
$MIRRTEXT
 70
     0
  9
$DRAGMODE
 70
     2
  9
$LTSCALE
 40
1.0
  9
$OSMODE
 70
   279
  9
$ATTMODE
 70
     1
  9
$TEXTSIZE
 40
2.5
  9
$TRACEWID
 40
1.0
  9
$TEXTSTYLE
  7
STANDARD
  9
$CLAYER
  8
0
  9
$CELTYPE
  6
BYLAYER
  9
$CECOLOR
 62
   256
  9
$DIMSCALE
 40
1.0
  9
$DIMASZ
 40
2.5
  9
$DIMEXO
 40
0.625
  9
$DIMDLI
 40
3.75
  9
$DIMRND
 40
0.0
  9
$DIMDLE
 40
0.0
  9
$DIMEXE
 40
1.25
  9
$DIMTP
 40
0.0
  9
$DIMTM
 40
0.0
  9
$DIMTXT
 40
2.5
  9
$DIMCEN
 40
2.5
  9
$DIMTSZ
 40
0.0
  9
$DIMTOL
 70
     0
  9
$DIMLIM
 70
     0
  9
$DIMTIH
 70
     0
  9
$DIMTOH
 70
     0
  9
$DIMSE1
 70
     0
  9
$DIMSE2
 70
     0
  9
$DIMTAD
 70
     1
  9
$DIMZIN
 70
     8
  9
$DIMBLK
  1

  9
$DIMASO
 70
     1
  9
$DIMSHO
 70
     1
  9
$DIMPOST
  1

  9
$DIMAPOST
  1

  9
$DIMALT
 70
     0
  9
$DIMALTD
 70
     3
  9
$DIMALTF
 40
0.03937007874016
  9
$DIMLFAC
 40
1.0
  9
$DIMTOFL
 70
     1
  9
$DIMTVP
 40
0.0
  9
$DIMTIX
 70
     0
  9
$DIMSOXD
 70
     0
  9
$DIMSAH
 70
     0
  9
$DIMBLK1
  1

  9
$DIMBLK2
  1

  9
$DIMSTYLE
  2
ISO-25
  9
$DIMCLRD
 70
     0
  9
$DIMCLRE
 70
     0
  9
$DIMCLRT
 70
     0
  9
$DIMTFAC
 40
1.0
  9
$DIMGAP
 40
0.625
  9
$LUNITS
 70
     2
  9
$LUPREC
 70
     3
  9
$SKETCHINC
 40
1.0
  9
$FILLETRAD
 40
1.0
  9
$AUNITS
 70
     0
  9
$AUPREC
 70
     0
  9
$MENU
  1
.
  9
$ELEVATION
 40
0.0
  9
$PELEVATION
 40
0.0
  9
$THICKNESS
 40
0.0
  9
$LIMCHECK
 70
     0
  9
$CHAMFERA
 40
10.0
  9
$CHAMFERB
 40
10.0
  9
$SKPOLY
 70
     0
  9
$TDCREATE
 40
2455022.429026158
  9
$TDUPDATE
 40
2455022.429026158
  9
$TDINDWG
 40
0.0000000116
  9
$TDUSRTIMER
 40
2458688.858416181
  9
$USRTIMER
 70
     1
  9
$ANGBASE
 50
0.0
  9
$ANGDIR
 70
     0
  9
$PDMODE
 70
     0
  9
$PDSIZE
 40
0.0
  9
$PLINEWID
 40
0.0
  9
$COORDS
 70
     1
  9
$SPLFRAME
 70
     0
  9
$SPLINETYPE
 70
     6
  9
$SPLINESEGS
 70
     8
  9
$ATTDIA
 70
     0
  9
$ATTREQ
 70
     1
  9
$HANDLING
 70
     1
  9
$HANDSEED
  5
1523
  9
$SURFTAB1
 70
     6
  9
$SURFTAB2
 70
     6
  9
$SURFTYPE
 70
     6
  9
$SURFU
 70
     6
  9
$SURFV
 70
     6
  9
$UCSNAME
  2

  9
$UCSORG
 10
0.0
 20
0.0
 30
0.0
  9
$UCSXDIR
 10
1.0
 20
0.0
 30
0.0
  9
$UCSYDIR
 10
0.0
 20
1.0
 30
0.0
  9
$PUCSNAME
  2

  9
$PUCSORG
 10
0.0
 20
0.0
 30
0.0
  9
$PUCSXDIR
 10
1.0
 20
0.0
 30
0.0
  9
$PUCSYDIR
 10
0.0
 20
1.0
 30
0.0
  9
$USERI1
 70
     0
  9
$USERI2
 70
     0
  9
$USERI3
 70
     0
  9
$USERI4
 70
     0
  9
$USERI5
 70
     0
  9
$USERR1
 40
0.0
  9
$USERR2
 40
0.0
  9
$USERR3
 40
0.0
  9
$USERR4
 40
0.0
  9
$USERR5
 40
0.0
  9
$WORLDVIEW
 70
     1
  9
$SHADEDGE
 70
     3
  9
$SHADEDIF
 70
    70
  9
$TILEMODE
 70
     1
  9
$MAXACTVP
 70
    64
  9
$PLIMCHECK
 70
     0
  9
$PEXTMIN
 10
1.000000000000000E+20
 20
1.000000000000000E+20
 30
1.000000000000000E+20
  9
$PEXTMAX
 10
-1.000000000000000E+20
 20
-1.000000000000000E+20
 30
-1.000000000000000E+20
  9
$PLIMMIN
 10
0.0
 20
0.0
  9
$PLIMMAX
 10
420.0
 20
297.0
  9
$UNITMODE
 70
     0
  9
$VISRETAIN
 70
     1
  9
$PLINEGEN
 70
     0
  9
$PSLTSCALE
 70
     1
  0
ENDSEC
  0
SECTION
  2
TABLES
  0
TABLE
  2
VPORT
 70
     1
  0
VPORT
  2
*ACTIVE
 70
     0
 10
0.0
 20
0.0
 11
1.0
 21
1.0
 12
172.6775241159215
 22
1.280470270319107
 13
0.0
 23
0.0
 14
10.0
 24
10.0
 15
10.0
 25
10.0
 16
0.0
 26
0.0
 36
1.0
 17
-134.1869158878503
 27
0.0
 37
0.0
 40
163.3686226482723
 41
1.332880434782609
 42
50.0
 43
0.0
 44
0.0
 50
0.0
 51
0.0
 71
    16
 72
  1000
 73
     1
 74
     3
 75
     0
 76
     0
 77
     0
 78
     0
  0
ENDTAB
  0
TABLE
  2
LTYPE
 70
     6
  0
LTYPE
  2
CONTINUOUS
 70
     0
  3
Solid line
 72
    65
 73
     0
 40
0.0
  0
LTYPE
  2
CENTER
 70
     0
  3
 Center _____  _  _____  _  _____  _  _____  _ 
 72
    65
 73
     4
 40
50.8
 49
31.75
 49
-6.35
 49
6.35
 49
-6.35
  0
LTYPE
  2
DASHED
 70
     0
  3
Dashed __  __  __  __  __  __  __  __  __  __  
 72
    65
 73
     2
 40
19.05
 49
12.7
 49
-6.35
  0
LTYPE
  2
HIDDEN
 70
     0
  3
Hidden __ __ __ __ __ __ __ __ __ __ __ __ __ __
 72
    65
 73
     2
 40
1.905
 49
1.27
 49
-0.635
  0
LTYPE
  2
CENTERX2
 70
     0
  3
Center (2x) ________  __  ________  __  _____
 72
    65
 73
     4
 40
20.32
 49
12.7
 49
-2.54
 49
2.54
 49
-2.54
  0
LTYPE
  2
PHANTOM
 70
     0
  3
Phantom ______  __  __  ______  __  __  ______
 72
    65
 73
     6
 40
12.7
 49
6.35
 49
-1.27
 49
1.27
 49
-1.27
 49
1.27
 49
-1.27
  0
ENDTAB
  0
TABLE
  2
LAYER
 70
    26
  0
LAYER
  2
0
 70
     0
 62
     7
  6
CONTINUOUS
  0
LAYER
  2
1
 70
     0
 62
     4
  6
CONTINUOUS
  0
LAYER
  2
2
 70
     0
 62
     7
  6
CONTINUOUS
  0
LAYER
  2
3
 70
     0
 62
     1
  6
DASHED
  0
LAYER
  2
4
 70
     0
 62
     2
  6
CENTER
  0
LAYER
  2
6
 70
     0
 62
     5
  6
CONTINUOUS
  0
LAYER
  2
7
 70
     0
 62
     5
  6
CONTINUOUS
  0
LAYER
  2
11
 70
     0
 62
     4
  6
CONTINUOUS
  0
LAYER
  2
SK1
 70
     0
 62
     4
  6
CONTINUOUS
  0
LAYER
  2
SK2
 70
     0
 62
     7
  6
CONTINUOUS
  0
LAYER
  2
SK3
 70
     0
 62
     1
  6
DASHED
  0
LAYER
  2
SK4
 70
     0
 62
     2
  6
CENTER
  0
LAYER
  2
SK6
 70
     0
 62
     5
  6
CONTINUOUS
  0
LAYER
  2
SK7
 70
     0
 62
     5
  6
CONTINUOUS
  0
LAYER
  2
SK11
 70
     0
 62
     4
  6
CONTINUOUS
  0
LAYER
  2
CUT
 70
     0
 62
     1
  6
CONTINUOUS
  0
LAYER
  2
NOCUT
 70
     0
 62
    -7
  6
CONTINUOUS
  0
LAYER
  2
SKVIEW1
 70
     0
 62
     4
  6
CONTINUOUS
  0
LAYER
  2
SKVIEW2
 70
     0
 62
     7
  6
CONTINUOUS
  0
LAYER
  2
SKVIEW3
 70
     0
 62
     1
  6
DASHED
  0
LAYER
  2
SKVIEW4
 70
     0
 62
     2
  6
CENTER
  0
LAYER
  2
SKVIEW6
 70
     0
 62
     5
  6
CONTINUOUS
  0
LAYER
  2
SKVIEW7
 70
     0
 62
     5
  6
CONTINUOUS
  0
LAYER
  2
SKVIEW11
 70
     0
 62
     4
  6
CONTINUOUS
  0
LAYER
  2
INFTOTAL
 70
     0
 62
     9
  6
CONTINUOUS
  0
LAYER
  2
DEFPOINTS
 70
     0
 62
     7
  6
CONTINUOUS
  0
ENDTAB
  0
TABLE
  2
STYLE
 70
     1
  0
STYLE
  2
STANDARD
 70
     0
 40
0.0
 41
1.0
 50
0.0
 71
     0
 42
2.5
  3
txt
  4

  0
ENDTAB
  0
TABLE
  2
VIEW
 70
     0
  0
ENDTAB
  0
TABLE
  2
UCS
 70
     0
  0
ENDTAB
  0
TABLE
  2
APPID
 70
     3
  0
APPID
  2
ACAD
 70
     0
  0
APPID
  2
ACAECLAYERSTANDARD
 70
     0
  0
APPID
  2
ACAD_DSTYLE_DIMRADIAL_EXTE
 70
     0
  0
ENDTAB
  0
TABLE
  2
DIMSTYLE
 70
     1
  0
DIMSTYLE
  2
ISO-25
 70
     0
  3

  4

  5

  6

  7

 40
1.0
 41
2.5
 42
0.625
 43
3.75
 44
1.25
 45
0.0
 46
0.0
 47
0.0
 48
0.0
140
2.5
141
2.5
142
0.0
143
0.03937007874016
144
1.0
145
0.0
146
1.0
147
0.625
 71
     0
 72
     0
 73
     0
 74
     0
 75
     0
 76
     0
 77
     1
 78
     8
170
     0
171
     3
172
     1
173
     0
174
     0
175
     0
176
     0
177
     0
178
     0
  0
ENDTAB
  0
ENDSEC
  0
SECTION
  2
BLOCKS
  0
BLOCK
  8
0
  2
$MODEL_SPACE
 70
     0
 10
0.0
 20
0.0
 30
0.0
  3
$MODEL_SPACE
  1

  0
ENDBLK
  5
21
  8
0
  0
BLOCK
 67
     1
  8
0
  2
$PAPER_SPACE
 70
     0
 10
0.0
 20
0.0
 30
0.0
  3
$PAPER_SPACE
  1

  0
ENDBLK
  5
1D
 67
     1
  8
0
  0
BLOCK
  8
0
  2
_FILLED
 70
     0
 10
0.0
 20
0.0
 30
0.0
  3
_FILLED
  1

  0
SOLID
  5
1C4
  8
0
  6
BYBLOCK
 62
     0
 10
0.0
 20
0.0
 30
0.0
 11
-1.0
 21
0.2142857143
 31
0.0
 12
-1.0
 22
-0.2142857143
 32
0.0
 13
-1.0
 23
-0.2142857143
 33
0.0
  0
ENDBLK
  5
1C5
  8
0
  6
BYBLOCK
 62
     0
  0
BLOCK
  8
0
  2
*D1
 70
     1
 10
0.0
 20
0.0
 30
0.0
  3
*D1
  1

  0
LINE
  5
211
  8
SK2
 62
     0
 10
0.0
 20
-22.84999999999999
 30
0.0
 11
0.0
 21
-48.27109509650273
 31
0.0
  0
LINE
  5
212
  8
SK2
 62
     0
 10
35.05
 20
-31.375
 30
0.0
 11
35.05
 21
-48.27109509650273
 31
0.0
  0
LINE
  5
213
  8
SK2
 62
     0
 10
2.5
 20
-47.02109509650273
 30
0.0
 11
32.55
 21
-47.02109509650273
 31
0.0
  0
SOLID
  5
214
  8
SK2
 62
     0
 10
2.5
 20
-46.60442842983606
 30
0.0
 11
2.5
 21
-47.43776176316939
 31
0.0
 12
0.0
 22
-47.02109509650273
 32
0.0
 13
0.0
 23
-47.02109509650273
 33
0.0
  0
SOLID
  5
215
  8
SK2
 62
     0
 10
32.55
 20
-47.43776176316939
 30
0.0
 11
32.55
 21
-46.60442842983606
 31
0.0
 12
35.05
 22
-47.02109509650273
 32
0.0
 13
35.05
 23
-47.02109509650273
 33
0.0
  0
TEXT
  5
216
  8
SK2
  6
CONTINUOUS
 62
     0
 10
12.73333333333333
 20
-46.39609509650273
 30
0.0
 40
2.5
  1
35.05
  0
POINT
  5
217
  8
DEFPOINTS
 62
     0
 10
0.0
 20
-22.22499999999999
 30
0.0
  0
POINT
  5
218
  8
DEFPOINTS
 62
     0
 10
35.05
 20
-30.75
 30
0.0
  0
POINT
  5
219
  8
DEFPOINTS
 62
     0
 10
35.05
 20
-47.02109509650273
 30
0.0
  0
ENDBLK
  5
21B
  8
0
  0
BLOCK
  8
0
  2
*D2
 70
     1
 10
0.0
 20
0.0
 30
0.0
  3
*D2
  1

  0
LINE
  5
1298
  8
2
 62
     0
 10
0.0
 20
22.84999999999999
 30
0.0
 11
0.0
 21
48.91573065769794
 31
0.0
  0
LINE
  5
1299
  8
2
 62
     0
 10
129.0000000000001
 20
31.62499999526545
 30
0.0
 11
129.0000000000001
 21
48.91573065769794
 31
0.0
  0
LINE
  5
129A
  8
2
 62
     0
 10
2.5
 20
47.66573065769794
 30
0.0
 11
126.5000000000001
 21
47.66573065769794
 31
0.0
  0
SOLID
  5
129B
  8
2
 62
     0
 10
2.5
 20
48.08239732436461
 30
0.0
 11
2.5
 21
47.24906399103128
 31
0.0
 12
0.0
 22
47.66573065769794
 32
0.0
 13
0.0
 23
47.66573065769794
 33
0.0
  0
SOLID
  5
129C
  8
2
 62
     0
 10
126.5000000000001
 20
47.24906399103128
 30
0.0
 11
126.5000000000001
 21
48.08239732436461
 31
0.0
 12
129.0000000000001
 22
47.66573065769794
 32
0.0
 13
129.0000000000001
 23
47.66573065769794
 33
0.0
  0
TEXT
  5
129D
  8
2
  6
CONTINUOUS
 62
     0
 10
61.58333333333339
 20
48.29073065769794
 30
0.0
 40
2.5
  1
129
  0
POINT
  5
129E
  8
DEFPOINTS
 62
     0
 10
0.0
 20
22.22499999999999
 30
0.0
  0
POINT
  5
129F
  8
DEFPOINTS
 62
     0
 10
129.0000000000001
 20
30.99999999526545
 30
0.0
  0
POINT
  5
12A0
  8
DEFPOINTS
 62
     0
 10
129.0000000000001
 20
47.66573065769794
 30
0.0
  0
ENDBLK
  5
12A1
  8
0
  0
BLOCK
  8
0
  2
*D4
 70
     1
 10
0.0
 20
0.0
 30
0.0
  3
*D4
  1

  0
LINE
  5
1471
  8
SK2
 62
     0
 10
128.875
 20
31.75
 30
0.0
 11
145.2312164561423
 21
31.75
 31
0.0
  0
LINE
  5
1472
  8
SK2
 62
     0
 10
128.875
 20
-31.75
 30
0.0
 11
145.2312164561423
 21
-31.75
 31
0.0
  0
LINE
  5
1473
  8
SK2
 62
     0
 10
143.9812164561423
 20
29.25
 30
0.0
 11
143.9812164561423
 21
-29.25
 31
0.0
  0
SOLID
  5
1474
  8
SK2
 62
     0
 10
144.397883122809
 20
29.25
 30
0.0
 11
143.5645497894756
 21
29.25
 31
0.0
 12
143.9812164561423
 22
31.75
 32
0.0
 13
143.9812164561423
 23
31.75
 33
0.0
  0
SOLID
  5
1475
  8
SK2
 62
     0
 10
143.5645497894756
 20
-29.25
 30
0.0
 11
144.397883122809
 21
-29.25
 31
0.0
 12
143.9812164561423
 22
-31.75
 32
0.0
 13
143.9812164561423
 23
-31.75
 33
0.0
  0
TEXT
  5
1476
  8
SK2
  6
CONTINUOUS
 62
     0
 10
143.3562164561423
 20
-3.75
 30
0.0
 40
2.5
  1
63.5
 50
90.0
  0
POINT
  5
1477
  8
DEFPOINTS
 62
     0
 10
128.25
 20
31.75
 30
0.0
  0
POINT
  5
1478
  8
DEFPOINTS
 62
     0
 10
128.25
 20
-31.75
 30
0.0
  0
POINT
  5
1479
  8
DEFPOINTS
 62
     0
 10
143.9812164561423
 20
-31.75
 30
0.0
  0
ENDBLK
  5
147A
  8
0
  0
ENDSEC
  0
SECTION
  2
ENTITIES
  0
LINE
  5
1B2
  8
4
 10
129.0
 20
-0.0000000088515322
 30
0.0
 11
0.0
 21
0.0
 31
0.0
  0
DIMENSION
  5
20D
  8
SK2
  2
*D1
 10
35.05
 20
-47.02109509650273
 30
0.0
 11
17.525
 21
-45.14609509650273
 31
0.0
 70
    32
  3
ISO-25
 13
0.0
 23
-22.22499999999999
 33
0.0
 14
35.05
 24
-30.75
 34
0.0
  0
LINE
  5
364
  8
NOCUT
 10
129.0
 20
-0.0000000088515322
 30
0.0
 11
0.0
 21
0.0
 31
0.0
  0
LINE
  5
99D
  8
SK3
 10
-66.51794919240001
 20
0.0
 30
0.0
 11
-66.51794919240001
 21
8.149999999999991
 31
0.0
  0
LINE
  5
99E
  8
SK3
 10
-66.51794919240001
 20
-8.149999999999991
 30
0.0
 11
-66.51794919240001
 21
0.0
 31
0.0
  0
LINE
  5
99F
  8
SK3
 10
-63.48000000000002
 20
0.0
 30
0.0
 11
-63.48000000000002
 21
8.149999999999991
 31
0.0
  0
LINE
  5
9A0
  8
SK3
 10
-63.48000000000002
 20
-8.149999999999991
 30
0.0
 11
-63.48000000000002
 21
0.0
 31
0.0
  0
LINE
  5
9A3
  8
SK3
 10
-25.75000000000003
 20
0.0
 30
0.0
 11
-25.75000000000003
 21
6.700000000000003
 31
0.0
  0
LINE
  5
9A4
  8
SK3
 10
-25.75000000000003
 20
-6.700000000000003
 30
0.0
 11
-25.75000000000003
 21
0.0
 31
0.0
  0
LINE
  5
9A5
  8
SK3
 10
-25.32939756670001
 20
0.0
 30
0.0
 11
-25.32939756670001
 21
-6.0
 31
0.0
  0
LINE
  5
9A6
  8
SK3
 10
-25.32939756670001
 20
6.0
 30
0.0
 11
-25.32939756670001
 21
0.0
 31
0.0
  0
LINE
  5
9BF
  8
SK3
 10
-68.25000000000003
 20
-9.149999999999991
 30
0.0
 11
-66.51794919240001
 21
-8.149999999999991
 31
0.0
  0
LINE
  5
9C0
  8
SK3
 10
-66.51794919240001
 20
8.149999999999991
 30
0.0
 11
-68.25000000000003
 21
9.149999999999991
 31
0.0
  0
LINE
  5
9C1
  8
SK3
 10
-66.51794919240001
 20
-8.149999999999991
 30
0.0
 11
-63.48000000000002
 21
-8.149999999999991
 31
0.0
  0
LINE
  5
9C2
  8
SK3
 10
-63.48000000000002
 20
8.149999999999991
 30
0.0
 11
-66.51794919240001
 21
8.149999999999991
 31
0.0
  0
LINE
  5
9C3
  8
SK3
 10
-63.48000000000002
 20
-6.700000000000003
 30
0.0
 11
-25.75000000000003
 21
-6.700000000000003
 31
0.0
  0
LINE
  5
9C4
  8
SK3
 10
-25.75000000000003
 20
6.700000000000003
 30
0.0
 11
-63.48000000000002
 21
6.700000000000003
 31
0.0
  0
LINE
  5
9C5
  8
SK3
 10
-25.75000000000003
 20
-6.700000000000003
 30
0.0
 11
-25.32939756670001
 21
-6.0
 31
0.0
  0
LINE
  5
9C6
  8
SK3
 10
-25.32939756670001
 20
6.0
 30
0.0
 11
-25.75000000000003
 21
6.700000000000003
 31
0.0
  0
LINE
  5
9C9
  8
SK3
 10
-0.0000000000000009
 20
6.0
 30
0.0
 11
-25.32939756670001
 21
6.0
 31
0.0
  0
LINE
  5
9CA
  8
SK3
 10
-25.32939756670001
 20
-6.0
 30
0.0
 11
-0.0000000000000107
 21
-6.0
 31
0.0
  0
LINE
  5
9E4
  8
0
 10
3.0
 20
3.0
 30
0.0
 11
-3.0
 21
-3.0
 31
0.0
  0
LINE
  5
9E5
  8
0
 10
-3.0
 20
3.0
 30
0.0
 11
3.0
 21
-3.0
 31
0.0
  0
CIRCLE
  5
9E6
  8
0
 10
0.0
 20
0.0
 30
0.0
 40
2.5
  0
LINE
  5
9E7
  8
SK3
 10
-63.48000000000005
 20
-7.937499999800011
 30
0.0
 11
-39.75000000000003
 21
-7.937499999800011
 31
0.0
  0
LINE
  5
9E8
  8
SK3
 10
-39.75000000000003
 20
7.937500000199975
 30
0.0
 11
-39.75000000000003
 21
-7.937499999800011
 31
0.0
  0
LINE
  5
9E9
  8
SK3
 10
-39.75000000000003
 20
7.937500000199975
 30
0.0
 11
-63.48000000000005
 21
7.937500000199975
 31
0.0
  0
ARC
  5
AA1
  8
NOCUT
 10
0.5
 20
22.72499999999999
 30
0.0
 40
0.5
 50
270.0
 51
0.0
  0
LINE
  5
AA4
  8
NOCUT
 10
0.5
 20
22.22499999999999
 30
0.0
 11
0.0
 21
22.22499999999999
 31
0.0
  0
LINE
  5
AA5
  8
NOCUT
 10
34.04999999999999
 20
22.22499999999999
 30
0.0
 11
20.04999999999995
 21
22.22499999999999
 31
0.0
  0
LINE
  5
AA7
  8
NOCUT
 10
14.65616676909997
 20
30.7125381562
 30
0.0
 11
18.54999999999995
 21
30.7125381562
 31
0.0
  0
LINE
  5
AAA
  8
NOCUT
 10
1.5
 20
30.7125381562
 30
0.0
 11
7.603833230899966
 21
30.7125381562
 31
0.0
  0
POLYLINE
  5
AAB
  8
NOCUT
 66
     1
 10
0.0
 20
0.0
 30
0.0
  0
VERTEX
  5
1508
  8
NOCUT
 10
7.603833230899966
 20
30.7125381562
 30
0.0
  0
VERTEX
  5
1509
  8
NOCUT
 10
9.140787278000005
 20
27.9518236359
 30
0.0
  0
VERTEX
  5
150A
  8
NOCUT
 10
9.204999999999984
 20
27.8360650174
 30
0.0
  0
SEQEND
  5
1522
  8
NOCUT
  0
POLYLINE
  5
AAC
  8
NOCUT
 66
     1
 10
0.0
 20
0.0
 30
0.0
  0
VERTEX
  5
150B
  8
NOCUT
 10
13.05499999999995
 20
27.8360650174
 30
0.0
  0
VERTEX
  5
150C
  8
NOCUT
 10
13.1192127219
 20
27.9518236359
 30
0.0
  0
VERTEX
  5
150D
  8
NOCUT
 10
14.65616676909997
 20
30.7125381562
 30
0.0
  0
SEQEND
  5
1521
  8
NOCUT
  0
ARC
  5
AAD
  8
NOCUT
 10
12.54226966779999
 20
27.51838423379999
 30
0.0
 40
0.512803993977288
 50
271.4225108534019
 51
0.9711541378997977
  0
ARC
  5
AAE
  8
NOCUT
 10
9.716236145599964
 20
27.5169512018
 30
0.0
 40
0.5113363895821054
 50
178.8654582714003
 51
268.7408767374973
  0
LINE
  5
AAF
  8
NOCUT
 10
9.704999999999984
 20
27.0057382791
 30
0.0
 11
12.55499999999995
 21
27.0057382791
 31
0.0
  0
LINE
  5
AB0
  8
NOCUT
 10
0.0
 20
0.0
 30
0.0
 11
0.0
 21
22.22499999999999
 31
0.0
  0
LINE
  5
ACA
  8
NOCUT
 10
1.0
 20
22.72499999999999
 30
0.0
 11
1.0
 21
30.2125381562
 31
0.0
  0
LINE
  5
ACB
  8
NOCUT
 10
9.204999999999984
 20
27.8360650174
 30
0.0
 11
9.20489975601786
 21
27.5169512018
 31
0.0
  0
LINE
  5
ACC
  8
NOCUT
 10
13.05499999999995
 20
27.8360650174
 30
0.0
 11
13.05507366177728
 21
27.51838423379999
 31
0.0
  0
LINE
  5
ACD
  8
NOCUT
 10
19.04999999999995
 20
30.2125381562
 30
0.0
 11
19.04999999999995
 21
23.22499999999999
 31
0.0
  0
ARC
  5
B91
  8
1
 10
20.04999999999998
 20
-23.22499999999999
 30
0.0
 40
1.0
 50
90.0
 51
180.0
  0
ARC
  5
B93
  8
1
 10
20.04999999999998
 20
23.22499999999999
 30
0.0
 40
1.0
 50
180.0
 51
270.0
  0
ARC
  5
B94
  8
1
 10
0.799999999999983
 20
-22.42500000000001
 30
0.0
 40
0.5
 50
66.42182152179994
 51
90.0
  0
ARC
  5
B95
  8
1
 10
0.799999999999983
 20
22.42499999999998
 30
0.0
 40
0.5
 50
270.0
 51
293.5781784782001
  0
LINE
  5
B96
  8
1
 10
20.04999999999998
 20
-22.22499999999999
 30
0.0
 11
34.04999999999999
 21
-22.22499999999999
 31
0.0
  0
LINE
  5
B97
  8
1
 10
34.04999999999999
 20
22.22499999999999
 30
0.0
 11
20.04999999999998
 21
22.22499999999999
 31
0.0
  0
LINE
  5
B98
  8
1
 10
0.0
 20
-22.22499999999999
 30
0.0
 11
0.2999999999999829
 21
-21.92500000000001
 31
0.0
  0
LINE
  5
B99
  8
1
 10
0.2999999999999829
 20
21.92499999999998
 30
0.0
 11
0.0
 21
22.22499999999999
 31
0.0
  0
LINE
  5
B9C
  8
SK1
 10
0.0
 20
22.22499999999999
 30
0.0
 11
-67.3943082273
 21
12.39657058259999
 31
0.0
  0
LINE
  5
B9D
  8
SK1
 10
-67.3943082273
 20
-12.39657058270001
 30
0.0
 11
0.0
 21
-22.22499999999999
 31
0.0
  0
LINE
  5
B9E
  8
1
 10
0.2999999999999829
 20
-21.92500000000001
 30
0.0
 11
0.799999999999983
 21
-21.92500000000001
 31
0.0
  0
LINE
  5
B9F
  8
1
 10
0.799999999999983
 20
21.92499999999998
 30
0.0
 11
0.2999999999999829
 21
21.92499999999998
 31
0.0
  0
ARC
  5
BA0
  8
SK1
 10
-67.25
 20
-11.4070377962
 30
0.0
 40
1.000000000000014
 50
180.0
 51
261.7027777778003
  0
ARC
  5
BA1
  8
SK1
 10
-67.25
 20
11.40703779609998
 30
0.0
 40
1.000000000000014
 50
98.29722222219964
 51
180.0
  0
LINE
  5
BA2
  8
1
 10
14.6561667922
 20
30.49243725150001
 30
0.0
 11
13.05500004409998
 21
27.5903849293
 31
0.0
  0
LINE
  5
BA3
  8
1
 10
14.65616676899998
 20
-30.51805114620001
 30
0.0
 11
14.65616676899998
 21
30.49243720799998
 31
0.0
  0
LINE
  5
BA4
  8
1
 10
13.05500002099998
 20
-27.61768172550001
 30
0.0
 11
14.65616678619998
 21
-30.51748284710001
 31
0.0
  0
LINE
  5
BA5
  8
1
 10
13.05499999999998
 20
-27.61768156150001
 30
0.0
 11
13.05499999999998
 21
27.5896745586
 31
0.0
  0
LINE
  5
BA6
  8
1
 10
14.65616729029998
 20
-30.5174828113
 30
0.0
 11
14.76217597669998
 21
-30.54092502470002
 31
0.0
  0
LINE
  5
BA7
  8
1
 10
14.69253150219998
 20
30.50268419069999
 30
0.0
 11
14.65616753799998
 21
30.49243719839998
 31
0.0
  0
LINE
  5
BA8
  8
1
 10
18.54999999999998
 20
30.50268419069999
 30
0.0
 11
14.69253150219998
 21
30.50268419069999
 31
0.0
  0
LINE
  5
BA9
  8
1
 10
14.76217597669998
 20
-30.54092502470002
 30
0.0
 11
18.54999999999998
 21
-30.54092502470002
 31
0.0
  0
LINE
  5
BAA
  8
1
 10
9.204999955799991
 20
27.5903849293
 30
0.0
 11
7.603833207699978
 21
30.49243725150001
 31
0.0
  0
LINE
  5
BAB
  8
1
 10
9.204999999999984
 20
-27.6182445954
 30
0.0
 11
9.204999999999984
 21
27.5903848518
 31
0.0
  0
LINE
  5
BAC
  8
1
 10
7.6038332137
 20
-30.51748284710001
 30
0.0
 11
9.204999978799975
 21
-27.61768172539999
 31
0.0
  0
LINE
  5
BAD
  8
1
 10
7.603833230899994
 20
-30.5174828113
 30
0.0
 11
7.603833230899994
 21
30.49194635059999
 31
0.0
  0
LINE
  5
BAE
  8
1
 10
1.0
 20
-29.20362428180002
 30
0.0
 11
1.0
 21
29.22527756419998
 31
0.0
  0
ARC
  5
BAF
  8
1
 10
1.736068826500002
 20
28.83956144390001
 30
0.0
 40
0.8318485490646366
 50
106.4871262675995
 51
152.2338518675996
  0
POLYLINE
  5
BB0
  8
1
 66
     1
 10
0.0
 20
0.0
 30
0.0
  0
VERTEX
  5
150E
  8
1
 10
1.499991175799977
 20
-29.70136738420001
 30
0.0
  0
VERTEX
  5
150F
  8
1
 10
1.31486147779998
 20
-29.6078136875
 30
0.0
  0
VERTEX
  5
1510
  8
1
 10
1.220960437199977
 20
-29.54106786380001
 30
0.0
  0
VERTEX
  5
1511
  8
1
 10
1.131120186599986
 20
-29.45918995790001
 30
0.0
  0
VERTEX
  5
1512
  8
1
 10
1.068966655699995
 20
-29.38420485969999
 30
0.0
  0
VERTEX
  5
1513
  8
1
 10
1.029912598300001
 20
-29.3189781797
 30
0.0
  0
VERTEX
  5
1514
  8
1
 10
1.001757060399996
 20
-29.23060659110001
 30
0.0
  0
VERTEX
  5
1515
  8
1
 10
1.000001938499992
 20
-29.2054619834
 30
0.0
  0
SEQEND
  5
1520
  8
1
  0
LINE
  5
BB1
  8
1
 10
7.5674684974
 20
30.50268419069999
 30
0.0
 11
4.03465638199998
 21
30.50268419069999
 31
0.0
  0
LINE
  5
BB2
  8
1
 10
7.603832461599978
 20
30.49243719839998
 30
0.0
 11
7.5674684974
 21
30.50268419069999
 31
0.0
  0
LINE
  5
BB3
  8
1
 10
7.497824022700001
 20
-30.54092502470002
 30
0.0
 11
7.603832709099976
 21
-30.5174828113
 31
0.0
  0
LINE
  5
BB4
  8
1
 10
3.987796517999982
 20
-30.54092502470002
 30
0.0
 11
7.497824022700001
 21
-30.54092502470002
 31
0.0
  0
LINE
  5
BB5
  8
1
 10
1.500000037399985
 20
-29.70136454339999
 30
0.0
 11
3.987796517999982
 21
-30.54092512950001
 31
0.0
  0
LINE
  5
BB6
  8
1
 10
4.03465638199998
 20
30.5026843142
 30
0.0
 11
1.499999999899984
 21
29.6372041155
 31
0.0
  0
POLYLINE
  5
BB7
  8
1
 66
     1
 10
0.0
 20
0.0
 30
0.0
  0
VERTEX
  5
1516
  8
1
 10
18.81621828999999
 20
-30.4787564463
 30
0.0
  0
VERTEX
  5
1517
  8
1
 10
18.6790188139
 20
-30.52721612650001
 30
0.0
  0
VERTEX
  5
1518
  8
1
 10
18.54999999999998
 20
-30.54092502470002
 30
0.0
  0
SEQEND
  5
151F
  8
1
  0
ARC
  5
BB8
  8
1
 10
18.55943835959999
 20
29.86640550269999
 30
0.0
 40
0.6363486869715145
 50
60.60134603479981
 51
90.84984539750005
  0
ARC
  5
BB9
  8
1
 10
18.35098180669999
 20
29.95429978019999
 30
0.0
 40
0.6992094391558102
 50
1.340108450200791
 51
41.85091720829973
  0
LINE
  5
BBA
  8
1
 10
19.04999999999998
 20
29.97065231189998
 30
0.0
 11
19.04999999999998
 21
-29.97065231190001
 31
0.0
  0
ARC
  5
BBB
  8
1
 10
18.33294041069999
 20
-29.9485632036
 30
0.0
 40
0.7173997374297006
 50
312.3495695874001
 51
358.2355544919003
  0
ARC
  5
BBC
  8
1
 10
9.7449695926
 20
27.30906555679999
 30
0.0
 40
0.5407677835436584
 50
176.8865704259999
 51
265.761250323199
  0
ARC
  5
BBD
  8
1
 10
9.7179331838
 20
-27.29360212969999
 30
0.0
 40
0.4775741781478385
 50
91.55181642760164
 51
147.4596417165987
  0
ARC
  5
BBE
  8
1
 10
12.52505146019999
 20
27.30025443439999
 30
0.0
 40
0.5313222205439724
 50
273.2312498579008
 51
4.120929392898505
  0
ARC
  5
BBF
  8
1
 10
12.53972316129997
 20
-27.2977060387
 30
0.0
 40
0.4817452194643697
 50
32.86161398089808
 51
88.18276318630117
  0
LINE
  5
BC0
  8
1
 10
12.55499999999998
 20
26.7697769259
 30
0.0
 11
9.704999999999984
 21
26.7697769259
 31
0.0
  0
LINE
  5
BC1
  8
1
 10
9.704999999999984
 20
-26.81620310549999
 30
0.0
 11
12.55499999999998
 21
-26.81620310549999
 31
0.0
  0
LINE
  5
BC4
  8
1
 10
0.2999999999999829
 20
0.0
 30
0.0
 11
0.2999999999999829
 21
21.92499999999998
 31
0.0
  0
LINE
  5
BC5
  8
1
 10
0.2999999999999829
 20
-21.92500000000001
 30
0.0
 11
0.2999999999999829
 21
0.0
 31
0.0
  0
LINE
  5
BC6
  8
1
 10
0.0
 20
0.0
 30
0.0
 11
0.0
 21
22.22499999999999
 31
0.0
  0
LINE
  5
BC7
  8
1
 10
0.0
 20
-22.22499999999999
 30
0.0
 11
0.0
 21
0.0
 31
0.0
  0
LINE
  5
BCA
  8
SK1
 10
-68.25
 20
0.0
 30
0.0
 11
-68.25
 21
11.40703779609998
 31
0.0
  0
LINE
  5
BCB
  8
SK1
 10
-68.25
 20
-11.4070377962
 30
0.0
 11
-68.25
 21
0.0
 31
0.0
  0
LINE
  5
BCC
  8
1
 10
7.567468496899977
 20
30.50268419069999
 30
0.0
 11
7.6038324612
 21
30.49243719839998
 31
0.0
  0
LINE
  5
BCD
  8
1
 10
3.987796517999982
 20
-30.54092512950001
 30
0.0
 11
1.499999999899984
 21
-29.7013645289
 31
0.0
  0
LINE
  5
BDE
  8
3
 10
1.0
 20
-22.59999999999999
 30
0.0
 11
3.699999999999989
 21
-22.59999999999999
 31
0.0
  0
LINE
  5
BDF
  8
3
 10
1.0
 20
25.02000000000001
 30
0.0
 11
3.699999999999989
 21
25.02000000000001
 31
0.0
  0
LINE
  5
BE8
  8
3
 10
18.25
 20
25.02000000000001
 30
0.0
 11
19.04999999999998
 21
25.02000000000001
 31
0.0
  0
LINE
  5
BFE
  8
3
 10
3.699999999999989
 20
-22.59999999999999
 30
0.0
 11
18.25
 21
-22.59999999999999
 31
0.0
  0
LINE
  5
C08
  8
3
 10
3.699999999999989
 20
25.02000000000001
 30
0.0
 11
18.25
 21
25.02000000000001
 31
0.0
  0
LINE
  5
C10
  8
3
 10
11.13
 20
21.22
 30
0.0
 11
17.47999999999999
 21
21.22
 31
0.0
  0
LINE
  5
C11
  8
3
 10
4.780000000000001
 20
21.22
 30
0.0
 11
11.13
 21
21.22
 31
0.0
  0
LINE
  5
C12
  8
3
 10
11.13
 20
21.21000000000001
 30
0.0
 11
15.88
 21
21.21000000000001
 31
0.0
  0
LINE
  5
C13
  8
3
 10
6.379999999999995
 20
21.21000000000001
 30
0.0
 11
11.13
 21
21.21000000000001
 31
0.0
  0
LINE
  5
C26
  8
3
 10
4.780000000000001
 20
25.02000000000001
 30
0.0
 11
4.780000000000001
 21
21.22
 31
0.0
  0
LINE
  5
C27
  8
3
 10
17.47999999999999
 20
21.22
 30
0.0
 11
17.47999999999999
 21
25.02000000000001
 31
0.0
  0
LINE
  5
C28
  8
3
 10
6.379999999999995
 20
21.22
 30
0.0
 11
6.379999999999995
 21
21.21000000000001
 31
0.0
  0
LINE
  5
C29
  8
3
 10
15.88
 20
21.21000000000001
 30
0.0
 11
15.88
 21
21.22
 31
0.0
  0
LINE
  5
C2A
  8
3
 10
6.379999999999995
 20
21.21000000000001
 30
0.0
 11
11.13
 21
18.3559120596
 31
0.0
  0
LINE
  5
C2B
  8
3
 10
11.13
 20
18.3559120596
 30
0.0
 11
15.88
 21
21.21000000000001
 31
0.0
  0
LINE
  5
C2C
  8
1
 10
20.04999999999998
 20
22.22499999999999
 30
0.0
 11
20.04999999999998
 21
-22.22499999999999
 31
0.0
  0
LINE
  5
C2D
  8
1
 10
0.799999999999983
 20
21.92499999999998
 30
0.0
 11
0.799999999999983
 21
-21.92500000000001
 31
0.0
  0
LINE
  5
C2F
  8
1
 10
9.704999999999984
 20
26.26568698759999
 30
0.0
 11
9.704999999999984
 21
-26.08092552630001
 31
0.0
  0
LINE
  5
C30
  8
1
 10
12.55499999999998
 20
26.26578903699999
 30
0.0
 11
12.55499999999998
 21
-26.08072526110001
 31
0.0
  0
LINE
  5
C31
  8
1
 10
18.54999999999998
 20
30.50268419069999
 30
0.0
 11
18.54999999999998
 21
-30.54092502470002
 31
0.0
  0
LINE
  5
C32
  8
1
 10
1.5
 20
-29.7013645289
 30
0.0
 11
1.5
 21
29.6372041155
 31
0.0
  0
LINE
  5
C92
  8
SK4
 10
0.0
 20
0.0
 30
0.0
 11
-68.25
 21
0.0
 31
0.0
  0
ARC
  5
D48
  8
NOCUT
 10
18.54999999999995
 20
30.2125381562
 30
0.0
 40
0.5000000000000002
 50
0.0
 51
90.0
  0
ARC
  5
D49
  8
NOCUT
 10
1.5
 20
30.2125381562
 30
0.0
 40
0.5000000000000002
 50
90.00000000000001
 51
180.0
  0
ARC
  5
D4B
  8
NOCUT
 10
20.04999999999995
 20
23.22499999999999
 30
0.0
 40
1.0
 50
180.0
 51
270.0
  0
LINE
  5
DAD
  8
NOCUT
 10
129.0
 20
-0.0000000088480887
 30
0.0
 11
0.0499999999999972
 21
0.0
 31
0.0
  0
TEXT
  5
EC0
  8
SK6
 10
-66.17909534664395
 20
47.33203563714093
 30
0.0
 40
3.5
  1
BIG KAISER
 41
0.85
  0
TEXT
  5
EC1
  8
SK6
 10
-66.17909534664395
 20
42.08203563714093
 30
0.0
 40
3.5
  1
11.368.464
 41
0.85
  0
INSERT
  5
EC2
  8
SK6
  2
_FILLED
 10
-17.9836627818344
 20
-19.60235774778011
 30
0.0
 41
3.5
 42
3.5
 43
3.5
 50
55.49325986033524
  0
POLYLINE
  5
EC3
  8
SK6
 66
     1
 10
0.0
 20
0.0
 30
0.0
  0
VERTEX
  5
1519
  8
SK6
 10
-19.966423916232
 20
-22.48656618059532
 30
0.0
  0
VERTEX
  5
151A
  8
SK6
 10
-33.4822656830344
 20
-42.14728280658011
 30
0.0
  0
VERTEX
  5
151B
  8
SK6
 10
-35.35726568303438
 20
-40.39728280658011
 30
0.0
  0
VERTEX
  5
151C
  8
SK6
 10
-38.85726568303438
 20
-40.39728280658011
 30
0.0
  0
SEQEND
  5
151E
  8
SK6
  0
TEXT
  5
EC4
  8
SK6
 10
-53.86143234970106
 20
-43.89728280658011
 30
0.0
 40
3.5
  1
BCV40
 41
0.85
  0
DIMENSION
  5
1292
  8
2
  2
*D2
 10
129.0000000000001
 20
47.66573065769794
 30
0.0
 11
64.50000000000006
 21
49.54073065769794
 31
0.0
 70
    32
  3
ISO-25
 13
0.0
 23
22.22499999999999
 33
0.0
 14
129.0000000000001
 24
30.99999999526545
 34
0.0
  0
LINE
  5
1436
  8
0
 10
130.9999999999999
 20
1.999999995265455
 30
0.0
 11
127.0000000000001
 21
-2.000000004734545
 31
0.0
  0
LINE
  5
1437
  8
0
 10
127.0000000000001
 20
1.999999995265455
 30
0.0
 11
130.9999999999999
 21
-2.000000004734545
 31
0.0
  0
CIRCLE
  5
1438
  8
0
 10
129.0000000000001
 20
-0.0000000047345452
 30
0.0
 40
1.5
  0
LINE
  5
1439
  8
1
 10
36.05
 20
-31.75
 30
0.0
 11
128.25
 21
-31.75
 31
0.0
  0
LINE
  5
143A
  8
1
 10
128.25
 20
31.75
 30
0.0
 11
36.05
 21
31.75
 31
0.0
  0
LINE
  5
143B
  8
1
 10
128.25
 20
-31.75
 30
0.0
 11
129.0
 21
-31.0
 31
0.0
  0
LINE
  5
143C
  8
1
 10
129.0
 20
31.0
 30
0.0
 11
128.25
 21
31.75
 31
0.0
  0
LINE
  5
143D
  8
1
 10
36.05
 20
31.75
 30
0.0
 11
35.05
 21
30.75
 31
0.0
  0
LINE
  5
143E
  8
1
 10
35.05
 20
-30.75
 30
0.0
 11
36.05
 21
-31.75
 31
0.0
  0
ARC
  5
143F
  8
1
 10
34.05
 20
23.22500000000002
 30
0.0
 40
1.0
 50
270.0
 51
0.0
  0
ARC
  5
1440
  8
1
 10
34.05
 20
-23.22500000000002
 30
0.0
 40
1.0
 50
0.0
 51
90.0
  0
CIRCLE
  5
1441
  8
1
 10
112.95
 20
0.0
 30
0.0
 40
5.500000000000052
  0
LINE
  5
1442
  8
1
 10
109.95
 20
-1.73205080759999
 30
0.0
 11
112.95
 21
-3.464101615199979
 31
0.0
  0
LINE
  5
1443
  8
1
 10
112.95
 20
-3.464101615199979
 30
0.0
 11
115.95
 21
-1.73205080759999
 31
0.0
  0
LINE
  5
1444
  8
1
 10
115.95
 20
1.73205080759999
 30
0.0
 11
112.95
 21
3.464101615099992
 31
0.0
  0
LINE
  5
1445
  8
1
 10
112.95
 20
3.464101615099992
 30
0.0
 11
109.95
 21
1.73205080759999
 31
0.0
  0
LINE
  5
1446
  8
1
 10
115.95
 20
-1.73205080759999
 30
0.0
 11
115.95
 21
1.73205080759999
 31
0.0
  0
LINE
  5
1447
  8
1
 10
109.95
 20
1.73205080759999
 30
0.0
 11
109.95
 21
-1.73205080759999
 31
0.0
  0
LINE
  5
1448
  8
1
 10
128.25
 20
0.0
 30
0.0
 11
128.25
 21
31.75
 31
0.0
  0
LINE
  5
1449
  8
1
 10
128.25
 20
-31.75
 30
0.0
 11
128.25
 21
0.0
 31
0.0
  0
LINE
  5
144A
  8
1
 10
36.05
 20
31.75
 30
0.0
 11
36.05
 21
-31.75
 31
0.0
  0
ARC
  5
144B
  8
1
 10
112.95
 20
0.0005965044999812
 30
0.0
 40
6.150000028928297
 50
180.0055572669003
 51
359.9944427331002
  0
ARC
  5
144C
  8
1
 10
112.95
 20
-0.0005677656999978
 30
0.0
 40
6.15000002620799
 50
0.0052895245999285
 51
179.9947104754001
  0
LINE
  5
144D
  8
1
 10
129.0
 20
0.0
 30
0.0
 11
129.0
 21
31.0
 31
0.0
  0
LINE
  5
144E
  8
1
 10
129.0
 20
-31.0
 30
0.0
 11
129.0
 21
0.0
 31
0.0
  0
LINE
  5
144F
  8
1
 10
35.05
 20
-30.75
 30
0.0
 11
35.05
 21
30.75
 31
0.0
  0
CIRCLE
  5
1450
  8
1
 10
112.95
 20
0.0
 30
0.0
 40
6.125
  0
LINE
  5
1451
  8
3
 10
128.6
 20
-15.81810295590003
 30
0.0
 11
112.4
 21
-15.81810295590003
 31
0.0
  0
LINE
  5
1452
  8
3
 10
112.4
 20
15.81810295589997
 30
0.0
 11
128.6
 21
15.81810295589997
 31
0.0
  0
LINE
  5
1453
  8
3
 10
128.6
 20
15.81810295589997
 30
0.0
 11
128.6
 21
-15.81810295590003
 31
0.0
  0
LINE
  5
1454
  8
3
 10
128.6
 20
15.81810295589997
 30
0.0
 11
129.0
 21
16.11518966709997
 31
0.0
  0
LINE
  5
1455
  8
3
 10
128.6
 20
-15.81810295590003
 30
0.0
 11
129.0
 21
-16.11518966710003
 31
0.0
  0
LINE
  5
1456
  8
3
 10
128.6
 20
22.44999999999999
 30
0.0
 11
128.6
 21
15.81810295589997
 31
0.0
  0
LINE
  5
1457
  8
3
 10
112.4
 20
22.44999999999999
 30
0.0
 11
112.4
 21
15.81810295589997
 31
0.0
  0
LINE
  5
1458
  8
3
 10
128.6
 20
-15.81810295590003
 30
0.0
 11
128.6
 21
-22.44999999999999
 31
0.0
  0
LINE
  5
1459
  8
3
 10
112.4
 20
-15.81810295590003
 30
0.0
 11
112.4
 21
-22.44999999999999
 31
0.0
  0
LINE
  5
145A
  8
3
 10
128.6
 20
25.19999999999999
 30
0.0
 11
128.6
 21
22.44999999999999
 31
0.0
  0
LINE
  5
145B
  8
3
 10
128.6
 20
-22.44999999999999
 30
0.0
 11
128.6
 21
-25.19999999999999
 31
0.0
  0
LINE
  5
145C
  8
3
 10
112.4
 20
25.19999999999999
 30
0.0
 11
112.4
 21
22.44999999999999
 31
0.0
  0
LINE
  5
145D
  8
3
 10
112.4
 20
-22.44999999999999
 30
0.0
 11
112.4
 21
-25.19999999999999
 31
0.0
  0
LINE
  5
145E
  8
3
 10
104.3
 20
2.5
 30
0.0
 11
104.3
 21
-2.5
 31
0.0
  0
LINE
  5
145F
  8
3
 10
112.4
 20
18.00099999999998
 30
0.0
 11
92.0
 21
18.00099999999998
 31
0.0
  0
LINE
  5
1460
  8
3
 10
92.0
 20
-18.00100000000003
 30
0.0
 11
112.4
 21
-18.00100000000003
 31
0.0
  0
LINE
  5
1461
  8
3
 10
129.0
 20
25.60000000000002
 30
0.0
 11
128.6
 21
25.19999999999999
 31
0.0
  0
LINE
  5
1462
  8
3
 10
128.6
 20
-25.19999999999999
 30
0.0
 11
129.0
 21
-25.60000000000002
 31
0.0
  0
LINE
  5
1463
  8
3
 10
128.6
 20
25.19999999999999
 30
0.0
 11
112.4
 21
25.19999999999999
 31
0.0
  0
LINE
  5
1464
  8
3
 10
112.4
 20
-25.19999999999999
 30
0.0
 11
128.6
 21
-25.19999999999999
 31
0.0
  0
LINE
  5
1465
  8
3
 10
129.0
 20
2.5
 30
0.0
 11
104.3
 21
2.5
 31
0.0
  0
LINE
  5
1466
  8
3
 10
104.3
 20
-2.5
 30
0.0
 11
129.0
 21
-2.5
 31
0.0
  0
LINE
  5
1467
  8
3
 10
104.3
 20
2.5
 30
0.0
 11
102.7978484525
 21
0.0
 31
0.0
  0
LINE
  5
1468
  8
3
 10
102.7978484525
 20
0.0
 30
0.0
 11
104.3
 21
-2.5
 31
0.0
  0
LINE
  5
1469
  8
1
 10
34.05
 20
0.0
 30
0.0
 11
34.05
 21
-22.22500000000002
 31
0.0
  0
LINE
  5
146A
  8
1
 10
34.05
 20
22.22500000000002
 30
0.0
 11
34.05
 21
0.0
 31
0.0
  0
DIMENSION
  5
146B
  8
SK2
  2
*D4
 10
143.9812164561423
 20
-31.75
 30
0.0
 11
142.1062164561423
 21
0.0
 31
0.0
 70
    32
  3
ISO-25
 13
128.25
 23
31.75
 33
0.0
 14
128.25
 24
-31.75
 34
0.0
 50
90.0
1001
ACAD
1000
DSTYLE
1002
{
1070
   287
1070
     5
1070
   271
1070
     3
1070
   272
1070
     3
1070
   279
1070
     2
1002
}
  0
ARC
  5
147B
  8
NOCUT
 10
34.0500000000001
 20
23.22499999526548
 30
0.0
 40
1.0
 50
270.0
 51
0.0
  0
LINE
  5
147C
  8
NOCUT
 10
36.0500000000001
 20
31.74999999526545
 30
0.0
 11
35.0500000000001
 21
30.74999999526545
 31
0.0
  0
LINE
  5
147D
  8
NOCUT
 10
128.25
 20
31.74999999526545
 30
0.0
 11
36.04999999526545
 21
31.74999999526545
 31
0.0
  0
LINE
  5
147E
  8
NOCUT
 10
129.0000000000001
 20
30.99999999526545
 30
0.0
 11
128.2500000000001
 21
31.74999999526545
 31
0.0
  0
LINE
  5
147F
  8
NOCUT
 10
129.0000000000001
 20
-0.0000000047345452
 30
0.0
 11
129.0000000000001
 21
30.99999999526545
 31
0.0
  0
LINE
  5
1480
  8
1
 10
35.0500000000001
 20
30.74999999526545
 30
0.0
 11
35.0500000000001
 21
23.22499999526548
 31
0.0
  0
LINE
  5
1481
  8
3
 10
91.070719349
 20
0.0
 30
0.0
 11
91.070719349
 21
18.25
 31
0.0
  0
LINE
  5
1482
  8
3
 10
91.070719349
 20
-18.25
 30
0.0
 11
91.070719349
 21
0.0
 31
0.0
  0
LINE
  5
1483
  8
3
 10
87.0
 20
0.0
 30
0.0
 11
87.0
 21
18.25
 31
0.0
  0
LINE
  5
1484
  8
3
 10
87.0
 20
-18.25
 30
0.0
 11
87.0
 21
0.0
 31
0.0
  0
LINE
  5
1485
  8
3
 10
92.0
 20
0.0
 30
0.0
 11
92.0
 21
18.00099999999998
 31
0.0
  0
LINE
  5
1486
  8
3
 10
92.0
 20
-18.00099999999998
 30
0.0
 11
92.0
 21
0.0
 31
0.0
  0
LINE
  5
1487
  8
3
 10
80.39053319070001
 20
-6.0
 30
0.0
 11
80.39053319070001
 21
6.0
 31
0.0
  0
LINE
  5
1488
  8
3
 10
87.0
 20
-18.25
 30
0.0
 11
91.070719349
 21
-18.25
 31
0.0
  0
LINE
  5
1489
  8
3
 10
91.070719349
 20
18.25
 30
0.0
 11
87.0
 21
18.25
 31
0.0
  0
LINE
  5
148A
  8
3
 10
91.070719349
 20
-18.25
 30
0.0
 11
92.0
 21
-18.00099999999998
 31
0.0
  0
LINE
  5
148B
  8
3
 10
92.0
 20
18.00099999999998
 30
0.0
 11
91.070719349
 21
18.25
 31
0.0
  0
LINE
  5
148C
  8
3
 10
87.0
 20
17.0
 30
0.0
 11
80.39053319070001
 21
6.0
 31
0.0
  0
LINE
  5
148D
  8
3
 10
80.39053319070001
 20
-6.0
 30
0.0
 11
87.0
 21
-16.99999999989996
 31
0.0
  0
LINE
  5
148E
  8
3
 10
80.39053319070001
 20
6.0
 30
0.0
 11
0.0
 21
6.0
 31
0.0
  0
LINE
  5
148F
  8
3
 10
0.0
 20
-6.0
 30
0.0
 11
80.39053319070001
 21
-6.0
 31
0.0
  0
ENDSEC
  0
EOF
