  0
SECTION
  2
HEADER
  9
$ACADVER
  1
AC1009
  9
$DWGCODEPAGE
  3
ansi_1252
  9
$INSBASE
 10
0.0
 20
0.0
 30
0.0
  9
$EXTMIN
 10
-68.25000000000003
 20
-48.27109509650273
 30
0.0
  9
$EXTMAX
 10
141.9525020780113
 20
50.83203563714093
 30
0.0
  9
$LIMMIN
 10
0.0
 20
0.0
  9
$LIMMAX
 10
420.0
 20
297.0
  9
$ORTHOMODE
 70
     1
  9
$REGENMODE
 70
     1
  9
$FILLMODE
 70
     1
  9
$QTEXTMODE
 70
     0
  9
$MIRRTEXT
 70
     0
  9
$DRAGMODE
 70
     2
  9
$LTSCALE
 40
1.0
  9
$OSMODE
 70
   279
  9
$ATTMODE
 70
     1
  9
$TEXTSIZE
 40
2.5
  9
$TRACEWID
 40
1.0
  9
$TEXTSTYLE
  7
STANDARD
  9
$CLAYER
  8
0
  9
$CELTYPE
  6
BYLAYER
  9
$CECOLOR
 62
   256
  9
$DIMSCALE
 40
1.0
  9
$DIMASZ
 40
2.5
  9
$DIMEXO
 40
0.625
  9
$DIMDLI
 40
3.75
  9
$DIMRND
 40
0.0
  9
$DIMDLE
 40
0.0
  9
$DIMEXE
 40
1.25
  9
$DIMTP
 40
0.0
  9
$DIMTM
 40
0.0
  9
$DIMTXT
 40
2.5
  9
$DIMCEN
 40
2.5
  9
$DIMTSZ
 40
0.0
  9
$DIMTOL
 70
     0
  9
$DIMLIM
 70
     0
  9
$DIMTIH
 70
     0
  9
$DIMTOH
 70
     0
  9
$DIMSE1
 70
     0
  9
$DIMSE2
 70
     0
  9
$DIMTAD
 70
     1
  9
$DIMZIN
 70
     8
  9
$DIMBLK
  1

  9
$DIMASO
 70
     1
  9
$DIMSHO
 70
     1
  9
$DIMPOST
  1

  9
$DIMAPOST
  1

  9
$DIMALT
 70
     0
  9
$DIMALTD
 70
     3
  9
$DIMALTF
 40
0.03937007874016
  9
$DIMLFAC
 40
1.0
  9
$DIMTOFL
 70
     1
  9
$DIMTVP
 40
0.0
  9
$DIMTIX
 70
     0
  9
$DIMSOXD
 70
     0
  9
$DIMSAH
 70
     0
  9
$DIMBLK1
  1

  9
$DIMBLK2
  1

  9
$DIMSTYLE
  2
ISO-25
  9
$DIMCLRD
 70
     0
  9
$DIMCLRE
 70
     0
  9
$DIMCLRT
 70
     0
  9
$DIMTFAC
 40
1.0
  9
$DIMGAP
 40
0.625
  9
$LUNITS
 70
     2
  9
$LUPREC
 70
     3
  9
$SKETCHINC
 40
1.0
  9
$FILLETRAD
 40
10.0
  9
$AUNITS
 70
     0
  9
$AUPREC
 70
     0
  9
$MENU
  1
.
  9
$ELEVATION
 40
0.0
  9
$PELEVATION
 40
0.0
  9
$THICKNESS
 40
0.0
  9
$LIMCHECK
 70
     0
  9
$CHAMFERA
 40
10.0
  9
$CHAMFERB
 40
10.0
  9
$SKPOLY
 70
     0
  9
$TDCREATE
 40
2455022.429026158
  9
$TDUPDATE
 40
2458696.404587697
  9
$TDINDWG
 40
0.001290463
  9
$TDUSRTIMER
 40
2458716.835003044
  9
$USRTIMER
 70
     1
  9
$ANGBASE
 50
0.0
  9
$ANGDIR
 70
     0
  9
$PDMODE
 70
     0
  9
$PDSIZE
 40
0.0
  9
$PLINEWID
 40
0.0
  9
$COORDS
 70
     1
  9
$SPLFRAME
 70
     0
  9
$SPLINETYPE
 70
     6
  9
$SPLINESEGS
 70
     8
  9
$ATTDIA
 70
     0
  9
$ATTREQ
 70
     1
  9
$HANDLING
 70
     1
  9
$HANDSEED
  5
308B
  9
$SURFTAB1
 70
     6
  9
$SURFTAB2
 70
     6
  9
$SURFTYPE
 70
     6
  9
$SURFU
 70
     6
  9
$SURFV
 70
     6
  9
$UCSNAME
  2

  9
$UCSORG
 10
0.0
 20
0.0
 30
0.0
  9
$UCSXDIR
 10
1.0
 20
0.0
 30
0.0
  9
$UCSYDIR
 10
0.0
 20
1.0
 30
0.0
  9
$PUCSNAME
  2

  9
$PUCSORG
 10
0.0
 20
0.0
 30
0.0
  9
$PUCSXDIR
 10
1.0
 20
0.0
 30
0.0
  9
$PUCSYDIR
 10
0.0
 20
1.0
 30
0.0
  9
$USERI1
 70
     0
  9
$USERI2
 70
     0
  9
$USERI3
 70
     0
  9
$USERI4
 70
     0
  9
$USERI5
 70
     0
  9
$USERR1
 40
0.0
  9
$USERR2
 40
0.0
  9
$USERR3
 40
0.0
  9
$USERR4
 40
0.0
  9
$USERR5
 40
0.0
  9
$WORLDVIEW
 70
     1
  9
$SHADEDGE
 70
     3
  9
$SHADEDIF
 70
    70
  9
$TILEMODE
 70
     1
  9
$MAXACTVP
 70
    64
  9
$PLIMCHECK
 70
     0
  9
$PEXTMIN
 10
1.000000000000000E+20
 20
1.000000000000000E+20
 30
1.000000000000000E+20
  9
$PEXTMAX
 10
-1.000000000000000E+20
 20
-1.000000000000000E+20
 30
-1.000000000000000E+20
  9
$PLIMMIN
 10
0.0
 20
0.0
  9
$PLIMMAX
 10
0.0
 20
0.0
  9
$UNITMODE
 70
     0
  9
$VISRETAIN
 70
     1
  9
$PLINEGEN
 70
     0
  9
$PSLTSCALE
 70
     1
  0
ENDSEC
  0
SECTION
  2
TABLES
  0
TABLE
  2
VPORT
 70
     1
  0
VPORT
  2
*ACTIVE
 70
     0
 10
0.0
 20
0.0
 11
1.0
 21
1.0
 12
143.5704661554344
 22
1.280470270319107
 13
0.0
 23
0.0
 14
10.0
 24
10.0
 15
10.0
 25
10.0
 16
0.0
 26
0.0
 36
1.0
 17
-134.1869158878503
 27
0.0
 37
0.0
 40
122.5328072296804
 41
1.292490118577075
 42
50.0
 43
0.0
 44
0.0
 50
0.0
 51
0.0
 71
    16
 72
  1000
 73
     1
 74
     3
 75
     0
 76
     0
 77
     0
 78
     0
  0
ENDTAB
  0
TABLE
  2
LTYPE
 70
     6
  0
LTYPE
  2
CONTINUOUS
 70
     0
  3
Solid line
 72
    65
 73
     0
 40
0.0
  0
LTYPE
  2
CENTER
 70
     0
  3
 Center _____  _  _____  _  _____  _  _____  _ 
 72
    65
 73
     4
 40
50.8
 49
31.75
 49
-6.35
 49
6.35
 49
-6.35
  0
LTYPE
  2
DASHED
 70
     0
  3
Dashed __  __  __  __  __  __  __  __  __  __  
 72
    65
 73
     2
 40
19.05
 49
12.7
 49
-6.35
  0
LTYPE
  2
HIDDEN
 70
     0
  3
Hidden __ __ __ __ __ __ __ __ __ __ __ __ __ __
 72
    65
 73
     2
 40
1.905
 49
1.27
 49
-0.635
  0
LTYPE
  2
CENTERX2
 70
     0
  3
Center (2x) ________  __  ________  __  _____
 72
    65
 73
     4
 40
20.32
 49
12.7
 49
-2.54
 49
2.54
 49
-2.54
  0
LTYPE
  2
PHANTOM
 70
     0
  3
Phantom ______  __  __  ______  __  __  ______
 72
    65
 73
     6
 40
12.7
 49
6.35
 49
-1.27
 49
1.27
 49
-1.27
 49
1.27
 49
-1.27
  0
ENDTAB
  0
TABLE
  2
LAYER
 70
    26
  0
LAYER
  2
0
 70
     0
 62
     7
  6
CONTINUOUS
  0
LAYER
  2
1
 70
     0
 62
     4
  6
CONTINUOUS
  0
LAYER
  2
2
 70
     0
 62
     7
  6
CONTINUOUS
  0
LAYER
  2
3
 70
     0
 62
     1
  6
DASHED
  0
LAYER
  2
4
 70
     0
 62
     2
  6
CENTER
  0
LAYER
  2
6
 70
     0
 62
     5
  6
CONTINUOUS
  0
LAYER
  2
7
 70
     0
 62
     5
  6
CONTINUOUS
  0
LAYER
  2
11
 70
     0
 62
     4
  6
CONTINUOUS
  0
LAYER
  2
SK1
 70
     0
 62
     4
  6
CONTINUOUS
  0
LAYER
  2
SK2
 70
     0
 62
     7
  6
CONTINUOUS
  0
LAYER
  2
SK3
 70
     0
 62
     1
  6
DASHED
  0
LAYER
  2
SK4
 70
     0
 62
     2
  6
CENTER
  0
LAYER
  2
SK6
 70
     0
 62
     5
  6
CONTINUOUS
  0
LAYER
  2
SK7
 70
     0
 62
     5
  6
CONTINUOUS
  0
LAYER
  2
SK11
 70
     0
 62
     4
  6
CONTINUOUS
  0
LAYER
  2
CUT
 70
     0
 62
     1
  6
CONTINUOUS
  0
LAYER
  2
NOCUT
 70
     0
 62
    -7
  6
CONTINUOUS
  0
LAYER
  2
SKVIEW1
 70
     0
 62
     4
  6
CONTINUOUS
  0
LAYER
  2
SKVIEW2
 70
     0
 62
     7
  6
CONTINUOUS
  0
LAYER
  2
SKVIEW3
 70
     0
 62
     1
  6
DASHED
  0
LAYER
  2
SKVIEW4
 70
     0
 62
     2
  6
CENTER
  0
LAYER
  2
SKVIEW6
 70
     0
 62
     5
  6
CONTINUOUS
  0
LAYER
  2
SKVIEW7
 70
     0
 62
     5
  6
CONTINUOUS
  0
LAYER
  2
SKVIEW11
 70
     0
 62
     4
  6
CONTINUOUS
  0
LAYER
  2
INFTOTAL
 70
     0
 62
     9
  6
CONTINUOUS
  0
LAYER
  2
DEFPOINTS
 70
     0
 62
     7
  6
CONTINUOUS
  0
ENDTAB
  0
TABLE
  2
STYLE
 70
     1
  0
STYLE
  2
STANDARD
 70
     0
 40
0.0
 41
1.0
 50
0.0
 71
     0
 42
2.5
  3
txt
  4

  0
ENDTAB
  0
TABLE
  2
VIEW
 70
     0
  0
ENDTAB
  0
TABLE
  2
UCS
 70
     0
  0
ENDTAB
  0
TABLE
  2
APPID
 70
     2
  0
APPID
  2
ACAD
 70
     0
  0
APPID
  2
ACAECLAYERSTANDARD
 70
     0
  0
ENDTAB
  0
TABLE
  2
DIMSTYLE
 70
     1
  0
DIMSTYLE
  2
ISO-25
 70
     0
  3

  4

  5

  6

  7

 40
1.0
 41
2.5
 42
0.625
 43
3.75
 44
1.25
 45
0.0
 46
0.0
 47
0.0
 48
0.0
140
2.5
141
2.5
142
0.0
143
0.03937007874016
144
1.0
145
0.0
146
1.0
147
0.625
 71
     0
 72
     0
 73
     0
 74
     0
 75
     0
 76
     0
 77
     1
 78
     8
170
     0
171
     3
172
     1
173
     0
174
     0
175
     0
176
     0
177
     0
178
     0
  0
ENDTAB
  0
ENDSEC
  0
SECTION
  2
BLOCKS
  0
BLOCK
  8
0
  2
$MODEL_SPACE
 70
     0
 10
0.0
 20
0.0
 30
0.0
  3
$MODEL_SPACE
  1

  0
ENDBLK
  5
21
  8
0
  0
BLOCK
 67
     1
  8
0
  2
$PAPER_SPACE
 70
     0
 10
0.0
 20
0.0
 30
0.0
  3
$PAPER_SPACE
  1

  0
ENDBLK
  5
1D
 67
     1
  8
0
  0
BLOCK
  8
0
  2
_FILLED
 70
     0
 10
0.0
 20
0.0
 30
0.0
  3
_FILLED
  1

  0
SOLID
  5
1C4
  8
0
  6
BYBLOCK
 62
     0
 10
0.0
 20
0.0
 30
0.0
 11
-1.0
 21
0.2142857143
 31
0.0
 12
-1.0
 22
-0.2142857143
 32
0.0
 13
-1.0
 23
-0.2142857143
 33
0.0
  0
ENDBLK
  5
1C5
  8
0
  6
BYBLOCK
 62
     0
  0
BLOCK
  8
0
  2
*D1
 70
     1
 10
0.0
 20
0.0
 30
0.0
  3
*D1
  1

  0
LINE
  5
1D3
  8
2
 62
     0
 10
0.0
 20
22.84999999999999
 30
0.0
 11
0.0
 21
48.91573065769793
 31
0.0
  0
LINE
  5
1D4
  8
2
 62
     0
 10
69.0
 20
31.875
 30
0.0
 11
69.0
 21
48.91573065769793
 31
0.0
  0
LINE
  5
1D5
  8
2
 62
     0
 10
2.5
 20
47.66573065769793
 30
0.0
 11
66.5
 21
47.66573065769793
 31
0.0
  0
SOLID
  5
1D6
  8
2
 62
     0
 10
2.5
 20
48.08239732436459
 30
0.0
 11
2.5
 21
47.24906399103126
 31
0.0
 12
0.0
 22
47.66573065769793
 32
0.0
 13
0.0
 23
47.66573065769793
 33
0.0
  0
SOLID
  5
1D7
  8
2
 62
     0
 10
66.5
 20
47.24906399103126
 30
0.0
 11
66.5
 21
48.08239732436459
 31
0.0
 12
69.0
 22
47.66573065769793
 32
0.0
 13
69.0
 23
47.66573065769793
 33
0.0
  0
TEXT
  5
1D8
  8
2
  6
CONTINUOUS
 62
     0
 10
32.41666666666666
 20
48.29073065769793
 30
0.0
 40
2.5
  1
69
  0
POINT
  5
1D9
  8
DEFPOINTS
 62
     0
 10
0.0
 20
22.22499999999999
 30
0.0
  0
POINT
  5
1DA
  8
DEFPOINTS
 62
     0
 10
69.0
 20
31.25
 30
0.0
  0
POINT
  5
1DB
  8
DEFPOINTS
 62
     0
 10
69.0
 20
47.66573065769793
 30
0.0
  0
ENDBLK
  5
1DD
  8
0
  0
BLOCK
  8
0
  2
*D2
 70
     1
 10
0.0
 20
0.0
 30
0.0
  3
*D2
  1

  0
LINE
  5
211
  8
SK2
 62
     0
 10
0.0
 20
-22.84999999999999
 30
0.0
 11
0.0
 21
-48.27109509650273
 31
0.0
  0
LINE
  5
212
  8
SK2
 62
     0
 10
35.05
 20
-31.375
 30
0.0
 11
35.05
 21
-48.27109509650273
 31
0.0
  0
LINE
  5
213
  8
SK2
 62
     0
 10
2.5
 20
-47.02109509650273
 30
0.0
 11
32.55
 21
-47.02109509650273
 31
0.0
  0
SOLID
  5
214
  8
SK2
 62
     0
 10
2.5
 20
-46.60442842983606
 30
0.0
 11
2.5
 21
-47.43776176316939
 31
0.0
 12
0.0
 22
-47.02109509650273
 32
0.0
 13
0.0
 23
-47.02109509650273
 33
0.0
  0
SOLID
  5
215
  8
SK2
 62
     0
 10
32.55
 20
-47.43776176316939
 30
0.0
 11
32.55
 21
-46.60442842983606
 31
0.0
 12
35.05
 22
-47.02109509650273
 32
0.0
 13
35.05
 23
-47.02109509650273
 33
0.0
  0
TEXT
  5
216
  8
SK2
  6
CONTINUOUS
 62
     0
 10
12.73333333333333
 20
-46.39609509650273
 30
0.0
 40
2.5
  1
35.05
  0
POINT
  5
217
  8
DEFPOINTS
 62
     0
 10
0.0
 20
-22.22499999999999
 30
0.0
  0
POINT
  5
218
  8
DEFPOINTS
 62
     0
 10
35.05
 20
-30.75
 30
0.0
  0
POINT
  5
219
  8
DEFPOINTS
 62
     0
 10
35.05
 20
-47.02109509650273
 30
0.0
  0
ENDBLK
  5
21B
  8
0
  0
BLOCK
  8
0
  2
*D3
 70
     1
 10
0.0
 20
0.0
 30
0.0
  3
*D3
  1

  0
LINE
  5
21A0
  8
SK2
 62
     0
 10
69.125
 20
31.75
 30
0.0
 11
87.01710053516808
 21
31.75
 31
0.0
  0
LINE
  5
21A1
  8
SK2
 62
     0
 10
69.125
 20
-31.75
 30
0.0
 11
87.01710053516808
 21
-31.75
 31
0.0
  0
LINE
  5
21A2
  8
SK2
 62
     0
 10
85.76710053516808
 20
29.25
 30
0.0
 11
85.76710053516808
 21
-29.25
 31
0.0
  0
SOLID
  5
21A3
  8
SK2
 62
     0
 10
86.18376720183475
 20
29.25
 30
0.0
 11
85.35043386850141
 21
29.25
 31
0.0
 12
85.76710053516808
 22
31.75
 32
0.0
 13
85.76710053516808
 23
31.75
 33
0.0
  0
SOLID
  5
21A4
  8
SK2
 62
     0
 10
85.35043386850141
 20
-29.25
 30
0.0
 11
86.18376720183475
 21
-29.25
 31
0.0
 12
85.76710053516808
 22
-31.75
 32
0.0
 13
85.76710053516808
 23
-31.75
 33
0.0
  0
TEXT
  5
21A5
  8
SK2
  6
CONTINUOUS
 62
     0
 10
85.14210053516808
 20
-3.75
 30
0.0
 40
2.5
  1
63.5
 50
90.0
  0
POINT
  5
21A6
  8
DEFPOINTS
 62
     0
 10
68.5
 20
31.75
 30
0.0
  0
POINT
  5
21A7
  8
DEFPOINTS
 62
     0
 10
68.5
 20
-31.75
 30
0.0
  0
POINT
  5
21A8
  8
DEFPOINTS
 62
     0
 10
85.76710053516808
 20
-31.75
 30
0.0
  0
ENDBLK
  5
21AA
  8
0
  0
ENDSEC
  0
SECTION
  2
ENTITIES
  0
LINE
  5
1B2
  8
4
 10
69.0
 20
-0.0000000047345405
 30
0.0
 11
0.0
 21
0.0
 31
0.0
  0
DIMENSION
  5
1CF
  8
2
  2
*D1
 10
69.0
 20
47.66573065769793
 30
0.0
 11
34.5
 21
49.54073065769793
 31
0.0
 70
    32
  3
ISO-25
 13
0.0
 23
22.22499999999999
 33
0.0
 14
69.0
 24
31.25
 34
0.0
  0
DIMENSION
  5
20D
  8
SK2
  2
*D2
 10
35.05
 20
-47.02109509650273
 30
0.0
 11
17.525
 21
-45.14609509650273
 31
0.0
 70
    32
  3
ISO-25
 13
0.0
 23
-22.22499999999999
 33
0.0
 14
35.05
 24
-30.75
 34
0.0
  0
LINE
  5
364
  8
NOCUT
 10
69.0
 20
-0.0000000047345405
 30
0.0
 11
0.0
 21
0.0
 31
0.0
  0
LINE
  5
99D
  8
SK3
 10
-66.51794919240001
 20
0.0
 30
0.0
 11
-66.51794919240001
 21
8.149999999999991
 31
0.0
  0
LINE
  5
99E
  8
SK3
 10
-66.51794919240001
 20
-8.149999999999991
 30
0.0
 11
-66.51794919240001
 21
0.0
 31
0.0
  0
LINE
  5
99F
  8
SK3
 10
-63.48000000000002
 20
0.0
 30
0.0
 11
-63.48000000000002
 21
8.149999999999991
 31
0.0
  0
LINE
  5
9A0
  8
SK3
 10
-63.48000000000002
 20
-8.149999999999991
 30
0.0
 11
-63.48000000000002
 21
0.0
 31
0.0
  0
LINE
  5
9A3
  8
SK3
 10
-25.75000000000003
 20
0.0
 30
0.0
 11
-25.75000000000003
 21
6.700000000000003
 31
0.0
  0
LINE
  5
9A4
  8
SK3
 10
-25.75000000000003
 20
-6.700000000000003
 30
0.0
 11
-25.75000000000003
 21
0.0
 31
0.0
  0
LINE
  5
9A5
  8
SK3
 10
-25.32939756670001
 20
0.0
 30
0.0
 11
-25.32939756670001
 21
-6.0
 31
0.0
  0
LINE
  5
9A6
  8
SK3
 10
-25.32939756670001
 20
6.0
 30
0.0
 11
-25.32939756670001
 21
0.0
 31
0.0
  0
LINE
  5
9BF
  8
SK3
 10
-68.25000000000003
 20
-9.149999999999991
 30
0.0
 11
-66.51794919240001
 21
-8.149999999999991
 31
0.0
  0
LINE
  5
9C0
  8
SK3
 10
-66.51794919240001
 20
8.149999999999991
 30
0.0
 11
-68.25000000000003
 21
9.149999999999991
 31
0.0
  0
LINE
  5
9C1
  8
SK3
 10
-66.51794919240001
 20
-8.149999999999991
 30
0.0
 11
-63.48000000000002
 21
-8.149999999999991
 31
0.0
  0
LINE
  5
9C2
  8
SK3
 10
-63.48000000000002
 20
8.149999999999991
 30
0.0
 11
-66.51794919240001
 21
8.149999999999991
 31
0.0
  0
LINE
  5
9C3
  8
SK3
 10
-63.48000000000002
 20
-6.700000000000003
 30
0.0
 11
-25.75000000000003
 21
-6.700000000000003
 31
0.0
  0
LINE
  5
9C4
  8
SK3
 10
-25.75000000000003
 20
6.700000000000003
 30
0.0
 11
-63.48000000000002
 21
6.700000000000003
 31
0.0
  0
LINE
  5
9C5
  8
SK3
 10
-25.75000000000003
 20
-6.700000000000003
 30
0.0
 11
-25.32939756670001
 21
-6.0
 31
0.0
  0
LINE
  5
9C6
  8
SK3
 10
-25.32939756670001
 20
6.0
 30
0.0
 11
-25.75000000000003
 21
6.700000000000003
 31
0.0
  0
LINE
  5
9C9
  8
SK3
 10
0.0
 20
6.0
 30
0.0
 11
-25.32939756670001
 21
6.0
 31
0.0
  0
LINE
  5
9CA
  8
SK3
 10
-25.32939756670001
 20
-6.0
 30
0.0
 11
-0.0000000000000036
 21
-6.0
 31
0.0
  0
LINE
  5
9E1
  8
0
 10
70.99999999999994
 20
1.999999995265459
 30
0.0
 11
67.00000000000004
 21
-2.00000000473454
 31
0.0
  0
LINE
  5
9E2
  8
0
 10
67.00000000000004
 20
1.999999995265459
 30
0.0
 11
70.99999999999994
 21
-2.00000000473454
 31
0.0
  0
CIRCLE
  5
9E3
  8
0
 10
69.00000000000004
 20
-0.0000000047345405
 30
0.0
 40
1.5
  0
LINE
  5
9E4
  8
0
 10
3.0
 20
3.0
 30
0.0
 11
-3.0
 21
-3.0
 31
0.0
  0
LINE
  5
9E5
  8
0
 10
-3.0
 20
3.0
 30
0.0
 11
3.0
 21
-3.0
 31
0.0
  0
CIRCLE
  5
9E6
  8
0
 10
0.0
 20
0.0
 30
0.0
 40
2.5
  0
LINE
  5
9E7
  8
SK3
 10
-63.48000000000005
 20
-7.937499999800011
 30
0.0
 11
-39.75000000000003
 21
-7.937499999800011
 31
0.0
  0
LINE
  5
9E8
  8
SK3
 10
-39.75000000000003
 20
7.937500000199975
 30
0.0
 11
-39.75000000000003
 21
-7.937499999800011
 31
0.0
  0
LINE
  5
9E9
  8
SK3
 10
-39.75000000000003
 20
7.937500000199975
 30
0.0
 11
-63.48000000000005
 21
7.937500000199975
 31
0.0
  0
ARC
  5
AA1
  8
NOCUT
 10
0.5
 20
22.72499999999999
 30
0.0
 40
0.5
 50
270.0
 51
0.0
  0
LINE
  5
AA4
  8
NOCUT
 10
0.5
 20
22.22499999999999
 30
0.0
 11
0.0
 21
22.22499999999999
 31
0.0
  0
LINE
  5
AA5
  8
NOCUT
 10
34.05
 20
22.22499999999999
 30
0.0
 11
20.04999999999998
 21
22.22499999999999
 31
0.0
  0
LINE
  5
AB0
  8
NOCUT
 10
0.0
 20
0.0
 30
0.0
 11
0.0
 21
22.22499999999999
 31
0.0
  0
LINE
  5
ACA
  8
NOCUT
 10
1.0
 20
22.72499999999999
 30
0.0
 11
1.0
 21
31.24999999999997
 31
0.0
  0
LINE
  5
ACD
  8
NOCUT
 10
19.05000000000001
 20
31.24999999999997
 30
0.0
 11
19.04999999999995
 21
23.22499999999999
 31
0.0
  0
ARC
  5
B91
  8
1
 10
20.04999999999998
 20
-23.22499999999999
 30
0.0
 40
1.0
 50
90.0
 51
180.0
  0
ARC
  5
B93
  8
1
 10
20.04999999999998
 20
23.22499999999999
 30
0.0
 40
1.0
 50
180.0
 51
270.0
  0
ARC
  5
B94
  8
1
 10
0.799999999999983
 20
-22.42500000000001
 30
0.0
 40
0.5
 50
66.42182152179994
 51
90.0
  0
ARC
  5
B95
  8
1
 10
0.799999999999983
 20
22.42499999999998
 30
0.0
 40
0.5
 50
270.0
 51
293.5781784782001
  0
LINE
  5
B96
  8
1
 10
20.04999999999998
 20
-22.22499999999999
 30
0.0
 11
34.05
 21
-22.22499999999999
 31
0.0
  0
LINE
  5
B97
  8
1
 10
34.05
 20
22.22499999999999
 30
0.0
 11
20.04999999999998
 21
22.22499999999999
 31
0.0
  0
LINE
  5
B98
  8
1
 10
0.0
 20
-22.22499999999999
 30
0.0
 11
0.2999999999999829
 21
-21.92500000000001
 31
0.0
  0
LINE
  5
B99
  8
1
 10
0.2999999999999829
 20
21.92499999999998
 30
0.0
 11
0.0
 21
22.22499999999999
 31
0.0
  0
LINE
  5
B9C
  8
SK1
 10
0.0
 20
22.22499999999999
 30
0.0
 11
-67.3943082273
 21
12.39657058259999
 31
0.0
  0
LINE
  5
B9D
  8
SK1
 10
-67.3943082273
 20
-12.39657058270001
 30
0.0
 11
0.0
 21
-22.22499999999999
 31
0.0
  0
LINE
  5
B9E
  8
1
 10
0.2999999999999829
 20
-21.92500000000001
 30
0.0
 11
0.799999999999983
 21
-21.92500000000001
 31
0.0
  0
LINE
  5
B9F
  8
1
 10
0.799999999999983
 20
21.92499999999998
 30
0.0
 11
0.2999999999999829
 21
21.92499999999998
 31
0.0
  0
ARC
  5
BA0
  8
SK1
 10
-67.25
 20
-11.4070377962
 30
0.0
 40
1.000000000000014
 50
180.0
 51
261.7027777778003
  0
ARC
  5
BA1
  8
SK1
 10
-67.25
 20
11.40703779609998
 30
0.0
 40
1.000000000000014
 50
98.29722222219964
 51
180.0
  0
LINE
  5
BA2
  8
1
 10
14.6561667922
 20
30.49243725150001
 30
0.0
 11
13.05500004409998
 21
27.5903849293
 31
0.0
  0
LINE
  5
BA3
  8
1
 10
14.65616676899998
 20
-30.51805114620001
 30
0.0
 11
14.65616676899998
 21
30.49243720799998
 31
0.0
  0
LINE
  5
BA4
  8
1
 10
13.05500002099998
 20
-27.61768172550001
 30
0.0
 11
14.65616678619998
 21
-30.51748284710001
 31
0.0
  0
LINE
  5
BA5
  8
1
 10
13.05499999999998
 20
-27.61768156150001
 30
0.0
 11
13.05499999999998
 21
27.5896745586
 31
0.0
  0
LINE
  5
BA6
  8
1
 10
14.65616729029998
 20
-30.5174828113
 30
0.0
 11
14.76217597669998
 21
-30.54092502470002
 31
0.0
  0
LINE
  5
BA7
  8
1
 10
14.69253150219998
 20
30.50268419069999
 30
0.0
 11
14.65616753799998
 21
30.49243719839998
 31
0.0
  0
LINE
  5
BA8
  8
1
 10
18.54999999999998
 20
30.50268419069999
 30
0.0
 11
14.69253150219998
 21
30.50268419069999
 31
0.0
  0
LINE
  5
BA9
  8
1
 10
14.76217597669998
 20
-30.54092502470002
 30
0.0
 11
18.54999999999998
 21
-30.54092502470002
 31
0.0
  0
LINE
  5
BAA
  8
1
 10
9.204999955799991
 20
27.5903849293
 30
0.0
 11
7.603833207699978
 21
30.49243725150001
 31
0.0
  0
LINE
  5
BAB
  8
1
 10
9.204999999999984
 20
-27.6182445954
 30
0.0
 11
9.204999999999984
 21
27.5903848518
 31
0.0
  0
LINE
  5
BAC
  8
1
 10
7.6038332137
 20
-30.51748284710001
 30
0.0
 11
9.204999978799975
 21
-27.61768172539999
 31
0.0
  0
LINE
  5
BAD
  8
1
 10
7.603833230899994
 20
-30.5174828113
 30
0.0
 11
7.603833230899994
 21
30.49194635059999
 31
0.0
  0
LINE
  5
BAE
  8
1
 10
1.0
 20
-29.20362428180002
 30
0.0
 11
1.0
 21
29.22527756419998
 31
0.0
  0
ARC
  5
BAF
  8
1
 10
1.736068826500002
 20
28.83956144390001
 30
0.0
 40
0.8318485490646366
 50
106.4871262675995
 51
152.2338518675996
  0
POLYLINE
  5
BB0
  8
1
 66
     1
 10
0.0
 20
0.0
 30
0.0
  0
VERTEX
  5
2BE4
  8
1
 10
1.499991175799977
 20
-29.70136738420001
 30
0.0
  0
VERTEX
  5
2BE5
  8
1
 10
1.31486147779998
 20
-29.6078136875
 30
0.0
  0
VERTEX
  5
2BE6
  8
1
 10
1.220960437199977
 20
-29.54106786380001
 30
0.0
  0
VERTEX
  5
2BE7
  8
1
 10
1.131120186599986
 20
-29.45918995790001
 30
0.0
  0
VERTEX
  5
2BE8
  8
1
 10
1.068966655699995
 20
-29.38420485969999
 30
0.0
  0
VERTEX
  5
2BE9
  8
1
 10
1.029912598300001
 20
-29.3189781797
 30
0.0
  0
VERTEX
  5
2BEA
  8
1
 10
1.001757060399996
 20
-29.23060659110001
 30
0.0
  0
VERTEX
  5
2BEB
  8
1
 10
1.000001938499992
 20
-29.2054619834
 30
0.0
  0
SEQEND
  5
308A
  8
1
  0
LINE
  5
BB1
  8
1
 10
7.5674684974
 20
30.50268419069999
 30
0.0
 11
4.03465638199998
 21
30.50268419069999
 31
0.0
  0
LINE
  5
BB2
  8
1
 10
7.603832461599978
 20
30.49243719839998
 30
0.0
 11
7.5674684974
 21
30.50268419069999
 31
0.0
  0
LINE
  5
BB3
  8
1
 10
7.497824022700001
 20
-30.54092502470002
 30
0.0
 11
7.603832709099976
 21
-30.5174828113
 31
0.0
  0
LINE
  5
BB4
  8
1
 10
3.987796517999982
 20
-30.54092502470002
 30
0.0
 11
7.497824022700001
 21
-30.54092502470002
 31
0.0
  0
LINE
  5
BB5
  8
1
 10
1.500000037399985
 20
-29.70136454339999
 30
0.0
 11
3.987796517999982
 21
-30.54092512950001
 31
0.0
  0
LINE
  5
BB6
  8
1
 10
4.03465638199998
 20
30.5026843142
 30
0.0
 11
1.499999999899984
 21
29.6372041155
 31
0.0
  0
POLYLINE
  5
BB7
  8
1
 66
     1
 10
0.0
 20
0.0
 30
0.0
  0
VERTEX
  5
2BEC
  8
1
 10
18.81621828999999
 20
-30.4787564463
 30
0.0
  0
VERTEX
  5
2BED
  8
1
 10
18.6790188139
 20
-30.52721612650001
 30
0.0
  0
VERTEX
  5
2BEE
  8
1
 10
18.54999999999998
 20
-30.54092502470002
 30
0.0
  0
SEQEND
  5
3089
  8
1
  0
ARC
  5
BB8
  8
1
 10
18.55943835959999
 20
29.86640550269999
 30
0.0
 40
0.6363486869715145
 50
60.60134603479981
 51
90.84984539750005
  0
ARC
  5
BB9
  8
1
 10
18.35098180669999
 20
29.95429978019999
 30
0.0
 40
0.6992094391558102
 50
1.340108450200791
 51
41.85091720829973
  0
LINE
  5
BBA
  8
1
 10
19.04999999999998
 20
29.97065231189998
 30
0.0
 11
19.04999999999998
 21
-29.97065231190001
 31
0.0
  0
ARC
  5
BBB
  8
1
 10
18.33294041069999
 20
-29.9485632036
 30
0.0
 40
0.7173997374297006
 50
312.3495695874001
 51
358.2355544919003
  0
ARC
  5
BBC
  8
1
 10
9.7449695926
 20
27.30906555679999
 30
0.0
 40
0.5407677835436584
 50
176.8865704259999
 51
265.761250323199
  0
ARC
  5
BBD
  8
1
 10
9.7179331838
 20
-27.29360212969999
 30
0.0
 40
0.4775741781478385
 50
91.55181642760164
 51
147.4596417165987
  0
ARC
  5
BBE
  8
1
 10
12.52505146019999
 20
27.30025443439999
 30
0.0
 40
0.5313222205439724
 50
273.2312498579008
 51
4.120929392898505
  0
ARC
  5
BBF
  8
1
 10
12.53972316129997
 20
-27.2977060387
 30
0.0
 40
0.4817452194643697
 50
32.86161398089808
 51
88.18276318630117
  0
LINE
  5
BC0
  8
1
 10
12.55499999999998
 20
26.7697769259
 30
0.0
 11
9.704999999999984
 21
26.7697769259
 31
0.0
  0
LINE
  5
BC1
  8
1
 10
9.704999999999984
 20
-26.81620310549999
 30
0.0
 11
12.55499999999998
 21
-26.81620310549999
 31
0.0
  0
LINE
  5
BC4
  8
1
 10
0.2999999999999829
 20
0.0
 30
0.0
 11
0.2999999999999829
 21
21.92499999999998
 31
0.0
  0
LINE
  5
BC5
  8
1
 10
0.2999999999999829
 20
-21.92500000000001
 30
0.0
 11
0.2999999999999829
 21
0.0
 31
0.0
  0
LINE
  5
BC6
  8
1
 10
0.0
 20
0.0
 30
0.0
 11
0.0
 21
22.22499999999999
 31
0.0
  0
LINE
  5
BC7
  8
1
 10
0.0
 20
-22.22499999999999
 30
0.0
 11
0.0
 21
0.0
 31
0.0
  0
LINE
  5
BCA
  8
SK1
 10
-68.25
 20
0.0
 30
0.0
 11
-68.25
 21
11.40703779609998
 31
0.0
  0
LINE
  5
BCB
  8
SK1
 10
-68.25
 20
-11.4070377962
 30
0.0
 11
-68.25
 21
0.0
 31
0.0
  0
LINE
  5
BCC
  8
1
 10
7.567468496899977
 20
30.50268419069999
 30
0.0
 11
7.6038324612
 21
30.49243719839998
 31
0.0
  0
LINE
  5
BCD
  8
1
 10
3.987796517999982
 20
-30.54092512950001
 30
0.0
 11
1.499999999899984
 21
-29.7013645289
 31
0.0
  0
LINE
  5
BDE
  8
3
 10
1.0
 20
-22.59999999999999
 30
0.0
 11
3.699999999999989
 21
-22.59999999999999
 31
0.0
  0
LINE
  5
BE8
  8
3
 10
18.25
 20
25.02000000000001
 30
0.0
 11
19.04999999999998
 21
25.02000000000001
 31
0.0
  0
LINE
  5
BFE
  8
3
 10
3.699999999999989
 20
-22.59999999999999
 30
0.0
 11
19.04999999999998
 21
-22.59999999999999
 31
0.0
  0
LINE
  5
C08
  8
3
 10
1.0
 20
25.02000000000001
 30
0.0
 11
18.25
 21
25.02000000000001
 31
0.0
  0
LINE
  5
C10
  8
3
 10
11.13
 20
21.22
 30
0.0
 11
17.47999999999999
 21
21.22
 31
0.0
  0
LINE
  5
C11
  8
3
 10
4.780000000000001
 20
21.22
 30
0.0
 11
11.13
 21
21.22
 31
0.0
  0
LINE
  5
C12
  8
3
 10
11.13
 20
21.21000000000001
 30
0.0
 11
15.88
 21
21.21000000000001
 31
0.0
  0
LINE
  5
C13
  8
3
 10
6.379999999999995
 20
21.21000000000001
 30
0.0
 11
11.13
 21
21.21000000000001
 31
0.0
  0
LINE
  5
C26
  8
3
 10
4.780000000000001
 20
25.02000000000001
 30
0.0
 11
4.780000000000001
 21
21.22
 31
0.0
  0
LINE
  5
C27
  8
3
 10
17.47999999999999
 20
21.22
 30
0.0
 11
17.47999999999999
 21
25.02000000000001
 31
0.0
  0
LINE
  5
C28
  8
3
 10
6.379999999999995
 20
21.22
 30
0.0
 11
6.379999999999995
 21
21.21000000000001
 31
0.0
  0
LINE
  5
C29
  8
3
 10
15.88
 20
21.21000000000001
 30
0.0
 11
15.88
 21
21.22
 31
0.0
  0
LINE
  5
C2A
  8
3
 10
6.379999999999995
 20
21.21000000000001
 30
0.0
 11
11.13
 21
18.3559120596
 31
0.0
  0
LINE
  5
C2B
  8
3
 10
11.13
 20
18.3559120596
 30
0.0
 11
15.88
 21
21.21000000000001
 31
0.0
  0
LINE
  5
C2C
  8
1
 10
20.04999999999998
 20
22.22499999999999
 30
0.0
 11
20.04999999999998
 21
-22.22499999999999
 31
0.0
  0
LINE
  5
C2D
  8
1
 10
0.799999999999983
 20
21.92499999999998
 30
0.0
 11
0.799999999999983
 21
-21.92500000000001
 31
0.0
  0
LINE
  5
C2F
  8
1
 10
9.704999999999984
 20
26.26568698759999
 30
0.0
 11
9.704999999999984
 21
-26.08092552630001
 31
0.0
  0
LINE
  5
C30
  8
1
 10
12.55499999999998
 20
26.26578903699999
 30
0.0
 11
12.55499999999998
 21
-26.08072526110001
 31
0.0
  0
LINE
  5
C31
  8
1
 10
18.54999999999998
 20
30.50268419069999
 30
0.0
 11
18.54999999999998
 21
-30.54092502470002
 31
0.0
  0
LINE
  5
C32
  8
1
 10
1.5
 20
-29.7013645289
 30
0.0
 11
1.5
 21
29.6372041155
 31
0.0
  0
LINE
  5
C92
  8
SK4
 10
0.0
 20
0.0
 30
0.0
 11
-68.25
 21
0.0
 31
0.0
  0
TEXT
  5
D44
  8
SK6
 10
-66.17909534664395
 20
47.33203563714093
 30
0.0
 40
3.5
  1
BIG KAISER
 41
0.85
  0
TEXT
  5
D45
  8
SK6
 10
-66.17899999999999
 20
42.082
 30
0.0
 40
3.5
  1
11.368.462N
  0
INSERT
  5
D46
  8
SK6
  2
_FILLED
 10
-17.9836627818344
 20
-19.60235774778011
 30
0.0
 41
3.5
 42
3.5
 43
3.5
 50
55.49325986033524
  0
POLYLINE
  5
D47
  8
SK6
 66
     1
 10
0.0
 20
0.0
 30
0.0
  0
VERTEX
  5
2BEF
  8
SK6
 10
-19.966423916232
 20
-22.48656618059532
 30
0.0
  0
VERTEX
  5
2BF0
  8
SK6
 10
-33.4822656830344
 20
-42.14728280658011
 30
0.0
  0
VERTEX
  5
2BF1
  8
SK6
 10
-35.35726568303438
 20
-40.39728280658011
 30
0.0
  0
VERTEX
  5
2BF2
  8
SK6
 10
-38.85726568303438
 20
-40.39728280658011
 30
0.0
  0
SEQEND
  5
3088
  8
SK6
  0
TEXT
  5
D48
  8
SK6
 10
-53.86143234970106
 20
-43.89728280658011
 30
0.0
 40
3.5
  1
BCV40
 41
0.85
  0
ARC
  5
E7B
  8
NOCUT
 10
20.04999999999998
 20
23.22499999999999
 30
0.0
 40
1.0
 50
180.0
 51
270.0
  0
LINE
  5
F33
  8
NOCUT
 10
7.603833230899994
 20
31.74999999999997
 30
0.0
 11
1.5
 21
31.74999999999997
 31
0.0
  0
LINE
  5
F35
  8
NOCUT
 10
14.6561667691
 20
31.74999999999997
 30
0.0
 11
13.05500000000001
 21
28.97669780459998
 31
0.0
  0
LINE
  5
F36
  8
NOCUT
 10
9.204999999999984
 20
28.97669780459998
 30
0.0
 11
7.603833230899994
 21
31.74999999999997
 31
0.0
  0
LINE
  5
F37
  8
NOCUT
 10
18.55000000000001
 20
31.74999999999997
 30
0.0
 11
14.6561667691
 21
31.74999999999997
 31
0.0
  0
ARC
  5
F38
  8
NOCUT
 10
18.55000000000001
 20
31.24999999999997
 30
0.0
 40
0.5
 50
0.0
 51
90.0
  0
ARC
  5
F39
  8
NOCUT
 10
1.5
 20
31.24999999999997
 30
0.0
 40
0.5
 50
90.0
 51
180.0
  0
ARC
  5
F3A
  8
NOCUT
 10
12.55500000000001
 20
28.67999999999998
 30
0.0
 40
0.5
 50
270.0
 51
0.0
  0
ARC
  5
F3B
  8
NOCUT
 10
9.704999999999984
 20
28.67999999999998
 30
0.0
 40
0.5
 50
180.0
 51
270.0
  0
LINE
  5
F3C
  8
NOCUT
 10
12.55500000000001
 20
28.17999999999998
 30
0.0
 11
9.704999999999984
 21
28.17999999999998
 31
0.0
  0
LINE
  5
F42
  8
NOCUT
 10
9.204999999999984
 20
28.97669780459998
 30
0.0
 11
9.204999999999984
 21
28.67999999999998
 31
0.0
  0
LINE
  5
F43
  8
NOCUT
 10
13.05500000000001
 20
28.97669780459998
 30
0.0
 11
13.05500000000001
 21
28.67999999999998
 31
0.0
  0
LINE
  5
114E
  8
1
 10
36.05
 20
-31.75
 30
0.0
 11
68.5
 21
-31.75
 31
0.0
  0
LINE
  5
1150
  8
1
 10
68.5
 20
31.75
 30
0.0
 11
36.05
 21
31.75
 31
0.0
  0
LINE
  5
1151
  8
1
 10
68.5
 20
-31.75
 30
0.0
 11
69.0
 21
-31.25
 31
0.0
  0
LINE
  5
1152
  8
1
 10
69.0
 20
31.25
 30
0.0
 11
68.5
 21
31.75
 31
0.0
  0
LINE
  5
1153
  8
1
 10
36.05
 20
31.75
 30
0.0
 11
35.05
 21
30.75
 31
0.0
  0
LINE
  5
1154
  8
1
 10
35.05
 20
-30.75
 30
0.0
 11
36.05
 21
-31.75
 31
0.0
  0
ARC
  5
1155
  8
1
 10
34.05
 20
23.22499999999999
 30
0.0
 40
1.0
 50
270.0
 51
0.0
  0
ARC
  5
1156
  8
1
 10
34.05
 20
-23.22499999999999
 30
0.0
 40
1.000000000000014
 50
0.0
 51
90.0
  0
CIRCLE
  5
1165
  8
1
 10
52.94999999999999
 20
0.0
 30
0.0
 40
5.499999999999996
  0
LINE
  5
1166
  8
1
 10
52.94999999999999
 20
-3.464101615200008
 30
0.0
 11
55.94999999999999
 21
-1.73205080759999
 31
0.0
  0
LINE
  5
1167
  8
1
 10
55.94999999999999
 20
1.732050807500002
 30
0.0
 11
52.94999999999999
 21
3.464101615099992
 31
0.0
  0
LINE
  5
1168
  8
1
 10
52.94999999999999
 20
3.464101615099992
 30
0.0
 11
49.94999999999999
 21
1.732050807500002
 31
0.0
  0
LINE
  5
1169
  8
1
 10
49.94999999999999
 20
-1.73205080759999
 30
0.0
 11
52.94999999999999
 21
-3.464101615200008
 31
0.0
  0
LINE
  5
116A
  8
1
 10
55.94999999999999
 20
-1.73205080759999
 30
0.0
 11
55.94999999999999
 21
1.732050807500002
 31
0.0
  0
LINE
  5
116B
  8
1
 10
49.94999999999999
 20
1.732050807500002
 30
0.0
 11
49.94999999999999
 21
-1.73205080759999
 31
0.0
  0
CIRCLE
  5
116C
  8
1
 10
52.94999999999999
 20
0.0
 30
0.0
 40
5.999999999999997
  0
CIRCLE
  5
1187
  8
1
 10
64.09999999999997
 20
0.0
 30
0.0
 40
2.5
  0
ARC
  5
1188
  8
1
 10
52.94999999999999
 20
0.0006413421000104
 30
0.0
 40
6.700000030695517
 50
180.0054845069001
 51
359.9945154930999
  0
ARC
  5
1189
  8
1
 10
52.94999999999999
 20
-0.0006074952000006
 30
0.0
 40
6.700000027541092
 50
0.0051950612999244
 51
179.9948049387001
  0
LINE
  5
118A
  8
1
 10
36.05
 20
0.0
 30
0.0
 11
36.05
 21
31.75
 31
0.0
  0
LINE
  5
118B
  8
1
 10
36.05
 20
-31.75
 30
0.0
 11
36.05
 21
0.0
 31
0.0
  0
LINE
  5
118C
  8
1
 10
68.5
 20
0.0
 30
0.0
 11
68.5
 21
31.75
 31
0.0
  0
LINE
  5
118D
  8
1
 10
68.5
 20
-31.75
 30
0.0
 11
68.5
 21
0.0
 31
0.0
  0
LINE
  5
118E
  8
1
 10
69.0
 20
0.0
 30
0.0
 11
69.0
 21
31.25
 31
0.0
  0
LINE
  5
118F
  8
1
 10
69.0
 20
-31.25
 30
0.0
 11
69.0
 21
0.0
 31
0.0
  0
LINE
  5
1190
  8
1
 10
35.05
 20
0.0
 30
0.0
 11
35.05
 21
30.75
 31
0.0
  0
LINE
  5
1191
  8
1
 10
35.05
 20
-30.75
 30
0.0
 11
35.05
 21
0.0
 31
0.0
  0
POLYLINE
  5
11AC
  8
3
 66
     1
 10
0.0
 20
0.0
 30
0.0
  0
VERTEX
  5
2BF3
  8
3
 10
55.65000000000003
 20
-13.1958198162
 30
0.0
  0
VERTEX
  5
2BF4
  8
3
 10
56.42105309230004
 20
-13.5428590389
 30
0.0
  0
VERTEX
  5
2BF5
  8
3
 10
57.08663999280003
 20
-13.9706900517
 30
0.0
  0
VERTEX
  5
2BF6
  8
3
 10
57.62653718040002
 20
-14.4663134258
 30
0.0
  0
VERTEX
  5
2BF7
  8
3
 10
58.02434015220001
 20
-15.0146698959
 30
0.0
  0
VERTEX
  5
2BF8
  8
3
 10
58.26796186619998
 20
-15.5990979279
 30
0.0
  0
VERTEX
  5
2BF9
  8
3
 10
58.34999999999997
 20
-16.201839972
 30
0.0
  0
VERTEX
  5
2BFA
  8
3
 10
58.26796186619998
 20
-16.8045820161
 30
0.0
  0
VERTEX
  5
2BFB
  8
3
 10
58.02434015220001
 20
-17.3890100481
 30
0.0
  0
VERTEX
  5
2BFC
  8
3
 10
57.62653718040002
 20
-17.93736651809999
 30
0.0
  0
VERTEX
  5
2BFD
  8
3
 10
57.08663999280003
 20
-18.4329898923
 30
0.0
  0
VERTEX
  5
2BFE
  8
3
 10
56.42105309230004
 20
-18.8608209051
 30
0.0
  0
VERTEX
  5
2BFF
  8
3
 10
55.65000000000003
 20
-19.2078601278
 30
0.0
  0
VERTEX
  5
2C00
  8
3
 10
54.79690877390004
 20
-19.4635629492
 30
0.0
  0
VERTEX
  5
2C01
  8
3
 10
53.88770015940003
 20
-19.6201599684
 30
0.0
  0
VERTEX
  5
2C02
  8
3
 10
52.94999999999999
 20
-19.6728930643
 30
0.0
  0
VERTEX
  5
2C03
  8
3
 10
52.01229984060001
 20
-19.6201599684
 30
0.0
  0
VERTEX
  5
2C04
  8
3
 10
51.103091226
 20
-19.4635629492
 30
0.0
  0
VERTEX
  5
2C05
  8
3
 10
50.25
 20
-19.2078601278
 30
0.0
  0
VERTEX
  5
2C06
  8
3
 10
49.47894690770005
 20
-18.8608209051
 30
0.0
  0
VERTEX
  5
2C07
  8
3
 10
48.81336000710002
 20
-18.4329898923
 30
0.0
  0
VERTEX
  5
2C08
  8
3
 10
48.27346281950003
 20
-17.93736651809999
 30
0.0
  0
VERTEX
  5
2C09
  8
3
 10
47.87565984769998
 20
-17.3890100481
 30
0.0
  0
VERTEX
  5
2C0A
  8
3
 10
47.63203813370001
 20
-16.8045820161
 30
0.0
  0
VERTEX
  5
2C0B
  8
3
 10
47.55000000000001
 20
-16.201839972
 30
0.0
  0
VERTEX
  5
2C0C
  8
3
 10
47.63203813370001
 20
-15.5990979279
 30
0.0
  0
VERTEX
  5
2C0D
  8
3
 10
47.87565984769998
 20
-15.0146698959
 30
0.0
  0
VERTEX
  5
2C0E
  8
3
 10
48.27346281950003
 20
-14.4663134258
 30
0.0
  0
VERTEX
  5
2C0F
  8
3
 10
48.81336000710002
 20
-13.9706900517
 30
0.0
  0
VERTEX
  5
2C10
  8
3
 10
49.47894690770005
 20
-13.5428590389
 30
0.0
  0
VERTEX
  5
2C11
  8
3
 10
50.25
 20
-13.1958198162
 30
0.0
  0
VERTEX
  5
2C12
  8
3
 10
51.103091226
 20
-12.94011699479999
 30
0.0
  0
VERTEX
  5
2C13
  8
3
 10
52.01229984060001
 20
-12.7835199756
 30
0.0
  0
VERTEX
  5
2C14
  8
3
 10
52.94999999999999
 20
-12.73078687969999
 30
0.0
  0
VERTEX
  5
2C15
  8
3
 10
53.88770015940003
 20
-12.7835199756
 30
0.0
  0
VERTEX
  5
2C16
  8
3
 10
54.79690877390004
 20
-12.94011699479999
 30
0.0
  0
VERTEX
  5
2C17
  8
3
 10
55.65000000000003
 20
-13.1958198162
 30
0.0
  0
SEQEND
  5
3087
  8
3
  0
POLYLINE
  5
11AF
  8
3
 66
     1
 10
0.0
 20
0.0
 30
0.0
  0
VERTEX
  5
2C18
  8
3
 10
55.94999999999999
 20
-13.32144424249999
 30
0.0
  0
VERTEX
  5
2C19
  8
3
 10
56.78500175300002
 20
-13.6953823241
 30
0.0
  0
VERTEX
  5
2C1A
  8
3
 10
57.50967748789998
 20
-14.154649251
 30
0.0
  0
VERTEX
  5
2C1B
  8
3
 10
58.10317960330002
 20
-14.68603275
 30
0.0
  0
VERTEX
  5
2C1C
  8
3
 10
58.54843412389999
 20
-15.2742458853
 30
0.0
  0
VERTEX
  5
2C1D
  8
3
 10
58.83263188770002
 20
-15.9023668359
 30
0.0
  0
VERTEX
  5
2C1E
  8
3
 10
58.94759704270001
 20
-16.5523257058
 30
0.0
  0
VERTEX
  5
2C1F
  8
3
 10
58.89002225050001
 20
-17.2054243616
 30
0.0
  0
VERTEX
  5
2C20
  8
3
 10
58.66156383310005
 20
-17.84287434399999
 30
0.0
  0
VERTEX
  5
2C21
  8
3
 10
58.26879412329998
 20
-18.4463373777
 30
0.0
  0
VERTEX
  5
2C22
  8
3
 10
57.7230123905
 20
-18.9984529299
 30
0.0
  0
VERTEX
  5
2C23
  8
3
 10
57.03991978139999
 20
-19.4833376415
 30
0.0
  0
VERTEX
  5
2C24
  8
3
 10
56.23916762660002
 20
-19.88704226199999
 30
0.0
  0
VERTEX
  5
2C25
  8
3
 10
55.34379210790001
 20
-20.1979529446
 30
0.0
  0
VERTEX
  5
2C26
  8
3
 10
54.37955154850005
 20
-20.40712535509999
 30
0.0
  0
VERTEX
  5
2C27
  8
3
 10
53.37418539390001
 20
-20.5085419839
 30
0.0
  0
VERTEX
  5
2C28
  8
3
 10
52.35661619780001
 20
-20.4992852594
 30
0.0
  0
VERTEX
  5
2C29
  8
3
 10
51.35611757329997
 20
-20.3796214807
 30
0.0
  0
VERTEX
  5
2C2A
  8
3
 10
50.40147204429996
 20
-20.15299315669999
 30
0.0
  0
VERTEX
  5
2C2B
  8
3
 10
49.5201430244
 20
-19.8259199718
 30
0.0
  0
VERTEX
  5
2C2C
  8
3
 10
48.73748474500002
 20
-19.40781122599999
 30
0.0
  0
VERTEX
  5
2C2D
  8
3
 10
48.07601285980002
 20
-18.91069514669999
 30
0.0
  0
VERTEX
  5
2C2E
  8
3
 10
47.55475671059997
 20
-18.3488728583
 30
0.0
  0
VERTEX
  5
2C2F
  8
3
 10
47.18871188769998
 20
-17.7385069652
 30
0.0
  0
VERTEX
  5
2C30
  8
3
 10
46.98840883420002
 20
-17.0971565829
 30
0.0
  0
VERTEX
  5
2C31
  8
3
 10
46.9596099044
 20
-16.4432721941
 30
0.0
  0
VERTEX
  5
2C32
  8
3
 10
47.1031435909
 20
-15.7956648621
 30
0.0
  0
VERTEX
  5
2C33
  8
3
 10
47.41488069100001
 20
-15.17296507089999
 30
0.0
  0
VERTEX
  5
2C34
  8
3
 10
47.88585309579997
 20
-14.5930867597
 30
0.0
  0
VERTEX
  5
2C35
  8
3
 10
48.50251178679997
 20
-14.0727119717
 30
0.0
  0
VERTEX
  5
2C36
  8
3
 10
49.24711661610002
 20
-13.62681094209999
 30
0.0
  0
VERTEX
  5
2C37
  8
3
 10
50.09824665859998
 20
-13.2682114317
 30
0.0
  0
VERTEX
  5
2C38
  8
3
 10
51.03141645249997
 20
-13.0072296954
 30
0.0
  0
VERTEX
  5
2C39
  8
3
 10
52.01978040199998
 20
-12.8513737028
 30
0.0
  0
VERTEX
  5
2C3A
  8
3
 10
53.03490507559997
 20
-12.80512714689999
 30
0.0
  0
VERTEX
  5
2C3B
  8
3
 10
54.04758718479997
 20
-12.8698204569
 30
0.0
  0
VERTEX
  5
2C3C
  8
3
 10
55.02869370900004
 20
-13.04359252409999
 30
0.0
  0
VERTEX
  5
2C3D
  8
3
 10
55.94999999999999
 20
-13.32144424249999
 30
0.0
  0
SEQEND
  5
3086
  8
3
  0
POLYLINE
  5
11B0
  8
3
 66
     1
 10
0.0
 20
0.0
 30
0.0
  0
VERTEX
  5
2C3E
  8
3
 10
55.94999999999999
 20
-16.69203979219999
 30
0.0
  0
VERTEX
  5
2C3F
  8
3
 10
56.78500175300002
 20
-17.06597787379999
 30
0.0
  0
VERTEX
  5
2C40
  8
3
 10
57.50967748789998
 20
-17.52524480069999
 30
0.0
  0
VERTEX
  5
2C41
  8
3
 10
58.10317960330002
 20
-18.05662829969999
 30
0.0
  0
VERTEX
  5
2C42
  8
3
 10
58.54843412389999
 20
-18.644841435
 30
0.0
  0
VERTEX
  5
2C43
  8
3
 10
58.83263188770002
 20
-19.2729623857
 30
0.0
  0
VERTEX
  5
2C44
  8
3
 10
58.94759704270001
 20
-19.9229212555
 30
0.0
  0
VERTEX
  5
2C45
  8
3
 10
58.89002225050001
 20
-20.57601991129999
 30
0.0
  0
VERTEX
  5
2C46
  8
3
 10
58.66156383310005
 20
-21.21346989369999
 30
0.0
  0
VERTEX
  5
2C47
  8
3
 10
58.26879412329998
 20
-21.8169329274
 30
0.0
  0
VERTEX
  5
2C48
  8
3
 10
57.7230123905
 20
-22.3690484796
 30
0.0
  0
VERTEX
  5
2C49
  8
3
 10
57.03991978139999
 20
-22.8539331912
 30
0.0
  0
VERTEX
  5
2C4A
  8
3
 10
56.23916762660002
 20
-23.25763781169999
 30
0.0
  0
VERTEX
  5
2C4B
  8
3
 10
55.34379210790001
 20
-23.5685484943
 30
0.0
  0
VERTEX
  5
2C4C
  8
3
 10
54.37955154850005
 20
-23.77772090479999
 30
0.0
  0
VERTEX
  5
2C4D
  8
3
 10
53.37418539390001
 20
-23.8791375336
 30
0.0
  0
VERTEX
  5
2C4E
  8
3
 10
52.35661619780001
 20
-23.8698808091
 30
0.0
  0
VERTEX
  5
2C4F
  8
3
 10
51.35611757329997
 20
-23.75021703039999
 30
0.0
  0
VERTEX
  5
2C50
  8
3
 10
50.40147204429996
 20
-23.52358870639999
 30
0.0
  0
VERTEX
  5
2C51
  8
3
 10
49.5201430244
 20
-23.19651552159999
 30
0.0
  0
VERTEX
  5
2C52
  8
3
 10
48.73748474500002
 20
-22.77840677579999
 30
0.0
  0
VERTEX
  5
2C53
  8
3
 10
48.07601285980002
 20
-22.28129069639999
 30
0.0
  0
VERTEX
  5
2C54
  8
3
 10
47.55475671059997
 20
-21.719468408
 30
0.0
  0
VERTEX
  5
2C55
  8
3
 10
47.18871188769998
 20
-21.1091025149
 30
0.0
  0
VERTEX
  5
2C56
  8
3
 10
46.98840883420002
 20
-20.4677521326
 30
0.0
  0
VERTEX
  5
2C57
  8
3
 10
46.9596099044
 20
-19.8138677438
 30
0.0
  0
VERTEX
  5
2C58
  8
3
 10
47.1031435909
 20
-19.1662604119
 30
0.0
  0
VERTEX
  5
2C59
  8
3
 10
47.41488069100001
 20
-18.54356062069999
 30
0.0
  0
VERTEX
  5
2C5A
  8
3
 10
47.88585309579997
 20
-17.9636823094
 30
0.0
  0
VERTEX
  5
2C5B
  8
3
 10
48.50251178679997
 20
-17.4433075214
 30
0.0
  0
VERTEX
  5
2C5C
  8
3
 10
49.24711661610002
 20
-16.99740649179999
 30
0.0
  0
VERTEX
  5
2C5D
  8
3
 10
50.09824665859998
 20
-16.63880698139999
 30
0.0
  0
VERTEX
  5
2C5E
  8
3
 10
51.03141645249997
 20
-16.3778252452
 30
0.0
  0
VERTEX
  5
2C5F
  8
3
 10
52.01978040199998
 20
-16.2219692525
 30
0.0
  0
VERTEX
  5
2C60
  8
3
 10
53.03490507559997
 20
-16.1757226966
 30
0.0
  0
VERTEX
  5
2C61
  8
3
 10
54.04758718479997
 20
-16.2404160066
 30
0.0
  0
VERTEX
  5
2C62
  8
3
 10
55.02869370900004
 20
-16.41418807379999
 30
0.0
  0
VERTEX
  5
2C63
  8
3
 10
55.94999999999999
 20
-16.69203979219999
 30
0.0
  0
SEQEND
  5
3085
  8
3
  0
POLYLINE
  5
11B1
  8
3
 66
     1
 10
0.0
 20
0.0
 30
0.0
  0
VERTEX
  5
2C64
  8
3
 10
51.69999999999999
 20
-17.5935159701
 30
0.0
  0
VERTEX
  5
2C65
  8
3
 10
52.30295238720004
 20
-17.7540528545
 30
0.0
  0
VERTEX
  5
2C66
  8
3
 10
52.94999999999999
 20
-17.8088089962
 30
0.0
  0
VERTEX
  5
2C67
  8
3
 10
53.59704761270001
 20
-17.7540528545
 30
0.0
  0
VERTEX
  5
2C68
  8
3
 10
54.19999999999999
 20
-17.5935159701
 30
0.0
  0
VERTEX
  5
2C69
  8
3
 10
54.71776695290004
 20
-17.3381386662
 30
0.0
  0
VERTEX
  5
2C6A
  8
3
 10
55.11506350940004
 20
-17.0053244841
 30
0.0
  0
VERTEX
  5
2C6B
  8
3
 10
55.36481456569999
 20
-16.6177541604
 30
0.0
  0
VERTEX
  5
2C6C
  8
3
 10
55.44999999999999
 20
-16.201839972
 30
0.0
  0
VERTEX
  5
2C6D
  8
3
 10
55.36481456569999
 20
-15.78592578359999
 30
0.0
  0
VERTEX
  5
2C6E
  8
3
 10
55.11506350940004
 20
-15.3983554599
 30
0.0
  0
VERTEX
  5
2C6F
  8
3
 10
54.71776695290004
 20
-15.06554127779999
 30
0.0
  0
VERTEX
  5
2C70
  8
3
 10
54.19999999999999
 20
-14.8101639739
 30
0.0
  0
VERTEX
  5
2C71
  8
3
 10
53.59704761270001
 20
-14.6496270895
 30
0.0
  0
VERTEX
  5
2C72
  8
3
 10
52.94999999999999
 20
-14.5948709478
 30
0.0
  0
VERTEX
  5
2C73
  8
3
 10
52.30295238720004
 20
-14.6496270895
 30
0.0
  0
VERTEX
  5
2C74
  8
3
 10
51.69999999999999
 20
-14.8101639739
 30
0.0
  0
VERTEX
  5
2C75
  8
3
 10
51.18223304700001
 20
-15.06554127779999
 30
0.0
  0
VERTEX
  5
2C76
  8
3
 10
50.7849364905
 20
-15.3983554599
 30
0.0
  0
VERTEX
  5
2C77
  8
3
 10
50.5351854342
 20
-15.78592578359999
 30
0.0
  0
VERTEX
  5
2C78
  8
3
 10
50.44999999999999
 20
-16.201839972
 30
0.0
  0
VERTEX
  5
2C79
  8
3
 10
50.5351854342
 20
-16.6177541604
 30
0.0
  0
VERTEX
  5
2C7A
  8
3
 10
50.7849364905
 20
-17.0053244841
 30
0.0
  0
VERTEX
  5
2C7B
  8
3
 10
51.18223304700001
 20
-17.3381386662
 30
0.0
  0
VERTEX
  5
2C7C
  8
3
 10
51.69999999999999
 20
-17.5935159701
 30
0.0
  0
SEQEND
  5
3084
  8
3
  0
ARC
  5
11B2
  8
3
 10
52.95292039970002
 20
-17.3189138927
 30
0.0
 40
6.739692384491805
 50
223.7493707197001
 51
315.9425323964002
  0
POLYLINE
  5
11B3
  8
3
 66
     1
 10
0.0
 20
0.0
 30
0.0
  0
VERTEX
  5
2C7D
  8
3
 10
50.94999999999999
 20
-15.5439100958
 30
0.0
  0
VERTEX
  5
2C7E
  8
3
 10
52.0209909422
 20
-15.2825487825
 30
0.0
  0
VERTEX
  5
2C7F
  8
3
 10
52.94999999999999
 20
-14.8016828968
 30
0.0
  0
SEQEND
  5
3083
  8
3
  0
LINE
  5
11B4
  8
3
 10
50.94999999999999
 20
-17.0283644938
 30
0.0
 11
50.94999999999999
 21
-15.5439100958
 31
0.0
  0
ARC
  5
11B5
  8
3
 10
53.54672317770002
 20
-13.09695945759999
 30
0.0
 40
4.71157264824053
 50
236.5549321141999
 51
262.7239181356004
  0
POLYLINE
  5
11B6
  8
3
 66
     1
 10
0.0
 20
0.0
 30
0.0
  0
VERTEX
  5
2C80
  8
3
 10
54.94999999999999
 20
-17.0283644938
 30
0.0
  0
VERTEX
  5
2C81
  8
3
 10
53.87900905780003
 20
-17.5619217876
 30
0.0
  0
VERTEX
  5
2C82
  8
3
 10
52.94999999999999
 20
-17.77059169269999
 30
0.0
  0
SEQEND
  5
3082
  8
3
  0
LINE
  5
11B7
  8
3
 10
54.94999999999999
 20
-15.5439100958
 30
0.0
 11
54.94999999999999
 21
-17.0283644938
 31
0.0
  0
ARC
  5
11B8
  8
3
 10
55.54672317770002
 20
-10.8702778607
 30
0.0
 40
4.711572648241154
 50
236.5549321142
 51
262.7239181356
  0
LINE
  5
11B9
  8
3
 10
47.75
 20
-20.83528134069999
 30
0.0
 11
47.75148763800001
 21
-20.75533441889999
 31
0.0
  0
LINE
  5
11BA
  8
3
 10
52.94999999999999
 20
-21.133494364
 30
0.0
 11
52.94999999999999
 21
-17.77059169269999
 31
0.0
  0
LINE
  5
11BB
  8
3
 10
55.63786796560004
 20
-19.2424906506
 30
0.0
 11
55.87428081780001
 21
-19.33553148519999
 31
0.0
  0
ARC
  5
11BC
  8
3
 10
52.96316582720004
 20
-25.48330791639999
 30
0.0
 40
6.789832963661557
 50
66.80089628040032
 51
135.7600345937001
  0
POLYLINE
  5
11BD
  8
3
 66
     1
 10
0.0
 20
0.0
 30
0.0
  0
VERTEX
  5
2C83
  8
3
 10
56.19999999999999
 20
-19.4778823651
 30
0.0
  0
VERTEX
  5
2C84
  8
3
 10
57.06089494129998
 20
-19.85984789289999
 30
0.0
  0
VERTEX
  5
2C85
  8
3
 10
57.8153198631
 20
-20.3256342753
 30
0.0
  0
VERTEX
  5
2C86
  8
3
 10
58.44373555600004
 20
-20.8631778896
 30
0.0
  0
VERTEX
  5
2C87
  8
3
 10
58.92986638370002
 20
-21.4585566386
 30
0.0
  0
VERTEX
  5
2C88
  8
3
 10
59.26112181320002
 20
-22.0963505253
 30
0.0
  0
VERTEX
  5
2C89
  8
3
 10
59.42892250280005
 20
-22.7600410232
 30
0.0
  0
VERTEX
  5
2C8A
  8
3
 10
59.42892250280005
 20
-23.4324388969
 30
0.0
  0
VERTEX
  5
2C8B
  8
3
 10
59.26112181320002
 20
-24.0961293948
 30
0.0
  0
VERTEX
  5
2C8C
  8
3
 10
58.92986638370002
 20
-24.7339232816
 30
0.0
  0
VERTEX
  5
2C8D
  8
3
 10
58.44373555600004
 20
-25.3293020305
 30
0.0
  0
VERTEX
  5
2C8E
  8
3
 10
57.8153198631
 20
-25.86684564479999
 30
0.0
  0
VERTEX
  5
2C8F
  8
3
 10
57.06089494129998
 20
-26.33263202719999
 30
0.0
  0
VERTEX
  5
2C90
  8
3
 10
56.19999999999999
 20
-26.714597555
 30
0.0
  0
VERTEX
  5
2C91
  8
3
 10
55.25493176570001
 20
-27.0028495218
 30
0.0
  0
VERTEX
  5
2C92
  8
3
 10
54.25016700949999
 20
-27.189922353
 30
0.0
  0
VERTEX
  5
2C93
  8
3
 10
53.21172861069999
 20
-27.27097096049999
 30
0.0
  0
VERTEX
  5
2C94
  8
3
 10
52.1665115783
 20
-27.243896228
 30
0.0
  0
VERTEX
  5
2C95
  8
3
 10
51.14158648450001
 20
-27.1093993768
 30
0.0
  0
VERTEX
  5
2C96
  8
3
 10
50.16349835080001
 20
-26.8709638047
 30
0.0
  0
VERTEX
  5
2C97
  8
3
 10
49.25757914620004
 20
-26.53476486789999
 30
0.0
  0
VERTEX
  5
2C98
  8
3
 10
48.44729170210002
 20
-26.109509942
 30
0.0
  0
VERTEX
  5
2C99
  8
3
 10
47.75362203779997
 20
-25.60621290650001
 30
0.0
  0
VERTEX
  5
2C9A
  8
3
 10
47.19453583320001
 20
-25.0379088901
 30
0.0
  0
VERTEX
  5
2C9B
  8
3
 10
46.78451312730004
 20
-24.4193166683
 30
0.0
  0
VERTEX
  5
2C9C
  8
3
 10
46.53417329280001
 20
-23.7664574547
 30
0.0
  0
VERTEX
  5
2C9D
  8
3
 10
46.44999999999999
 20
-23.09623996009999
 30
0.0
  0
VERTEX
  5
2C9E
  8
3
 10
46.53417329280001
 20
-22.4260224654
 30
0.0
  0
VERTEX
  5
2C9F
  8
3
 10
46.78451312730004
 20
-21.7731632519
 30
0.0
  0
VERTEX
  5
2CA0
  8
3
 10
47.19453583320001
 20
-21.1545710301
 30
0.0
  0
VERTEX
  5
2CA1
  8
3
 10
47.75362203779997
 20
-20.58626701359999
 30
0.0
  0
VERTEX
  5
2CA2
  8
3
 10
48.44729170210002
 20
-20.0829699781
 30
0.0
  0
VERTEX
  5
2CA3
  8
3
 10
49.25757914620004
 20
-19.65771505229999
 30
0.0
  0
VERTEX
  5
2CA4
  8
3
 10
50.16349835080001
 20
-19.3215161154
 30
0.0
  0
VERTEX
  5
2CA5
  8
3
 10
51.14158648450001
 20
-19.0830805433
 30
0.0
  0
VERTEX
  5
2CA6
  8
3
 10
52.1665115783
 20
-18.9485836921
 30
0.0
  0
VERTEX
  5
2CA7
  8
3
 10
53.21172861069999
 20
-18.9215089596
 30
0.0
  0
VERTEX
  5
2CA8
  8
3
 10
54.25016700949999
 20
-19.0025575671
 30
0.0
  0
VERTEX
  5
2CA9
  8
3
 10
55.25493176570001
 20
-19.1896303983
 30
0.0
  0
VERTEX
  5
2CAA
  8
3
 10
56.19999999999999
 20
-19.4778823651
 30
0.0
  0
SEQEND
  5
3081
  8
3
  0
LINE
  5
11BE
  8
3
 10
47.75
 20
-21.9099985854
 30
0.0
 11
47.75148763800001
 21
-21.8300516635
 31
0.0
  0
POLYLINE
  5
11BF
  8
3
 66
     1
 10
0.0
 20
0.0
 30
0.0
  0
VERTEX
  5
2CAB
  8
3
 10
56.19999999999999
 20
-20.15764667959999
 30
0.0
  0
VERTEX
  5
2CAC
  8
3
 10
57.06089494129998
 20
-20.5396122075
 30
0.0
  0
VERTEX
  5
2CAD
  8
3
 10
57.8153198631
 20
-21.0053985899
 30
0.0
  0
VERTEX
  5
2CAE
  8
3
 10
58.44373555600004
 20
-21.5429422042
 30
0.0
  0
VERTEX
  5
2CAF
  8
3
 10
58.92986638370002
 20
-22.13832095309999
 30
0.0
  0
VERTEX
  5
2CB0
  8
3
 10
59.26112181320002
 20
-22.7761148398
 30
0.0
  0
VERTEX
  5
2CB1
  8
3
 10
59.42892250280005
 20
-23.43980533769999
 30
0.0
  0
VERTEX
  5
2CB2
  8
3
 10
59.42892250280005
 20
-24.1122032115
 30
0.0
  0
VERTEX
  5
2CB3
  8
3
 10
59.26112181320002
 20
-24.77589370929999
 30
0.0
  0
VERTEX
  5
2CB4
  8
3
 10
58.92986638370002
 20
-25.4136875961
 30
0.0
  0
VERTEX
  5
2CB5
  8
3
 10
58.44373555600004
 20
-26.00906634499999
 30
0.0
  0
VERTEX
  5
2CB6
  8
3
 10
57.8153198631
 20
-26.5466099593
 30
0.0
  0
VERTEX
  5
2CB7
  8
3
 10
57.06089494129998
 20
-27.0123963417
 30
0.0
  0
VERTEX
  5
2CB8
  8
3
 10
56.19999999999999
 20
-27.3943618696
 30
0.0
  0
VERTEX
  5
2CB9
  8
3
 10
55.25493176570001
 20
-27.68261383629999
 30
0.0
  0
VERTEX
  5
2CBA
  8
3
 10
54.25016700949999
 20
-27.86968666750001
 30
0.0
  0
VERTEX
  5
2CBB
  8
3
 10
53.21172861069999
 20
-27.950735275
 30
0.0
  0
VERTEX
  5
2CBC
  8
3
 10
52.1665115783
 20
-27.9236605425
 30
0.0
  0
VERTEX
  5
2CBD
  8
3
 10
51.14158648450001
 20
-27.7891636913
 30
0.0
  0
VERTEX
  5
2CBE
  8
3
 10
50.16349835080001
 20
-27.5507281193
 30
0.0
  0
VERTEX
  5
2CBF
  8
3
 10
49.25757914620004
 20
-27.2145291824
 30
0.0
  0
VERTEX
  5
2CC0
  8
3
 10
48.44729170210002
 20
-26.7892742566
 30
0.0
  0
VERTEX
  5
2CC1
  8
3
 10
47.75362203779997
 20
-26.285977221
 30
0.0
  0
VERTEX
  5
2CC2
  8
3
 10
47.19453583320001
 20
-25.7176732046
 30
0.0
  0
VERTEX
  5
2CC3
  8
3
 10
46.78451312730004
 20
-25.0990809828
 30
0.0
  0
VERTEX
  5
2CC4
  8
3
 10
46.53417329280001
 20
-24.44622176919999
 30
0.0
  0
VERTEX
  5
2CC5
  8
3
 10
46.44999999999999
 20
-23.7760042746
 30
0.0
  0
VERTEX
  5
2CC6
  8
3
 10
46.53417329280001
 20
-23.10578678
 30
0.0
  0
VERTEX
  5
2CC7
  8
3
 10
46.78451312730004
 20
-22.45292756639999
 30
0.0
  0
VERTEX
  5
2CC8
  8
3
 10
47.19453583320001
 20
-21.83433534459999
 30
0.0
  0
VERTEX
  5
2CC9
  8
3
 10
47.75362203779997
 20
-21.2660313282
 30
0.0
  0
VERTEX
  5
2CCA
  8
3
 10
48.44729170210002
 20
-20.7627342926
 30
0.0
  0
VERTEX
  5
2CCB
  8
3
 10
49.25757914620004
 20
-20.3374793668
 30
0.0
  0
VERTEX
  5
2CCC
  8
3
 10
50.16349835080001
 20
-20.00128042989999
 30
0.0
  0
VERTEX
  5
2CCD
  8
3
 10
51.14158648450001
 20
-19.76284485789999
 30
0.0
  0
VERTEX
  5
2CCE
  8
3
 10
52.1665115783
 20
-19.62834800669999
 30
0.0
  0
VERTEX
  5
2CCF
  8
3
 10
53.21172861069999
 20
-19.6012732742
 30
0.0
  0
VERTEX
  5
2CD0
  8
3
 10
54.25016700949999
 20
-19.68232188169999
 30
0.0
  0
VERTEX
  5
2CD1
  8
3
 10
55.25493176570001
 20
-19.8693947128
 30
0.0
  0
VERTEX
  5
2CD2
  8
3
 10
56.19999999999999
 20
-20.15764667959999
 30
0.0
  0
SEQEND
  5
3080
  8
3
  0
LINE
  5
11C0
  8
3
 10
50.94999999999999
 20
-20.391267165
 30
0.0
 11
50.94999999999999
 21
-17.0283644938
 31
0.0
  0
LINE
  5
11C1
  8
3
 10
54.94999999999999
 20
-20.391267165
 30
0.0
 11
54.94999999999999
 21
-17.0283644938
 31
0.0
  0
LINE
  5
11C2
  8
3
 10
52.94999999999999
 20
-17.77059169269999
 30
0.0
 11
52.94999999999999
 21
-14.8016828968
 31
0.0
  0
LINE
  5
11C3
  8
3
 10
52.94999999999999
 20
-18.16458556809999
 30
0.0
 11
51.94999999999999
 21
-18.5356991676
 31
0.0
  0
LINE
  5
11C4
  8
3
 10
51.94999999999999
 20
-18.5356991676
 30
0.0
 11
50.94999999999999
 21
-18.90681276709999
 31
0.0
  0
ARC
  5
11C5
  8
3
 10
52.26155186600005
 20
-19.47677645109999
 30
0.0
 40
1.322816319799055
 50
187.4825838977999
 51
256.3776264821
  0
ARC
  5
11C6
  8
3
 10
52.26155186600005
 20
-19.821303481
 30
0.0
 40
1.322816319799275
 50
103.6223735179029
 51
172.5174161021998
  0
ARC
  5
11C7
  8
3
 10
52.94999999999999
 20
-21.33186377449999
 30
0.0
 40
2.9696020792154
 50
70.32128690239873
 51
109.678713097599
  0
ARC
  5
11C8
  8
3
 10
53.6384481339
 20
-19.821303481
 30
0.0
 40
1.322816319799258
 50
7.482583897799739
 51
76.37762648209947
  0
ARC
  5
11C9
  8
3
 10
53.6384481339
 20
-19.47677645109999
 30
0.0
 40
1.322816319799367
 50
283.6223735178994
 51
352.5174161021998
  0
ARC
  5
11CA
  8
3
 10
52.94999999999999
 20
-17.9662161576
 30
0.0
 40
2.969602079215614
 50
250.3212869024002
 51
289.6787130975998
  0
LINE
  5
11CB
  8
3
 10
54.94999999999999
 20
-18.90681276709999
 30
0.0
 11
53.94999999999999
 21
-18.5356991676
 31
0.0
  0
LINE
  5
11CC
  8
3
 10
53.94999999999999
 20
-18.5356991676
 30
0.0
 11
52.94999999999999
 21
-18.16458556809999
 31
0.0
  0
LINE
  5
11CD
  8
3
 10
51.94999999999999
 20
-20.76238076449999
 30
0.0
 11
52.94999999999999
 21
-21.133494364
 31
0.0
  0
LINE
  5
11CE
  8
3
 10
52.94999999999999
 20
-21.133494364
 30
0.0
 11
53.94999999999999
 21
-20.76238076449999
 31
0.0
  0
LINE
  5
11CF
  8
3
 10
53.94999999999999
 20
-20.76238076449999
 30
0.0
 11
54.94999999999999
 21
-20.391267165
 31
0.0
  0
LINE
  5
11D0
  8
3
 10
50.94999999999999
 20
-20.391267165
 30
0.0
 11
51.94999999999999
 21
-20.76238076449999
 31
0.0
  0
POLYLINE
  5
11D1
  8
3
 66
     1
 10
0.0
 20
0.0
 30
0.0
  0
VERTEX
  5
2CD3
  8
3
 10
47.55000000000001
 20
16.2018399719
 30
0.0
  0
VERTEX
  5
2CD4
  8
3
 10
47.63203813370001
 20
16.80458201600001
 30
0.0
  0
VERTEX
  5
2CD5
  8
3
 10
47.87565984769998
 20
17.3890100481
 30
0.0
  0
VERTEX
  5
2CD6
  8
3
 10
48.27346281950003
 20
17.93736651809999
 30
0.0
  0
VERTEX
  5
2CD7
  8
3
 10
48.81336000710002
 20
18.4329898922
 30
0.0
  0
VERTEX
  5
2CD8
  8
3
 10
49.47894690770005
 20
18.86082090510001
 30
0.0
  0
VERTEX
  5
2CD9
  8
3
 10
50.25
 20
19.20786012779999
 30
0.0
  0
VERTEX
  5
2CDA
  8
3
 10
51.103091226
 20
19.46356294910001
 30
0.0
  0
VERTEX
  5
2CDB
  8
3
 10
52.01229984060001
 20
19.6201599684
 30
0.0
  0
VERTEX
  5
2CDC
  8
3
 10
52.94999999999999
 20
19.6728930642
 30
0.0
  0
VERTEX
  5
2CDD
  8
3
 10
53.88770015940003
 20
19.6201599684
 30
0.0
  0
VERTEX
  5
2CDE
  8
3
 10
54.79690877390004
 20
19.46356294910001
 30
0.0
  0
VERTEX
  5
2CDF
  8
3
 10
55.65000000000003
 20
19.20786012779999
 30
0.0
  0
VERTEX
  5
2CE0
  8
3
 10
56.42105309230004
 20
18.86082090510001
 30
0.0
  0
VERTEX
  5
2CE1
  8
3
 10
57.08663999280003
 20
18.4329898922
 30
0.0
  0
VERTEX
  5
2CE2
  8
3
 10
57.62653718040002
 20
17.93736651809999
 30
0.0
  0
VERTEX
  5
2CE3
  8
3
 10
58.02434015220001
 20
17.3890100481
 30
0.0
  0
VERTEX
  5
2CE4
  8
3
 10
58.26796186619998
 20
16.80458201600001
 30
0.0
  0
VERTEX
  5
2CE5
  8
3
 10
58.34999999999997
 20
16.2018399719
 30
0.0
  0
VERTEX
  5
2CE6
  8
3
 10
58.26796186619998
 20
15.5990979279
 30
0.0
  0
VERTEX
  5
2CE7
  8
3
 10
58.02434015220001
 20
15.01466989580001
 30
0.0
  0
VERTEX
  5
2CE8
  8
3
 10
57.62653718040002
 20
14.4663134258
 30
0.0
  0
VERTEX
  5
2CE9
  8
3
 10
57.08663999280003
 20
13.9706900516
 30
0.0
  0
VERTEX
  5
2CEA
  8
3
 10
56.42105309230004
 20
13.5428590388
 30
0.0
  0
VERTEX
  5
2CEB
  8
3
 10
55.65000000000003
 20
13.1958198161
 30
0.0
  0
VERTEX
  5
2CEC
  8
3
 10
54.79690877390004
 20
12.94011699469999
 30
0.0
  0
VERTEX
  5
2CED
  8
3
 10
53.88770015940003
 20
12.78351997550001
 30
0.0
  0
VERTEX
  5
2CEE
  8
3
 10
52.94999999999999
 20
12.7307868796
 30
0.0
  0
VERTEX
  5
2CEF
  8
3
 10
52.01229984060001
 20
12.78351997550001
 30
0.0
  0
VERTEX
  5
2CF0
  8
3
 10
51.103091226
 20
12.94011699469999
 30
0.0
  0
VERTEX
  5
2CF1
  8
3
 10
50.25
 20
13.1958198161
 30
0.0
  0
VERTEX
  5
2CF2
  8
3
 10
49.47894690770005
 20
13.5428590388
 30
0.0
  0
VERTEX
  5
2CF3
  8
3
 10
48.81336000710002
 20
13.9706900516
 30
0.0
  0
VERTEX
  5
2CF4
  8
3
 10
48.27346281950003
 20
14.4663134258
 30
0.0
  0
VERTEX
  5
2CF5
  8
3
 10
47.87565984769998
 20
15.01466989580001
 30
0.0
  0
VERTEX
  5
2CF6
  8
3
 10
47.63203813370001
 20
15.5990979279
 30
0.0
  0
VERTEX
  5
2CF7
  8
3
 10
47.55000000000001
 20
16.2018399719
 30
0.0
  0
SEQEND
  5
307F
  8
3
  0
POLYLINE
  5
11D2
  8
3
 66
     1
 10
0.0
 20
0.0
 30
0.0
  0
VERTEX
  5
2CF8
  8
3
 10
46.94999999999999
 20
16.6614666378
 30
0.0
  0
VERTEX
  5
2CF9
  8
3
 10
47.03630453789998
 20
17.31325643779999
 30
0.0
  0
VERTEX
  5
2CFA
  8
3
 10
47.29273532719998
 20
17.94629543190001
 30
0.0
  0
VERTEX
  5
2CFB
  8
3
 10
47.71191532099999
 20
18.54237224100001
 30
0.0
  0
VERTEX
  5
2CFC
  8
3
 10
48.28178547409999
 20
19.08433882029999
 30
0.0
  0
VERTEX
  5
2CFD
  8
3
 10
48.9859516596
 20
19.5566037783
 30
0.0
  0
VERTEX
  5
2CFE
  8
3
 10
49.80415629860005
 20
19.94558091190001
 30
0.0
  0
VERTEX
  5
2CFF
  8
3
 10
50.71286113330001
 20
20.24008005729999
 30
0.0
  0
VERTEX
  5
2D00
  8
3
 10
51.68592438000002
 20
20.43162901010001
 30
0.0
  0
VERTEX
  5
2D01
  8
3
 10
52.69535278079996
 20
20.51471725580001
 30
0.0
  0
VERTEX
  5
2D02
  8
3
 10
53.71210691840002
 20
20.4869544968
 30
0.0
  0
VERTEX
  5
2D03
  8
3
 10
54.70693662759999
 20
20.34913941709999
 30
0.0
  0
VERTEX
  5
2D04
  8
3
 10
55.65122246890002
 20
20.10523670570001
 30
0.0
  0
VERTEX
  5
2D05
  8
3
 10
56.5177990578
 20
19.7622629995
 30
0.0
  0
VERTEX
  5
2D06
  8
3
 10
57.28173656370001
 20
19.33008502760001
 30
0.0
  0
VERTEX
  5
2D07
  8
3
 10
57.9210578954
 20
18.82113576340001
 30
0.0
  0
VERTEX
  5
2D08
  8
3
 10
58.41737094230001
 20
18.25005675049999
 30
0.0
  0
VERTEX
  5
2D09
  8
3
 10
58.75639768159999
 20
17.6332768924
 30
0.0
  0
VERTEX
  5
2D0A
  8
3
 10
58.92838493120001
 20
16.98853982270001
 30
0.0
  0
VERTEX
  5
2D0B
  8
3
 10
58.92838493120001
 20
16.3343934529
 30
0.0
  0
VERTEX
  5
2D0C
  8
3
 10
58.75639768159999
 20
15.6896563832
 30
0.0
  0
VERTEX
  5
2D0D
  8
3
 10
58.41737094230001
 20
15.07287652510001
 30
0.0
  0
VERTEX
  5
2D0E
  8
3
 10
57.9210578954
 20
14.5017975122
 30
0.0
  0
VERTEX
  5
2D0F
  8
3
 10
57.28173656370001
 20
13.992848248
 30
0.0
  0
VERTEX
  5
2D10
  8
3
 10
56.5177990578
 20
13.56067027610001
 30
0.0
  0
VERTEX
  5
2D11
  8
3
 10
55.65122246890002
 20
13.2176965699
 30
0.0
  0
VERTEX
  5
2D12
  8
3
 10
54.70693662759999
 20
12.97379385849999
 30
0.0
  0
VERTEX
  5
2D13
  8
3
 10
53.71210691840002
 20
12.83597877880001
 30
0.0
  0
VERTEX
  5
2D14
  8
3
 10
52.69535278079996
 20
12.8082160198
 30
0.0
  0
VERTEX
  5
2D15
  8
3
 10
51.68592438000002
 20
12.8913042655
 30
0.0
  0
VERTEX
  5
2D16
  8
3
 10
50.71286113330001
 20
13.08285321829999
 30
0.0
  0
VERTEX
  5
2D17
  8
3
 10
49.80415629860005
 20
13.3773523637
 30
0.0
  0
VERTEX
  5
2D18
  8
3
 10
48.9859516596
 20
13.76632949730001
 30
0.0
  0
VERTEX
  5
2D19
  8
3
 10
48.28178547409999
 20
14.23859445529999
 30
0.0
  0
VERTEX
  5
2D1A
  8
3
 10
47.71191532099999
 20
14.78056103470001
 30
0.0
  0
VERTEX
  5
2D1B
  8
3
 10
47.29273532719998
 20
15.3766378437
 30
0.0
  0
VERTEX
  5
2D1C
  8
3
 10
47.03630453789998
 20
16.00967683780001
 30
0.0
  0
VERTEX
  5
2D1D
  8
3
 10
46.94999999999999
 20
16.6614666378
 30
0.0
  0
SEQEND
  5
307E
  8
3
  0
POLYLINE
  5
11D3
  8
3
 66
     1
 10
0.0
 20
0.0
 30
0.0
  0
VERTEX
  5
2D1E
  8
3
 10
46.94999999999999
 20
20.0320621875
 30
0.0
  0
VERTEX
  5
2D1F
  8
3
 10
47.03630453789998
 20
20.68385198749999
 30
0.0
  0
VERTEX
  5
2D20
  8
3
 10
47.29273532719998
 20
21.3168909817
 30
0.0
  0
VERTEX
  5
2D21
  8
3
 10
47.71191532099999
 20
21.91296779070001
 30
0.0
  0
VERTEX
  5
2D22
  8
3
 10
48.28178547409999
 20
22.45493436999999
 30
0.0
  0
VERTEX
  5
2D23
  8
3
 10
48.9859516596
 20
22.927199328
 30
0.0
  0
VERTEX
  5
2D24
  8
3
 10
49.80415629860005
 20
23.3161764617
 30
0.0
  0
VERTEX
  5
2D25
  8
3
 10
50.71286113330001
 20
23.61067560699999
 30
0.0
  0
VERTEX
  5
2D26
  8
3
 10
51.68592438000002
 20
23.80222455980001
 30
0.0
  0
VERTEX
  5
2D27
  8
3
 10
52.69535278079996
 20
23.88531280550001
 30
0.0
  0
VERTEX
  5
2D28
  8
3
 10
53.71210691840002
 20
23.85755004649999
 30
0.0
  0
VERTEX
  5
2D29
  8
3
 10
54.70693662759999
 20
23.71973496679999
 30
0.0
  0
VERTEX
  5
2D2A
  8
3
 10
55.65122246890002
 20
23.47583225549999
 30
0.0
  0
VERTEX
  5
2D2B
  8
3
 10
56.5177990578
 20
23.13285854930001
 30
0.0
  0
VERTEX
  5
2D2C
  8
3
 10
57.28173656370001
 20
22.70068057739999
 30
0.0
  0
VERTEX
  5
2D2D
  8
3
 10
57.9210578954
 20
22.19173131310001
 30
0.0
  0
VERTEX
  5
2D2E
  8
3
 10
58.41737094230001
 20
21.62065230019999
 30
0.0
  0
VERTEX
  5
2D2F
  8
3
 10
58.75639768159999
 20
21.00387244219999
 30
0.0
  0
VERTEX
  5
2D30
  8
3
 10
58.92838493120001
 20
20.3591353724
 30
0.0
  0
VERTEX
  5
2D31
  8
3
 10
58.92838493120001
 20
19.7049890026
 30
0.0
  0
VERTEX
  5
2D32
  8
3
 10
58.75639768159999
 20
19.0602519329
 30
0.0
  0
VERTEX
  5
2D33
  8
3
 10
58.41737094230001
 20
18.44347207480001
 30
0.0
  0
VERTEX
  5
2D34
  8
3
 10
57.9210578954
 20
17.8723930619
 30
0.0
  0
VERTEX
  5
2D35
  8
3
 10
57.28173656370001
 20
17.3634437977
 30
0.0
  0
VERTEX
  5
2D36
  8
3
 10
56.5177990578
 20
16.93126582580001
 30
0.0
  0
VERTEX
  5
2D37
  8
3
 10
55.65122246890002
 20
16.5882921196
 30
0.0
  0
VERTEX
  5
2D38
  8
3
 10
54.70693662759999
 20
16.34438940820002
 30
0.0
  0
VERTEX
  5
2D39
  8
3
 10
53.71210691840002
 20
16.2065743286
 30
0.0
  0
VERTEX
  5
2D3A
  8
3
 10
52.69535278079996
 20
16.17881156960001
 30
0.0
  0
VERTEX
  5
2D3B
  8
3
 10
51.68592438000002
 20
16.26189981530001
 30
0.0
  0
VERTEX
  5
2D3C
  8
3
 10
50.71286113330001
 20
16.4534487681
 30
0.0
  0
VERTEX
  5
2D3D
  8
3
 10
49.80415629860005
 20
16.7479479134
 30
0.0
  0
VERTEX
  5
2D3E
  8
3
 10
48.9859516596
 20
17.13692504700001
 30
0.0
  0
VERTEX
  5
2D3F
  8
3
 10
48.28178547409999
 20
17.60919000499999
 30
0.0
  0
VERTEX
  5
2D40
  8
3
 10
47.71191532099999
 20
18.15115658440001
 30
0.0
  0
VERTEX
  5
2D41
  8
3
 10
47.29273532719998
 20
18.74723339339999
 30
0.0
  0
VERTEX
  5
2D42
  8
3
 10
47.03630453789998
 20
19.3802723876
 30
0.0
  0
VERTEX
  5
2D43
  8
3
 10
46.94999999999999
 20
20.0320621875
 30
0.0
  0
SEQEND
  5
307D
  8
3
  0
POLYLINE
  5
11D4
  8
3
 66
     1
 10
0.0
 20
0.0
 30
0.0
  0
VERTEX
  5
2D44
  8
3
 10
55.44999999999999
 20
16.2018399719
 30
0.0
  0
VERTEX
  5
2D45
  8
3
 10
55.36481456569999
 20
16.6177541603
 30
0.0
  0
VERTEX
  5
2D46
  8
3
 10
55.11506350940004
 20
17.005324484
 30
0.0
  0
VERTEX
  5
2D47
  8
3
 10
54.71776695290004
 20
17.33813866610001
 30
0.0
  0
VERTEX
  5
2D48
  8
3
 10
54.19999999999999
 20
17.59351597
 30
0.0
  0
VERTEX
  5
2D49
  8
3
 10
53.59704761270001
 20
17.7540528545
 30
0.0
  0
VERTEX
  5
2D4A
  8
3
 10
52.94999999999999
 20
17.80880899620001
 30
0.0
  0
VERTEX
  5
2D4B
  8
3
 10
52.30295238720004
 20
17.7540528545
 30
0.0
  0
VERTEX
  5
2D4C
  8
3
 10
51.69999999999999
 20
17.59351597
 30
0.0
  0
VERTEX
  5
2D4D
  8
3
 10
51.18223304700001
 20
17.33813866610001
 30
0.0
  0
VERTEX
  5
2D4E
  8
3
 10
50.7849364905
 20
17.005324484
 30
0.0
  0
VERTEX
  5
2D4F
  8
3
 10
50.5351854342
 20
16.6177541603
 30
0.0
  0
VERTEX
  5
2D50
  8
3
 10
50.44999999999999
 20
16.2018399719
 30
0.0
  0
VERTEX
  5
2D51
  8
3
 10
50.5351854342
 20
15.78592578359999
 30
0.0
  0
VERTEX
  5
2D52
  8
3
 10
50.7849364905
 20
15.3983554598
 30
0.0
  0
VERTEX
  5
2D53
  8
3
 10
51.18223304700001
 20
15.06554127780001
 30
0.0
  0
VERTEX
  5
2D54
  8
3
 10
51.69999999999999
 20
14.81016397389999
 30
0.0
  0
VERTEX
  5
2D55
  8
3
 10
52.30295238720004
 20
14.64962708940001
 30
0.0
  0
VERTEX
  5
2D56
  8
3
 10
52.94999999999999
 20
14.5948709477
 30
0.0
  0
VERTEX
  5
2D57
  8
3
 10
53.59704761270001
 20
14.64962708940001
 30
0.0
  0
VERTEX
  5
2D58
  8
3
 10
54.19999999999999
 20
14.81016397389999
 30
0.0
  0
VERTEX
  5
2D59
  8
3
 10
54.71776695290004
 20
15.06554127780001
 30
0.0
  0
VERTEX
  5
2D5A
  8
3
 10
55.11506350940004
 20
15.3983554598
 30
0.0
  0
VERTEX
  5
2D5B
  8
3
 10
55.36481456569999
 20
15.78592578359999
 30
0.0
  0
VERTEX
  5
2D5C
  8
3
 10
55.44999999999999
 20
16.2018399719
 30
0.0
  0
SEQEND
  5
307C
  8
3
  0
POLYLINE
  5
11D5
  8
3
 66
     1
 10
0.0
 20
0.0
 30
0.0
  0
VERTEX
  5
2D5D
  8
3
 10
52.94999999999999
 20
14.8016828968
 30
0.0
  0
VERTEX
  5
2D5E
  8
3
 10
51.87900905780003
 20
15.33524019059999
 30
0.0
  0
VERTEX
  5
2D5F
  8
3
 10
50.94999999999999
 20
15.54391009580002
 30
0.0
  0
SEQEND
  5
307B
  8
3
  0
POLYLINE
  5
11D6
  8
3
 66
     1
 10
0.0
 20
0.0
 30
0.0
  0
VERTEX
  5
2D60
  8
3
 10
54.94999999999999
 20
15.54391009580002
 30
0.0
  0
VERTEX
  5
2D61
  8
3
 10
53.87900905780003
 20
15.28254878250002
 30
0.0
  0
VERTEX
  5
2D62
  8
3
 10
52.94999999999999
 20
14.8016828968
 30
0.0
  0
SEQEND
  5
307A
  8
3
  0
LINE
  5
11D7
  8
3
 10
54.94999999999999
 20
17.0283644937
 30
0.0
 11
54.94999999999999
 21
15.54391009580002
 31
0.0
  0
POLYLINE
  5
11D8
  8
3
 66
     1
 10
0.0
 20
0.0
 30
0.0
  0
VERTEX
  5
2D63
  8
3
 10
52.94999999999999
 20
17.77059169270001
 30
0.0
  0
VERTEX
  5
2D64
  8
3
 10
54.0209909422
 20
17.50923037940001
 30
0.0
  0
VERTEX
  5
2D65
  8
3
 10
54.94999999999999
 20
17.0283644937
 30
0.0
  0
SEQEND
  5
3079
  8
3
  0
POLYLINE
  5
11D9
  8
3
 66
     1
 10
0.0
 20
0.0
 30
0.0
  0
VERTEX
  5
2D66
  8
3
 10
50.94999999999999
 20
17.0283644937
 30
0.0
  0
VERTEX
  5
2D67
  8
3
 10
52.0209909422
 20
17.56192178750001
 30
0.0
  0
VERTEX
  5
2D68
  8
3
 10
52.94999999999999
 20
17.77059169270001
 30
0.0
  0
SEQEND
  5
3078
  8
3
  0
LINE
  5
11DA
  8
3
 10
50.94999999999999
 20
15.54391009580002
 30
0.0
 11
50.94999999999999
 21
17.0283644937
 31
0.0
  0
LINE
  5
11DB
  8
3
 10
52.94999999999999
 20
21.13349436390001
 30
0.0
 11
52.94999999999999
 21
17.77059169270001
 31
0.0
  0
POLYLINE
  5
11DC
  8
3
 66
     1
 10
0.0
 20
0.0
 30
0.0
  0
VERTEX
  5
2D69
  8
3
 10
48.08206777590004
 20
21.97630729970001
 30
0.0
  0
VERTEX
  5
2D6A
  8
3
 10
48.33520597500001
 20
22.28257732450001
 30
0.0
  0
VERTEX
  5
2D6B
  8
3
 10
48.9016866613
 20
22.7837548224
 30
0.0
  0
VERTEX
  5
2D6C
  8
3
 10
49.59828346930004
 20
23.211860847
 30
0.0
  0
VERTEX
  5
2D6D
  8
3
 10
50.4026072044
 20
23.5531357184
 30
0.0
  0
VERTEX
  5
2D6E
  8
3
 10
51.2888062399
 20
23.79661058159999
 30
0.0
  0
VERTEX
  5
2D6F
  8
3
 10
52.22839740969999
 20
23.93445995389999
 30
0.0
  0
VERTEX
  5
2D70
  8
3
 10
53.19118148050001
 20
23.96225324330001
 30
0.0
  0
VERTEX
  5
2D71
  8
3
 10
54.14621378010003
 20
23.87909715040001
 30
0.0
  0
VERTEX
  5
2D72
  8
3
 10
55.06279878449999
 20
23.68766438060001
 30
0.0
  0
VERTEX
  5
2D73
  8
3
 10
55.91147669759999
 20
23.39410774059999
 30
0.0
  0
VERTEX
  5
2D74
  8
3
 10
56.66497031290004
 20
23.0078623823
 30
0.0
  0
VERTEX
  5
2D75
  8
3
 10
57.29906172559998
 20
22.54134254940001
 30
0.0
  0
VERTEX
  5
2D76
  8
3
 10
57.79337071610001
 20
22.00954257309999
 30
0.0
  0
VERTEX
  5
2D77
  8
3
 10
57.81270042570003
 20
21.98346370900001
 30
0.0
  0
SEQEND
  5
3077
  8
3
  0
LINE
  5
11DD
  8
3
 10
54.94999999999999
 20
20.3912671649
 30
0.0
 11
54.94999999999999
 21
17.0283644937
 31
0.0
  0
LINE
  5
11DE
  8
3
 10
50.94999999999999
 20
20.3912671649
 30
0.0
 11
50.94999999999999
 21
17.0283644937
 31
0.0
  0
LINE
  5
11DF
  8
3
 10
58.15000000000003
 20
20.83528134069999
 30
0.0
 11
58.14894428880001
 21
20.76793179399999
 31
0.0
  0
LINE
  5
11E0
  8
3
 10
58.15000000000003
 20
21.9099985853
 30
0.0
 11
58.14894428880001
 21
21.84264903869999
 31
0.0
  0
POLYLINE
  5
11E1
  8
3
 66
     1
 10
0.0
 20
0.0
 30
0.0
  0
VERTEX
  5
2D78
  8
3
 10
57.80589375790004
 20
20.75256872349999
 30
0.0
  0
VERTEX
  5
2D79
  8
3
 10
57.79337071610001
 20
20.7357373529
 30
0.0
  0
VERTEX
  5
2D7A
  8
3
 10
57.29906172559998
 20
20.20393737660001
 30
0.0
  0
VERTEX
  5
2D7B
  8
3
 10
56.66497031290004
 20
19.7374175436
 30
0.0
  0
VERTEX
  5
2D7C
  8
3
 10
55.91147669759999
 20
19.3511721854
 30
0.0
  0
VERTEX
  5
2D7D
  8
3
 10
55.06279878449999
 20
19.0576155453
 30
0.0
  0
VERTEX
  5
2D7E
  8
3
 10
54.14621378010003
 20
18.86618277560001
 30
0.0
  0
VERTEX
  5
2D7F
  8
3
 10
53.19118148050001
 20
18.78302668270001
 30
0.0
  0
VERTEX
  5
2D80
  8
3
 10
52.22839740969999
 20
18.81081997210001
 30
0.0
  0
VERTEX
  5
2D81
  8
3
 10
51.2888062399
 20
18.9486693444
 30
0.0
  0
VERTEX
  5
2D82
  8
3
 10
50.4026072044
 20
19.19214420750001
 30
0.0
  0
VERTEX
  5
2D83
  8
3
 10
49.59828346930004
 20
19.533419079
 30
0.0
  0
VERTEX
  5
2D84
  8
3
 10
48.9016866613
 20
19.9615251036
 30
0.0
  0
VERTEX
  5
2D85
  8
3
 10
48.33520597500001
 20
20.46270260150001
 30
0.0
  0
VERTEX
  5
2D86
  8
3
 10
48.0921135726
 20
20.7552686288
 30
0.0
  0
SEQEND
  5
3076
  8
3
  0
POLYLINE
  5
11E2
  8
3
 66
     1
 10
0.0
 20
0.0
 30
0.0
  0
VERTEX
  5
2D87
  8
3
 10
46.44999999999999
 20
23.09623995999999
 30
0.0
  0
VERTEX
  5
2D88
  8
3
 10
46.53417329280001
 20
23.76645745460002
 30
0.0
  0
VERTEX
  5
2D89
  8
3
 10
46.78451312730004
 20
24.4193166682
 30
0.0
  0
VERTEX
  5
2D8A
  8
3
 10
47.19453583320001
 20
25.03790889000001
 30
0.0
  0
VERTEX
  5
2D8B
  8
3
 10
47.75362203779997
 20
25.6062129064
 30
0.0
  0
VERTEX
  5
2D8C
  8
3
 10
48.44729170210002
 20
26.10950994199999
 30
0.0
  0
VERTEX
  5
2D8D
  8
3
 10
49.25757914620004
 20
26.53476486779999
 30
0.0
  0
VERTEX
  5
2D8E
  8
3
 10
50.16349835080001
 20
26.87096380470001
 30
0.0
  0
VERTEX
  5
2D8F
  8
3
 10
51.14158648450001
 20
27.1093993767
 30
0.0
  0
VERTEX
  5
2D90
  8
3
 10
52.1665115783
 20
27.2438962279
 30
0.0
  0
VERTEX
  5
2D91
  8
3
 10
53.21172861069999
 20
27.27097096040001
 30
0.0
  0
VERTEX
  5
2D92
  8
3
 10
54.25016700949999
 20
27.1899223529
 30
0.0
  0
VERTEX
  5
2D93
  8
3
 10
55.25493176570001
 20
27.00284952180002
 30
0.0
  0
VERTEX
  5
2D94
  8
3
 10
56.19999999999999
 20
26.71459755500001
 30
0.0
  0
VERTEX
  5
2D95
  8
3
 10
57.06089494129998
 20
26.3326320271
 30
0.0
  0
VERTEX
  5
2D96
  8
3
 10
57.8153198631
 20
25.86684564469999
 30
0.0
  0
VERTEX
  5
2D97
  8
3
 10
58.44373555600004
 20
25.32930203040002
 30
0.0
  0
VERTEX
  5
2D98
  8
3
 10
58.92986638370002
 20
24.73392328150001
 30
0.0
  0
VERTEX
  5
2D99
  8
3
 10
59.26112181320002
 20
24.09612939479999
 30
0.0
  0
VERTEX
  5
2D9A
  8
3
 10
59.42892250280005
 20
23.43243889690001
 30
0.0
  0
VERTEX
  5
2D9B
  8
3
 10
59.42892250280005
 20
22.7600410231
 30
0.0
  0
VERTEX
  5
2D9C
  8
3
 10
59.26112181320002
 20
22.09635052530001
 30
0.0
  0
VERTEX
  5
2D9D
  8
3
 10
58.92986638370002
 20
21.4585566385
 30
0.0
  0
VERTEX
  5
2D9E
  8
3
 10
58.44373555600004
 20
20.8631778896
 30
0.0
  0
VERTEX
  5
2D9F
  8
3
 10
57.8153198631
 20
20.32563427529999
 30
0.0
  0
VERTEX
  5
2DA0
  8
3
 10
57.06089494129998
 20
19.85984789290001
 30
0.0
  0
VERTEX
  5
2DA1
  8
3
 10
56.19999999999999
 20
19.477882365
 30
0.0
  0
VERTEX
  5
2DA2
  8
3
 10
55.25493176570001
 20
19.18963039830001
 30
0.0
  0
VERTEX
  5
2DA3
  8
3
 10
54.25016700949999
 20
19.00255756710001
 30
0.0
  0
VERTEX
  5
2DA4
  8
3
 10
53.21172861069999
 20
18.9215089596
 30
0.0
  0
VERTEX
  5
2DA5
  8
3
 10
52.1665115783
 20
18.94858369210002
 30
0.0
  0
VERTEX
  5
2DA6
  8
3
 10
51.14158648450001
 20
19.08308054330001
 30
0.0
  0
VERTEX
  5
2DA7
  8
3
 10
50.16349835080001
 20
19.3215161153
 30
0.0
  0
VERTEX
  5
2DA8
  8
3
 10
49.25757914620004
 20
19.65771505219999
 30
0.0
  0
VERTEX
  5
2DA9
  8
3
 10
48.44729170210002
 20
20.08296997799999
 30
0.0
  0
VERTEX
  5
2DAA
  8
3
 10
47.75362203779997
 20
20.58626701360001
 30
0.0
  0
VERTEX
  5
2DAB
  8
3
 10
47.19453583320001
 20
21.15457103
 30
0.0
  0
VERTEX
  5
2DAC
  8
3
 10
46.78451312730004
 20
21.77316325180001
 30
0.0
  0
VERTEX
  5
2DAD
  8
3
 10
46.53417329280001
 20
22.4260224654
 30
0.0
  0
VERTEX
  5
2DAE
  8
3
 10
46.44999999999999
 20
23.09623995999999
 30
0.0
  0
SEQEND
  5
3075
  8
3
  0
POLYLINE
  5
11E3
  8
3
 66
     1
 10
0.0
 20
0.0
 30
0.0
  0
VERTEX
  5
2DAF
  8
3
 10
46.44999999999999
 20
23.7760042745
 30
0.0
  0
VERTEX
  5
2DB0
  8
3
 10
46.53417329280001
 20
24.44622176920001
 30
0.0
  0
VERTEX
  5
2DB1
  8
3
 10
46.78451312730004
 20
25.0990809827
 30
0.0
  0
VERTEX
  5
2DB2
  8
3
 10
47.19453583320001
 20
25.71767320449999
 30
0.0
  0
VERTEX
  5
2DB3
  8
3
 10
47.75362203779997
 20
26.285977221
 30
0.0
  0
VERTEX
  5
2DB4
  8
3
 10
48.44729170210002
 20
26.78927425649999
 30
0.0
  0
VERTEX
  5
2DB5
  8
3
 10
49.25757914620004
 20
27.2145291823
 30
0.0
  0
VERTEX
  5
2DB6
  8
3
 10
50.16349835080001
 20
27.55072811919999
 30
0.0
  0
VERTEX
  5
2DB7
  8
3
 10
51.14158648450001
 20
27.78916369129999
 30
0.0
  0
VERTEX
  5
2DB8
  8
3
 10
52.1665115783
 20
27.92366054249999
 30
0.0
  0
VERTEX
  5
2DB9
  8
3
 10
53.21172861069999
 20
27.950735275
 30
0.0
  0
VERTEX
  5
2DBA
  8
3
 10
54.25016700949999
 20
27.86968666749999
 30
0.0
  0
VERTEX
  5
2DBB
  8
3
 10
55.25493176570001
 20
27.68261383629999
 30
0.0
  0
VERTEX
  5
2DBC
  8
3
 10
56.19999999999999
 20
27.39436186949999
 30
0.0
  0
VERTEX
  5
2DBD
  8
3
 10
57.06089494129998
 20
27.0123963417
 30
0.0
  0
VERTEX
  5
2DBE
  8
3
 10
57.8153198631
 20
26.54660995930001
 30
0.0
  0
VERTEX
  5
2DBF
  8
3
 10
58.44373555600004
 20
26.00906634500001
 30
0.0
  0
VERTEX
  5
2DC0
  8
3
 10
58.92986638370002
 20
25.41368759599999
 30
0.0
  0
VERTEX
  5
2DC1
  8
3
 10
59.26112181320002
 20
24.77589370929999
 30
0.0
  0
VERTEX
  5
2DC2
  8
3
 10
59.42892250280005
 20
24.11220321140001
 30
0.0
  0
VERTEX
  5
2DC3
  8
3
 10
59.42892250280005
 20
23.43980533769999
 30
0.0
  0
VERTEX
  5
2DC4
  8
3
 10
59.26112181320002
 20
22.77611483980002
 30
0.0
  0
VERTEX
  5
2DC5
  8
3
 10
58.92986638370002
 20
22.13832095309999
 30
0.0
  0
VERTEX
  5
2DC6
  8
3
 10
58.44373555600004
 20
21.5429422041
 30
0.0
  0
VERTEX
  5
2DC7
  8
3
 10
57.8153198631
 20
21.0053985898
 30
0.0
  0
VERTEX
  5
2DC8
  8
3
 10
57.06089494129998
 20
20.53961220740001
 30
0.0
  0
VERTEX
  5
2DC9
  8
3
 10
56.19999999999999
 20
20.15764667959999
 30
0.0
  0
VERTEX
  5
2DCA
  8
3
 10
55.25493176570001
 20
19.86939471279999
 30
0.0
  0
VERTEX
  5
2DCB
  8
3
 10
54.25016700949999
 20
19.68232188159999
 30
0.0
  0
VERTEX
  5
2DCC
  8
3
 10
53.21172861069999
 20
19.60127327410001
 30
0.0
  0
VERTEX
  5
2DCD
  8
3
 10
52.1665115783
 20
19.62834800659999
 30
0.0
  0
VERTEX
  5
2DCE
  8
3
 10
51.14158648450001
 20
19.76284485779999
 30
0.0
  0
VERTEX
  5
2DCF
  8
3
 10
50.16349835080001
 20
20.00128042989999
 30
0.0
  0
VERTEX
  5
2DD0
  8
3
 10
49.25757914620004
 20
20.33747936669999
 30
0.0
  0
VERTEX
  5
2DD1
  8
3
 10
48.44729170210002
 20
20.76273429260002
 30
0.0
  0
VERTEX
  5
2DD2
  8
3
 10
47.75362203779997
 20
21.26603132810001
 30
0.0
  0
VERTEX
  5
2DD3
  8
3
 10
47.19453583320001
 20
21.8343353445
 30
0.0
  0
VERTEX
  5
2DD4
  8
3
 10
46.78451312730004
 20
22.45292756629999
 30
0.0
  0
VERTEX
  5
2DD5
  8
3
 10
46.53417329280001
 20
23.1057867799
 30
0.0
  0
VERTEX
  5
2DD6
  8
3
 10
46.44999999999999
 20
23.7760042745
 30
0.0
  0
SEQEND
  5
3074
  8
3
  0
LINE
  5
11E4
  8
3
 10
50.94999999999999
 20
18.90681276699999
 30
0.0
 11
51.94999999999999
 21
18.53569916750001
 31
0.0
  0
LINE
  5
11E5
  8
3
 10
51.94999999999999
 20
18.53569916750001
 30
0.0
 11
52.94999999999999
 21
18.16458556800001
 31
0.0
  0
LINE
  5
11E6
  8
3
 10
52.94999999999999
 20
17.77059169270001
 30
0.0
 11
52.94999999999999
 21
14.8016828968
 31
0.0
  0
LINE
  5
11E7
  8
3
 10
52.94999999999999
 20
18.16458556800001
 30
0.0
 11
53.94999999999999
 21
18.53569916750001
 31
0.0
  0
LINE
  5
11E8
  8
3
 10
53.94999999999999
 20
18.53569916750001
 30
0.0
 11
54.94999999999999
 21
18.90681276699999
 31
0.0
  0
ARC
  5
11E9
  8
3
 10
52.94999999999999
 20
17.96621615750001
 30
0.0
 40
2.969602079215538
 50
70.32128690239965
 51
109.6787130975992
  0
LINE
  5
11EA
  8
3
 10
53.94999999999999
 20
20.76238076440001
 30
0.0
 11
52.94999999999999
 21
21.13349436390001
 31
0.0
  0
LINE
  5
11EB
  8
3
 10
52.94999999999999
 20
21.13349436390001
 30
0.0
 11
51.94999999999999
 21
20.76238076440001
 31
0.0
  0
ARC
  5
11EC
  8
3
 10
53.6384481339
 20
19.82130348090001
 30
0.0
 40
1.322816319799048
 50
283.6223735179002
 51
352.5174161022002
  0
ARC
  5
11ED
  8
3
 10
52.94999999999999
 20
21.33186377440001
 30
0.0
 40
2.969602079215718
 50
250.3212869024009
 51
289.6787130976014
  0
ARC
  5
11EE
  8
3
 10
52.26155186600005
 20
19.82130348090001
 30
0.0
 40
1.322816319799032
 50
187.4825838977995
 51
256.3776264820995
  0
ARC
  5
11EF
  8
3
 10
52.26155186600005
 20
19.47677645100001
 30
0.0
 40
1.322816319799121
 50
103.6223735178994
 51
172.5174161021996
  0
ARC
  5
11F0
  8
3
 10
53.6384481339
 20
19.47677645100001
 30
0.0
 40
1.322816319799299
 50
7.482583897799418
 51
76.37762648209991
  0
LINE
  5
11F1
  8
3
 10
54.94999999999999
 20
20.3912671649
 30
0.0
 11
53.94999999999999
 21
20.76238076440001
 31
0.0
  0
LINE
  5
11F2
  8
3
 10
51.94999999999999
 20
20.76238076440001
 30
0.0
 11
50.94999999999999
 21
20.3912671649
 31
0.0
  0
CIRCLE
  5
11F3
  8
3
 10
52.94999999999999
 20
0.0
 30
0.0
 40
3.588457268119908
  0
POLYLINE
  5
11F4
  8
3
 66
     1
 10
0.0
 20
0.0
 30
0.0
  0
VERTEX
  5
2DD7
  8
3
 10
46.25
 20
-24.3219110691
 30
0.0
  0
VERTEX
  5
2DD8
  8
3
 10
46.28717140680004
 20
-24.7689420959
 30
0.0
  0
VERTEX
  5
2DD9
  8
3
 10
46.49432497250001
 20
-25.4338872953
 30
0.0
  0
VERTEX
  5
2DDA
  8
3
 10
46.87523963610005
 20
-26.0419959826
 30
0.0
  0
VERTEX
  5
2DDB
  8
3
 10
47.42528695499999
 20
-26.5837301577
 30
0.0
  0
VERTEX
  5
2DDC
  8
3
 10
48.12489238730001
 20
-27.0478059325
 30
0.0
  0
VERTEX
  5
2DDD
  8
3
 10
48.97455772380005
 20
-27.4346776045
 30
0.0
  0
VERTEX
  5
2DDE
  8
3
 10
49.93738027570004
 20
-27.7327094891
 30
0.0
  0
VERTEX
  5
2DDF
  8
3
 10
50.99135257669997
 20
-27.9397648858
 30
0.0
  0
VERTEX
  5
2DE0
  8
3
 10
52.10300861900004
 20
-28.0551827168
 30
0.0
  0
VERTEX
  5
2DE1
  8
3
 10
53.21855731600004
 20
-28.0780844894
 30
0.0
  0
VERTEX
  5
2DE2
  8
3
 10
54.32639464740004
 20
-28.0123957884
 30
0.0
  0
VERTEX
  5
2DE3
  8
3
 10
55.38294679860002
 20
-27.8595790576
 30
0.0
  0
VERTEX
  5
2DE4
  8
3
 10
56.3724350773
 20
-27.6207459715
 30
0.0
  0
VERTEX
  5
2DE5
  8
3
 10
57.27981376869997
 20
-27.29059079629999
 30
0.0
  0
VERTEX
  5
2DE6
  8
3
 10
58.06769105610005
 20
-26.8748550511
 30
0.0
  0
VERTEX
  5
2DE7
  8
3
 10
58.72326290730001
 20
-26.36660631939999
 30
0.0
  0
VERTEX
  5
2DE8
  8
3
 10
59.21508451790004
 20
-25.7801541603
 30
0.0
  0
VERTEX
  5
2DE9
  8
3
 10
59.52454673469998
 20
-25.1287982779
 30
0.0
  0
VERTEX
  5
2DEA
  8
3
 10
59.64806390820002
 20
-24.4251246268
 30
0.0
  0
VERTEX
  5
2DEB
  8
3
 10
59.65000000000003
 20
-24.3219110691
 30
0.0
  0
SEQEND
  5
3073
  8
3
  0
POLYLINE
  5
11F5
  8
3
 66
     1
 10
0.0
 20
0.0
 30
0.0
  0
VERTEX
  5
2DEC
  8
3
 10
59.65000000000003
 20
-24.3219110691
 30
0.0
  0
VERTEX
  5
2DED
  8
3
 10
59.57027699050002
 20
-23.6487357773
 30
0.0
  0
VERTEX
  5
2DEE
  8
3
 10
59.3352492336
 20
-22.9676813631
 30
0.0
  0
VERTEX
  5
2DEF
  8
3
 10
58.91447333470001
 20
-22.2482737709
 30
0.0
  0
VERTEX
  5
2DF0
  8
3
 10
58.3337053903
 20
-21.56570278059999
 30
0.0
  0
VERTEX
  5
2DF1
  8
3
 10
57.59267844790003
 20
-20.9342420805
 30
0.0
  0
VERTEX
  5
2DF2
  8
3
 10
56.72233643969997
 20
-20.3900093163
 30
0.0
  0
VERTEX
  5
2DF3
  8
3
 10
55.73200712190004
 20
-19.9523219331
 30
0.0
  0
VERTEX
  5
2DF4
  8
3
 10
54.66030365670002
 20
-19.64628172959999
 30
0.0
  0
VERTEX
  5
2DF5
  8
3
 10
54.04977351330001
 20
-19.58247170759999
 30
0.0
  0
SEQEND
  5
3072
  8
3
  0
POLYLINE
  5
11F6
  8
3
 66
     1
 10
0.0
 20
0.0
 30
0.0
  0
VERTEX
  5
2DF6
  8
3
 10
51.756036655
 20
-19.5599878586
 30
0.0
  0
VERTEX
  5
2DF7
  8
3
 10
50.7604124925
 20
-19.7630945022
 30
0.0
  0
VERTEX
  5
2DF8
  8
3
 10
49.74486172350004
 20
-20.1193077546
 30
0.0
  0
VERTEX
  5
2DF9
  8
3
 10
48.81813868720002
 20
-20.59375589849999
 30
0.0
  0
VERTEX
  5
2DFA
  8
3
 10
47.9953774828
 20
-21.17679999959999
 30
0.0
  0
VERTEX
  5
2DFB
  8
3
 10
47.31081258210003
 20
-21.8379129196
 30
0.0
  0
VERTEX
  5
2DFC
  8
3
 10
46.78107346960002
 20
-22.5600090361
 30
0.0
  0
VERTEX
  5
2DFD
  8
3
 10
46.427127799
 20
-23.3099146866
 30
0.0
  0
VERTEX
  5
2DFE
  8
3
 10
46.25
 20
-24.3219110691
 30
0.0
  0
SEQEND
  5
3071
  8
3
  0
POLYLINE
  5
11F7
  8
3
 66
     1
 10
0.0
 20
0.0
 30
0.0
  0
VERTEX
  5
2DFF
  8
3
 10
46.25
 20
24.32191106900001
 30
0.0
  0
VERTEX
  5
2E00
  8
3
 10
46.28717140680004
 20
23.8628941286
 30
0.0
  0
VERTEX
  5
2E01
  8
3
 10
46.49432497250001
 20
23.1321725995
 30
0.0
  0
VERTEX
  5
2E02
  8
3
 10
46.87523963610005
 20
22.40873057190001
 30
0.0
  0
VERTEX
  5
2E03
  8
3
 10
47.42528695499999
 20
21.7121801687
 30
0.0
  0
VERTEX
  5
2E04
  8
3
 10
48.12489238730001
 20
21.0718393553
 30
0.0
  0
VERTEX
  5
2E05
  8
3
 10
48.97455772380005
 20
20.502427329
 30
0.0
  0
VERTEX
  5
2E06
  8
3
 10
49.93738027570004
 20
20.03919724720001
 30
0.0
  0
VERTEX
  5
2E07
  8
3
 10
50.99135257669997
 20
19.70364554900002
 30
0.0
  0
VERTEX
  5
2E08
  8
3
 10
51.78243891389997
 20
19.56650480970001
 30
0.0
  0
SEQEND
  5
3070
  8
3
  0
POLYLINE
  5
11F8
  8
3
 66
     1
 10
0.0
 20
0.0
 30
0.0
  0
VERTEX
  5
2E09
  8
3
 10
54.13035270020004
 20
19.56325254719999
 30
0.0
  0
VERTEX
  5
2E0A
  8
3
 10
54.32639464740004
 20
19.58275273629999
 30
0.0
  0
VERTEX
  5
2E0B
  8
3
 10
55.38294679860002
 20
19.8350315406
 30
0.0
  0
VERTEX
  5
2E0C
  8
3
 10
56.3724350773
 20
20.21590656840002
 30
0.0
  0
VERTEX
  5
2E0D
  8
3
 10
57.27981376869997
 20
20.71846650149999
 30
0.0
  0
VERTEX
  5
2E0E
  8
3
 10
58.06769105610005
 20
21.31569151560001
 30
0.0
  0
VERTEX
  5
2E0F
  8
3
 10
58.72326290730001
 20
21.99745782670001
 30
0.0
  0
VERTEX
  5
2E10
  8
3
 10
59.21508451790004
 20
22.7274297285
 30
0.0
  0
VERTEX
  5
2E11
  8
3
 10
59.52454673469998
 20
23.47464223899999
 30
0.0
  0
VERTEX
  5
2E12
  8
3
 10
59.64806390820002
 20
24.21807164570001
 30
0.0
  0
VERTEX
  5
2E13
  8
3
 10
59.65000000000003
 20
24.32191106900001
 30
0.0
  0
SEQEND
  5
306F
  8
3
  0
POLYLINE
  5
11F9
  8
3
 66
     1
 10
0.0
 20
0.0
 30
0.0
  0
VERTEX
  5
2E14
  8
3
 10
59.65000000000003
 20
24.32191106900001
 30
0.0
  0
VERTEX
  5
2E15
  8
3
 10
59.57027699050002
 20
24.96932525669999
 30
0.0
  0
VERTEX
  5
2E16
  8
3
 10
59.3352492336
 20
25.57666821219999
 30
0.0
  0
VERTEX
  5
2E17
  8
3
 10
58.91447333470001
 20
26.17020332819999
 30
0.0
  0
VERTEX
  5
2E18
  8
3
 10
58.3337053903
 20
26.6928301682
 30
0.0
  0
VERTEX
  5
2E19
  8
3
 10
57.59267844790003
 20
27.14335648369999
 30
0.0
  0
VERTEX
  5
2E1A
  8
3
 10
56.72233643969997
 20
27.508368023
 30
0.0
  0
VERTEX
  5
2E1B
  8
3
 10
55.73200712190004
 20
27.78707046209999
 30
0.0
  0
VERTEX
  5
2E1C
  8
3
 10
54.66030365670002
 20
27.97427544870001
 30
0.0
  0
VERTEX
  5
2E1D
  8
3
 10
52.94999999999999
 20
28.0808820126
 30
0.0
  0
VERTEX
  5
2E1E
  8
3
 10
51.8393795792
 20
28.03628346440001
 30
0.0
  0
VERTEX
  5
2E1F
  8
3
 10
50.7604124925
 20
27.90350728940001
 30
0.0
  0
VERTEX
  5
2E20
  8
3
 10
49.74486172350004
 20
27.6822532834
 30
0.0
  0
VERTEX
  5
2E21
  8
3
 10
48.81813868720002
 20
27.3742020997
 30
0.0
  0
VERTEX
  5
2E22
  8
3
 10
47.9953774828
 20
26.9737878624
 30
0.0
  0
VERTEX
  5
2E23
  8
3
 10
47.31081258210003
 20
26.48906032880001
 30
0.0
  0
VERTEX
  5
2E24
  8
3
 10
46.78107346960002
 20
25.9185197004
 30
0.0
  0
VERTEX
  5
2E25
  8
3
 10
46.427127799
 20
25.27736492049999
 30
0.0
  0
VERTEX
  5
2E26
  8
3
 10
46.25
 20
24.32191106900001
 30
0.0
  0
SEQEND
  5
306E
  8
3
  0
CIRCLE
  5
11FA
  8
3
 10
52.94999999999999
 20
0.0
 30
0.0
 40
5.099999999999994
  0
LINE
  5
11FC
  8
3
 10
26.99999999990001
 20
18.25
 30
0.0
 11
26.99999999990001
 21
-18.25
 31
0.0
  0
LINE
  5
11FD
  8
3
 10
31.99999999990001
 20
18.25
 30
0.0
 11
31.99999999990001
 21
-18.25
 31
0.0
  0
LINE
  5
11FE
  8
3
 10
19.92745920229999
 20
6.0
 30
0.0
 11
19.92745920229999
 21
-6.0
 31
0.0
  0
LINE
  5
11FF
  8
3
 10
52.39999999989999
 20
-15.8164448964
 30
0.0
 11
68.59999999990004
 21
-15.8164448964
 31
0.0
  0
LINE
  5
1200
  8
3
 10
68.74999999990001
 20
-15.6754337421
 30
0.0
 11
68.59999999990004
 21
-15.8164448964
 31
0.0
  0
LINE
  5
1201
  8
3
 10
68.59999999990004
 20
15.8164448963
 30
0.0
 11
68.74999999990001
 21
15.67543374210001
 31
0.0
  0
LINE
  5
1202
  8
3
 10
52.39999999989999
 20
15.8164448963
 30
0.0
 11
68.59999999990004
 21
15.8164448963
 31
0.0
  0
POLYLINE
  5
1203
  8
3
 66
     1
 10
0.0
 20
0.0
 30
0.0
  0
VERTEX
  5
2E27
  8
3
 10
57.49307920480004
 20
15.81604959079999
 30
0.0
  0
VERTEX
  5
2E28
  8
3
 10
58.04284592560003
 20
15.42693886169999
 30
0.0
  0
VERTEX
  5
2E29
  8
3
 10
58.44938016830002
 20
14.96891829500001
 30
0.0
  0
VERTEX
  5
2E2A
  8
3
 10
58.70779319310003
 20
14.4447595922
 30
0.0
  0
VERTEX
  5
2E2B
  8
3
 10
58.8099292709
 20
13.8656918165
 30
0.0
  0
VERTEX
  5
2E2C
  8
3
 10
58.7552630985
 20
13.24302170569999
 30
0.0
  0
VERTEX
  5
2E2D
  8
3
 10
58.54247940429997
 20
12.61374251000001
 30
0.0
  0
VERTEX
  5
2E2E
  8
3
 10
58.17157818820004
 20
11.9839998011
 30
0.0
  0
VERTEX
  5
2E2F
  8
3
 10
57.64255945029998
 20
11.35937344999999
 30
0.0
  0
VERTEX
  5
2E30
  8
3
 10
56.98874442959999
 20
10.78001366079999
 30
0.0
  0
VERTEX
  5
2E31
  8
3
 10
56.24713793840004
 20
10.29332485579999
 30
0.0
  0
VERTEX
  5
2E32
  8
3
 10
55.41773997659999
 20
9.907765600700003
 30
0.0
  0
VERTEX
  5
2E33
  8
3
 10
54.50055054429998
 20
9.629485760199998
 30
0.0
  0
VERTEX
  5
2E34
  8
3
 10
53.52015278670001
 20
9.470125824299998
 30
0.0
  0
VERTEX
  5
2E35
  8
3
 10
52.55541275720003
 20
9.452298225800007
 30
0.0
  0
VERTEX
  5
2E36
  8
3
 10
51.60633045599997
 20
9.57631195479999
 30
0.0
  0
VERTEX
  5
2E37
  8
3
 10
50.67290588290001
 20
9.839993017300003
 30
0.0
  0
VERTEX
  5
2E38
  8
3
 10
49.04614571489998
 20
10.68721366849999
 30
0.0
  0
VERTEX
  5
2E39
  8
3
 10
47.83851492850005
 20
11.83644965569999
 30
0.0
  0
VERTEX
  5
2E3A
  8
3
 10
47.43742628440003
 20
12.4682552239
 30
0.0
  0
VERTEX
  5
2E3B
  8
3
 10
47.1847216031
 20
13.11052326379999
 30
0.0
  0
VERTEX
  5
2E3C
  8
3
 10
47.08669561920004
 20
13.738597852
 30
0.0
  0
VERTEX
  5
2E3D
  8
3
 10
47.15181157609999
 20
14.32446507750001
 30
0.0
  0
VERTEX
  5
2E3E
  8
3
 10
47.37785657260002
 20
14.85798964240001
 30
0.0
  0
VERTEX
  5
2E3F
  8
3
 10
47.76361212490002
 20
15.33531438380001
 30
0.0
  0
VERTEX
  5
2E40
  8
3
 10
48.28350747109999
 20
15.73915359649999
 30
0.0
  0
VERTEX
  5
2E41
  8
3
 10
48.92765905690004
 20
16.07161434700001
 30
0.0
  0
VERTEX
  5
2E42
  8
3
 10
49.68473454470001
 20
16.33527086200002
 30
0.0
  0
VERTEX
  5
2E43
  8
3
 10
50.52633624150002
 20
16.5270466703
 30
0.0
  0
VERTEX
  5
2E44
  8
3
 10
52.40000001940001
 20
16.72041278840001
 30
0.0
  0
SEQEND
  5
306D
  8
3
  0
POLYLINE
  5
1204
  8
3
 66
     1
 10
0.0
 20
0.0
 30
0.0
  0
VERTEX
  5
2E45
  8
3
 10
52.39999999989999
 20
-16.7199309648
 30
0.0
  0
VERTEX
  5
2E46
  8
3
 10
51.44269221569999
 20
-16.6544208902
 30
0.0
  0
VERTEX
  5
2E47
  8
3
 10
50.52478499580002
 20
-16.52631033899999
 30
0.0
  0
VERTEX
  5
2E48
  8
3
 10
49.68239165109998
 20
-16.33452479649999
 30
0.0
  0
VERTEX
  5
2E49
  8
3
 10
48.92502493620003
 20
-16.07104242939999
 30
0.0
  0
VERTEX
  5
2E4A
  8
3
 10
48.28233012070001
 20
-15.7394899766
 30
0.0
  0
VERTEX
  5
2E4B
  8
3
 10
47.76331009489996
 20
-15.33625522
 30
0.0
  0
VERTEX
  5
2E4C
  8
3
 10
47.3791449853
 20
-14.8606933989
 30
0.0
  0
VERTEX
  5
2E4D
  8
3
 10
47.15326141320003
 20
-14.3281463478
 30
0.0
  0
VERTEX
  5
2E4E
  8
3
 10
47.08738301650004
 20
-13.74285931109999
 30
0.0
  0
VERTEX
  5
2E4F
  8
3
 10
47.18408683119998
 20
-13.11487481649999
 30
0.0
  0
VERTEX
  5
2E50
  8
3
 10
47.43585058820003
 20
-12.4715371472
 30
0.0
  0
VERTEX
  5
2E51
  8
3
 10
47.83679465810002
 20
-11.8387764204
 30
0.0
  0
VERTEX
  5
2E52
  8
3
 10
48.37581108000001
 20
-11.2388921869
 30
0.0
  0
VERTEX
  5
2E53
  8
3
 10
49.04697525509999
 20
-10.6879663966
 30
0.0
  0
VERTEX
  5
2E54
  8
3
 10
49.82054386819999
 20
-10.21426816019999
 30
0.0
  0
VERTEX
  5
2E55
  8
3
 10
50.67423848269999
 20
-9.840801417600005
 30
0.0
  0
VERTEX
  5
2E56
  8
3
 10
51.60745722940004
 20
-9.576447029600004
 30
0.0
  0
VERTEX
  5
2E57
  8
3
 10
52.55557176580004
 20
-9.451661908299997
 30
0.0
  0
VERTEX
  5
2E58
  8
3
 10
53.51858209189999
 20
-9.468632262
 30
0.0
  0
VERTEX
  5
2E59
  8
3
 10
54.49648820760001
 20
-9.627064185699993
 30
0.0
  0
VERTEX
  5
2E5A
  8
3
 10
56.2415682276
 20
-10.2903900803
 30
0.0
  0
VERTEX
  5
2E5B
  8
3
 10
56.98381997129997
 20
-10.7774276435
 30
0.0
  0
VERTEX
  5
2E5C
  8
3
 10
57.63921287099998
 20
-11.3575026916
 30
0.0
  0
VERTEX
  5
2E5D
  8
3
 10
58.16927779510002
 20
-11.9820620971
 30
0.0
  0
VERTEX
  5
2E5E
  8
3
 10
58.54105063050002
 20
-12.6116906923
 30
0.0
  0
VERTEX
  5
2E5F
  8
3
 10
58.75453137720001
 20
-13.240821045
 30
0.0
  0
VERTEX
  5
2E60
  8
3
 10
58.80972003530002
 20
-13.8633220717
 30
0.0
  0
VERTEX
  5
2E61
  8
3
 10
58.70780982590003
 20
-14.442687107
 30
0.0
  0
VERTEX
  5
2E62
  8
3
 10
58.44921618430004
 20
-14.9679984819
 30
0.0
  0
VERTEX
  5
2E63
  8
3
 10
58.04257982780001
 20
-15.426877774
 30
0.0
  0
VERTEX
  5
2E64
  8
3
 10
57.49295664319999
 20
-15.81612077139999
 30
0.0
  0
SEQEND
  5
306C
  8
3
  0
LINE
  5
1205
  8
3
 10
68.74999999990001
 20
15.67543374210001
 30
0.0
 11
68.74999999990001
 21
-15.6754337421
 31
0.0
  0
ARC
  5
1206
  8
3
 10
53.56600414389999
 20
0.1069018123000092
 30
0.0
 40
4.935153857397861
 50
358.7588022707999
 51
36.75997532839989
  0
ARC
  5
1207
  8
3
 10
52.35359124430005
 20
-0.04052464130001
 30
0.0
 40
4.98769855545754
 50
149.6590779726001
 51
218.4484481627997
  0
ARC
  5
1208
  8
3
 10
53.94036735579999
 20
-0.1237729053999885
 30
0.0
 40
4.561312315104172
 50
330.5593956372996
 51
1.554933140500166
  0
LINE
  5
120F
  8
3
 10
68.74999999990001
 20
15.67543374210001
 30
0.0
 11
69.0
 21
15.6766577928
 31
0.0
  0
LINE
  5
1210
  8
3
 10
69.0
 20
-15.6766577929
 30
0.0
 11
68.74999999990001
 21
-15.6754337421
 31
0.0
  0
LINE
  5
1223
  8
3
 10
52.39999999989999
 20
22.44999999999999
 30
0.0
 11
52.39999999989999
 21
15.8164448963
 31
0.0
  0
LINE
  5
1224
  8
3
 10
68.59999999990004
 20
22.44999999999999
 30
0.0
 11
68.59999999990004
 21
15.8164448963
 31
0.0
  0
LINE
  5
1225
  8
3
 10
52.39999999989999
 20
-15.8164448964
 30
0.0
 11
52.39999999989999
 21
-22.45
 31
0.0
  0
LINE
  5
1226
  8
3
 10
68.59999999990004
 20
-15.8164448964
 30
0.0
 11
68.59999999990004
 21
-22.45
 31
0.0
  0
LINE
  5
1245
  8
3
 10
68.59999999990004
 20
-22.45
 30
0.0
 11
68.59999999990004
 21
-25.2
 31
0.0
  0
LINE
  5
1246
  8
3
 10
68.59999999990004
 20
25.19999999999999
 30
0.0
 11
68.59999999990004
 21
22.44999999999999
 31
0.0
  0
LINE
  5
1247
  8
3
 10
52.39999999989999
 20
-22.45
 30
0.0
 11
52.39999999989999
 21
-25.2
 31
0.0
  0
LINE
  5
1248
  8
3
 10
52.39999999989999
 20
25.19999999999999
 30
0.0
 11
52.39999999989999
 21
22.44999999999999
 31
0.0
  0
LINE
  5
124B
  8
3
 10
55.55078722709999
 20
16.5549610548
 30
0.0
 11
57.49285656670003
 21
15.81488699420001
 31
0.0
  0
ARC
  5
124C
  8
3
 10
52.95357167110001
 20
11.75841343069999
 30
0.0
 40
5.455950692356315
 50
61.56004255079976
 51
95.82336517609956
  0
ARC
  5
124D
  8
3
 10
52.95357404910004
 20
-11.758438652
 30
0.0
 40
5.455925842521253
 50
264.1765831071995
 51
298.4441889075996
  0
LINE
  5
124E
  8
3
 10
57.4927211502
 20
-15.8149970195
 30
0.0
 11
55.55115222789999
 21
-16.5550045921
 31
0.0
  0
POLYLINE
  5
124F
  8
3
 66
     1
 10
0.0
 20
0.0
 30
0.0
  0
VERTEX
  5
2E65
  8
3
 10
52.39999999989999
 20
16.81262468630001
 30
0.0
  0
VERTEX
  5
2E66
  8
3
 10
51.97587356130003
 20
16.7904541762
 30
0.0
  0
VERTEX
  5
2E67
  8
3
 10
51.54502569289997
 20
16.75315412060002
 30
0.0
  0
VERTEX
  5
2E68
  8
3
 10
51.1115726987
 20
16.69892706710002
 30
0.0
  0
VERTEX
  5
2E69
  8
3
 10
50.68021213169999
 20
16.62621235969999
 30
0.0
  0
VERTEX
  5
2E6A
  8
3
 10
50.12134446499999
 20
16.50112301819999
 30
0.0
  0
VERTEX
  5
2E6B
  8
3
 10
49.71198614489998
 20
16.375619277
 30
0.0
  0
VERTEX
  5
2E6C
  8
3
 10
49.2482342042
 20
16.18620589669999
 30
0.0
  0
VERTEX
  5
2E6D
  8
3
 10
48.80685305190002
 20
15.93727074310002
 30
0.0
  0
VERTEX
  5
2E6E
  8
3
 10
48.48743750800003
 20
15.68794569549999
 30
0.0
  0
VERTEX
  5
2E6F
  8
3
 10
48.26628004169999
 20
15.45434659930001
 30
0.0
  0
VERTEX
  5
2E70
  8
3
 10
47.97611008209998
 20
14.9589732517
 30
0.0
  0
VERTEX
  5
2E71
  8
3
 10
47.85704718070002
 20
14.43915025760001
 30
0.0
  0
VERTEX
  5
2E72
  8
3
 10
47.87869607120001
 20
13.91024937329999
 30
0.0
  0
VERTEX
  5
2E73
  8
3
 10
48.04389500889999
 20
13.31553561550001
 30
0.0
  0
VERTEX
  5
2E74
  8
3
 10
48.3776855767
 20
12.67473509570002
 30
0.0
  0
VERTEX
  5
2E75
  8
3
 10
48.89924106990003
 20
12.01392015970001
 30
0.0
  0
VERTEX
  5
2E76
  8
3
 10
50.20877666020004
 20
10.99423155299999
 30
0.0
  0
VERTEX
  5
2E77
  8
3
 10
51.00549771289997
 20
10.62020429329999
 30
0.0
  0
VERTEX
  5
2E78
  8
3
 10
51.8628526457
 20
10.37485244659999
 30
0.0
  0
VERTEX
  5
2E79
  8
3
 10
52.70116010290002
 20
10.27326232600001
 30
0.0
  0
VERTEX
  5
2E7A
  8
3
 10
53.58388850080001
 20
10.3067792793
 30
0.0
  0
VERTEX
  5
2E7B
  8
3
 10
53.94352604860001
 20
10.36076797839999
 30
0.0
  0
VERTEX
  5
2E7C
  8
3
 10
54.303934443
 20
10.43893928360001
 30
0.0
  0
VERTEX
  5
2E7D
  8
3
 10
54.66290887930001
 20
10.5418278992
 30
0.0
  0
VERTEX
  5
2E7E
  8
3
 10
55.0180903072
 20
10.66985772780001
 30
0.0
  0
VERTEX
  5
2E7F
  8
3
 10
55.36697586270003
 20
10.82332758960001
 30
0.0
  0
VERTEX
  5
2E80
  8
3
 10
55.54792087319998
 20
10.9157831455
 30
0.0
  0
VERTEX
  5
2E81
  8
3
 10
55.85689580640002
 20
11.09280043379999
 30
0.0
  0
VERTEX
  5
2E82
  8
3
 10
56.27329776380003
 20
11.37211598100001
 30
0.0
  0
VERTEX
  5
2E83
  8
3
 10
56.76201882039999
 20
11.77622260699999
 30
0.0
  0
VERTEX
  5
2E84
  8
3
 10
57.1807149942
 20
12.21523202930001
 30
0.0
  0
VERTEX
  5
2E85
  8
3
 10
57.48444362700002
 20
12.618618215
 30
0.0
  0
VERTEX
  5
2E86
  8
3
 10
57.69499048900002
 20
12.97180725730001
 30
0.0
  0
VERTEX
  5
2E87
  8
3
 10
57.94801514889997
 20
13.58673238200001
 30
0.0
  0
VERTEX
  5
2E88
  8
3
 10
58.04853945409997
 20
14.1856023286
 30
0.0
  0
VERTEX
  5
2E89
  8
3
 10
58.02727918290003
 20
14.56730991699999
 30
0.0
  0
VERTEX
  5
2E8A
  8
3
 10
57.93430726809999
 20
14.9286555086
 30
0.0
  0
VERTEX
  5
2E8B
  8
3
 10
57.76983561740002
 20
15.2640826084
 30
0.0
  0
VERTEX
  5
2E8C
  8
3
 10
57.66258211070004
 20
15.41821757770001
 30
0.0
  0
VERTEX
  5
2E8D
  8
3
 10
57.5263962285
 20
15.5770642283
 30
0.0
  0
VERTEX
  5
2E8E
  8
3
 10
57.35686979339999
 20
15.7383512767
 30
0.0
  0
VERTEX
  5
2E8F
  8
3
 10
57.14961661060005
 20
15.89926059609999
 30
0.0
  0
VERTEX
  5
2E90
  8
3
 10
56.90043283430003
 20
16.05636981469999
 30
0.0
  0
VERTEX
  5
2E91
  8
3
 10
56.40869318289998
 20
16.29229216749999
 30
0.0
  0
VERTEX
  5
2E92
  8
3
 10
55.99526452419997
 20
16.4383237934
 30
0.0
  0
VERTEX
  5
2E93
  8
3
 10
55.70181042600001
 20
16.51972911460001
 30
0.0
  0
VERTEX
  5
2E94
  8
3
 10
55.60797935889997
 20
16.54250506389999
 30
0.0
  0
VERTEX
  5
2E95
  8
3
 10
55.55183394459999
 20
16.55562905159999
 30
0.0
  0
SEQEND
  5
306B
  8
3
  0
POLYLINE
  5
1250
  8
3
 66
     1
 10
0.0
 20
0.0
 30
0.0
  0
VERTEX
  5
2E96
  8
3
 10
55.55219136609998
 20
-16.5554960426
 30
0.0
  0
VERTEX
  5
2E97
  8
3
 10
55.60805030400002
 20
-16.5424407392
 30
0.0
  0
VERTEX
  5
2E98
  8
3
 10
55.99502630860002
 20
-16.43835005859999
 30
0.0
  0
VERTEX
  5
2E99
  8
3
 10
56.25955795880003
 20
-16.34962220839999
 30
0.0
  0
VERTEX
  5
2E9A
  8
3
 10
56.56670134389998
 20
-16.2248645486
 30
0.0
  0
VERTEX
  5
2E9B
  8
3
 10
56.90083538570002
 20
-16.0560555993
 30
0.0
  0
VERTEX
  5
2E9C
  8
3
 10
57.2926878097
 20
-15.79167300829999
 30
0.0
  0
VERTEX
  5
2E9D
  8
3
 10
57.57590441860003
 20
-15.522872091
 30
0.0
  0
VERTEX
  5
2E9E
  8
3
 10
57.7705727988
 20
-15.26275086769999
 30
0.0
  0
VERTEX
  5
2E9F
  8
3
 10
57.9901322801
 20
-14.7492965799
 30
0.0
  0
VERTEX
  5
2EA0
  8
3
 10
58.04847287160004
 20
-14.1836369387
 30
0.0
  0
VERTEX
  5
2EA1
  8
3
 10
57.99845573350001
 20
-13.7866842995
 30
0.0
  0
VERTEX
  5
2EA2
  8
3
 10
57.8792161902
 20
-13.3800382325
 30
0.0
  0
VERTEX
  5
2EA3
  8
3
 10
57.69343022699996
 20
-12.9687288649
 30
0.0
  0
VERTEX
  5
2EA4
  8
3
 10
57.54324016660001
 20
-12.7092518414
 30
0.0
  0
VERTEX
  5
2EA5
  8
3
 10
57.34365704010003
 20
-12.4197282522
 30
0.0
  0
VERTEX
  5
2EA6
  8
3
 10
57.08536252120001
 20
-12.1055282846
 30
0.0
  0
VERTEX
  5
2EA7
  8
3
 10
56.75926018800004
 20
-11.7736303252
 30
0.0
  0
VERTEX
  5
2EA8
  8
3
 10
56.26895930320001
 20
-11.36892202919999
 30
0.0
  0
VERTEX
  5
2EA9
  8
3
 10
55.85161015360001
 20
-11.0895469295
 30
0.0
  0
VERTEX
  5
2EAA
  8
3
 10
55.54250548739998
 20
-10.91283030210001
 30
0.0
  0
VERTEX
  5
2EAB
  8
3
 10
55.46743220690001
 20
-10.8734626629
 30
0.0
  0
VERTEX
  5
2EAC
  8
3
 10
55.40724518619999
 20
-10.8429621108
 30
0.0
  0
VERTEX
  5
2EAD
  8
3
 10
55.36230862050002
 20
-10.8209278855
 30
0.0
  0
VERTEX
  5
2EAE
  8
3
 10
54.50083310719998
 20
-10.4916250421
 30
0.0
  0
VERTEX
  5
2EAF
  8
3
 10
53.62677392000001
 20
-10.3110508363
 30
0.0
  0
VERTEX
  5
2EB0
  8
3
 10
52.75501394309998
 20
-10.2705581764
 30
0.0
  0
VERTEX
  5
2EB1
  8
3
 10
51.86237675450002
 20
-10.3748773088
 30
0.0
  0
VERTEX
  5
2EB2
  8
3
 10
51.06741384590003
 20
-10.60010720779999
 30
0.0
  0
VERTEX
  5
2EB3
  8
3
 10
50.20887030220001
 20
-10.9943709356
 30
0.0
  0
VERTEX
  5
2EB4
  8
3
 10
49.5005723141
 20
-11.4637390819
 30
0.0
  0
VERTEX
  5
2EB5
  8
3
 10
48.89808342750001
 20
-12.0150919127
 30
0.0
  0
VERTEX
  5
2EB6
  8
3
 10
48.39792718849998
 20
-12.6493706358
 30
0.0
  0
VERTEX
  5
2EB7
  8
3
 10
48.0606939868
 20
-13.2790902779
 30
0.0
  0
VERTEX
  5
2EB8
  8
3
 10
47.88343130610002
 20
-13.88319968649999
 30
0.0
  0
VERTEX
  5
2EB9
  8
3
 10
47.857391984
 20
-14.4430003815
 30
0.0
  0
VERTEX
  5
2EBA
  8
3
 10
47.91974401819999
 20
-14.7901930985
 30
0.0
  0
VERTEX
  5
2EBB
  8
3
 10
48.05345243490001
 20
-15.1300130377
 30
0.0
  0
VERTEX
  5
2EBC
  8
3
 10
48.26735501399997
 20
-15.45564788359999
 30
0.0
  0
VERTEX
  5
2EBD
  8
3
 10
48.42446283430002
 20
-15.6281388045
 30
0.0
  0
VERTEX
  5
2EBE
  8
3
 10
48.63341195520002
 20
-15.8115122535
 30
0.0
  0
VERTEX
  5
2EBF
  8
3
 10
48.90429543700003
 20
-15.99988428179999
 30
0.0
  0
VERTEX
  5
2EC0
  8
3
 10
49.24704298850003
 20
-16.1855401521
 30
0.0
  0
VERTEX
  5
2EC1
  8
3
 10
50.11842553610001
 20
-16.500249368
 30
0.0
  0
VERTEX
  5
2EC2
  8
3
 10
50.34760250009998
 20
-16.5570777267
 30
0.0
  0
VERTEX
  5
2EC3
  8
3
 10
50.53558725340002
 20
-16.5977025545
 30
0.0
  0
VERTEX
  5
2EC4
  8
3
 10
50.67857943309997
 20
-16.6258922011
 30
0.0
  0
VERTEX
  5
2EC5
  8
3
 10
51.54403565989998
 20
-16.7531214325
 30
0.0
  0
VERTEX
  5
2EC6
  8
3
 10
52.39999999989999
 20
-16.81273890599999
 30
0.0
  0
SEQEND
  5
306A
  8
3
  0
POLYLINE
  5
1251
  8
3
 66
     1
 10
0.0
 20
0.0
 30
0.0
  0
VERTEX
  5
2EC7
  8
3
 10
52.94999999999999
 20
24.99557677179999
 30
0.0
  0
VERTEX
  5
2EC8
  8
3
 10
52.01287745910003
 20
24.939758901
 30
0.0
  0
VERTEX
  5
2EC9
  8
3
 10
51.10766750240003
 20
24.77420609910001
 30
0.0
  0
VERTEX
  5
2ECA
  8
3
 10
50.26519596930001
 20
24.50455606840001
 30
0.0
  0
VERTEX
  5
2ECB
  8
3
 10
49.51415221740001
 20
24.13999141709999
 30
0.0
  0
VERTEX
  5
2ECC
  8
3
 10
48.88011214080001
 20
23.69292695729999
 30
0.0
  0
VERTEX
  5
2ECD
  8
3
 10
48.38466721410003
 20
23.1785869329
 30
0.0
  0
VERTEX
  5
2ECE
  8
3
 10
48.04468921979998
 20
22.6144865766
 30
0.0
  0
VERTEX
  5
2ECF
  8
3
 10
47.8717557009
 20
22.01983564939999
 30
0.0
  0
VERTEX
  5
2ED0
  8
3
 10
47.8717557009
 20
21.4148842754
 30
0.0
  0
VERTEX
  5
2ED1
  8
3
 10
48.04468921979998
 20
20.82023334819999
 30
0.0
  0
VERTEX
  5
2ED2
  8
3
 10
48.38466721410003
 20
20.25613299189999
 30
0.0
  0
VERTEX
  5
2ED3
  8
3
 10
48.88011214080001
 20
19.7417929675
 30
0.0
  0
VERTEX
  5
2ED4
  8
3
 10
49.51415221740001
 20
19.2947285077
 30
0.0
  0
VERTEX
  5
2ED5
  8
3
 10
50.26519596930001
 20
18.93016385640001
 30
0.0
  0
VERTEX
  5
2ED6
  8
3
 10
51.10766750240003
 20
18.66051382570001
 30
0.0
  0
VERTEX
  5
2ED7
  8
3
 10
52.01287745910003
 20
18.49496102379999
 30
0.0
  0
VERTEX
  5
2ED8
  8
3
 10
52.94999999999999
 20
18.439143153
 30
0.0
  0
VERTEX
  5
2ED9
  8
3
 10
53.88712254080002
 20
18.49496102379999
 30
0.0
  0
VERTEX
  5
2EDA
  8
3
 10
54.79233249750001
 20
18.66051382570001
 30
0.0
  0
VERTEX
  5
2EDB
  8
3
 10
55.63480403060004
 20
18.93016385640001
 30
0.0
  0
VERTEX
  5
2EDC
  8
3
 10
56.38584778260002
 20
19.2947285077
 30
0.0
  0
VERTEX
  5
2EDD
  8
3
 10
57.01988785910004
 20
19.7417929675
 30
0.0
  0
VERTEX
  5
2EDE
  8
3
 10
57.5153327859
 20
20.25613299189999
 30
0.0
  0
VERTEX
  5
2EDF
  8
3
 10
57.85531078010001
 20
20.82023334819999
 30
0.0
  0
VERTEX
  5
2EE0
  8
3
 10
58.02824429909998
 20
21.4148842754
 30
0.0
  0
VERTEX
  5
2EE1
  8
3
 10
58.02824429909998
 20
22.01983564939999
 30
0.0
  0
VERTEX
  5
2EE2
  8
3
 10
57.85531078010001
 20
22.6144865766
 30
0.0
  0
VERTEX
  5
2EE3
  8
3
 10
57.5153327859
 20
23.1785869329
 30
0.0
  0
VERTEX
  5
2EE4
  8
3
 10
57.01988785910004
 20
23.69292695729999
 30
0.0
  0
VERTEX
  5
2EE5
  8
3
 10
56.38584778260002
 20
24.13999141709999
 30
0.0
  0
VERTEX
  5
2EE6
  8
3
 10
55.63480403060004
 20
24.50455606840001
 30
0.0
  0
VERTEX
  5
2EE7
  8
3
 10
54.79233249750001
 20
24.77420609910001
 30
0.0
  0
VERTEX
  5
2EE8
  8
3
 10
53.88712254080002
 20
24.939758901
 30
0.0
  0
VERTEX
  5
2EE9
  8
3
 10
52.94999999999999
 20
24.99557677179999
 30
0.0
  0
SEQEND
  5
3069
  8
3
  0
POLYLINE
  5
1252
  8
3
 66
     1
 10
0.0
 20
0.0
 30
0.0
  0
VERTEX
  5
2EEA
  8
3
 10
52.94999999999999
 20
-18.439143153
 30
0.0
  0
VERTEX
  5
2EEB
  8
3
 10
52.01287745910003
 20
-18.4949610239
 30
0.0
  0
VERTEX
  5
2EEC
  8
3
 10
51.10766750240003
 20
-18.66051382569999
 30
0.0
  0
VERTEX
  5
2EED
  8
3
 10
50.26519596930001
 20
-18.9301638565
 30
0.0
  0
VERTEX
  5
2EEE
  8
3
 10
49.51415221740001
 20
-19.2947285077
 30
0.0
  0
VERTEX
  5
2EEF
  8
3
 10
48.88011214080001
 20
-19.7417929675
 30
0.0
  0
VERTEX
  5
2EF0
  8
3
 10
48.38466721410003
 20
-20.2561329919
 30
0.0
  0
VERTEX
  5
2EF1
  8
3
 10
48.04468921979998
 20
-20.82023334829999
 30
0.0
  0
VERTEX
  5
2EF2
  8
3
 10
47.8717557009
 20
-21.4148842755
 30
0.0
  0
VERTEX
  5
2EF3
  8
3
 10
47.8717557009
 20
-22.01983564939999
 30
0.0
  0
VERTEX
  5
2EF4
  8
3
 10
48.04468921979998
 20
-22.6144865766
 30
0.0
  0
VERTEX
  5
2EF5
  8
3
 10
48.38466721410003
 20
-23.17858693299999
 30
0.0
  0
VERTEX
  5
2EF6
  8
3
 10
48.88011214080001
 20
-23.6929269574
 30
0.0
  0
VERTEX
  5
2EF7
  8
3
 10
49.51415221740001
 20
-24.13999141719999
 30
0.0
  0
VERTEX
  5
2EF8
  8
3
 10
50.26519596930001
 20
-24.50455606839999
 30
0.0
  0
VERTEX
  5
2EF9
  8
3
 10
51.10766750240003
 20
-24.7742060992
 30
0.0
  0
VERTEX
  5
2EFA
  8
3
 10
52.01287745910003
 20
-24.939758901
 30
0.0
  0
VERTEX
  5
2EFB
  8
3
 10
52.94999999999999
 20
-24.99557677190001
 30
0.0
  0
VERTEX
  5
2EFC
  8
3
 10
53.88712254080002
 20
-24.939758901
 30
0.0
  0
VERTEX
  5
2EFD
  8
3
 10
54.79233249750001
 20
-24.7742060992
 30
0.0
  0
VERTEX
  5
2EFE
  8
3
 10
55.63480403060004
 20
-24.50455606839999
 30
0.0
  0
VERTEX
  5
2EFF
  8
3
 10
56.38584778260002
 20
-24.13999141719999
 30
0.0
  0
VERTEX
  5
2F00
  8
3
 10
57.01988785910004
 20
-23.6929269574
 30
0.0
  0
VERTEX
  5
2F01
  8
3
 10
57.5153327859
 20
-23.17858693299999
 30
0.0
  0
VERTEX
  5
2F02
  8
3
 10
57.85531078010001
 20
-22.6144865766
 30
0.0
  0
VERTEX
  5
2F03
  8
3
 10
58.02824429909998
 20
-22.01983564939999
 30
0.0
  0
VERTEX
  5
2F04
  8
3
 10
58.02824429909998
 20
-21.4148842755
 30
0.0
  0
VERTEX
  5
2F05
  8
3
 10
57.85531078010001
 20
-20.82023334829999
 30
0.0
  0
VERTEX
  5
2F06
  8
3
 10
57.5153327859
 20
-20.2561329919
 30
0.0
  0
VERTEX
  5
2F07
  8
3
 10
57.01988785910004
 20
-19.7417929675
 30
0.0
  0
VERTEX
  5
2F08
  8
3
 10
56.38584778260002
 20
-19.2947285077
 30
0.0
  0
VERTEX
  5
2F09
  8
3
 10
55.63480403060004
 20
-18.9301638565
 30
0.0
  0
VERTEX
  5
2F0A
  8
3
 10
54.79233249750001
 20
-18.66051382569999
 30
0.0
  0
VERTEX
  5
2F0B
  8
3
 10
53.88712254080002
 20
-18.4949610239
 30
0.0
  0
VERTEX
  5
2F0C
  8
3
 10
52.94999999999999
 20
-18.439143153
 30
0.0
  0
SEQEND
  5
3068
  8
3
  0
POLYLINE
  5
125A
  8
3
 66
     1
 10
0.0
 20
0.0
 30
0.0
  0
VERTEX
  5
2F0D
  8
3
 10
52.94999999999999
 20
-18.63635408649999
 30
0.0
  0
VERTEX
  5
2F0E
  8
3
 10
53.99811091570001
 20
-18.68937642669999
 30
0.0
  0
VERTEX
  5
2F0F
  8
3
 10
55.02041386230002
 20
-18.8471378614
 30
0.0
  0
VERTEX
  5
2F10
  8
3
 10
55.99173634819999
 20
-19.10575378029999
 30
0.0
  0
VERTEX
  5
2F11
  8
3
 10
56.88816119029997
 20
-19.4588562014
 30
0.0
  0
VERTEX
  5
2F12
  8
3
 10
57.68761543390002
 20
-19.897750571
 30
0.0
  0
VERTEX
  5
2F13
  8
3
 10
58.37041386230004
 20
-20.4116298533
 30
0.0
  0
VERTEX
  5
2F14
  8
3
 10
58.91974371200001
 20
-20.9878406349
 30
0.0
  0
VERTEX
  5
2F15
  8
3
 10
59.32207865909999
 20
-21.61219469379999
 30
0.0
  0
VERTEX
  5
2F16
  8
3
 10
59.56751188189997
 20
-22.26931836119999
 30
0.0
  0
VERTEX
  5
2F17
  8
3
 10
59.65000000000003
 20
-22.9430310714
 30
0.0
  0
VERTEX
  5
2F18
  8
3
 10
59.56751188189997
 20
-23.61674378169999
 30
0.0
  0
VERTEX
  5
2F19
  8
3
 10
59.32207865909999
 20
-24.2738674491
 30
0.0
  0
VERTEX
  5
2F1A
  8
3
 10
58.91974371200001
 20
-24.89822150799999
 30
0.0
  0
VERTEX
  5
2F1B
  8
3
 10
58.37041386230004
 20
-25.4744322896
 30
0.0
  0
VERTEX
  5
2F1C
  8
3
 10
57.68761543390002
 20
-25.9883115718
 30
0.0
  0
VERTEX
  5
2F1D
  8
3
 10
56.88816119029997
 20
-26.42720594149999
 30
0.0
  0
VERTEX
  5
2F1E
  8
3
 10
55.99173634819999
 20
-26.7803083626
 30
0.0
  0
VERTEX
  5
2F1F
  8
3
 10
55.02041386230002
 20
-27.0389242815
 30
0.0
  0
VERTEX
  5
2F20
  8
3
 10
53.99811091570001
 20
-27.19668571609999
 30
0.0
  0
VERTEX
  5
2F21
  8
3
 10
52.94999999999999
 20
-27.24970805629999
 30
0.0
  0
VERTEX
  5
2F22
  8
3
 10
51.90188908420004
 20
-27.19668571609999
 30
0.0
  0
VERTEX
  5
2F23
  8
3
 10
50.87958613760003
 20
-27.0389242815
 30
0.0
  0
VERTEX
  5
2F24
  8
3
 10
49.9082636517
 20
-26.7803083626
 30
0.0
  0
VERTEX
  5
2F25
  8
3
 10
49.01183880959996
 20
-26.42720594149999
 30
0.0
  0
VERTEX
  5
2F26
  8
3
 10
48.21238456600003
 20
-25.9883115718
 30
0.0
  0
VERTEX
  5
2F27
  8
3
 10
47.52958613760001
 20
-25.4744322896
 30
0.0
  0
VERTEX
  5
2F28
  8
3
 10
46.98025628789998
 20
-24.89822150799999
 30
0.0
  0
VERTEX
  5
2F29
  8
3
 10
46.5779213408
 20
-24.2738674491
 30
0.0
  0
VERTEX
  5
2F2A
  8
3
 10
46.33248811800001
 20
-23.61674378169999
 30
0.0
  0
VERTEX
  5
2F2B
  8
3
 10
46.25
 20
-22.9430310714
 30
0.0
  0
VERTEX
  5
2F2C
  8
3
 10
46.33248811800001
 20
-22.26931836119999
 30
0.0
  0
VERTEX
  5
2F2D
  8
3
 10
46.5779213408
 20
-21.61219469379999
 30
0.0
  0
VERTEX
  5
2F2E
  8
3
 10
46.98025628789998
 20
-20.9878406349
 30
0.0
  0
VERTEX
  5
2F2F
  8
3
 10
47.52958613760001
 20
-20.4116298533
 30
0.0
  0
VERTEX
  5
2F30
  8
3
 10
48.21238456600003
 20
-19.897750571
 30
0.0
  0
VERTEX
  5
2F31
  8
3
 10
49.01183880959996
 20
-19.4588562014
 30
0.0
  0
VERTEX
  5
2F32
  8
3
 10
49.9082636517
 20
-19.10575378029999
 30
0.0
  0
VERTEX
  5
2F33
  8
3
 10
50.87958613760003
 20
-18.8471378614
 30
0.0
  0
VERTEX
  5
2F34
  8
3
 10
51.90188908420004
 20
-18.68937642669999
 30
0.0
  0
VERTEX
  5
2F35
  8
3
 10
52.94999999999999
 20
-18.63635408649999
 30
0.0
  0
SEQEND
  5
3067
  8
3
  0
POLYLINE
  5
125B
  8
3
 66
     1
 10
0.0
 20
0.0
 30
0.0
  0
VERTEX
  5
2F36
  8
3
 10
52.94999999999999
 20
27.24970805629999
 30
0.0
  0
VERTEX
  5
2F37
  8
3
 10
53.99811091570001
 20
27.19668571610001
 30
0.0
  0
VERTEX
  5
2F38
  8
3
 10
55.02041386230002
 20
27.03892428150002
 30
0.0
  0
VERTEX
  5
2F39
  8
3
 10
55.99173634819999
 20
26.78030836249999
 30
0.0
  0
VERTEX
  5
2F3A
  8
3
 10
56.88816119029997
 20
26.42720594150001
 30
0.0
  0
VERTEX
  5
2F3B
  8
3
 10
57.68761543390002
 20
25.98831157180001
 30
0.0
  0
VERTEX
  5
2F3C
  8
3
 10
58.37041386230004
 20
25.47443228950002
 30
0.0
  0
VERTEX
  5
2F3D
  8
3
 10
58.91974371200001
 20
24.89822150800001
 30
0.0
  0
VERTEX
  5
2F3E
  8
3
 10
59.32207865909999
 20
24.27386744899999
 30
0.0
  0
VERTEX
  5
2F3F
  8
3
 10
59.56751188189997
 20
23.61674378160001
 30
0.0
  0
VERTEX
  5
2F40
  8
3
 10
59.65000000000003
 20
22.94303107140001
 30
0.0
  0
VERTEX
  5
2F41
  8
3
 10
59.56751188189997
 20
22.26931836119999
 30
0.0
  0
VERTEX
  5
2F42
  8
3
 10
59.32207865909999
 20
21.61219469380001
 30
0.0
  0
VERTEX
  5
2F43
  8
3
 10
58.91974371200001
 20
20.98784063479999
 30
0.0
  0
VERTEX
  5
2F44
  8
3
 10
58.37041386230004
 20
20.41162985330001
 30
0.0
  0
VERTEX
  5
2F45
  8
3
 10
57.68761543390002
 20
19.89775057099999
 30
0.0
  0
VERTEX
  5
2F46
  8
3
 10
56.88816119029997
 20
19.45885620129999
 30
0.0
  0
VERTEX
  5
2F47
  8
3
 10
55.99173634819999
 20
19.10575378030001
 30
0.0
  0
VERTEX
  5
2F48
  8
3
 10
55.02041386230002
 20
18.84713786130001
 30
0.0
  0
VERTEX
  5
2F49
  8
3
 10
53.99811091570001
 20
18.68937642669999
 30
0.0
  0
VERTEX
  5
2F4A
  8
3
 10
52.94999999999999
 20
18.63635408650001
 30
0.0
  0
VERTEX
  5
2F4B
  8
3
 10
51.90188908420004
 20
18.68937642669999
 30
0.0
  0
VERTEX
  5
2F4C
  8
3
 10
50.87958613760003
 20
18.84713786130001
 30
0.0
  0
VERTEX
  5
2F4D
  8
3
 10
49.9082636517
 20
19.10575378030001
 30
0.0
  0
VERTEX
  5
2F4E
  8
3
 10
49.01183880959996
 20
19.45885620129999
 30
0.0
  0
VERTEX
  5
2F4F
  8
3
 10
48.21238456600003
 20
19.89775057099999
 30
0.0
  0
VERTEX
  5
2F50
  8
3
 10
47.52958613760001
 20
20.41162985330001
 30
0.0
  0
VERTEX
  5
2F51
  8
3
 10
46.98025628789998
 20
20.98784063479999
 30
0.0
  0
VERTEX
  5
2F52
  8
3
 10
46.5779213408
 20
21.61219469380001
 30
0.0
  0
VERTEX
  5
2F53
  8
3
 10
46.33248811800001
 20
22.26931836119999
 30
0.0
  0
VERTEX
  5
2F54
  8
3
 10
46.25
 20
22.94303107140001
 30
0.0
  0
VERTEX
  5
2F55
  8
3
 10
46.33248811800001
 20
23.61674378160001
 30
0.0
  0
VERTEX
  5
2F56
  8
3
 10
46.5779213408
 20
24.27386744899999
 30
0.0
  0
VERTEX
  5
2F57
  8
3
 10
46.98025628789998
 20
24.89822150800001
 30
0.0
  0
VERTEX
  5
2F58
  8
3
 10
47.52958613760001
 20
25.47443228950002
 30
0.0
  0
VERTEX
  5
2F59
  8
3
 10
48.21238456600003
 20
25.98831157180001
 30
0.0
  0
VERTEX
  5
2F5A
  8
3
 10
49.01183880959996
 20
26.42720594150001
 30
0.0
  0
VERTEX
  5
2F5B
  8
3
 10
49.9082636517
 20
26.78030836249999
 30
0.0
  0
VERTEX
  5
2F5C
  8
3
 10
50.87958613760003
 20
27.03892428150002
 30
0.0
  0
VERTEX
  5
2F5D
  8
3
 10
51.90188908420004
 20
27.19668571610001
 30
0.0
  0
VERTEX
  5
2F5E
  8
3
 10
52.94999999999999
 20
27.24970805629999
 30
0.0
  0
SEQEND
  5
3066
  8
3
  0
LINE
  5
125C
  8
3
 10
56.21386659080002
 20
-13.42528956059999
 30
0.0
 11
55.8874799317
 21
-13.2892806024
 31
0.0
  0
LINE
  5
125D
  8
3
 10
50.01252006819999
 20
-13.2892806024
 30
0.0
 11
49.68613340920001
 21
-13.42528956059999
 31
0.0
  0
LINE
  5
125E
  8
3
 10
58.94999999999999
 20
-20.0320621876
 30
0.0
 11
58.94999999999999
 21
-16.66146663789999
 31
0.0
  0
LINE
  5
125F
  8
3
 10
46.94999999999999
 20
-16.66146663789999
 30
0.0
 11
46.94999999999999
 21
-20.0320621876
 31
0.0
  0
LINE
  5
1260
  8
3
 10
49.68613340920001
 20
-23.2682392649
 30
0.0
 11
50.02571918209998
 21
-23.4097484409
 31
0.0
  0
LINE
  5
1261
  8
3
 10
55.87428081780001
 20
-23.4097484409
 30
0.0
 11
56.21386659080002
 21
-23.2682392649
 31
0.0
  0
ARC
  5
1262
  8
3
 10
49.67547297280004
 20
-20.8504985081
 30
0.0
 40
1.917078536330864
 50
177.5637538621001
 51
219.1675608496
  0
ARC
  5
1263
  8
3
 10
56.43559898489997
 20
-20.92180441879999
 30
0.0
 40
1.706921104376179
 50
317.1465507799003
 51
2.467916177199766
  0
LINE
  5
1264
  8
3
 10
56.48585547329998
 20
-19.5903814597
 30
0.0
 11
55.87428081780001
 21
-19.33553148519999
 31
0.0
  0
LINE
  5
1265
  8
3
 10
50.02571918209998
 20
-19.33553148519999
 30
0.0
 11
49.41414452660001
 21
-19.5903814597
 31
0.0
  0
LINE
  5
1266
  8
3
 10
58.15000000000003
 20
-21.9099985854
 30
0.0
 11
58.15000000000003
 21
-20.83528134069999
 31
0.0
  0
LINE
  5
1267
  8
3
 10
47.75
 20
-20.83528134069999
 30
0.0
 11
47.75
 21
-21.9099985854
 31
0.0
  0
LINE
  5
1268
  8
3
 10
59.44999999999999
 20
-23.7760042746
 30
0.0
 11
59.44999999999999
 21
-23.09623996009999
 31
0.0
  0
LINE
  5
1269
  8
3
 10
46.44999999999999
 20
-23.09623996009999
 30
0.0
 11
46.44999999999999
 21
-23.7760042746
 31
0.0
  0
ARC
  5
126A
  8
3
 10
49.46007434569998
 20
-21.813839493
 30
0.0
 40
1.700209816436275
 50
137.6255598453998
 51
181.0071756189998
  0
ARC
  5
126B
  8
3
 10
55.01301851400001
 20
-22.33566415359999
 30
0.0
 40
3.155019368915223
 50
7.515198801599895
 51
78.51453672760037
  0
LINE
  5
126C
  8
3
 10
49.68613340920001
 20
13.4252895605
 30
0.0
 11
50.01252006819999
 21
13.2892806024
 31
0.0
  0
LINE
  5
126D
  8
3
 10
55.8874799317
 20
13.2892806024
 30
0.0
 11
56.21386659080002
 21
13.4252895605
 31
0.0
  0
LINE
  5
126E
  8
3
 10
46.94999999999999
 20
20.0320621875
 30
0.0
 11
46.94999999999999
 21
16.6614666378
 31
0.0
  0
LINE
  5
126F
  8
3
 10
58.94999999999999
 20
16.6614666378
 30
0.0
 11
58.94999999999999
 21
20.0320621875
 31
0.0
  0
LINE
  5
1270
  8
3
 10
56.21386659080002
 20
23.2682392648
 30
0.0
 11
55.87428081780001
 21
23.4097484408
 31
0.0
  0
LINE
  5
1271
  8
3
 10
50.02571918209998
 20
23.4097484408
 30
0.0
 11
49.68613340920001
 21
23.2682392648
 31
0.0
  0
ARC
  5
1272
  8
3
 10
56.38671164350001
 20
20.91525980029999
 30
0.0
 40
1.750440078341434
 50
355.5195566086996
 51
41.03481395189988
  0
ARC
  5
1273
  8
3
 10
49.77461673470003
 20
20.80688351410001
 30
0.0
 40
2.024815882736537
 50
141.8118594093005
 51
179.1964064638003
  0
LINE
  5
1274
  8
3
 10
47.75
 20
21.9099985853
 30
0.0
 11
47.75
 21
20.83528134069999
 31
0.0
  0
LINE
  5
1275
  8
3
 10
58.15000000000003
 20
20.83528134069999
 30
0.0
 11
58.15000000000003
 21
21.9099985853
 31
0.0
  0
LINE
  5
1276
  8
3
 10
49.41414452660001
 20
19.5903814596
 30
0.0
 11
50.02571918209998
 21
19.33553148519999
 31
0.0
  0
LINE
  5
1277
  8
3
 10
55.87428081780001
 20
19.33553148519999
 30
0.0
 11
56.48585547329998
 21
19.5903814596
 31
0.0
  0
ARC
  5
1278
  8
3
 10
49.65665996140001
 20
21.90756290920001
 30
0.0
 40
1.90666151719876
 50
179.9268071441003
 51
220.2594519159998
  0
ARC
  5
1279
  8
3
 10
56.37091953430001
 20
21.82601962730001
 30
0.0
 40
1.761093237783601
 50
319.0995944517001
 51
0.885457417299877
  0
LINE
  5
127A
  8
3
 10
46.44999999999999
 20
23.7760042745
 30
0.0
 11
46.44999999999999
 21
23.09623995999999
 31
0.0
  0
LINE
  5
127B
  8
3
 10
59.44999999999999
 20
23.09623995999999
 30
0.0
 11
59.44999999999999
 21
23.7760042745
 31
0.0
  0
LINE
  5
127F
  8
3
 10
26.99999999990001
 20
-18.25
 30
0.0
 11
31.99999999990001
 21
-18.25
 31
0.0
  0
LINE
  5
1280
  8
3
 10
31.99999999990001
 20
18.25
 30
0.0
 11
26.99999999990001
 21
18.25
 31
0.0
  0
LINE
  5
1281
  8
3
 10
26.99999999990001
 20
18.25
 30
0.0
 11
19.92745920229999
 21
6.0
 31
0.0
  0
LINE
  5
1282
  8
3
 10
19.92745920229999
 20
-6.0
 30
0.0
 11
26.99999999990001
 21
-18.25
 31
0.0
  0
LINE
  5
1283
  8
3
 10
52.39999999989999
 20
18.0
 30
0.0
 11
31.99999999990001
 21
18.0
 31
0.0
  0
LINE
  5
1284
  8
3
 10
31.99999999990001
 20
-18.0
 30
0.0
 11
52.39999999989999
 21
-18.0
 31
0.0
  0
LINE
  5
128F
  8
3
 10
19.92745920229999
 20
6.0
 30
0.0
 11
0.0
 21
6.0
 31
0.0
  0
LINE
  5
1290
  8
3
 10
0.0
 20
-6.0
 30
0.0
 11
19.92745920229999
 21
-6.0
 31
0.0
  0
LINE
  5
1291
  8
3
 10
68.59999999990004
 20
-25.2
 30
0.0
 11
69.0
 21
-25.6000000001
 31
0.0
  0
LINE
  5
1292
  8
3
 10
69.0
 20
25.59999999999999
 30
0.0
 11
68.59999999990004
 21
25.19999999999999
 31
0.0
  0
LINE
  5
1293
  8
3
 10
52.39999999989999
 20
-25.2
 30
0.0
 11
68.59999999990004
 21
-25.2
 31
0.0
  0
LINE
  5
1294
  8
3
 10
68.59999999990004
 20
25.19999999999999
 30
0.0
 11
52.39999999989999
 21
25.19999999999999
 31
0.0
  0
LINE
  5
1299
  8
3
 10
56.82592467019998
 20
16.124674924
 30
0.0
 11
56.52171155620005
 21
16.2420287807
 31
0.0
  0
LINE
  5
129A
  8
3
 10
49.58688677139997
 20
16.32794922650001
 30
0.0
 11
49.1450324841
 21
16.15898231380001
 31
0.0
  0
LINE
  5
129B
  8
3
 10
49.14006710000001
 20
-16.1575585154
 30
0.0
 11
49.58256630130001
 21
-16.3267910567
 31
0.0
  0
LINE
  5
129C
  8
3
 10
56.52179748220004
 20
-16.2420642039
 30
0.0
 11
56.8259116799
 21
-16.1247302892
 31
0.0
  0
LINE
  5
129D
  8
3
 10
47.84999999999997
 20
21.7173599624
 30
0.0
 11
47.84999999999997
 21
14.2637765039
 31
0.0
  0
LINE
  5
129E
  8
3
 10
58.05000000000001
 20
14.2628723274
 30
0.0
 11
58.05000000000001
 21
21.7173599624
 31
0.0
  0
LINE
  5
129F
  8
3
 10
58.05000000000001
 20
-21.7173599625
 30
0.0
 11
58.05000000000001
 21
-14.2617418207
 31
0.0
  0
LINE
  5
12A0
  8
3
 10
47.84999999999997
 20
-14.26380774019999
 30
0.0
 11
47.84999999999997
 21
-21.7173599625
 31
0.0
  0
LINE
  5
12A1
  8
3
 10
59.65000000000003
 20
-24.3219110691
 30
0.0
 11
59.65000000000003
 21
-22.9430310714
 31
0.0
  0
LINE
  5
12A2
  8
3
 10
46.25
 20
-22.9430310714
 30
0.0
 11
46.25
 21
-24.3219110691
 31
0.0
  0
LINE
  5
12A3
  8
3
 10
46.25
 20
24.32191106900001
 30
0.0
 11
46.25
 21
22.94303107140001
 31
0.0
  0
LINE
  5
12A4
  8
3
 10
59.65000000000003
 20
22.94303107140001
 30
0.0
 11
59.65000000000003
 21
24.32191106900001
 31
0.0
  0
LINE
  5
12A5
  8
3
 10
49.30534897360002
 20
19.32930000179999
 30
0.0
 11
50.1757133978
 21
18.96660944670001
 31
0.0
  0
LINE
  5
12A6
  8
3
 10
55.72428660209999
 20
18.96660944670001
 30
0.0
 11
56.59465102630003
 21
19.32930000179999
 31
0.0
  0
LINE
  5
12A7
  8
3
 10
56.59465102630003
 20
-19.32930000179999
 30
0.0
 11
55.72428660209999
 21
-18.96660944679999
 31
0.0
  0
LINE
  5
12A8
  8
3
 10
50.1757133978
 20
-18.96660944679999
 30
0.0
 11
49.30534897360002
 21
-19.32930000179999
 31
0.0
  0
POLYLINE
  5
12A9
  8
3
 66
     1
 10
0.0
 20
0.0
 30
0.0
  0
VERTEX
  5
2F5F
  8
3
 10
55.63786796560004
 20
-17.5177631415
 30
0.0
  0
VERTEX
  5
2F60
  8
3
 10
56.42594870940002
 20
-17.8743518444
 30
0.0
  0
VERTEX
  5
2F61
  8
3
 10
57.10230960159998
 20
-18.3156613253
 30
0.0
  0
VERTEX
  5
2F62
  8
3
 10
57.64521184669997
 20
-18.8275075343
 30
0.0
  0
VERTEX
  5
2F63
  8
3
 10
58.03720611980003
 20
-19.393439313
 30
0.0
  0
VERTEX
  5
2F64
  8
3
 10
58.26569340250001
 20
-19.99526714849999
 30
0.0
  0
VERTEX
  5
2F65
  8
3
 10
58.3233299254
 20
-20.61364779899999
 30
0.0
  0
VERTEX
  5
2F66
  8
3
 10
58.20826320329996
 20
-21.2287060014
 30
0.0
  0
VERTEX
  5
2F67
  8
3
 10
57.92419157540002
 20
-21.82067327919999
 30
0.0
  0
VERTEX
  5
2F68
  8
3
 10
57.79635111210001
 20
-22.0055579341
 30
0.0
  0
SEQEND
  5
3065
  8
3
  0
POLYLINE
  5
12AA
  8
3
 66
     1
 10
0.0
 20
0.0
 30
0.0
  0
VERTEX
  5
2F69
  8
3
 10
48.08435831880001
 20
-21.97944569729999
 30
0.0
  0
VERTEX
  5
2F6A
  8
3
 10
48.03902085839997
 20
-21.9157369651
 30
0.0
  0
VERTEX
  5
2F6B
  8
3
 10
47.72752609420002
 20
-21.3294971287
 30
0.0
  0
VERTEX
  5
2F6C
  8
3
 10
47.58388593839999
 20
-20.71692685789999
 30
0.0
  0
VERTEX
  5
2F6D
  8
3
 10
47.61271710379998
 20
-20.0977146652
 30
0.0
  0
VERTEX
  5
2F6E
  8
3
 10
47.81309293290002
 20
-19.49176254
 30
0.0
  0
VERTEX
  5
2F6F
  8
3
 10
48.17857318190005
 20
-18.9185462821
 30
0.0
  0
VERTEX
  5
2F70
  8
3
 10
48.69741101480002
 20
-18.39648953369999
 30
0.0
  0
VERTEX
  5
2F71
  8
3
 10
49.35293055660003
 20
-17.94237162829999
 30
0.0
  0
VERTEX
  5
2F72
  8
3
 10
50.12406287009998
 20
-17.57078828899999
 30
0.0
  0
VERTEX
  5
2F73
  8
3
 10
50.98602312810004
 20
-17.29368251
 30
0.0
  0
VERTEX
  5
2F74
  8
3
 10
51.91110721870001
 20
-17.11996069909999
 30
0.0
  0
VERTEX
  5
2F75
  8
3
 10
52.86958217820001
 20
-17.0552064182
 30
0.0
  0
VERTEX
  5
2F76
  8
3
 10
53.83064183250002
 20
-17.10150092319999
 30
0.0
  0
VERTEX
  5
2F77
  8
3
 10
54.76339693380004
 20
-17.2573562707
 30
0.0
  0
VERTEX
  5
2F78
  8
3
 10
55.63786796560004
 20
-17.5177631415
 30
0.0
  0
SEQEND
  5
3064
  8
3
  0
POLYLINE
  5
12AB
  8
3
 66
     1
 10
0.0
 20
0.0
 30
0.0
  0
VERTEX
  5
2F79
  8
3
 10
55.55000000000001
 20
-17.94059526469999
 30
0.0
  0
VERTEX
  5
2F7A
  8
3
 10
56.31231792630001
 20
-18.2855268758
 30
0.0
  0
VERTEX
  5
2F7B
  8
3
 10
56.96656818790001
 20
-18.7124096933
 30
0.0
  0
VERTEX
  5
2F7C
  8
3
 10
57.49172264320003
 20
-19.2075233523
 30
0.0
  0
VERTEX
  5
2F7D
  8
3
 10
57.8709023957
 20
-19.7549544924
 30
0.0
  0
VERTEX
  5
2F7E
  8
3
 10
58.09192029629997
 20
-20.3371082262
 30
0.0
  0
VERTEX
  5
2F7F
  8
3
 10
58.14767264779999
 20
-20.9352736539
 30
0.0
  0
VERTEX
  5
2F80
  8
3
 10
58.03636752380004
 20
-21.53022524629999
 30
0.0
  0
VERTEX
  5
2F81
  8
3
 10
57.76158236240002
 20
-22.1028407698
 30
0.0
  0
VERTEX
  5
2F82
  8
3
 10
57.332148985
 20
-22.6347158903
 30
0.0
  0
VERTEX
  5
2F83
  8
3
 10
56.76186973349996
 20
-23.1087557038
 30
0.0
  0
VERTEX
  5
2F84
  8
3
 10
56.06907385229999
 20
-23.5097241806
 30
0.0
  0
VERTEX
  5
2F85
  8
3
 10
55.27602837119997
 20
-23.8247338641
 30
0.0
  0
VERTEX
  5
2F86
  8
3
 10
54.40822242439998
 20
-24.0436600837
 30
0.0
  0
VERTEX
  5
2F87
  8
3
 10
53.49354800899999
 20
-24.1594663706
 30
0.0
  0
VERTEX
  5
2F88
  8
3
 10
52.56140351330004
 20
-24.1684306156
 30
0.0
  0
VERTEX
  5
2F89
  8
3
 10
51.6417488285
 20
-24.0702647003
 30
0.0
  0
VERTEX
  5
2F8A
  8
3
 10
50.76414241280003
 20
-23.868123758
 30
0.0
  0
VERTEX
  5
2F8B
  8
3
 10
49.95679125840002
 20
-23.5685047651
 30
0.0
  0
VERTEX
  5
2F8C
  8
3
 10
49.24564429579999
 20
-23.18103772239999
 30
0.0
  0
VERTEX
  5
2F8D
  8
3
 10
48.6535583735
 20
-22.7181761395
 30
0.0
  0
VERTEX
  5
2F8E
  8
3
 10
48.19956362019997
 20
-22.1947967685
 30
0.0
  0
VERTEX
  5
2F8F
  8
3
 10
47.89825180079998
 20
-21.62772145309999
 30
0.0
  0
VERTEX
  5
2F90
  8
3
 10
47.75930732520004
 20
-21.0351764604
 30
0.0
  0
VERTEX
  5
2F91
  8
3
 10
47.75
 20
-20.83528134069999
 30
0.0
  0
SEQEND
  5
3063
  8
3
  0
POLYLINE
  5
12AC
  8
3
 66
     1
 10
0.0
 20
0.0
 30
0.0
  0
VERTEX
  5
2F92
  8
3
 10
47.75148763800001
 20
-20.75533441889999
 30
0.0
  0
VERTEX
  5
2F93
  8
3
 10
47.787195983
 20
-20.43620667409999
 30
0.0
  0
VERTEX
  5
2F94
  8
3
 10
47.98102140989999
 20
-19.8500634759
 30
0.0
  0
VERTEX
  5
2F95
  8
3
 10
48.33455389709997
 20
-19.2955859906
 30
0.0
  0
VERTEX
  5
2F96
  8
3
 10
48.83643061970002
 20
-18.7905955806
 30
0.0
  0
VERTEX
  5
2F97
  8
3
 10
49.4705208469
 20
-18.35132305339999
 30
0.0
  0
VERTEX
  5
2F98
  8
3
 10
50.21644439690004
 20
-17.9918869894
 30
0.0
  0
VERTEX
  5
2F99
  8
3
 10
51.05022667330002
 20
-17.72383995929999
 30
0.0
  0
VERTEX
  5
2F9A
  8
3
 10
51.94506922739998
 20
-17.5557972153
 30
0.0
  0
VERTEX
  5
2F9B
  8
3
 10
52.87221108350002
 20
-17.4931597896
 30
0.0
  0
VERTEX
  5
2F9C
  8
3
 10
53.80185313930002
 20
-17.5379409003
 30
0.0
  0
VERTEX
  5
2F9D
  8
3
 10
54.70411593440002
 20
-17.68870124589999
 30
0.0
  0
VERTEX
  5
2F9E
  8
3
 10
55.55000000000001
 20
-17.94059526469999
 30
0.0
  0
SEQEND
  5
3062
  8
3
  0
POLYLINE
  5
12AD
  8
3
 66
     1
 10
0.0
 20
0.0
 30
0.0
  0
VERTEX
  5
2F9F
  8
3
 10
55.87428081780001
 20
-19.33553148519999
 30
0.0
  0
VERTEX
  5
2FA0
  8
3
 10
56.42594870940002
 20
-19.5990793536
 30
0.0
  0
VERTEX
  5
2FA1
  8
3
 10
57.10230960159998
 20
-20.04038883449999
 30
0.0
  0
VERTEX
  5
2FA2
  8
3
 10
57.64521184669997
 20
-20.5522350435
 30
0.0
  0
VERTEX
  5
2FA3
  8
3
 10
58.03720611980003
 20
-21.1181668222
 30
0.0
  0
VERTEX
  5
2FA4
  8
3
 10
58.26569340250001
 20
-21.7199946577
 30
0.0
  0
VERTEX
  5
2FA5
  8
3
 10
58.3233299254
 20
-22.3383753081
 30
0.0
  0
VERTEX
  5
2FA6
  8
3
 10
58.20826320329996
 20
-22.95343351059999
 30
0.0
  0
VERTEX
  5
2FA7
  8
3
 10
57.92419157540002
 20
-23.5454007884
 30
0.0
  0
VERTEX
  5
2FA8
  8
3
 10
57.48024533739999
 20
-24.0952508261
 30
0.0
  0
VERTEX
  5
2FA9
  8
3
 10
56.89069328689999
 20
-24.5853109912
 30
0.0
  0
VERTEX
  5
2FAA
  8
3
 10
56.17448411160001
 20
-24.99983034659999
 30
0.0
  0
VERTEX
  5
2FAB
  8
3
 10
55.3546373639
 20
-25.32548589929999
 30
0.0
  0
VERTEX
  5
2FAC
  8
3
 10
54.45750359280004
 20
-25.5518108118
 30
0.0
  0
VERTEX
  5
2FAD
  8
3
 10
53.51191741580004
 20
-25.6715308152
 30
0.0
  0
VERTEX
  5
2FAE
  8
3
 10
52.5482707507
 20
-25.68079801009999
 30
0.0
  0
VERTEX
  5
2FAF
  8
3
 10
51.59753599430002
 20
-25.57931454129999
 30
0.0
  0
VERTEX
  5
2FB0
  8
3
 10
50.69027054380001
 20
-25.3703421709
 30
0.0
  0
VERTEX
  5
2FB1
  8
3
 10
49.85563465730002
 20
-25.0605974428
 30
0.0
  0
VERTEX
  5
2FB2
  8
3
 10
49.12045421900001
 20
-24.66003580749999
 30
0.0
  0
VERTEX
  5
2FB3
  8
3
 10
48.50835853300003
 20
-24.1815316454
 30
0.0
  0
VERTEX
  5
2FB4
  8
3
 10
48.03902085839997
 20
-23.6404644742
 30
0.0
  0
VERTEX
  5
2FB5
  8
3
 10
47.72752609420002
 20
-23.05422463789999
 30
0.0
  0
VERTEX
  5
2FB6
  8
3
 10
47.58388593839999
 20
-22.4416543671
 30
0.0
  0
VERTEX
  5
2FB7
  8
3
 10
47.61271710379998
 20
-21.8224421744
 30
0.0
  0
VERTEX
  5
2FB8
  8
3
 10
47.81309293290002
 20
-21.2164900492
 30
0.0
  0
VERTEX
  5
2FB9
  8
3
 10
48.09876557759998
 20
-20.7462791128
 30
0.0
  0
SEQEND
  5
3061
  8
3
  0
POLYLINE
  5
12AE
  8
3
 66
     1
 10
0.0
 20
0.0
 30
0.0
  0
VERTEX
  5
2FBA
  8
3
 10
55.55000000000001
 20
-19.0153125094
 30
0.0
  0
VERTEX
  5
2FBB
  8
3
 10
56.31231792630001
 20
-19.3602441205
 30
0.0
  0
VERTEX
  5
2FBC
  8
3
 10
56.96656818790001
 20
-19.787126938
 30
0.0
  0
VERTEX
  5
2FBD
  8
3
 10
57.49172264320003
 20
-20.282240597
 30
0.0
  0
VERTEX
  5
2FBE
  8
3
 10
57.8709023957
 20
-20.829671737
 30
0.0
  0
VERTEX
  5
2FBF
  8
3
 10
58.09192029629997
 20
-21.4118254709
 30
0.0
  0
VERTEX
  5
2FC0
  8
3
 10
58.14767264779999
 20
-22.00999089849999
 30
0.0
  0
VERTEX
  5
2FC1
  8
3
 10
58.03636752380004
 20
-22.604942491
 30
0.0
  0
VERTEX
  5
2FC2
  8
3
 10
57.76158236240002
 20
-23.17755801449999
 30
0.0
  0
VERTEX
  5
2FC3
  8
3
 10
57.332148985
 20
-23.709433135
 30
0.0
  0
VERTEX
  5
2FC4
  8
3
 10
56.76186973349996
 20
-24.1834729485
 30
0.0
  0
VERTEX
  5
2FC5
  8
3
 10
56.06907385229999
 20
-24.5844414253
 30
0.0
  0
VERTEX
  5
2FC6
  8
3
 10
55.27602837119997
 20
-24.89945110869999
 30
0.0
  0
VERTEX
  5
2FC7
  8
3
 10
54.40822242439998
 20
-25.1183773283
 30
0.0
  0
VERTEX
  5
2FC8
  8
3
 10
53.49354800899999
 20
-25.2341836153
 30
0.0
  0
VERTEX
  5
2FC9
  8
3
 10
52.56140351330004
 20
-25.2431478602
 30
0.0
  0
VERTEX
  5
2FCA
  8
3
 10
51.6417488285
 20
-25.1449819449
 30
0.0
  0
VERTEX
  5
2FCB
  8
3
 10
50.76414241280003
 20
-24.94284100269999
 30
0.0
  0
VERTEX
  5
2FCC
  8
3
 10
49.95679125840002
 20
-24.6432220098
 30
0.0
  0
VERTEX
  5
2FCD
  8
3
 10
49.24564429579999
 20
-24.2557549671
 30
0.0
  0
VERTEX
  5
2FCE
  8
3
 10
48.6535583735
 20
-23.7928933842
 30
0.0
  0
VERTEX
  5
2FCF
  8
3
 10
48.19956362019997
 20
-23.26951401319999
 30
0.0
  0
VERTEX
  5
2FD0
  8
3
 10
47.89825180079998
 20
-22.7024386977
 30
0.0
  0
VERTEX
  5
2FD1
  8
3
 10
47.75930732520004
 20
-22.109893705
 30
0.0
  0
VERTEX
  5
2FD2
  8
3
 10
47.75
 20
-21.9099985854
 30
0.0
  0
SEQEND
  5
3060
  8
3
  0
POLYLINE
  5
12AF
  8
3
 66
     1
 10
0.0
 20
0.0
 30
0.0
  0
VERTEX
  5
2FD3
  8
3
 10
47.75148763800001
 20
-21.8300516635
 30
0.0
  0
VERTEX
  5
2FD4
  8
3
 10
47.787195983
 20
-21.5109239187
 30
0.0
  0
VERTEX
  5
2FD5
  8
3
 10
47.98102140989999
 20
-20.9247807206
 30
0.0
  0
VERTEX
  5
2FD6
  8
3
 10
48.33455389709997
 20
-20.3703032352
 30
0.0
  0
VERTEX
  5
2FD7
  8
3
 10
48.83643061970002
 20
-19.86531282529999
 30
0.0
  0
VERTEX
  5
2FD8
  8
3
 10
49.4705208469
 20
-19.42604029809999
 30
0.0
  0
VERTEX
  5
2FD9
  8
3
 10
50.21644439690004
 20
-19.066604234
 30
0.0
  0
VERTEX
  5
2FDA
  8
3
 10
51.05022667330002
 20
-18.79855720400001
 30
0.0
  0
VERTEX
  5
2FDB
  8
3
 10
51.94506922739998
 20
-18.63051446
 30
0.0
  0
VERTEX
  5
2FDC
  8
3
 10
52.87221108350002
 20
-18.5678770342
 30
0.0
  0
VERTEX
  5
2FDD
  8
3
 10
53.80185313930002
 20
-18.612658145
 30
0.0
  0
VERTEX
  5
2FDE
  8
3
 10
54.70411593440002
 20
-18.7634184906
 30
0.0
  0
VERTEX
  5
2FDF
  8
3
 10
55.55000000000001
 20
-19.0153125094
 30
0.0
  0
SEQEND
  5
305F
  8
3
  0
ARC
  5
12B0
  8
3
 10
50.093030226
 20
20.45878827609999
 30
0.0
 40
2.519292353548825
 50
142.9609468232006
 51
178.8289383653998
  0
POLYLINE
  5
12B1
  8
3
 66
     1
 10
0.0
 20
0.0
 30
0.0
  0
VERTEX
  5
2FE0
  8
3
 10
57.81270042570003
 20
21.98346370900001
 30
0.0
  0
VERTEX
  5
2FE1
  8
3
 10
58.13200978660001
 20
21.42955494220001
 30
0.0
  0
VERTEX
  5
2FE2
  8
3
 10
58.30409479880001
 20
20.82002093650001
 30
0.0
  0
VERTEX
  5
2FE3
  8
3
 10
58.30409479880001
 20
20.20053148030001
 30
0.0
  0
VERTEX
  5
2FE4
  8
3
 10
58.13200978660001
 20
19.59099747460002
 30
0.0
  0
VERTEX
  5
2FE5
  8
3
 10
57.79337071610001
 20
19.01100984370001
 30
0.0
  0
VERTEX
  5
2FE6
  8
3
 10
57.29906172559998
 20
18.47920986740002
 30
0.0
  0
VERTEX
  5
2FE7
  8
3
 10
56.66497031290004
 20
18.0126900345
 30
0.0
  0
VERTEX
  5
2FE8
  8
3
 10
55.91147669759999
 20
17.62644467620001
 30
0.0
  0
VERTEX
  5
2FE9
  8
3
 10
55.06279878449999
 20
17.33288803619999
 30
0.0
  0
VERTEX
  5
2FEA
  8
3
 10
54.14621378010003
 20
17.14145526640002
 30
0.0
  0
VERTEX
  5
2FEB
  8
3
 10
53.19118148050001
 20
17.05829917349999
 30
0.0
  0
VERTEX
  5
2FEC
  8
3
 10
52.22839740969999
 20
17.08609246290001
 30
0.0
  0
VERTEX
  5
2FED
  8
3
 10
51.2888062399
 20
17.2239418353
 30
0.0
  0
VERTEX
  5
2FEE
  8
3
 10
50.4026072044
 20
17.4674166984
 30
0.0
  0
VERTEX
  5
2FEF
  8
3
 10
49.59828346930004
 20
17.8086915698
 30
0.0
  0
VERTEX
  5
2FF0
  8
3
 10
48.9016866613
 20
18.2367975944
 30
0.0
  0
VERTEX
  5
2FF1
  8
3
 10
48.33520597500001
 20
18.73797509229999
 30
0.0
  0
VERTEX
  5
2FF2
  8
3
 10
47.91704856569999
 20
19.29611580630001
 30
0.0
  0
VERTEX
  5
2FF3
  8
3
 10
47.66065435670004
 20
19.89328063470001
 30
0.0
  0
VERTEX
  5
2FF4
  8
3
 10
47.57426406870002
 20
20.5102762084
 30
0.0
  0
VERTEX
  5
2FF5
  8
3
 10
47.57426406870002
 20
20.5102762084
 30
0.0
  0
SEQEND
  5
305E
  8
3
  0
POLYLINE
  5
12B2
  8
3
 66
     1
 10
0.0
 20
0.0
 30
0.0
  0
VERTEX
  5
2FF6
  8
3
 10
47.75
 20
20.83528134069999
 30
0.0
  0
VERTEX
  5
2FF7
  8
3
 10
47.8335661392
 20
21.43210697059999
 30
0.0
  0
VERTEX
  5
2FF8
  8
3
 10
48.08157867260002
 20
22.00975013370001
 30
0.0
  0
VERTEX
  5
2FF9
  8
3
 10
48.48606627320004
 20
22.54964490340001
 30
0.0
  0
VERTEX
  5
2FFA
  8
3
 10
49.03402837670001
 20
23.0344386177
 30
0.0
  0
VERTEX
  5
2FFB
  8
3
 10
49.70785303029999
 20
23.4485496076
 30
0.0
  0
VERTEX
  5
2FFC
  8
3
 10
50.48588295510001
 20
23.77866800519999
 30
0.0
  0
VERTEX
  5
2FFD
  8
3
 10
51.3431116292
 20
24.01418353349999
 30
0.0
  0
VERTEX
  5
2FFE
  8
3
 10
52.2519870177
 20
24.14752652979999
 30
0.0
  0
VERTEX
  5
2FFF
  8
3
 10
53.18329711780001
 20
24.17441124039999
 30
0.0
  0
VERTEX
  5
3000
  8
3
 10
54.10710885650002
 20
24.09397356860001
 30
0.0
  0
VERTEX
  5
3001
  8
3
 10
54.99373016459998
 20
23.90879884719999
 30
0.0
  0
VERTEX
  5
3002
  8
3
 10
55.81466430350002
 20
23.62483874439999
 30
0.0
  0
VERTEX
  5
3003
  8
3
 10
56.54352577470002
 20
23.2512199713
 30
0.0
  0
VERTEX
  5
3004
  8
3
 10
57.15688837070002
 20
22.7999509428
 30
0.0
  0
VERTEX
  5
3005
  8
3
 10
57.63503811309999
 20
22.28553581669999
 30
0.0
  0
VERTEX
  5
3006
  8
3
 10
57.96260687559999
 20
21.7245083185
 30
0.0
  0
VERTEX
  5
3007
  8
3
 10
58.12906632870005
 20
21.1349003336
 30
0.0
  0
VERTEX
  5
3008
  8
3
 10
58.15000000000003
 20
20.83528134069999
 30
0.0
  0
SEQEND
  5
305D
  8
3
  0
POLYLINE
  5
12B3
  8
3
 66
     1
 10
0.0
 20
0.0
 30
0.0
  0
VERTEX
  5
3009
  8
3
 10
58.14894428880001
 20
20.76793179399999
 30
0.0
  0
VERTEX
  5
300A
  8
3
 10
58.12906632870005
 20
20.5356623477
 30
0.0
  0
VERTEX
  5
300B
  8
3
 10
57.96260687559999
 20
19.9460543628
 30
0.0
  0
VERTEX
  5
300C
  8
3
 10
57.63503811309999
 20
19.38502686460001
 30
0.0
  0
VERTEX
  5
300D
  8
3
 10
57.15688837070002
 20
18.8706117385
 30
0.0
  0
VERTEX
  5
300E
  8
3
 10
56.54352577470002
 20
18.41934271
 30
0.0
  0
VERTEX
  5
300F
  8
3
 10
55.81466430350002
 20
18.0457239369
 30
0.0
  0
VERTEX
  5
3010
  8
3
 10
54.99373016459998
 20
17.76176383410001
 30
0.0
  0
VERTEX
  5
3011
  8
3
 10
54.10710885650002
 20
17.57658911280001
 30
0.0
  0
VERTEX
  5
3012
  8
3
 10
53.18329711780001
 20
17.49615144090001
 30
0.0
  0
VERTEX
  5
3013
  8
3
 10
52.2519870177
 20
17.52303615150001
 30
0.0
  0
VERTEX
  5
3014
  8
3
 10
51.3431116292
 20
17.65637914780001
 30
0.0
  0
VERTEX
  5
3015
  8
3
 10
50.48588295510001
 20
17.89189467610001
 30
0.0
  0
VERTEX
  5
3016
  8
3
 10
49.70785303029999
 20
18.2220130737
 30
0.0
  0
VERTEX
  5
3017
  8
3
 10
49.03402837670001
 20
18.63612406359999
 30
0.0
  0
VERTEX
  5
3018
  8
3
 10
48.48606627320004
 20
19.12091777789999
 30
0.0
  0
VERTEX
  5
3019
  8
3
 10
48.08157867260002
 20
19.66081254759999
 30
0.0
  0
VERTEX
  5
301A
  8
3
 10
47.8335661392
 20
20.23845571070001
 30
0.0
  0
VERTEX
  5
301B
  8
3
 10
47.75
 20
20.83528134069999
 30
0.0
  0
SEQEND
  5
305C
  8
3
  0
POLYLINE
  5
12B4
  8
3
 66
     1
 10
0.0
 20
0.0
 30
0.0
  0
VERTEX
  5
301C
  8
3
 10
47.75
 20
21.9099985853
 30
0.0
  0
VERTEX
  5
301D
  8
3
 10
47.8335661392
 20
22.5068242152
 30
0.0
  0
VERTEX
  5
301E
  8
3
 10
48.08157867260002
 20
23.08446737840001
 30
0.0
  0
VERTEX
  5
301F
  8
3
 10
48.48606627320004
 20
23.6243621481
 30
0.0
  0
VERTEX
  5
3020
  8
3
 10
49.03402837670001
 20
24.1091558624
 30
0.0
  0
VERTEX
  5
3021
  8
3
 10
49.70785303029999
 20
24.52326685220001
 30
0.0
  0
VERTEX
  5
3022
  8
3
 10
50.48588295510001
 20
24.8533852498
 30
0.0
  0
VERTEX
  5
3023
  8
3
 10
51.3431116292
 20
25.08890077820001
 30
0.0
  0
VERTEX
  5
3024
  8
3
 10
52.2519870177
 20
25.22224377450001
 30
0.0
  0
VERTEX
  5
3025
  8
3
 10
53.18329711780001
 20
25.24912848510002
 30
0.0
  0
VERTEX
  5
3026
  8
3
 10
54.10710885650002
 20
25.16869081320002
 30
0.0
  0
VERTEX
  5
3027
  8
3
 10
54.99373016459998
 20
24.98351609190001
 30
0.0
  0
VERTEX
  5
3028
  8
3
 10
55.81466430350002
 20
24.699555989
 30
0.0
  0
VERTEX
  5
3029
  8
3
 10
56.54352577470002
 20
24.325937216
 30
0.0
  0
VERTEX
  5
302A
  8
3
 10
57.15688837070002
 20
23.8746681874
 30
0.0
  0
VERTEX
  5
302B
  8
3
 10
57.63503811309999
 20
23.36025306140002
 30
0.0
  0
VERTEX
  5
302C
  8
3
 10
57.96260687559999
 20
22.7992255632
 30
0.0
  0
VERTEX
  5
302D
  8
3
 10
58.12906632870005
 20
22.2096175783
 30
0.0
  0
VERTEX
  5
302E
  8
3
 10
58.15000000000003
 20
21.9099985853
 30
0.0
  0
SEQEND
  5
305B
  8
3
  0
POLYLINE
  5
12B5
  8
3
 66
     1
 10
0.0
 20
0.0
 30
0.0
  0
VERTEX
  5
302F
  8
3
 10
58.14894428880001
 20
21.84264903869999
 30
0.0
  0
VERTEX
  5
3030
  8
3
 10
58.12906632870005
 20
21.61037959239999
 30
0.0
  0
VERTEX
  5
3031
  8
3
 10
57.96260687559999
 20
21.0207716075
 30
0.0
  0
VERTEX
  5
3032
  8
3
 10
57.63503811309999
 20
20.4597441093
 30
0.0
  0
VERTEX
  5
3033
  8
3
 10
57.15688837070002
 20
19.9453289832
 30
0.0
  0
VERTEX
  5
3034
  8
3
 10
56.54352577470002
 20
19.49405995469999
 30
0.0
  0
VERTEX
  5
3035
  8
3
 10
55.81466430350002
 20
19.1204411816
 30
0.0
  0
VERTEX
  5
3036
  8
3
 10
54.99373016459998
 20
18.83648107869999
 30
0.0
  0
VERTEX
  5
3037
  8
3
 10
54.10710885650002
 20
18.65130635739999
 30
0.0
  0
VERTEX
  5
3038
  8
3
 10
53.18329711780001
 20
18.5708686856
 30
0.0
  0
VERTEX
  5
3039
  8
3
 10
52.2519870177
 20
18.59775339620001
 30
0.0
  0
VERTEX
  5
303A
  8
3
 10
51.3431116292
 20
18.73109639239999
 30
0.0
  0
VERTEX
  5
303B
  8
3
 10
50.48588295510001
 20
18.96661192080001
 30
0.0
  0
VERTEX
  5
303C
  8
3
 10
49.70785303029999
 20
19.29673031839999
 30
0.0
  0
VERTEX
  5
303D
  8
3
 10
49.03402837670001
 20
19.71084130829999
 30
0.0
  0
VERTEX
  5
303E
  8
3
 10
48.48606627320004
 20
20.1956350225
 30
0.0
  0
VERTEX
  5
303F
  8
3
 10
48.08157867260002
 20
20.73552979230001
 30
0.0
  0
VERTEX
  5
3040
  8
3
 10
47.8335661392
 20
21.31317295540001
 30
0.0
  0
VERTEX
  5
3041
  8
3
 10
47.75
 20
21.9099985853
 30
0.0
  0
SEQEND
  5
305A
  8
3
  0
POLYLINE
  5
12B6
  8
3
 66
     1
 10
0.0
 20
0.0
 30
0.0
  0
VERTEX
  5
3042
  8
3
 10
47.57426406870002
 20
22.23500371759999
 30
0.0
  0
VERTEX
  5
3043
  8
3
 10
47.66065435670004
 20
22.85199929129999
 30
0.0
  0
VERTEX
  5
3044
  8
3
 10
47.91704856569999
 20
23.44916411970001
 30
0.0
  0
VERTEX
  5
3045
  8
3
 10
48.33520597500001
 20
24.0073048337
 30
0.0
  0
VERTEX
  5
3046
  8
3
 10
48.9016866613
 20
24.50848233150001
 30
0.0
  0
VERTEX
  5
3047
  8
3
 10
49.59828346930004
 20
24.93658835619999
 30
0.0
  0
VERTEX
  5
3048
  8
3
 10
50.4026072044
 20
25.27786322759999
 30
0.0
  0
VERTEX
  5
3049
  8
3
 10
51.2888062399
 20
25.5213380907
 30
0.0
  0
VERTEX
  5
304A
  8
3
 10
52.22839740969999
 20
25.65918746310001
 30
0.0
  0
VERTEX
  5
304B
  8
3
 10
53.19118148050001
 20
25.68698075239999
 30
0.0
  0
VERTEX
  5
304C
  8
3
 10
54.14621378010003
 20
25.60382465960001
 30
0.0
  0
VERTEX
  5
304D
  8
3
 10
55.06279878449999
 20
25.41239188980001
 30
0.0
  0
VERTEX
  5
304E
  8
3
 10
55.91147669759999
 20
25.11883524980001
 30
0.0
  0
VERTEX
  5
304F
  8
3
 10
56.66497031290004
 20
24.7325898915
 30
0.0
  0
VERTEX
  5
3050
  8
3
 10
57.29906172559998
 20
24.26607005860001
 30
0.0
  0
VERTEX
  5
3051
  8
3
 10
57.79337071610001
 20
23.73427008230001
 30
0.0
  0
VERTEX
  5
3052
  8
3
 10
58.13200978660001
 20
23.15428245140001
 30
0.0
  0
VERTEX
  5
3053
  8
3
 10
58.30409479880001
 20
22.54474844570001
 30
0.0
  0
VERTEX
  5
3054
  8
3
 10
58.30409479880001
 20
21.92525898950001
 30
0.0
  0
VERTEX
  5
3055
  8
3
 10
58.13200978660001
 20
21.31572498369999
 30
0.0
  0
VERTEX
  5
3056
  8
3
 10
57.80589375790004
 20
20.75256872349999
 30
0.0
  0
SEQEND
  5
3059
  8
3
  0
ARC
  5
12B7
  8
3
 10
50.0967476925
 20
22.28729339630002
 30
0.0
 40
2.523025533578028
 50
181.1875394747
 51
217.3885669022004
  0
LINE
  5
12B8
  8
1
 10
34.05
 20
0.0
 30
0.0
 11
34.05
 21
-22.22499999999999
 31
0.0
  0
LINE
  5
12B9
  8
1
 10
34.05
 20
22.22499999999999
 30
0.0
 11
34.05
 21
0.0
 31
0.0
  0
LINE
  5
12BD
  8
1
 10
69.0
 20
-22.65000000009999
 30
0.0
 11
68.59999999990004
 21
-22.45
 31
0.0
  0
LINE
  5
12BE
  8
1
 10
69.0
 20
22.65000000000001
 30
0.0
 11
68.59999999990004
 21
22.44999999999999
 31
0.0
  0
ARC
  5
12CB
  8
NOCUT
 10
34.05
 20
23.22499999526545
 30
0.0
 40
1.0
 50
270.0
 51
0.0
  0
LINE
  5
12CD
  8
NOCUT
 10
36.05
 20
31.74999999526545
 30
0.0
 11
35.05
 21
30.74999999526546
 31
0.0
  0
LINE
  5
12CE
  8
NOCUT
 10
68.5
 20
31.74999999526545
 30
0.0
 11
36.05
 21
31.74999999526545
 31
0.0
  0
LINE
  5
12CF
  8
NOCUT
 10
69.0
 20
31.24999999526546
 30
0.0
 11
68.5
 21
31.74999999526545
 31
0.0
  0
LINE
  5
12D0
  8
NOCUT
 10
69.0
 20
-0.0000000047345404
 30
0.0
 11
69.0
 21
31.24999999526546
 31
0.0
  0
LINE
  5
12D5
  8
NOCUT
 10
35.05
 20
30.74999999526546
 30
0.0
 11
35.05
 21
23.22499999526545
 31
0.0
  0
DIMENSION
  5
219C
  8
SK2
  2
*D3
 10
85.76710053516808
 20
-31.75
 30
0.0
 11
83.89210053516808
 21
0.0
 31
0.0
 70
    32
  3
ISO-25
 13
68.5
 23
31.75
 33
0.0
 14
68.5
 24
-31.75
 34
0.0
 50
90.0
1001
ACAD
1000
DSTYLE
1002
{
1070
   287
1070
     5
1070
   271
1070
     3
1070
   272
1070
     3
1070
   279
1070
     2
1002
}
  0
ENDSEC
  0
EOF
