  0
SECTION
  2
HEADER
  9
$ACADVER
  1
AC1015
  9
$ACADMAINTVER
 70
    13
  9
$DWGCODEPAGE
  3
ANSI_1252
  9
$INSBASE
 10
0.0
 20
0.0
 30
0.0
  9
$EXTMIN
 10
-4.197688118069144
 20
-1.245667696555479
 30
-0.0015258207003583
  9
$EXTMAX
 10
4.165401765628693
 20
2.963417728277432
 30
0.0000000349246037
  9
$LIMMIN
 10
0.0
 20
0.0
  9
$LIMMAX
 10
5.5
 20
4.25
  9
$ORTHOMODE
 70
     1
  9
$REGENMODE
 70
     1
  9
$FILLMODE
 70
     1
  9
$QTEXTMODE
 70
     0
  9
$MIRRTEXT
 70
     1
  9
$LTSCALE
 40
1.0
  9
$ATTMODE
 70
     1
  9
$TEXTSIZE
 40
7.5
  9
$TRACEWID
 40
0.05
  9
$TEXTSTYLE
  7
ROMANS
  9
$CLAYER
  8
DIM
  9
$CELTYPE
  6
BYLAYER
  9
$CECOLOR
 62
   256
  9
$CELTSCALE
 40
1.0
  9
$DISPSILH
 70
     0
  9
$DIMSCALE
 40
1.0
  9
$DIMASZ
 40
0.18
  9
$DIMEXO
 40
0.0625
  9
$DIMDLI
 40
0.38
  9
$DIMRND
 40
0.0
  9
$DIMDLE
 40
0.0
  9
$DIMEXE
 40
0.18
  9
$DIMTP
 40
0.0
  9
$DIMTM
 40
0.0
  9
$DIMTXT
 40
0.18
  9
$DIMCEN
 40
0.09
  9
$DIMTSZ
 40
0.0
  9
$DIMTOL
 70
     0
  9
$DIMLIM
 70
     0
  9
$DIMTIH
 70
     0
  9
$DIMTOH
 70
     0
  9
$DIMSE1
 70
     0
  9
$DIMSE2
 70
     0
  9
$DIMTAD
 70
     1
  9
$DIMZIN
 70
     0
  9
$DIMBLK
  1

  9
$DIMASO
 70
     1
  9
$DIMSHO
 70
     0
  9
$DIMPOST
  1

  9
$DIMAPOST
  1

  9
$DIMALT
 70
     0
  9
$DIMALTD
 70
     2
  9
$DIMALTF
 40
25.4
  9
$DIMLFAC
 40
1.0
  9
$DIMTOFL
 70
     0
  9
$DIMTVP
 40
0.0
  9
$DIMTIX
 70
     0
  9
$DIMSOXD
 70
     0
  9
$DIMSAH
 70
     0
  9
$DIMBLK1
  1

  9
$DIMBLK2
  1

  9
$DIMSTYLE
  2
STANDARD
  9
$DIMCLRD
 70
     0
  9
$DIMCLRE
 70
     0
  9
$DIMCLRT
 70
     0
  9
$DIMTFAC
 40
1.0
  9
$DIMGAP
 40
0.09
  9
$DIMJUST
 70
     0
  9
$DIMSD1
 70
     0
  9
$DIMSD2
 70
     0
  9
$DIMTOLJ
 70
     1
  9
$DIMTZIN
 70
     0
  9
$DIMALTZ
 70
     0
  9
$DIMALTTZ
 70
     0
  9
$DIMUPT
 70
     0
  9
$DIMDEC
 70
     3
  9
$DIMTDEC
 70
     3
  9
$DIMALTU
 70
     2
  9
$DIMALTTD
 70
     2
  9
$DIMTXSTY
  7
ROMANS
  9
$DIMAUNIT
 70
     0
  9
$DIMADEC
 70
     0
  9
$DIMALTRND
 40
0.0
  9
$DIMAZIN
 70
     0
  9
$DIMDSEP
 70
    46
  9
$DIMATFIT
 70
     3
  9
$DIMFRAC
 70
     0
  9
$DIMLDRBLK
  1

  9
$DIMLUNIT
 70
     2
  9
$DIMLWD
 70
    -2
  9
$DIMLWE
 70
    -2
  9
$DIMTMOVE
 70
     0
  9
$LUNITS
 70
     2
  9
$LUPREC
 70
     4
  9
$SKETCHINC
 40
0.1
  9
$FILLETRAD
 40
0.0
  9
$AUNITS
 70
     0
  9
$AUPREC
 70
     0
  9
$MENU
  1
automstr
  9
$ELEVATION
 40
0.0
  9
$PELEVATION
 40
0.0
  9
$THICKNESS
 40
0.0
  9
$LIMCHECK
 70
     0
  9
$CHAMFERA
 40
2.0
  9
$CHAMFERB
 40
2.0
  9
$CHAMFERC
 40
7.0
  9
$CHAMFERD
 40
0.7853981633974483
  9
$SKPOLY
 70
     0
  9
$TDCREATE
 40
2449288.648393055
  9
$TDUCREATE
 40
2449288.856726389
  9
$TDUPDATE
 40
2453133.637700555
  9
$TDUUPDATE
 40
2453133.846033888
  9
$TDINDWG
 40
0.1927077546
  9
$TDUSRTIMER
 40
0.1927011458
  9
$USRTIMER
 70
     1
  9
$ANGBASE
 50
0.0
  9
$ANGDIR
 70
     0
  9
$PDMODE
 70
     0
  9
$PDSIZE
 40
0.0
  9
$PLINEWID
 40
0.0
  9
$SPLFRAME
 70
     0
  9
$SPLINETYPE
 70
     6
  9
$SPLINESEGS
 70
     8
  9
$HANDSEED
  5
19DD
  9
$SURFTAB1
 70
     6
  9
$SURFTAB2
 70
     6
  9
$SURFTYPE
 70
     6
  9
$SURFU
 70
     6
  9
$SURFV
 70
     6
  9
$UCSBASE
  2

  9
$UCSNAME
  2

  9
$UCSORG
 10
0.0
 20
0.0
 30
0.0
  9
$UCSXDIR
 10
1.0
 20
0.0
 30
0.0
  9
$UCSYDIR
 10
0.0
 20
1.0
 30
0.0
  9
$UCSORTHOREF
  2

  9
$UCSORTHOVIEW
 70
     0
  9
$UCSORGTOP
 10
0.0
 20
0.0
 30
0.0
  9
$UCSORGBOTTOM
 10
0.0
 20
0.0
 30
0.0
  9
$UCSORGLEFT
 10
0.0
 20
0.0
 30
0.0
  9
$UCSORGRIGHT
 10
0.0
 20
0.0
 30
0.0
  9
$UCSORGFRONT
 10
0.0
 20
0.0
 30
0.0
  9
$UCSORGBACK
 10
0.0
 20
0.0
 30
0.0
  9
$PUCSBASE
  2

  9
$PUCSNAME
  2

  9
$PUCSORG
 10
0.0
 20
0.0
 30
0.0
  9
$PUCSXDIR
 10
1.0
 20
0.0
 30
0.0
  9
$PUCSYDIR
 10
0.0
 20
1.0
 30
0.0
  9
$PUCSORTHOREF
  2

  9
$PUCSORTHOVIEW
 70
     0
  9
$PUCSORGTOP
 10
0.0
 20
0.0
 30
0.0
  9
$PUCSORGBOTTOM
 10
0.0
 20
0.0
 30
0.0
  9
$PUCSORGLEFT
 10
0.0
 20
0.0
 30
0.0
  9
$PUCSORGRIGHT
 10
0.0
 20
0.0
 30
0.0
  9
$PUCSORGFRONT
 10
0.0
 20
0.0
 30
0.0
  9
$PUCSORGBACK
 10
0.0
 20
0.0
 30
0.0
  9
$USERI1
 70
     0
  9
$USERI2
 70
     0
  9
$USERI3
 70
     0
  9
$USERI4
 70
     0
  9
$USERI5
 70
     0
  9
$USERR1
 40
0.0
  9
$USERR2
 40
0.0
  9
$USERR3
 40
0.0
  9
$USERR4
 40
0.0
  9
$USERR5
 40
0.0
  9
$WORLDVIEW
 70
     1
  9
$SHADEDGE
 70
     3
  9
$SHADEDIF
 70
    70
  9
$TILEMODE
 70
     1
  9
$MAXACTVP
 70
    48
  9
$PINSBASE
 10
0.0
 20
0.0
 30
0.0
  9
$PLIMCHECK
 70
     0
  9
$PEXTMIN
 10
1.000000000000000E+20
 20
1.000000000000000E+20
 30
1.000000000000000E+20
  9
$PEXTMAX
 10
-1.000000000000000E+20
 20
-1.000000000000000E+20
 30
-1.000000000000000E+20
  9
$PLIMMIN
 10
0.0
 20
0.0
  9
$PLIMMAX
 10
12.0
 20
9.0
  9
$UNITMODE
 70
     0
  9
$VISRETAIN
 70
     0
  9
$PLINEGEN
 70
     0
  9
$PSLTSCALE
 70
     0
  9
$TREEDEPTH
 70
  3020
  9
$CMLSTYLE
  2
STANDARD
  9
$CMLJUST
 70
     0
  9
$CMLSCALE
 40
1.0
  9
$PROXYGRAPHICS
 70
     1
  9
$MEASUREMENT
 70
     0
  9
$CELWEIGHT
370
    -1
  9
$ENDCAPS
280
     0
  9
$JOINSTYLE
280
     0
  9
$LWDISPLAY
290
     0
  9
$INSUNITS
 70
     0
  9
$HYPERLINKBASE
  1

  9
$STYLESHEET
  1

  9
$XEDIT
290
     1
  9
$CEPSNTYPE
380
     0
  9
$PSTYLEMODE
290
     1
  9
$FINGERPRINTGUID
  2
{968A400D-89A3-4680-8B3F-F1F9CF1C62FA}
  9
$VERSIONGUID
  2
{3CB2C2AA-9FCF-4E21-B9D4-336BEE2CFC7C}
  9
$EXTNAMES
290
     1
  9
$PSVPSCALE
 40
0.0
  9
$OLESTARTUP
290
     0
  0
ENDSEC
  0
SECTION
  2
CLASSES
  0
CLASS
  1
DICTIONARYVAR
  2
AcDbDictionaryVar
  3
AutoCAD 2000
 90
        0
280
     0
281
     0
  0
CLASS
  1
LWPOLYLINE
  2
AcDbPolyline
  3
AutoCAD 2000
 90
    32768
280
     0
281
     1
  0
CLASS
  1
HATCH
  2
AcDbHatch
  3
AutoCAD 2000
 90
    32768
280
     0
281
     1
  0
CLASS
  1
ACDBDICTIONARYWDFLT
  2
AcDbDictionaryWithDefault
  3
AutoCAD 2000
 90
        0
280
     0
281
     0
  0
CLASS
  1
ACDBPLACEHOLDER
  2
AcDbPlaceHolder
  3
AutoCAD 2000
 90
        0
280
     0
281
     0
  0
CLASS
  1
LAYOUT
  2
AcDbLayout
  3
AutoCAD 2000
 90
        0
280
     0
281
     0
  0
CLASS
  1
AMGSETTINGSOBJ
  2
AmgSettingsObj
  3
"AcadM|Product Description: AutoCAD Mechanical 2000|Company: Autodesk"
 90
        0
280
     0
281
     0
  0
CLASS
  1
ACME_DOCUMENT
  2
AcMeDbDoc
  3
AcMeServices
 90
        0
280
     0
281
     0
  0
CLASS
  1
ACMESCOPE
  2
AcMeScope
  3
AcMeServices
 90
        0
280
     0
281
     0
  0
CLASS
  1
ACMECOMMANDHISTORY
  2
AcMeCommandHistory
  3
AcMeServices
 90
        0
280
     0
281
     0
  0
CLASS
  1
ACIMSYSVARMAN
  2
AcImSysVarManager
  3
AcMeServices
 90
        0
280
     0
281
     0
  0
CLASS
  1
ACIMREALSYSVAR
  2
AcImRealSysVar
  3
AcMeServices
 90
        0
280
     0
281
     0
  0
CLASS
  1
ACIMINTSYSVAR
  2
AcImIntSysVar
  3
AcMeServices
 90
        0
280
     0
281
     0
  0
CLASS
  1
ACMEDRAWINGMAN
  2
AcMeDrawingMan
  3
AcMeServices
 90
        0
280
     0
281
     0
  0
CLASS
  1
ACMEVIEW
  2
AcMeView
  3
AcMeServices
 90
        0
280
     0
281
     0
  0
CLASS
  1
ACDBENTITYCACHE
  2
AcMeEntityCache
  3
AcMeServices
 90
        0
280
     0
281
     0
  0
CLASS
  1
GSMANAGER
  2
AcMeGSManager
  3
AcMeServices
 90
        0
280
     0
281
     0
  0
CLASS
  1
AMDTINTERNALREACTOR
  2
AmdtInternalReactor
  3
AcMeServices
 90
        0
280
     0
281
     0
  0
CLASS
  1
ACMESTATEMGR
  2
AcMeStateMgr
  3
AcMeServices
 90
        0
280
     0
281
     0
  0
CLASS
  1
ACGREFMASTER
  2
AcGrefMaster
  3
AcAttribServices
 90
        0
280
     0
281
     0
  0
CLASS
  1
AM_DRAWING_MGR
  2
AcDmDwgMgr
  3
AcMechDwgViewMgmt
 90
        0
280
     0
281
     0
  0
CLASS
  1
AM_DWG_DOCUMENT
  2
AcDmDwgDocument
  3
AcMechDwgViewMgmt
 90
        0
280
     0
281
     0
  0
CLASS
  1
AM_DWG_SHEET
  2
AcDmSheet
  3
AcMechDwgViewMgmt
 90
        0
280
     0
281
     0
  0
CLASS
  1
AM_VIEWDIMPARMAP
  2
AcDmViewDimParMap
  3
AcMechDwgViewMgmt
 90
        0
280
     0
281
     0
  0
CLASS
  1
AM_DWGMGR_NAME
  2
AcDmDwgMgrName
  3
AcMechDwgViewMgmt
 90
        0
280
     0
281
     0
  0
CLASS
  1
ACME_DATABASE
  2
AcMeDbDatabase
  3
AcMeServices
 90
        0
280
     0
281
     0
  0
CLASS
  1
ACRFINSADJUSTERMGR
  2
AcRfInsAdjusterMgr
  3
AcMeServices
 90
        0
280
     0
281
     0
  0
CLASS
  1
ACGREFACADMASTER
  2
AcGrefacadMaster
  3
AcGrefServices
 90
        0
280
     0
281
     0
  0
CLASS
  1
AMDTMENUSTATEMGR
  2
AmdtMenuStateMgr
  3
McadcomServices
 90
        0
280
     0
281
     0
  0
CLASS
  1
AMDTMCOMMENUSTATE
  2
AmdtMcomMenuState
  3
McadcomServices
 90
        0
280
     0
281
     0
  0
CLASS
  1
AMIMASTER
  2
AmiMaster
  3
AmiServices
 90
        0
280
     0
281
     0
  0
CLASS
  1
ASAPP
  2
AcAsAppObject
  3
AutoSurfServices
 90
        0
280
     0
281
     0
  0
CLASS
  1
IM_STATIC_MAN
  2
AcImStaticVarManager
  3
AcMeServices
 90
        0
280
     0
281
     0
  0
CLASS
  1
ACIMSTRSYSVAR
  2
AcImStrSysVar
  3
AcMeServices
 90
        0
280
     0
281
     0
  0
CLASS
  1
ACIMDBLSTATICVAR
  2
AcImDblStaticVar
  3
AcMeServices
 90
        0
280
     0
281
     0
  0
CLASS
  1
ACIMSTRSTATICVAR
  2
AcImStrStaticVar
  3
AcMeServices
 90
        0
280
     0
281
     0
  0
CLASS
  1
ACIMINTSTATICVAR
  2
AcImIntStaticVar
  3
AcMeServices
 90
        0
280
     0
281
     0
  0
CLASS
  1
ACASGREFMASTER
  2
AcAsGrefMaster
  3
AutoSurfResolverServices
 90
        0
280
     0
281
     0
  0
CLASS
  1
ACADGREFMODULE
  2
AcAdGrefModule
  3
AdGrefServices
 90
        0
280
     0
281
     0
  0
CLASS
  1
AMDTMAPISURFMOUDULE
  2
AmdtMApiSurfModule
  3
MApiSurfServices
 90
        0
280
     0
281
     0
  0
CLASS
  1
MAPIAMMOUDLE
  2
MApiAmModule
  3
MApiAmServices
 90
        0
280
     0
281
     0
  0
CLASS
  1
AMDTADMENUSTATE
  2
AmdtAdMenuState
  3
DesignerServices
 90
        0
280
     0
281
     0
  0
CLASS
  1
ADAPPL
  2
AcAdAppl
  3
DesignerServices
 90
        0
280
     0
281
     0
  0
CLASS
  1
DEPMGR
  2
AcAdDepMgr
  3
DesignerServices
 90
        0
280
     0
281
     0
  0
CLASS
  1
PARAMMGR
  2
AcAdParamMgr
  3
DesignerServices
 90
        0
280
     0
281
     0
  0
CLASS
  1
PARAMSCOPE
  2
AcAdParamScope
  3
DesignerServices
 90
        0
280
     0
281
     0
  0
CLASS
  1
NAMEDAPPL
  2
AcAdNamedAppl
  3
DesignerServices
 90
        0
280
     0
281
     0
  0
CLASS
  1
AMDTDMMENUSTATE
  2
AmdtDmMenuState
  3
AcMechDwgViewMgmt
 90
        0
280
     0
281
     0
  0
CLASS
  1
MAPIADMODULE
  2
MApiAdModule
  3
MApiAdServices
 90
        0
280
     0
281
     0
  0
CLASS
  1
AMDTAMMENUSTATE
  2
AmdtAmMenuState
  3
DesignerAssemblies
 90
        0
280
     0
281
     0
  0
CLASS
  1
ACAMPROJECT
  2
AcAmProject
  3
DesignerAssemblies
 90
        0
280
     0
281
     0
  0
CLASS
  1
ACAMGRCOMPDEF
  2
AcAmGrCompDef
  3
DesignerAssemblies
 90
        0
280
     0
281
     0
  0
CLASS
  1
ACCMCONTEXT
  2
AcCmContext
  3
DesignerAssemblies
 90
        0
280
     0
281
     0
  0
CLASS
  1
ACAMCOMPDEF
  2
AcAmCompDef
  3
DesignerAssemblies
 90
        0
280
     0
281
     0
  0
CLASS
  1
ACAMCOMPDEFMGR
  2
AcAmCompDefMgr
  3
DesignerAssemblies
 90
        0
280
     0
281
     0
  0
CLASS
  1
AMCONTEXTMGR
  2
AcAmContextMgr
  3
DesignerAssemblies
 90
        0
280
     0
281
     0
  0
CLASS
  1
ACAMCONTEXTMODELER
  2
AcAmContextModeler
  3
DesignerAssemblies
 90
        0
280
     0
281
     0
  0
CLASS
  1
ACMDATADICTIONARY
  2
AcmDataDictionary
  3
"AcmSymBB|Product Description: AutoCAD Mechanical 2000|Company: Autodesk"
 90
        0
280
     0
281
     0
  0
CLASS
  1
ACMDATAENTRYBLOCK
  2
AcmDataEntryBlock
  3
"AcmSymBB|Product Description: AutoCAD Mechanical 2000|Company: Autodesk"
 90
        0
280
     0
281
     0
  0
CLASS
  1
CATALOGSTATE
  2
AcAmCatalogState
  3
DesignerAssemblies
 90
        0
280
     0
281
     0
  0
CLASS
  1
ACAMGRCOMPDEFSET
  2
AcAmGrCompDefSet
  3
DesignerAssemblies
 90
        0
280
     0
281
     0
  0
CLASS
  1
AMDTBROWSERDBTAB
  2
AmdtBrowserDbTab
  3
McadcomServices
 90
        0
280
     0
281
     0
  0
CLASS
  1
CBROWSERAPPOBJECT
  2
CBrowserAppObject
  3
McadcomServices
 90
        0
280
     0
281
     0
  0
CLASS
  1
DM_PLACEHOLDER
  2
AcDmSelsetPlaceholder
  3
AcMechDwgViewMgmt
 90
        0
280
     0
281
     0
  0
CLASS
  1
ACMSTANDARDANSI
  2
AcmStandardANSI
  3
"Amdt_StdImp|Product Description: AutoCAD Mechanical 2000|Company: Autodesk"
 90
        0
280
     0
281
     0
  0
CLASS
  1
AMGOBJPROPCFG
  2
AmgObjPropCfg
  3
"AmgLay|Product Description: AutoCAD Mechanical 2000|Company: Autodesk"
 90
        1
280
     0
281
     0
  0
CLASS
  1
ACMSURFSTANDARDANSI
  2
AcmSurfTextStdANSI
  3
"Amdt_StdImp|Product Description: AutoCAD Mechanical 2000|Company: Autodesk"
 90
        0
280
     0
281
     0
  0
CLASS
  1
ACMFCFSTANDARDANSI
  2
AcmFCFStdANSI
  3
"Amdt_StdImp|Product Description: AutoCAD Mechanical 2000|Company: Autodesk"
 90
        0
280
     0
281
     0
  0
CLASS
  1
ACMWELDSTANDARDANSI
  2
AcmWeldingStdANSI
  3
"Amdt_StdImp|Product Description: AutoCAD Mechanical 2000|Company: Autodesk"
 90
        0
280
     0
281
     0
  0
CLASS
  1
ACMIDSTANDARDANSI
  2
AcmIdStdANSI
  3
"Amdt_StdImp|Product Description: AutoCAD Mechanical 2000|Company: Autodesk"
 90
        0
280
     0
281
     0
  0
CLASS
  1
ACMDATUMSTANDARDANSI
  2
AcmDatumStdANSI
  3
"Amdt_StdImp|Product Description: AutoCAD Mechanical 2000|Company: Autodesk"
 90
        0
280
     0
281
     0
  0
CLASS
  1
ACMBOMSTANDARDANSI
  2
AcmBOMStdANSI
  3
"Amdt_StdImp|Product Description: AutoCAD Mechanical 2000|Company: Autodesk"
 90
        0
280
     0
281
     0
  0
CLASS
  1
ACMDETAILSTANDARDANSI
  2
AmdtDetailSymStdANSI
  3
"Amdt_StdImp|Product Description: AutoCAD Mechanical 2000|Company: Autodesk"
 90
        0
280
     0
281
     0
  0
CLASS
  1
ACMSECTIONSTANDARDANSI
  2
AmdtSectionSymStdANSI
  3
"Amdt_StdImp|Product Description: AutoCAD Mechanical 2000|Company: Autodesk"
 90
        0
280
     0
281
     0
  0
CLASS
  1
ACMCENTERLINESTANDARDANSI
  2
AmdtCenterLineStdANSI
  3
"Amdt_StdImp|Product Description: AutoCAD Mechanical 2000|Company: Autodesk"
 90
        0
280
     0
281
     0
  0
CLASS
  1
ACMTHREADLINESTANDARDANSI
  2
AmdtThreadLineStdANSI
  3
"Amdt_StdImp|Product Description: AutoCAD Mechanical 2000|Company: Autodesk"
 90
        0
280
     0
281
     0
  0
CLASS
  1
ACMNOTESTANDARDANSI
  2
AmdtNoteStdANSI
  3
"Amdt_StdImp|Product Description: AutoCAD Mechanical 2000|Company: Autodesk"
 90
        0
280
     0
281
     0
  0
CLASS
  1
ACAMGLAYSTD
  2
AcAmgLayStd
  3
"AcAmgLayStd|Product Description: AutoCAD Mechanical 2000|Company: Autodesk"
 90
        0
280
     0
281
     0
  0
CLASS
  1
ACAMGDIMSTD
  2
AcAmgDimStd
  3
"AcAmgDimStd|Product Description: AutoCAD Mechanical 2000|Company: Autodesk"
 90
        0
280
     0
281
     0
  0
CLASS
  1
ACAMGHOLECHARTSTDANSI
  2
AcAmgHoleChartStdANSI
  3
ACMSYMBB_MODULE_NAME
 90
        0
280
     0
281
     0
  0
CLASS
  1
ACAMGTITLESTD
  2
AcAmgTitleStd
  3
"TITLEAPP"
 90
        0
280
     0
281
     0
  0
CLASS
  1
ACAMGFILTERDAT
  2
AcAmgFilterDat
  3
"AcadM|Product Description: AutoCAD Mechanical 2000|Company: Autodesk"
 90
        0
280
     0
281
     0
  0
CLASS
  1
LAYER_INDEX
  2
AcDbLayerIndex
  3
AutoCAD 2000
 90
        0
280
     0
281
     0
  0
CLASS
  1
IDBUFFER
  2
AcDbIdBuffer
  3
AutoCAD 2000
 90
        0
280
     0
281
     0
  0
ENDSEC
  0
SECTION
  2
TABLES
  0
TABLE
  2
VPORT
  5
8
330
0
100
AcDbSymbolTable
 70
     3
  0
VPORT
  5
19DC
330
8
100
AcDbSymbolTableRecord
100
AcDbViewportTableRecord
  2
*Active
 70
     0
 10
0.0
 20
0.0
 11
1.0
 21
1.0
 12
2.361967995450388
 22
-0.1361278599413525
 13
0.0
 23
0.0
 14
1.0
 24
1.0
 15
0.0
 25
0.0
 16
0.0
 26
0.0
 36
1.0
 17
-2.378111171670614
 27
0.9950028758023293
 37
0.0
 40
5.390272113154117
 41
1.561551433389544
 42
50.0
 43
0.0
 44
0.0
 50
0.0
 51
0.0
 71
     0
 72
  1000
 73
     1
 74
     0
 75
     0
 76
     0
 77
     0
 78
     0
281
     0
 65
     0
110
0.0
120
0.0
130
0.0
111
1.0
121
0.0
131
0.0
112
0.0
122
1.0
132
0.0
 79
     0
146
0.0
  0
ENDTAB
  0
TABLE
  2
LTYPE
  5
5
330
0
100
AcDbSymbolTable
 70
    18
  0
LTYPE
  5
11
330
5
100
AcDbSymbolTableRecord
100
AcDbLinetypeTableRecord
  2
BYBLOCK
 70
     0
  3

 72
    65
 73
     0
 40
0.0
  0
LTYPE
  5
12
330
5
100
AcDbSymbolTableRecord
100
AcDbLinetypeTableRecord
  2
BYLAYER
 70
     0
  3

 72
    65
 73
     0
 40
0.0
  0
LTYPE
  5
13
330
5
100
AcDbSymbolTableRecord
100
AcDbLinetypeTableRecord
  2
CONTINUOUS
 70
     0
  3
Solid line
 72
    65
 73
     0
 40
0.0
  0
LTYPE
  5
3C
330
5
100
AcDbSymbolTableRecord
100
AcDbLinetypeTableRecord
  2
HIDDEN
 70
     0
  3
_ _ _ _ _ _ _ _ _ _ _ _ _ _ _ _ _ _ _ _ _ _ _
 72
    65
 73
     2
 40
0.375
 49
0.25
 74
     0
 49
-0.125
 74
     0
  0
LTYPE
  5
3E
330
5
100
AcDbSymbolTableRecord
100
AcDbLinetypeTableRecord
  2
CENTER
 70
     0
  3
____ _ ____ _ ____ _ ____ _ ____ _ ____ _ ____
 72
    65
 73
     4
 40
2.0
 49
1.25
 74
     0
 49
-0.25
 74
     0
 49
0.25
 74
     0
 49
-0.25
 74
     0
  0
LTYPE
  5
18D7
330
5
100
AcDbSymbolTableRecord
100
AcDbLinetypeTableRecord
  2
PHANTOM2
 70
     0
  3
Phantom (.5x) ___ _ _ ___ _ _ ___ _ _ ___ _ _
 72
    65
 73
     6
 40
1.25
 49
0.625
 74
     0
 49
-0.125
 74
     0
 49
0.125
 74
     0
 49
-0.125
 74
     0
 49
0.125
 74
     0
 49
-0.125
 74
     0
  0
LTYPE
  5
1939
330
5
100
AcDbSymbolTableRecord
100
AcDbLinetypeTableRecord
  2
ASULTYPE
 70
     0
  3
Solid line
 72
    65
 73
     2
 40
3.0
 49
2.5
 74
     0
 49
0.5
 74
     0
  0
LTYPE
  5
193A
330
5
100
AcDbSymbolTableRecord
100
AcDbLinetypeTableRecord
  2
ASVLTYPE
 70
     0
  3
__ __ __ __ __ __ __ __ __ __ __ __ __ __ __ __ __ __ __ __ __
 72
    65
 73
     2
 40
0.75
 49
0.5
 74
     0
 49
-0.25
 74
     0
  0
LTYPE
  5
197E
330
5
100
AcDbSymbolTableRecord
100
AcDbLinetypeTableRecord
  2
AM_ISO02W050
 70
     0
  3
__ __ __ __ __ __ __ __ __ __ __ __ __ __ __
 72
    65
 73
     2
 40
7.5
 49
6.0
 74
     0
 49
-1.5
 74
     0
  0
LTYPE
  5
197F
330
5
100
AcDbSymbolTableRecord
100
AcDbLinetypeTableRecord
  2
AM_ISO08W050
 70
     0
  3
____ . ____ . ____ . ____ . ____ . ____ . ____
 72
    65
 73
     4
 40
18.0
 49
12.0
 74
     0
 49
-1.5
 74
     0
 49
3.0
 74
     0
 49
-1.5
 74
     0
  0
LTYPE
  5
1980
330
5
100
AcDbSymbolTableRecord
100
AcDbLinetypeTableRecord
  2
AM_ISO09W050
 70
     0
  3
_____ . . _____ . . _____ . . ____ .. ____
 72
    65
 73
     6
 40
22.5
 49
12.0
 74
     0
 49
-1.5
 74
     0
 49
3.0
 74
     0
 49
-1.5
 74
     0
 49
3.0
 74
     0
 49
-1.5
 74
     0
  0
LTYPE
  5
1981
330
5
100
AcDbSymbolTableRecord
100
AcDbLinetypeTableRecord
  2
Amconstr
 70
     0
  3
_______________________
 72
    65
 73
     2
 40
9999.0
 49
9999.0
 74
     0
 49
0.0
 74
     0
  0
LTYPE
  5
1982
330
5
100
AcDbSymbolTableRecord
100
AcDbLinetypeTableRecord
  2
AM_ISO08W050x2
 70
     0
  3
__ . __ . __ . __ . __ . __
 72
    65
 73
     4
 40
9.0
 49
6.0
 74
     0
 49
-0.75
 74
     0
 49
1.5
 74
     0
 49
-0.75
 74
     0
  0
LTYPE
  5
1983
330
5
100
AcDbSymbolTableRecord
100
AcDbLinetypeTableRecord
  2
AM_ISO02W050x2
 70
     0
  3
 _ _ _ _ _ _ _ _ _ _ _ _
 72
    65
 73
     2
 40
3.75
 49
3.0
 74
     0
 49
-0.75
 74
     0
  0
LTYPE
  5
1986
330
5
100
AcDbSymbolTableRecord
100
AcDbLinetypeTableRecord
  2
Amzigzag
 70
     0
  3
/\/-/\/-/\/-/\/-/\/-/\/
 72
    65
 73
     2
 40
11.00009999999999
 49
0.0001
 74
     4
 75
   135
340
1985
 46
0.04
 50
0.0
 44
0.0
 45
0.0
 49
-11.0
 74
     0
  0
LTYPE
  5
1987
330
5
100
AcDbSymbolTableRecord
100
AcDbLinetypeTableRecord
  2
CENTER2
 70
     0
  3
Center (.5x) ___ _ ___ _ ___ _ ___ _ ___ _ ___
 72
    65
 73
     4
 40
1.125
 49
0.75
 74
     0
 49
-0.125
 74
     0
 49
0.125
 74
     0
 49
-0.125
 74
     0
  0
LTYPE
  5
1988
330
5
100
AcDbSymbolTableRecord
100
AcDbLinetypeTableRecord
  2
HIDDEN2
 70
     0
  3
Hidden (.5x) _ _ _ _ _ _ _ _ _ _ _ _ _ _ _ _ _
 72
    65
 73
     2
 40
0.1875
 49
0.125
 74
     0
 49
-0.0625
 74
     0
  0
LTYPE
  5
1989
330
5
100
AcDbSymbolTableRecord
100
AcDbLinetypeTableRecord
  2
Amzigzag2
 70
     0
  3
/\/-/\/-/\/-/\/-/\/-/\/
 72
    65
 73
     2
 40
0.4401
 49
0.0001
 74
     4
 75
   135
340
1985
 46
0.0016
 50
0.0
 44
0.0
 45
0.0
 49
-0.4400000000000001
 74
     0
  0
LTYPE
  5
1997
330
5
100
AcDbSymbolTableRecord
100
AcDbLinetypeTableRecord
  2
ACANSTGB
 70
     0
  3
__ . . __ . .
 72
    65
 73
     6
 40
0.35433070866
 49
0.15748031496
 74
     0
 49
-0.03937007874
 74
     0
 49
0.03937007874
 74
     0
 49
-0.03937007874
 74
     0
 49
0.03937007874
 74
     0
 49
-0.03937007874
 74
     0
  0
LTYPE
  5
1998
330
5
100
AcDbSymbolTableRecord
100
AcDbLinetypeTableRecord
  2
ACANSTGL
 70
     0
  3
_ _ _ _ _
 72
    65
 73
     2
 40
0.11811023622
 49
0.07874015748
 74
     0
 49
-0.03937007874
 74
     0
  0
ENDTAB
  0
TABLE
  2
LAYER
  5
2
330
0
100
AcDbSymbolTable
 70
     6
  0
LAYER
  5
E
330
2
100
AcDbSymbolTableRecord
100
AcDbLayerTableRecord
  2
0
 70
     0
 62
     7
  6
CONTINUOUS
370
    -3
390
1552
  0
LAYER
  5
41
330
2
100
AcDbSymbolTableRecord
100
AcDbLayerTableRecord
  2
LINE
 70
     0
 62
     3
  6
CONTINUOUS
370
    -3
390
1552
  0
LAYER
  5
42
330
2
100
AcDbSymbolTableRecord
100
AcDbLayerTableRecord
  2
HIDDEN
 70
     0
 62
     2
  6
HIDDEN
370
    -3
390
1552
  0
LAYER
  5
44
330
2
100
AcDbSymbolTableRecord
100
AcDbLayerTableRecord
  2
CTRL
 70
     0
 62
     1
  6
CENTER
370
    -3
390
1552
  0
LAYER
  5
45
330
2
100
AcDbSymbolTableRecord
100
AcDbLayerTableRecord
  2
DIM
 70
     0
 62
     7
  6
CONTINUOUS
370
    -3
390
1552
  0
LAYER
  5
1603
330
2
100
AcDbSymbolTableRecord
100
AcDbLayerTableRecord
  2
Defpoints
 70
     0
 62
     7
  6
CONTINUOUS
290
     0
370
    -3
390
1552
  0
ENDTAB
  0
TABLE
  2
STYLE
  5
3
330
0
100
AcDbSymbolTable
 70
     7
  0
STYLE
  5
F
330
3
100
AcDbSymbolTableRecord
100
AcDbTextStyleTableRecord
  2
STANDARD
 70
     0
 40
0.0
 41
1.0
 50
0.0
 71
     0
 42
0.2
  3
txt
  4

  0
STYLE
  5
3A
330
3
100
AcDbSymbolTableRecord
100
AcDbTextStyleTableRecord
  2
ROMANS
 70
     0
 40
0.0
 41
1.0
 50
0.0
 71
     0
 42
7.5
  3
romans
  4

  0
STYLE
  5
166D
330
3
100
AcDbSymbolTableRecord
100
AcDbTextStyleTableRecord
  2
STYLE1
 70
     0
 40
0.0
 41
1.0
 50
0.0
 71
     0
 42
0.2
  3
romans.shx
  4

  0
STYLE
  5
166E
330
3
100
AcDbSymbolTableRecord
100
AcDbTextStyleTableRecord
  2
LOGO
 70
     0
 40
0.0
 41
0.6
 50
0.0
 71
     0
 42
4.7
  3
ARIAL.TTF
  4

1001
ACAD
1000
Arial
1071
       34
  0
STYLE
  5
1985
330
3
100
AcDbSymbolTableRecord
100
AcDbTextStyleTableRecord
  2

 70
     1
 40
0.0
 41
1.0
 50
0.0
 71
     0
 42
7.5
  3
ltypeshp.shx
  4

  0
STYLE
  5
198A
330
3
100
AcDbSymbolTableRecord
100
AcDbTextStyleTableRecord
  2
ACANSTS
 70
     0
 40
1.0
 41
1.0
 50
0.0
 71
     0
 42
7.5
  3
romans.shx
  4

  0
STYLE
  5
1996
330
3
100
AcDbSymbolTableRecord
100
AcDbTextStyleTableRecord
  2
ACANSGDT
 70
     0
 40
0.0
 41
1.0
 50
0.0
 71
     0
 42
7.5
  3
amgdtans.shx
  4

  0
ENDTAB
  0
TABLE
  2
VIEW
  5
6
330
0
100
AcDbSymbolTable
 70
     0
  0
ENDTAB
  0
TABLE
  2
UCS
  5
7
330
0
100
AcDbSymbolTable
 70
     0
  0
ENDTAB
  0
TABLE
  2
APPID
  5
9
330
0
100
AcDbSymbolTable
 70
    13
  0
APPID
  5
10
330
9
100
AcDbSymbolTableRecord
100
AcDbRegAppTableRecord
  2
ACAD
 70
     0
  0
APPID
  5
18B5
330
9
100
AcDbSymbolTableRecord
100
AcDbRegAppTableRecord
  2
GENIUS_GENDIM_13
 70
     0
  0
APPID
  5
18B6
330
9
100
AcDbSymbolTableRecord
100
AcDbRegAppTableRecord
  2
GENIUS_GENDTOL_13
 70
     0
  0
APPID
  5
18B7
330
9
100
AcDbSymbolTableRecord
100
AcDbRegAppTableRecord
  2
GENIUS_GE3DTOL_13
 70
     0
  0
APPID
  5
18BA
330
9
100
AcDbSymbolTableRecord
100
AcDbRegAppTableRecord
  2
MCAD_NO_VIS
 70
     0
  0
APPID
  5
18BB
330
9
100
AcDbSymbolTableRecord
100
AcDbRegAppTableRecord
  2
ACAD_TEMP_GRAPHIC
 70
     0
  0
APPID
  5
18EC
330
9
100
AcDbSymbolTableRecord
100
AcDbRegAppTableRecord
  2
AD_DRAW
 70
     0
  0
APPID
  5
18EF
330
9
100
AcDbSymbolTableRecord
100
AcDbRegAppTableRecord
  2
ACATTRIBSERVICES
 70
     0
  0
APPID
  5
193B
330
9
100
AcDbSymbolTableRecord
100
AcDbRegAppTableRecord
  2
ASURF_PCURVE_APPNAME
 70
     0
  0
APPID
  5
1940
330
9
100
AcDbSymbolTableRecord
100
AcDbRegAppTableRecord
  2
AMG_3D2D_5.0
 70
     0
  0
APPID
  5
196B
330
9
100
AcDbSymbolTableRecord
100
AcDbRegAppTableRecord
  2
DESIGNERASSEMBLIES
 70
     0
  0
APPID
  5
1973
330
9
100
AcDbSymbolTableRecord
100
AcDbRegAppTableRecord
  2
ACADM_DIM_EDIT
 70
     0
  0
APPID
  5
1974
330
9
100
AcDbSymbolTableRecord
100
AcDbRegAppTableRecord
  2
AMDT_DM_ADJ
 70
     0
  0
ENDTAB
  0
TABLE
  2
DIMSTYLE
  5
A
330
0
100
AcDbSymbolTable
 70
     7
100
AcDbDimStyleTable
 71
     1
340
29F
  0
DIMSTYLE
105
29F
102
{ACAD_REACTORS
330
1602
330
1610
330
161D
330
165A
102
}
330
A
100
AcDbSymbolTableRecord
100
AcDbDimStyleTableRecord
  2
STANDARD
 70
     0
 73
     0
 74
     0
 77
     1
271
     3
272
     3
340
3A
  0
DIMSTYLE
105
166F
330
A
100
AcDbSymbolTableRecord
100
AcDbDimStyleTableRecord
  2
AM_ANSI
 70
     0
  4
"
 41
2.5
 42
1.0
 43
10.0
 44
1.0
 47
0.1
 48
0.1
 78
     8
 79
     2
140
3.5
141
0.0
143
0.0393701
146
0.71
147
1.5
176
   256
177
   256
178
     2
271
     2
272
     3
274
     4
284
     8
340
F
371
    -1
372
    -1
  0
DIMSTYLE
105
199B
330
A
100
AcDbSymbolTableRecord
100
AcDbDimStyleTableRecord
  2
AM_ANSI$3
 70
     0
  4
"
 41
2.5
 42
1.0
 43
10.0
 44
1.0
 47
0.1
 48
0.1
 78
     8
 79
     2
140
3.5
141
0.0
143
0.0393701
146
0.71
147
1.5
176
   256
177
   256
178
     2
271
     2
272
     3
274
     4
284
     8
288
     1
289
     0
340
F
371
    -1
372
    -1
  0
DIMSTYLE
105
199C
330
A
100
AcDbSymbolTableRecord
100
AcDbDimStyleTableRecord
  2
AM_ANSI$4
 70
     0
  4
"
 41
2.5
 42
1.0
 43
10.0
 44
1.0
 47
0.1
 48
0.1
 78
     8
 79
     2
140
3.5
141
0.0
143
0.0393701
146
0.71
147
1.5
176
   256
177
   256
178
     2
271
     2
272
     3
274
     4
284
     8
288
     1
289
     0
340
F
371
    -1
372
    -1
  0
DIMSTYLE
105
199D
330
A
100
AcDbSymbolTableRecord
100
AcDbDimStyleTableRecord
  2
AM_ANSI$7
 70
     0
  4
"
 41
0.1
 42
1.0
 43
10.0
 44
1.0
 47
0.1
 48
0.1
 78
     8
 79
     2
140
0.24
141
0.0
143
0.0393701
146
0.71
147
0.06
176
   256
177
   256
178
     2
271
     2
272
     3
274
     4
284
     8
340
F
371
    -1
372
    -1
  0
DIMSTYLE
105
199E
330
A
100
AcDbSymbolTableRecord
100
AcDbDimStyleTableRecord
  2
AM_ANSI$SF
 70
     0
  4
"
 41
2.5
 42
1.0
 43
10.0
 44
1.0
 47
0.1
 48
0.1
 75
     1
 76
     1
 78
     8
 79
     2
140
3.5
141
0.0
143
0.0393701
146
0.71
147
1.5
176
   256
177
   256
178
     2
271
     2
272
     3
274
     4
284
     8
340
F
371
    -1
372
    -1
  0
DIMSTYLE
105
19A3
330
A
100
AcDbSymbolTableRecord
100
AcDbDimStyleTableRecord
  2
AM_ANSI$SH
 70
     0
  4
"
 41
2.5
 42
1.0
 43
10.0
 44
1.0
 47
0.1
 48
0.1
 75
     1
 76
     1
 78
     8
 79
     2
140
3.5
141
0.0
143
0.0393701
146
0.71
147
1.5
173
     1
176
   256
177
   256
178
     2
271
     2
272
     3
274
     4
284
     8
340
F
343
199F
371
    -1
372
    -1
  0
ENDTAB
  0
TABLE
  2
BLOCK_RECORD
  5
1
330
0
100
AcDbSymbolTable
 70
     6
  0
BLOCK_RECORD
  5
17
102
{ACAD_XDICTIONARY
360
19D2
102
}
330
1
100
AcDbSymbolTableRecord
100
AcDbBlockTableRecord
  2
*MODEL_SPACE
340
1555
  0
BLOCK_RECORD
  5
14
330
1
100
AcDbSymbolTableRecord
100
AcDbBlockTableRecord
  2
*PAPER_SPACE
340
1556
  0
BLOCK_RECORD
  5
1604
330
1
100
AcDbSymbolTableRecord
100
AcDbBlockTableRecord
  2
*D0
340
0
  0
BLOCK_RECORD
  5
1611
330
1
100
AcDbSymbolTableRecord
100
AcDbBlockTableRecord
  2
*D1
340
0
  0
BLOCK_RECORD
  5
161E
330
1
100
AcDbSymbolTableRecord
100
AcDbBlockTableRecord
  2
*D2
340
0
  0
BLOCK_RECORD
  5
165B
330
1
100
AcDbSymbolTableRecord
100
AcDbBlockTableRecord
  2
*D3
340
0
  0
BLOCK_RECORD
  5
1962
330
1
100
AcDbSymbolTableRecord
100
AcDbBlockTableRecord
  2
*U4
340
0
  0
BLOCK_RECORD
  5
199F
330
1
100
AcDbSymbolTableRecord
100
AcDbBlockTableRecord
  2
GENAXEH
340
0
  0
ENDTAB
  0
ENDSEC
  0
SECTION
  2
BLOCKS
  0
BLOCK
  5
4B
330
17
100
AcDbEntity
  8
0
100
AcDbBlockBegin
  2
*MODEL_SPACE
 70
     0
 10
0.0
 20
0.0
 30
0.0
  3
*MODEL_SPACE
  1

  0
ENDBLK
  5
4C
330
17
100
AcDbEntity
  8
0
100
AcDbBlockEnd
  0
BLOCK
  5
49
330
14
100
AcDbEntity
 67
     1
  8
0
100
AcDbBlockBegin
  2
*PAPER_SPACE
 70
     0
 10
0.0
 20
0.0
 30
0.0
  3
*PAPER_SPACE
  1

  0
ENDBLK
  5
4A
330
14
100
AcDbEntity
 67
     1
  8
0
100
AcDbBlockEnd
  0
BLOCK
  5
160E
330
1604
100
AcDbEntity
  8
0
100
AcDbBlockBegin
  2
*D0
 70
     1
 10
0.0
 20
0.0
 30
0.0
  3
*D0
  1

  0
LINE
  5
19C9
330
1604
100
AcDbEntity
  8
DIM
 62
     0
370
    -2
100
AcDbLine
 10
-3.999991999999989
 20
0.485609389999923
 30
0.0
 11
-3.999991999999989
 21
2.873036933843131
 31
0.0
  0
LINE
  5
19CA
330
1604
100
AcDbEntity
  8
DIM
 62
     0
370
    -2
100
AcDbLine
 10
2.362200000000001
 20
1.24800011999983
 30
0.0
 11
2.362200000000001
 21
2.873036933843131
 31
0.0
  0
LINE
  5
19CB
330
1604
100
AcDbEntity
  8
DIM
 62
     0
370
    -2
100
AcDbLine
 10
-3.819991999999989
 20
2.693036933843131
 30
0.0
 11
2.182200000000001
 21
2.693036933843131
 31
0.0
  0
SOLID
  5
19CC
330
1604
100
AcDbEntity
  8
DIM
 62
     0
100
AcDbTrace
 10
-3.819991999999989
 20
2.723036933843131
 30
0.0
 11
-3.819991999999989
 21
2.663036933843131
 31
0.0
 12
-3.999991999999989
 22
2.693036933843131
 32
0.0
 13
-3.999991999999989
 23
2.693036933843131
 33
0.0
  0
SOLID
  5
19CD
330
1604
100
AcDbEntity
  8
DIM
 62
     0
100
AcDbTrace
 10
2.182200000000001
 20
2.723036933843131
 30
0.0
 11
2.182200000000001
 21
2.663036933843131
 31
0.0
 12
2.362200000000001
 22
2.693036933843131
 32
0.0
 13
2.362200000000001
 23
2.693036933843131
 33
0.0
  0
MTEXT
  5
19CE
330
1604
100
AcDbEntity
  8
DIM
 62
     0
100
AcDbMText
 10
-0.8188959999999942
 20
2.873036933843131
 30
0.0
 40
0.18
 41
0.0
 71
     5
 72
     1
  1
\A1;6.362
  7
ROMANS
 73
     1
 44
1.0
  0
POINT
  5
19CF
330
1604
100
AcDbEntity
  8
Defpoints
 62
     0
100
AcDbPoint
 10
-3.999991999999989
 20
0.423109389999923
 30
0.0
  0
POINT
  5
19D0
330
1604
100
AcDbEntity
  8
Defpoints
 62
     0
100
AcDbPoint
 10
2.362200000000001
 20
1.18550011999983
 30
0.0
  0
POINT
  5
19D1
330
1604
100
AcDbEntity
  8
Defpoints
 62
     0
100
AcDbPoint
 10
2.362200000000001
 20
2.693036933843131
 30
0.0
  0
ENDBLK
  5
160F
330
1604
100
AcDbEntity
  8
0
100
AcDbBlockEnd
  0
BLOCK
  5
161B
330
1611
100
AcDbEntity
  8
0
100
AcDbBlockBegin
  2
*D1
 70
     1
 10
0.0
 20
0.0
 30
0.0
  3
*D1
  1

  0
LINE
  5
19C0
330
1611
100
AcDbEntity
  8
DIM
 62
     0
370
    -2
100
AcDbLine
 10
0.0000000000000004
 20
0.6849396999998313
 30
0.0
 11
0.0000000000000005
 21
2.337330300723031
 31
0.0
  0
LINE
  5
19C1
330
1611
100
AcDbEntity
  8
DIM
 62
     0
370
    -2
100
AcDbLine
 10
2.362200000000001
 20
1.24800011999983
 30
0.0
 11
2.362200000000001
 21
2.337330300723031
 31
0.0
  0
LINE
  5
19C2
330
1611
100
AcDbEntity
  8
DIM
 62
     0
370
    -2
100
AcDbLine
 10
0.1800000000000005
 20
2.157330300723031
 30
0.0
 11
2.182200000000001
 21
2.157330300723031
 31
0.0
  0
SOLID
  5
19C3
330
1611
100
AcDbEntity
  8
DIM
 62
     0
100
AcDbTrace
 10
0.1800000000000005
 20
2.187330300723031
 30
0.0
 11
0.1800000000000005
 21
2.127330300723031
 31
0.0
 12
0.0000000000000005
 22
2.157330300723031
 32
0.0
 13
0.0000000000000005
 23
2.157330300723031
 33
0.0
  0
SOLID
  5
19C4
330
1611
100
AcDbEntity
  8
DIM
 62
     0
100
AcDbTrace
 10
2.182200000000001
 20
2.187330300723031
 30
0.0
 11
2.182200000000001
 21
2.127330300723031
 31
0.0
 12
2.362200000000001
 22
2.157330300723031
 32
0.0
 13
2.362200000000001
 23
2.157330300723031
 33
0.0
  0
MTEXT
  5
19C5
330
1611
100
AcDbEntity
  8
DIM
 62
     0
100
AcDbMText
 10
1.1811
 20
2.337330300723031
 30
0.0
 40
0.18
 41
0.0
 71
     5
 72
     1
  1
\A1;2.362
  7
ROMANS
 73
     1
 44
1.0
  0
POINT
  5
19C6
330
1611
100
AcDbEntity
  8
Defpoints
 62
     0
100
AcDbPoint
 10
0.0000000000000004
 20
0.6224396999998313
 30
0.0
  0
POINT
  5
19C7
330
1611
100
AcDbEntity
  8
Defpoints
 62
     0
100
AcDbPoint
 10
2.362200000000001
 20
1.18550011999983
 30
0.0
  0
POINT
  5
19C8
330
1611
100
AcDbEntity
  8
Defpoints
 62
     0
100
AcDbPoint
 10
2.362200000000001
 20
2.157330300723031
 30
0.0
  0
ENDBLK
  5
161C
330
1611
100
AcDbEntity
  8
0
100
AcDbBlockEnd
  0
BLOCK
  5
1628
330
161E
100
AcDbEntity
  8
0
100
AcDbBlockBegin
  2
*D2
 70
     1
 10
0.0
 20
0.0
 30
0.0
  3
*D2
  1

  0
LINE
  5
19B7
330
161E
100
AcDbEntity
  8
DIM
 62
     0
370
    -2
100
AcDbLine
 10
2.364700120000009
 20
1.245499999999936
 30
0.0
 11
4.165019656658778
 21
1.245499999999935
 31
0.0
  0
LINE
  5
19B8
330
161E
100
AcDbEntity
  8
DIM
 62
     0
370
    -2
100
AcDbLine
 10
2.364700120000009
 20
-1.245500000000076
 30
0.0
 11
4.165019656658778
 21
-1.245500000000077
 31
0.0
  0
LINE
  5
19B9
330
161E
100
AcDbEntity
  8
DIM
 62
     0
370
    -2
100
AcDbLine
 10
3.985019656658778
 20
1.065499999999935
 30
0.0
 11
3.985019656658777
 21
-1.065500000000077
 31
0.0
  0
SOLID
  5
19BA
330
161E
100
AcDbEntity
  8
DIM
 62
     0
100
AcDbTrace
 10
3.955019656658778
 20
1.065499999999935
 30
0.0
 11
4.015019656658777
 21
1.065499999999935
 31
0.0
 12
3.985019656658778
 22
1.245499999999935
 32
0.0
 13
3.985019656658778
 23
1.245499999999935
 33
0.0
  0
SOLID
  5
19BB
330
161E
100
AcDbEntity
  8
DIM
 62
     0
100
AcDbTrace
 10
3.955019656658777
 20
-1.065500000000077
 30
0.0
 11
4.015019656658777
 21
-1.065500000000077
 31
0.0
 12
3.985019656658777
 22
-1.245500000000077
 32
0.0
 13
3.985019656658777
 23
-1.245500000000077
 33
0.0
  0
MTEXT
  5
19BC
330
161E
100
AcDbEntity
  8
DIM
 62
     0
100
AcDbMText
 10
3.805019656658777
 20
-0.0000000000000702
 30
0.0
 40
0.18
 41
0.0
 71
     5
 72
     1
  1
\A1;%%c2.491
  7
ROMANS
 11
0.0000000000000001
 21
1.0
 31
0.0
 73
     1
 44
1.0
  0
POINT
  5
19BD
330
161E
100
AcDbEntity
  8
Defpoints
 62
     0
100
AcDbPoint
 10
2.302200120000009
 20
1.245499999999936
 30
0.0
  0
POINT
  5
19BE
330
161E
100
AcDbEntity
  8
Defpoints
 62
     0
100
AcDbPoint
 10
2.302200120000009
 20
-1.245500000000076
 30
0.0
  0
POINT
  5
19BF
330
161E
100
AcDbEntity
  8
Defpoints
 62
     0
100
AcDbPoint
 10
3.985019656658777
 20
-1.245500000000077
 30
0.0
  0
ENDBLK
  5
1629
330
161E
100
AcDbEntity
  8
0
100
AcDbBlockEnd
  0
BLOCK
  5
1665
330
165B
100
AcDbEntity
  8
0
100
AcDbBlockBegin
  2
*D3
 70
     1
 10
0.0
 20
0.0
 30
0.0
  3
*D3
  1

  0
LINE
  5
19AE
330
165B
100
AcDbEntity
  8
DIM
 62
     0
370
    -2
100
AcDbLine
 10
0.1249997500000015
 20
1.032409999999686
 30
0.0
 11
0.1249997500000016
 21
1.84591491763262
 31
0.0
  0
LINE
  5
19AF
330
165B
100
AcDbEntity
  8
DIM
 62
     0
370
    -2
100
AcDbLine
 10
2.362200000000001
 20
1.24800011999983
 30
0.0
 11
2.362200000000001
 21
1.845914917632619
 31
0.0
  0
LINE
  5
19B0
330
165B
100
AcDbEntity
  8
DIM
 62
     0
370
    -2
100
AcDbLine
 10
0.3049997500000016
 20
1.66591491763262
 30
0.0
 11
2.182200000000001
 21
1.66591491763262
 31
0.0
  0
SOLID
  5
19B1
330
165B
100
AcDbEntity
  8
DIM
 62
     0
100
AcDbTrace
 10
0.3049997500000016
 20
1.695914917632619
 30
0.0
 11
0.3049997500000016
 21
1.63591491763262
 31
0.0
 12
0.1249997500000016
 22
1.66591491763262
 32
0.0
 13
0.1249997500000016
 23
1.66591491763262
 33
0.0
  0
SOLID
  5
19B2
330
165B
100
AcDbEntity
  8
DIM
 62
     0
100
AcDbTrace
 10
2.182200000000001
 20
1.695914917632619
 30
0.0
 11
2.182200000000001
 21
1.63591491763262
 31
0.0
 12
2.362200000000001
 22
1.66591491763262
 32
0.0
 13
2.362200000000001
 23
1.66591491763262
 33
0.0
  0
MTEXT
  5
19B3
330
165B
100
AcDbEntity
  8
DIM
 62
     0
100
AcDbMText
 10
1.243599875000001
 20
1.845914917632619
 30
0.0
 40
0.18
 41
0.0
 71
     5
 72
     1
  1
\A1;2.237
  7
ROMANS
 73
     1
 44
1.0
  0
POINT
  5
19B4
330
165B
100
AcDbEntity
  8
Defpoints
 62
     0
100
AcDbPoint
 10
0.1249997500000015
 20
0.9699099999996866
 30
0.0
  0
POINT
  5
19B5
330
165B
100
AcDbEntity
  8
Defpoints
 62
     0
100
AcDbPoint
 10
2.362200000000001
 20
1.18550011999983
 30
0.0
  0
POINT
  5
19B6
330
165B
100
AcDbEntity
  8
Defpoints
 62
     0
100
AcDbPoint
 10
2.362200000000001
 20
1.66591491763262
 30
0.0
  0
ENDBLK
  5
1666
330
165B
100
AcDbEntity
  8
0
100
AcDbBlockEnd
  0
BLOCK
  5
1963
330
1962
100
AcDbEntity
  8
0
100
AcDbBlockBegin
  2
*U4
 70
     1
 10
0.0
 20
0.0
 30
0.0
  3
*U4
  1

  0
ENDBLK
  5
1964
330
1962
100
AcDbEntity
  8
0
100
AcDbBlockEnd
  0
BLOCK
  5
19A1
330
199F
100
AcDbEntity
  8
0
100
AcDbBlockBegin
  2
GENAXEH
 70
     0
 10
0.0
 20
0.0
 30
0.0
  3
GENAXEH
  1

  0
LINE
  5
19A0
330
199F
100
AcDbEntity
  8
0
100
AcDbLine
 10
-1.0
 20
0.0
 30
0.0
 11
1.0
 21
0.0
 31
0.0
  0
ENDBLK
  5
19A2
330
199F
100
AcDbEntity
  8
0
100
AcDbBlockEnd
  0
ENDSEC
  0
SECTION
  2
ENTITIES
  0
LINE
  5
1A9
330
17
100
AcDbEntity
  8
LINE
100
AcDbLine
 10
-3.948811000000007
 20
0.4742903899999369
 30
0.0
 11
-3.999991999999989
 21
0.423109389999923
 31
0.0
  0
LINE
  5
1AB
330
17
100
AcDbEntity
  8
HIDDEN
100
AcDbLine
 10
-3.94093699999999
 20
-0.2499995000001713
 30
0.0
 11
-3.811803400000001
 21
-0.2499995000001713
 31
0.0
  0
LINE
  5
1AC
330
17
100
AcDbEntity
  8
HIDDEN
100
AcDbLine
 10
-3.811803400000001
 20
-0.2499995000001713
 30
0.0
 11
-3.811803400000001
 21
-0.00000000000017
 31
0.0
  0
LINE
  5
1AD
330
17
100
AcDbEntity
  8
HIDDEN
100
AcDbLine
 10
-3.780049198703095
 20
-0.1949996100001664
 30
0.0
 11
-3.780049198703095
 21
-0.00000000000017
 31
0.0
  0
LINE
  5
1AE
330
17
100
AcDbEntity
  8
HIDDEN
100
AcDbLine
 10
-3.811803400000001
 20
-0.2499995000001713
 30
0.0
 11
-3.780049198703095
 21
-0.1949996100001664
 31
0.0
  0
LINE
  5
1AF
330
17
100
AcDbEntity
  8
HIDDEN
100
AcDbLine
 10
-3.94093699999999
 20
-0.2499995000001713
 30
0.0
 11
-3.94093699999999
 21
-0.00000000000017
 31
0.0
  0
LINE
  5
1B0
330
17
100
AcDbEntity
  8
HIDDEN
100
AcDbLine
 10
-3.94093699999999
 20
-0.2499995000001713
 30
0.0
 11
-3.999991999999989
 21
-0.2840949201471682
 31
0.0
  0
LINE
  5
1B2
330
17
100
AcDbEntity
  8
HIDDEN
100
AcDbLine
 10
-2.624994750000096
 20
-0.1949996100001664
 30
0.0
 11
-2.624994750000096
 21
-0.00000000000017
 31
0.0
  0
LINE
  5
1B3
330
17
100
AcDbEntity
  8
HIDDEN
100
AcDbLine
 10
-2.75514914183742
 20
-0.2187594049999854
 30
0.0
 11
-2.75514914183742
 21
-0.00000000000017
 31
0.0
  0
LINE
  5
1B4
330
17
100
AcDbEntity
  8
HIDDEN
100
AcDbLine
 10
-2.624994750000096
 20
-0.1949996100001664
 30
0.0
 11
-2.5124116726748
 21
-0.00000000000017
 31
0.0
  0
LINE
  5
1B7
330
17
100
AcDbEntity
  8
LINE
100
AcDbLine
 10
0.0000000000000004
 20
0.6224396999998313
 30
0.0
 11
0.0856297500000105
 21
0.6224396999998313
 31
0.0
  0
LINE
  5
1B8
330
17
100
AcDbEntity
  8
LINE
100
AcDbLine
 10
0.0000000000000004
 20
0.6224396999998313
 30
0.0
 11
-1.067303323746897
 21
0.4724399999999214
 31
0.0
  0
LINE
  5
1BA
330
17
100
AcDbEntity
  8
LINE
100
AcDbLine
 10
0.1249997500000015
 20
0.9699099999996866
 30
0.0
 11
0.1249997500000015
 21
-0.00000000000017
 31
0.0
  0
LINE
  5
1BB
330
17
100
AcDbEntity
  8
CTRL
100
AcDbLine
 10
-4.196842000000003
 20
-0.00000000000017
 30
0.0
 11
3.269091763463904
 21
-0.00000000000017
 31
0.0
  0
LINE
  5
1BC
330
17
100
AcDbEntity
  8
HIDDEN
100
AcDbLine
 10
-2.666476379719824
 20
-0.1949996100001664
 30
0.0
 11
-2.75514914183742
 21
-0.2187594049999854
 31
0.0
  0
LINE
  5
1BD
330
17
100
AcDbEntity
  8
HIDDEN
100
AcDbLine
 10
-3.780049198703095
 20
-0.1949996100001664
 30
0.0
 11
-2.624994750000096
 21
-0.1949996100001664
 31
0.0
  0
LINE
  5
1BE
330
17
100
AcDbEntity
  8
HIDDEN
100
AcDbLine
 10
-3.793766922742321
 20
-0.2187594049999854
 30
0.0
 11
-2.75514914183742
 21
-0.2187594049999854
 31
0.0
  0
LINE
  5
1C1
330
17
100
AcDbEntity
  8
LINE
100
AcDbLine
 10
2.302200120000009
 20
1.245499999999936
 30
0.0
 11
2.302200120000009
 21
-0.00000000000017
 31
0.0
  0
LINE
  5
1E2
330
17
100
AcDbEntity
  8
LINE
100
AcDbLine
 10
2.362200000000001
 20
1.18550011999983
 30
0.0
 11
2.302200120000009
 21
1.245499999999936
 31
0.0
  0
LINE
  5
1E3
330
17
100
AcDbEntity
  8
LINE
100
AcDbLine
 10
2.362200000000001
 20
-0.00000000000017
 30
0.0
 11
2.362199999999916
 21
1.18550011999983
 31
0.0
  0
LINE
  5
1E6
330
17
100
AcDbEntity
  8
LINE
100
AcDbLine
 10
0.4005897499999956
 20
1.245499999999936
 30
0.0
 11
2.302200120000009
 21
1.245499999999936
 31
0.0
  0
LINE
  5
1F0
330
17
100
AcDbEntity
  8
LINE
100
AcDbLine
 10
-1.067303323746897
 20
-0.00000000000017
 30
0.0
 11
-1.067303323746897
 21
0.4724399999999214
 31
0.0
  0
LINE
  5
1F1
330
17
100
AcDbEntity
  8
LINE
100
AcDbLine
 10
-2.897631999999986
 20
-0.00000000000017
 30
0.0
 11
-2.897631999999986
 21
0.4742903899999369
 31
0.0
  0
LINE
  5
1F2
330
17
100
AcDbEntity
  8
LINE
100
AcDbLine
 10
-2.897631999999986
 20
0.4724399999999214
 30
0.0
 11
-1.067303323746897
 21
0.4724399999999214
 31
0.0
  0
LINE
  5
1F3
330
17
100
AcDbEntity
  8
LINE
100
AcDbLine
 10
-3.948811000000007
 20
0.4742903899999369
 30
0.0
 11
-2.897631999999986
 21
0.4742903899999369
 31
0.0
  0
LINE
  5
1F4
330
17
100
AcDbEntity
  8
LINE
100
AcDbLine
 10
-2.897631999999986
 20
0.4724399999999214
 30
0.0
 11
-2.897631999999986
 21
0.4742903899999369
 31
0.0
  0
ARC
  5
1F6
330
17
100
AcDbEntity
  8
LINE
100
AcDbCircle
 10
0.0856297500000105
 20
0.6618096999999358
 30
0.0
 40
0.03937
100
AcDbArc
 50
270.0
 51
0.0000000000002163
  0
LINE
  5
206
330
17
100
AcDbEntity
  8
LINE
100
AcDbLine
 10
0.0000000000000004
 20
0.6224396999998313
 30
0.0
 11
0.0000000000000004
 21
-0.00000000000017
 31
0.0
  0
LINE
  5
F0F
330
17
100
AcDbEntity
  8
LINE
100
AcDbLine
 10
0.1249997500000015
 20
0.9699099999996866
 30
0.0
 11
0.4005897499999956
 21
1.245499999999936
 31
0.0
  0
LINE
  5
11C4
330
17
100
AcDbEntity
  8
LINE
100
AcDbLine
 10
0.4005897499999956
 20
1.245499999999936
 30
0.0
 11
0.4005897499999956
 21
-0.00000000000017
 31
0.0
  0
LINE
  5
155E
330
17
100
AcDbEntity
  8
LINE
100
AcDbLine
 10
0.4005897499999956
 20
-1.245500000000076
 30
0.0
 11
2.302200120000009
 21
-1.245500000000076
 31
0.0
  0
LINE
  5
155F
330
17
100
AcDbEntity
  8
LINE
100
AcDbLine
 10
-3.948811000000007
 20
-0.4742903900001631
 30
0.0
 11
-2.897631999999986
 21
-0.4742903900001631
 31
0.0
  0
LINE
  5
1560
330
17
100
AcDbEntity
  8
HIDDEN
100
AcDbLine
 10
-3.793766922742321
 20
0.2187594049999296
 30
0.0
 11
-2.75514914183742
 21
0.2187594049999296
 31
0.0
  0
LINE
  5
1561
330
17
100
AcDbEntity
  8
HIDDEN
100
AcDbLine
 10
-3.780049198703095
 20
0.1949996099999401
 30
0.0
 11
-2.624994750000096
 21
0.1949996099999401
 31
0.0
  0
LINE
  5
1562
330
17
100
AcDbEntity
  8
HIDDEN
100
AcDbLine
 10
-3.94093699999999
 20
0.2499994999998313
 30
0.0
 11
-3.94093699999999
 21
-0.00000000000017
 31
0.0
  0
LINE
  5
1563
330
17
100
AcDbEntity
  8
HIDDEN
100
AcDbLine
 10
-3.780049198703095
 20
0.1949996099999401
 30
0.0
 11
-3.780049198703095
 21
-0.00000000000017
 31
0.0
  0
LINE
  5
1564
330
17
100
AcDbEntity
  8
HIDDEN
100
AcDbLine
 10
-3.811803400000001
 20
0.2499994999998313
 30
0.0
 11
-3.811803400000001
 21
-0.00000000000017
 31
0.0
  0
LINE
  5
1565
330
17
100
AcDbEntity
  8
HIDDEN
100
AcDbLine
 10
-3.94093699999999
 20
0.2499994999998313
 30
0.0
 11
-3.999991999999989
 21
0.2840949201469135
 31
0.0
  0
LINE
  5
1566
330
17
100
AcDbEntity
  8
HIDDEN
100
AcDbLine
 10
-3.94093699999999
 20
0.2499994999998313
 30
0.0
 11
-3.811803400000001
 21
0.2499994999998313
 31
0.0
  0
LINE
  5
1567
330
17
100
AcDbEntity
  8
HIDDEN
100
AcDbLine
 10
-3.811803400000001
 20
0.2499994999998313
 30
0.0
 11
-3.780049198703095
 21
0.1949996099999401
 31
0.0
  0
LINE
  5
1568
330
17
100
AcDbEntity
  8
LINE
100
AcDbLine
 10
-3.948811000000007
 20
-0.4742903900001631
 30
0.0
 11
-3.999991999999989
 21
-0.4231093900000639
 31
0.0
  0
LINE
  5
1569
330
17
100
AcDbEntity
  8
LINE
100
AcDbLine
 10
0.0000000000000004
 20
-0.6224397000001712
 30
0.0
 11
-1.067303323746897
 21
-0.4724400000000623
 31
0.0
  0
LINE
  5
156A
330
17
100
AcDbEntity
  8
LINE
100
AcDbLine
 10
-2.897631999999986
 20
-0.00000000000017
 30
0.0
 11
-2.897631999999986
 21
-0.4742903900001631
 31
0.0
  0
LINE
  5
156B
330
17
100
AcDbEntity
  8
LINE
100
AcDbLine
 10
-1.067303323746897
 20
-0.00000000000017
 30
0.0
 11
-1.067303323746897
 21
-0.4724400000000623
 31
0.0
  0
LINE
  5
156C
330
17
100
AcDbEntity
  8
HIDDEN
100
AcDbLine
 10
-2.624994750000096
 20
0.1949996099999401
 30
0.0
 11
-2.5124116726748
 21
-0.00000000000017
 31
0.0
  0
LINE
  5
156D
330
17
100
AcDbEntity
  8
HIDDEN
100
AcDbLine
 10
-2.75514914183742
 20
0.2187594049999296
 30
0.0
 11
-2.75514914183742
 21
-0.00000000000017
 31
0.0
  0
LINE
  5
156E
330
17
100
AcDbEntity
  8
HIDDEN
100
AcDbLine
 10
-2.624994750000096
 20
0.1949996099999401
 30
0.0
 11
-2.624994750000096
 21
-0.00000000000017
 31
0.0
  0
LINE
  5
156F
330
17
100
AcDbEntity
  8
HIDDEN
100
AcDbLine
 10
-2.666476379719824
 20
0.1949996099999401
 30
0.0
 11
-2.75514914183742
 21
0.2187594049999296
 31
0.0
  0
LINE
  5
1570
330
17
100
AcDbEntity
  8
LINE
100
AcDbLine
 10
-2.897631999999986
 20
-0.4724400000000623
 30
0.0
 11
-1.067303323746897
 21
-0.4724400000000623
 31
0.0
  0
LINE
  5
1571
330
17
100
AcDbEntity
  8
LINE
100
AcDbLine
 10
-2.897631999999986
 20
-0.4724400000000623
 30
0.0
 11
-2.897631999999986
 21
-0.4742903900001631
 31
0.0
  0
LINE
  5
1572
330
17
100
AcDbEntity
  8
LINE
100
AcDbLine
 10
0.0000000000000004
 20
-0.6224397000001712
 30
0.0
 11
0.0000000000000004
 21
-0.00000000000017
 31
0.0
  0
LINE
  5
1573
330
17
100
AcDbEntity
  8
LINE
100
AcDbLine
 10
0.1249997500000015
 20
-0.9699099999999695
 30
0.0
 11
0.1249997500000015
 21
-0.00000000000017
 31
0.0
  0
LINE
  5
1574
330
17
100
AcDbEntity
  8
LINE
100
AcDbLine
 10
0.4005897499999956
 20
-1.245500000000076
 30
0.0
 11
0.4005897499999956
 21
-0.00000000000017
 31
0.0
  0
LINE
  5
1575
330
17
100
AcDbEntity
  8
LINE
100
AcDbLine
 10
0.1249997500000015
 20
-0.9699100000000834
 30
0.0
 11
0.4005897499999956
 21
-1.245500000000076
 31
0.0
  0
LINE
  5
1576
330
17
100
AcDbEntity
  8
LINE
100
AcDbLine
 10
0.0000000000000004
 20
-0.6224397000001712
 30
0.0
 11
0.0856297500000105
 21
-0.6224397000001712
 31
0.0
  0
ARC
  5
1577
330
17
100
AcDbEntity
  8
LINE
100
AcDbCircle
 10
0.0856297500000105
 20
-0.6618096999999917
 30
0.0
 40
0.03937
100
AcDbArc
 50
359.9999999999997
 51
90.00000000000005
  0
LINE
  5
1578
330
17
100
AcDbEntity
  8
LINE
100
AcDbLine
 10
2.362200000000001
 20
-0.00000000000017
 30
0.0
 11
2.362199999999916
 21
-1.18550011999997
 31
0.0
  0
LINE
  5
1579
330
17
100
AcDbEntity
  8
LINE
100
AcDbLine
 10
2.302200120000009
 20
-1.245500000000076
 30
0.0
 11
2.302200120000009
 21
-0.00000000000017
 31
0.0
  0
LINE
  5
157A
330
17
100
AcDbEntity
  8
LINE
100
AcDbLine
 10
2.362200000000001
 20
-1.18550011999997
 30
0.0
 11
2.302200120000009
 21
-1.245500000000076
 31
0.0
  0
LINE
  5
157B
330
17
100
AcDbEntity
  8
LINE
100
AcDbLine
 10
-3.999991999999989
 20
-0.4231093900000639
 30
0.0
 11
-3.999991999999989
 21
0.423109389999923
 31
0.0
  0
LINE
  5
15B5
330
17
100
AcDbEntity
  8
HIDDEN
100
AcDbLine
 10
0.6022035199999896
 20
0.70849858299971
 30
0.0
 11
0.6022035199999896
 21
-0.7084985830000785
 31
0.0
  0
LINE
  5
15B6
330
17
100
AcDbEntity
  8
HIDDEN
100
AcDbLine
 10
0.6022035199999896
 20
-0.7084985830000785
 30
0.0
 11
0.1931516723844884
 21
-0.00000000000017
 31
0.0
  0
LINE
  5
15BA
330
17
100
AcDbEntity
  8
HIDDEN
100
AcDbLine
 10
0.6022035199999896
 20
-0.7084985830000785
 30
0.0
 11
2.362200000000001
 21
-0.7084985830000785
 31
0.0
  0
LINE
  5
15BB
330
17
100
AcDbEntity
  8
HIDDEN
100
AcDbLine
 10
1.705201313999992
 20
-0.9919980160000811
 30
0.0
 11
1.705201313999992
 21
-0.7084985830000785
 31
0.0
  0
LINE
  5
15D9
330
17
100
AcDbEntity
  8
HIDDEN
100
AcDbLine
 10
0.6022035199999896
 20
0.70849858299971
 30
0.0
 11
0.1931516723844884
 21
-0.00000000000017
 31
0.0
  0
LINE
  5
15DA
330
17
100
AcDbEntity
  8
HIDDEN
100
AcDbLine
 10
0.6022035199999896
 20
0.70849858299971
 30
0.0
 11
2.362200000000001
 21
0.70849858299971
 31
0.0
  0
CIRCLE
  5
15E2
330
17
100
AcDbEntity
  8
HIDDEN
100
AcDbCircle
 10
1.730201263999987
 20
-0.00000000000017
 30
0.0
 40
0.2359995280000033
  0
CIRCLE
  5
15E3
330
17
100
AcDbEntity
  8
LINE
100
AcDbCircle
 10
1.730201263999987
 20
-0.00000000000017
 30
0.0
 40
0.2159995680000035
  0
LWPOLYLINE
  5
15E4
330
17
100
AcDbEntity
  8
LINE
100
AcDbPolyline
 90
       16
 70
     1
 43
0.0
 10
1.461855334031895
 20
-0.00000000000017
 42
0.1075270714354371
 10
1.481857714992571
 20
-0.0919355086409718
 42
0.1017862429383482
 10
1.540452037215771
 20
-0.1720740636260695
 42
0.0945967217597763
 10
1.626328864332492
 20
-0.2244842144938838
 42
0.0900730289486178
 10
1.730201263999987
 20
-0.2433494745125694
 42
0.0900730289486174
 10
1.834073663667396
 20
-0.2244842144938838
 42
0.0945967217597764
 10
1.919950490784088
 20
-0.1720740636260695
 42
0.1017862429383479
 10
1.978544813007005
 20
-0.0919355086409718
 42
0.1075270714354359
 10
1.998547193967993
 20
-0.00000000000017
 42
0.1075270714354361
 10
1.978544813007005
 20
0.0919355086408308
 42
0.1017862429383472
 10
1.919950490784088
 20
0.1720740636259284
 42
0.0945967217597756
 10
1.834073663667396
 20
0.2244842144934301
 42
0.0900730289486177
 10
1.730201263999987
 20
0.2433494745125136
 42
0.0900730289486173
 10
1.626328864332492
 20
0.2244842144934301
 42
0.0945967217597766
 10
1.540452037215771
 20
0.1720740636259284
 42
0.1017862429383487
 10
1.481857714992571
 20
0.0919355086408308
 42
0.1075270714354371
  0
LWPOLYLINE
  5
15E5
330
17
100
AcDbEntity
  8
LINE
100
AcDbPolyline
 90
        6
 70
     1
 43
0.0
 10
1.630756008010678
 20
0.1722442359448172
 10
1.531310752021681
 20
-0.00000000000017
 10
1.630756008010678
 20
-0.1722442359448729
 10
1.829646519989097
 20
-0.1722442359448729
 10
1.929091775978093
 20
-0.00000000000017
 10
1.829646519989097
 20
0.1722442359448172
  0
LINE
  5
15E7
330
17
100
AcDbEntity
  8
HIDDEN
100
AcDbLine
 10
2.362200000000001
 20
-0.9919980160000811
 30
0.0
 11
1.705201313999992
 21
-0.9919980160000811
 31
0.0
  0
LINE
  5
15E8
330
17
100
AcDbEntity
  8
HIDDEN
100
AcDbLine
 10
1.705201313999992
 20
0.9919980159999401
 30
0.0
 11
1.705201313999992
 21
0.70849858299971
 31
0.0
  0
LINE
  5
15E9
330
17
100
AcDbEntity
  8
HIDDEN
100
AcDbLine
 10
2.362200000000001
 20
0.9919980159999401
 30
0.0
 11
1.705201313999992
 21
0.9919980159999401
 31
0.0
  0
DIMENSION
  5
1602
330
17
100
AcDbEntity
  8
DIM
100
AcDbDimension
  2
*D0
 10
2.362200000000001
 20
2.693036933843131
 30
0.0
 11
-0.8188959999999942
 21
2.873036933843131
 31
0.0
 70
    32
 71
     5
 42
6.362191999999991
  3
STANDARD
100
AcDbAlignedDimension
 13
-3.999991999999989
 23
0.423109389999923
 33
0.0
 14
2.362200000000001
 24
1.18550011999983
 34
0.0
100
AcDbRotatedDimension
  0
DIMENSION
  5
1610
330
17
100
AcDbEntity
  8
DIM
100
AcDbDimension
  2
*D1
 10
2.362200000000001
 20
2.157330300723031
 30
0.0
 11
1.1811
 21
2.337330300723031
 31
0.0
 70
    32
 71
     5
 42
2.3622
  3
STANDARD
100
AcDbAlignedDimension
 13
0.0000000000000004
 23
0.6224396999998313
 33
0.0
 14
2.362200000000001
 24
1.18550011999983
 34
0.0
100
AcDbRotatedDimension
  0
DIMENSION
  5
161D
330
17
100
AcDbEntity
  8
DIM
100
AcDbDimension
  2
*D2
 10
3.985019656658777
 20
-1.245500000000077
 30
0.0
 11
3.805019656658777
 21
-0.0000000000000702
 31
0.0
 70
    32
  1
%%c<>
 71
     5
 42
2.491000000000012
  3
STANDARD
100
AcDbAlignedDimension
 13
2.302200120000009
 23
1.245499999999936
 33
0.0
 14
2.302200120000009
 24
-1.245500000000076
 34
0.0
 50
90.0
100
AcDbRotatedDimension
  0
DIMENSION
  5
165A
330
17
100
AcDbEntity
  8
DIM
100
AcDbDimension
  2
*D3
 10
2.362200000000001
 20
1.66591491763262
 30
0.0
 11
1.243599875000001
 21
1.845914917632619
 31
0.0
 70
    32
 71
     5
 42
2.237200249999999
  3
STANDARD
100
AcDbAlignedDimension
 13
0.1249997500000015
 23
0.9699099999996866
 33
0.0
 14
2.362200000000001
 24
1.18550011999983
 34
0.0
100
AcDbRotatedDimension
  0
LINE
  5
180E
330
17
100
AcDbEntity
  8
LINE
100
AcDbLine
 10
-1.970631289783823
 20
1.436097960021613
 30
0.0
 11
-1.919409652003224
 21
1.436097960021613
 31
0.0
  0
LINE
  5
180F
330
17
100
AcDbEntity
  8
LINE
100
AcDbLine
 10
-1.970631289783823
 20
1.092181249209432
 30
0.0
 11
-1.919409652003224
 21
1.092181249209432
 31
0.0
  0
LINE
  5
1810
330
17
100
AcDbEntity
  8
LINE
100
AcDbLine
 10
-1.970631289783823
 20
1.092181249209432
 30
0.0
 11
-1.970631289783823
 21
1.436097960021613
 31
0.0
  0
LINE
  5
1811
330
17
100
AcDbEntity
  8
LINE
100
AcDbLine
 10
-2.045758938162236
 20
1.092181249209432
 30
0.0
 11
-2.125614632031925
 21
1.344827652580932
 31
0.0
  0
LINE
  5
1812
330
17
100
AcDbEntity
  8
LINE
100
AcDbLine
 10
-2.083030816894506
 20
1.436097960021613
 30
0.0
 11
-1.990878611968724
 21
1.092181249209432
 31
0.0
  0
LINE
  5
1813
330
17
100
AcDbEntity
  8
LINE
100
AcDbLine
 10
-2.299895324708729
 20
1.092181249209432
 30
0.0
 11
-2.345171286175001
 21
1.205619942759853
 31
0.0
  0
LINE
  5
1814
330
17
100
AcDbEntity
  8
LINE
100
AcDbLine
 10
-2.374962599441089
 20
1.141732265289619
 30
0.0
 11
-2.345171286175001
 21
1.205619942759853
 31
0.0
  0
ARC
  5
1815
330
17
100
AcDbEntity
  8
LINE
100
AcDbCircle
 10
-2.647267789435914
 20
1.189593828202703
 30
0.0
 40
0.0584981162543635
100
AcDbArc
 50
180.0
 51
242.058895930237
  0
ARC
  5
1816
330
17
100
AcDbEntity
  8
LINE
100
AcDbCircle
 10
-2.657447807111423
 20
1.189593828202703
 30
0.0
 40
0.1031984247723265
100
AcDbArc
 50
180.0
 51
250.723207331739
  0
ARC
  5
1817
330
17
100
AcDbEntity
  8
LINE
100
AcDbCircle
 10
-2.670463424300606
 20
1.189593828202703
 30
0.0
 40
0.0584981162543635
100
AcDbArc
 50
297.9411040697626
 51
0.0
  0
ARC
  5
1818
330
17
100
AcDbEntity
  8
LINE
100
AcDbCircle
 10
-2.663002560093104
 20
1.189593828202703
 30
0.0
 40
0.1031984247723242
100
AcDbArc
 50
289.2767926682576
 51
0.0
  0
LINE
  5
1819
330
17
100
AcDbEntity
  8
LINE
100
AcDbLine
 10
-2.23769762168942
 20
1.092181249209432
 30
0.0
 11
-2.311658174648526
 21
1.277489042356335
 31
0.0
  0
LINE
  5
181A
330
17
100
AcDbEntity
  8
LINE
100
AcDbLine
 10
-2.437160302460312
 20
1.436097960021613
 30
0.0
 11
-2.437160302460312
 21
1.092181249209432
 31
0.0
  0
LINE
  5
181B
330
17
100
AcDbEntity
  8
LINE
100
AcDbLine
 10
-2.85025331257924
 20
1.092181249209432
 30
0.0
 11
-2.85025331257924
 21
1.436097960021613
 31
0.0
  0
LINE
  5
181C
330
17
100
AcDbEntity
  8
LINE
100
AcDbLine
 10
-2.799031674798724
 20
1.436097960021613
 30
0.0
 11
-2.799031674798724
 21
1.092181249209432
 31
0.0
  0
ARC
  5
181D
330
17
100
AcDbEntity
  8
LINE
100
AcDbCircle
 10
-2.999298044473901
 20
1.189593828202703
 30
0.0
 40
0.0584981162543635
100
AcDbArc
 50
297.9411040697626
 51
62.05889593023725
  0
LINE
  5
181E
330
17
100
AcDbEntity
  8
LINE
100
AcDbLine
 10
-3.034600525863594
 20
1.137914854370621
 30
0.0
 11
-3.034600525863594
 21
1.241272802034927
 31
0.0
  0
ARC
  5
181F
330
17
100
AcDbEntity
  8
LINE
100
AcDbCircle
 10
-2.991837180266515
 20
1.189593828202703
 30
0.0
 40
0.1031984247723242
100
AcDbArc
 50
289.2767926682576
 51
46.24915972781805
  0
LINE
  5
1820
330
17
100
AcDbEntity
  8
LINE
100
AcDbLine
 10
-2.221313705120024
 20
1.092181249209432
 30
0.0
 11
-2.154463068554718
 21
1.436097960021613
 31
0.0
  0
LINE
  5
1821
330
17
100
AcDbEntity
  8
LINE
100
AcDbLine
 10
-3.089480852057107
 20
1.092181249209432
 30
0.0
 11
-3.089480852057107
 21
1.436097960021613
 31
0.0
  0
LINE
  5
1822
330
17
100
AcDbEntity
  8
LINE
100
AcDbLine
 10
-2.165834405712615
 20
1.137914854370621
 30
0.0
 11
-2.125614632031925
 21
1.344827652580932
 31
0.0
  0
LINE
  5
1823
330
17
100
AcDbEntity
  8
LINE
100
AcDbLine
 10
-3.019965772212003
 20
1.092181249209432
 30
0.0
 11
-2.957768069192807
 21
1.092181249209432
 31
0.0
  0
LINE
  5
1824
330
17
100
AcDbEntity
  8
LINE
100
AcDbLine
 10
-3.034600525863594
 20
1.137914854370621
 30
0.0
 11
-2.971887950184338
 21
1.137914854370621
 31
0.0
  0
LINE
  5
1825
330
17
100
AcDbEntity
  8
LINE
100
AcDbLine
 10
-3.089480852057107
 20
1.092181249209432
 30
0.0
 11
-2.957768069192807
 21
1.092181249209432
 31
0.0
  0
LINE
  5
1826
330
17
100
AcDbEntity
  8
LINE
100
AcDbLine
 10
-2.437160302460312
 20
1.092181249209432
 30
0.0
 11
-2.374962599441089
 21
1.092181249209432
 31
0.0
  0
LINE
  5
1827
330
17
100
AcDbEntity
  8
LINE
100
AcDbLine
 10
-2.85025331257924
 20
1.092181249209432
 30
0.0
 11
-2.799031674798724
 21
1.092181249209432
 31
0.0
  0
LINE
  5
1828
330
17
100
AcDbEntity
  8
LINE
100
AcDbLine
 10
-2.691131152038735
 20
1.092181249209432
 30
0.0
 11
-2.628933449019512
 21
1.092181249209432
 31
0.0
  0
LINE
  5
1829
330
17
100
AcDbEntity
  8
LINE
100
AcDbLine
 10
-2.6915169181851
 20
1.092181249209432
 30
0.0
 11
-2.628933449019512
 21
1.092181249209432
 31
0.0
  0
LINE
  5
182A
330
17
100
AcDbEntity
  8
LINE
100
AcDbLine
 10
-2.674677883725507
 20
1.137914854370621
 30
0.0
 11
-2.643053330011098
 21
1.137914854370621
 31
0.0
  0
LINE
  5
182B
330
17
100
AcDbEntity
  8
LINE
100
AcDbLine
 10
-1.990878611968724
 20
1.092181249209432
 30
0.0
 11
-2.045758938162236
 21
1.092181249209432
 31
0.0
  0
LINE
  5
182C
330
17
100
AcDbEntity
  8
LINE
100
AcDbLine
 10
-2.089600922255812
 20
1.092181249209432
 30
0.0
 11
-2.101855204825739
 21
1.137914854370621
 31
0.0
  0
LINE
  5
182D
330
17
100
AcDbEntity
  8
LINE
100
AcDbLine
 10
-2.374962599441089
 20
1.092181249209432
 30
0.0
 11
-2.374962599441089
 21
1.141732265289619
 31
0.0
  0
LINE
  5
182E
330
17
100
AcDbEntity
  8
LINE
100
AcDbLine
 10
-2.299895324708729
 20
1.092181249209432
 30
0.0
 11
-2.23769762168942
 21
1.092181249209432
 31
0.0
  0
LINE
  5
182F
330
17
100
AcDbEntity
  8
LINE
100
AcDbLine
 10
-2.165834405712615
 20
1.137914854370621
 30
0.0
 11
-2.101855204825739
 21
1.137914854370621
 31
0.0
  0
LINE
  5
1830
330
17
100
AcDbEntity
  8
LINE
100
AcDbLine
 10
-2.221313705120024
 20
1.092181249209432
 30
0.0
 11
-2.089600922255812
 21
1.092181249209432
 31
0.0
  0
ARC
  5
1831
330
17
100
AcDbEntity
  8
LINE
100
AcDbCircle
 10
-2.991837180266515
 20
1.338685381028228
 30
0.0
 40
0.1031984247723265
100
AcDbArc
 50
313.7508402721819
 51
70.72320733173923
  0
ARC
  5
1832
330
17
100
AcDbEntity
  8
LINE
100
AcDbCircle
 10
-2.999298044473901
 20
1.338685381028228
 30
0.0
 40
0.0584981162543635
100
AcDbArc
 50
297.9411040697626
 51
62.05889593023725
  0
LINE
  5
1833
330
17
100
AcDbEntity
  8
LINE
100
AcDbLine
 10
-3.034600525863594
 20
1.287006407196117
 30
0.0
 11
-3.034600525863594
 21
1.390364354860424
 31
0.0
  0
LINE
  5
1834
330
17
100
AcDbEntity
  8
LINE
100
AcDbLine
 10
-2.971887950184338
 20
1.241272802034927
 30
0.0
 11
-3.034600525863594
 21
1.241272802034927
 31
0.0
  0
LINE
  5
1835
330
17
100
AcDbEntity
  8
LINE
100
AcDbLine
 10
-2.971887950184338
 20
1.287006407196117
 30
0.0
 11
-3.034600525863594
 21
1.287006407196117
 31
0.0
  0
LINE
  5
1836
330
17
100
AcDbEntity
  8
LINE
100
AcDbLine
 10
-3.034600525863594
 20
1.390364354860424
 30
0.0
 11
-2.971887950184338
 21
1.390364354860424
 31
0.0
  0
LINE
  5
1837
330
17
100
AcDbEntity
  8
LINE
100
AcDbLine
 10
-3.019965772212003
 20
1.436097960021613
 30
0.0
 11
-2.957768069192807
 21
1.436097960021613
 31
0.0
  0
LINE
  5
1838
330
17
100
AcDbEntity
  8
LINE
100
AcDbLine
 10
-3.089480852057107
 20
1.436097960021613
 30
0.0
 11
-2.957768069192807
 21
1.436097960021613
 31
0.0
  0
LINE
  5
1839
330
17
100
AcDbEntity
  8
LINE
100
AcDbLine
 10
-2.437160302460312
 20
1.436097960021613
 30
0.0
 11
-2.374962599441089
 21
1.436097960021613
 31
0.0
  0
ARC
  5
183A
330
17
100
AcDbEntity
  8
LINE
100
AcDbCircle
 10
-2.657447807111423
 20
1.338685381028228
 30
0.0
 40
0.1031984247723265
100
AcDbArc
 50
109.2767926682607
 51
180.0
  0
ARC
  5
183B
330
17
100
AcDbEntity
  8
LINE
100
AcDbCircle
 10
-2.647267789435914
 20
1.338685381028228
 30
0.0
 40
0.0584981162543635
100
AcDbArc
 50
117.9411040697627
 51
180.0
  0
LINE
  5
183C
330
17
100
AcDbEntity
  8
LINE
100
AcDbLine
 10
-2.658865606868316
 20
1.241272802034927
 30
0.0
 11
-2.658865606868316
 21
1.287006407196117
 31
0.0
  0
LINE
  5
183D
330
17
100
AcDbEntity
  8
LINE
100
AcDbLine
 10
-2.705765905690327
 20
1.241272802034927
 30
0.0
 11
-2.705765905690327
 21
1.338685381028228
 31
0.0
  0
LINE
  5
183E
330
17
100
AcDbEntity
  8
LINE
100
AcDbLine
 10
-2.611965308046221
 20
1.241272802034927
 30
0.0
 11
-2.658865606868316
 21
1.241272802034927
 31
0.0
  0
LINE
  5
183F
330
17
100
AcDbEntity
  8
LINE
100
AcDbLine
 10
-2.674677883725507
 20
1.390364354860424
 30
0.0
 11
-2.643053330011098
 21
1.390364354860424
 31
0.0
  0
LINE
  5
1840
330
17
100
AcDbEntity
  8
LINE
100
AcDbLine
 10
-2.85025331257924
 20
1.436097960021613
 30
0.0
 11
-2.799031674798724
 21
1.436097960021613
 31
0.0
  0
LINE
  5
1841
330
17
100
AcDbEntity
  8
LINE
100
AcDbLine
 10
-2.6915169181851
 20
1.436097960021613
 30
0.0
 11
-2.628933449019512
 21
1.436097960021613
 31
0.0
  0
LINE
  5
1842
330
17
100
AcDbEntity
  8
LINE
100
AcDbLine
 10
-2.691131152038735
 20
1.436097960021613
 30
0.0
 11
-2.628933449019512
 21
1.436097960021613
 31
0.0
  0
ARC
  5
1843
330
17
100
AcDbEntity
  8
LINE
100
AcDbCircle
 10
-2.670463424300606
 20
1.338685381028228
 30
0.0
 40
0.0584981162543635
100
AcDbArc
 50
0.0
 51
62.05889593023725
  0
ARC
  5
1844
330
17
100
AcDbEntity
  8
LINE
100
AcDbCircle
 10
-2.663002560093217
 20
1.338685381028228
 30
0.0
 40
0.1031984247723265
100
AcDbArc
 50
0.0
 51
70.72320733173923
  0
LINE
  5
1845
330
17
100
AcDbEntity
  8
LINE
100
AcDbLine
 10
-2.611965308046221
 20
1.338685381028228
 30
0.0
 11
-2.559804135320802
 21
1.338685381028228
 31
0.0
  0
LINE
  5
1846
330
17
100
AcDbEntity
  8
LINE
100
AcDbLine
 10
-2.559804135320802
 20
1.287006407196117
 30
0.0
 11
-2.658865606868316
 21
1.287006407196117
 31
0.0
  0
LINE
  5
1847
330
17
100
AcDbEntity
  8
LINE
100
AcDbLine
 10
-2.760646231883725
 20
1.189593828202703
 30
0.0
 11
-2.760646231883725
 21
1.338685381028228
 31
0.0
  0
LINE
  5
1848
330
17
100
AcDbEntity
  8
LINE
100
AcDbLine
 10
-2.611965308046221
 20
1.189593828202703
 30
0.0
 11
-2.611965308046221
 21
1.241272802034927
 31
0.0
  0
LINE
  5
1849
330
17
100
AcDbEntity
  8
LINE
100
AcDbLine
 10
-2.705765905690327
 20
1.189593828202703
 30
0.0
 11
-2.705765905690327
 21
1.241272802034927
 31
0.0
  0
LINE
  5
184A
330
17
100
AcDbEntity
  8
LINE
100
AcDbLine
 10
-2.559804135320802
 20
1.189593828202703
 30
0.0
 11
-2.559804135320802
 21
1.287006407196117
 31
0.0
  0
LINE
  5
184B
330
17
100
AcDbEntity
  8
LINE
100
AcDbLine
 10
-2.311658174648526
 20
1.277489042356335
 30
0.0
 11
-2.23769762168942
 21
1.436097960021613
 31
0.0
  0
LINE
  5
184C
330
17
100
AcDbEntity
  8
LINE
100
AcDbLine
 10
-2.374962599441089
 20
1.275115669854216
 30
0.0
 11
-2.299895324708729
 21
1.436097960021613
 31
0.0
  0
LINE
  5
184D
330
17
100
AcDbEntity
  8
LINE
100
AcDbLine
 10
-2.374962599441089
 20
1.436097960021613
 30
0.0
 11
-2.374962599441089
 21
1.275115669854216
 31
0.0
  0
LINE
  5
184E
330
17
100
AcDbEntity
  8
LINE
100
AcDbLine
 10
-2.299895324708729
 20
1.436097960021613
 30
0.0
 11
-2.23769762168942
 21
1.436097960021613
 31
0.0
  0
LINE
  5
184F
330
17
100
AcDbEntity
  8
LINE
100
AcDbLine
 10
-2.154463068554718
 20
1.436097960021613
 30
0.0
 11
-2.083030816894506
 21
1.436097960021613
 31
0.0
  0
LINE
  5
1850
330
17
100
AcDbEntity
  8
LINE
100
AcDbLine
 10
-1.366947701655902
 20
1.113799753353419
 30
0.0
 11
-1.366947701655902
 21
1.218405999454319
 31
0.0
  0
LINE
  5
1851
330
17
100
AcDbEntity
  8
LINE
100
AcDbLine
 10
-1.4218280278493
 20
1.208344606318832
 30
0.0
 11
-1.4218280278493
 21
1.110337055340834
 31
0.0
  0
LINE
  5
1852
330
17
100
AcDbEntity
  8
LINE
100
AcDbLine
 10
-1.480367042455724
 20
1.092181249209432
 30
0.0
 11
-1.480367042455724
 21
1.241272802034927
 31
0.0
  0
LINE
  5
1853
330
17
100
AcDbEntity
  8
LINE
100
AcDbLine
 10
-1.535247368649095
 20
1.092181249209432
 30
0.0
 11
-1.535247368649095
 21
1.436097960021613
 31
0.0
  0
LINE
  5
1854
330
17
100
AcDbEntity
  8
LINE
100
AcDbLine
 10
-1.645008021036005
 20
1.137914854370621
 30
0.0
 11
-1.645008021036005
 21
1.241272802034927
 31
0.0
  0
LINE
  5
1855
330
17
100
AcDbEntity
  8
LINE
100
AcDbLine
 10
-1.699888347229403
 20
1.092181249209432
 30
0.0
 11
-1.699888347229403
 21
1.436097960021613
 31
0.0
  0
LINE
  5
1856
330
17
100
AcDbEntity
  8
LINE
100
AcDbLine
 10
-1.919409652003224
 20
1.436097960021613
 30
0.0
 11
-1.919409652003224
 21
1.092181249209432
 31
0.0
  0
LINE
  5
1857
330
17
100
AcDbEntity
  8
LINE
100
AcDbLine
 10
-1.734505388110221
 20
1.17337795363261
 30
0.0
 11
-1.823552345548505
 21
1.364339770109439
 31
0.0
  0
LINE
  5
1858
330
17
100
AcDbEntity
  8
LINE
100
AcDbLine
 10
-1.78662096061231
 20
1.163939439121606
 30
0.0
 11
-1.875667918050594
 21
1.354901255598435
 31
0.0
  0
LINE
  5
1859
330
17
100
AcDbEntity
  8
LINE
100
AcDbLine
 10
-1.568175564365218
 20
1.092181249209432
 30
0.0
 11
-1.568175564365218
 21
1.137914854370621
 31
0.0
  0
LINE
  5
185A
330
17
100
AcDbEntity
  8
LINE
100
AcDbLine
 10
-1.645008021036005
 20
1.137914854370621
 30
0.0
 11
-1.568175564365218
 21
1.137914854370621
 31
0.0
  0
LINE
  5
185B
330
17
100
AcDbEntity
  8
LINE
100
AcDbLine
 10
-1.535247368649095
 20
1.092181249209432
 30
0.0
 11
-1.480367042455724
 21
1.092181249209432
 31
0.0
  0
ARC
  5
185C
330
17
100
AcDbEntity
  8
LINE
100
AcDbCircle
 10
-1.803200449607003
 20
1.156208296435095
 30
0.0
 40
0.0182934420644818
100
AcDbArc
 50
270.0
 51
24.99999999999788
  0
ARC
  5
185D
330
17
100
AcDbEntity
  8
LINE
100
AcDbCircle
 10
-1.786233393773812
 20
1.1492567884506
 30
0.0
 40
0.057075539241183
100
AcDbArc
 50
270.0
 51
24.99999999999788
  0
LINE
  5
185E
330
17
100
AcDbEntity
  8
LINE
100
AcDbLine
 10
-1.882822767874329
 20
1.092181249209432
 30
0.0
 11
-1.786233393773812
 21
1.092181249209432
 31
0.0
  0
LINE
  5
185F
330
17
100
AcDbEntity
  8
LINE
100
AcDbLine
 10
-1.882822767874329
 20
1.137914854370621
 30
0.0
 11
-1.803200449607003
 21
1.137914854370621
 31
0.0
  0
LINE
  5
1860
330
17
100
AcDbEntity
  8
LINE
100
AcDbLine
 10
-1.882822767874329
 20
1.137914854370621
 30
0.0
 11
-1.882822767874329
 21
1.092181249209432
 31
0.0
  0
LINE
  5
1861
330
17
100
AcDbEntity
  8
LINE
100
AcDbLine
 10
-1.699888347229403
 20
1.092181249209432
 30
0.0
 11
-1.568175564365218
 21
1.092181249209432
 31
0.0
  0
LINE
  5
1862
330
17
100
AcDbEntity
  8
LINE
100
AcDbLine
 10
-1.419539850967822
 20
1.092181249209432
 30
0.0
 11
-1.361256323457723
 21
1.092181249209432
 31
0.0
  0
ARC
  5
1863
330
17
100
AcDbEntity
  8
LINE
100
AcDbCircle
 10
-1.348654259591398
 20
1.110337055340834
 30
0.0
 40
0.073173768257927
100
AcDbArc
 50
180.0
 51
194.3662353416891
  0
ARC
  5
1864
330
17
100
AcDbEntity
  8
LINE
100
AcDbCircle
 10
-1.323043440701098
 20
1.113799753353419
 30
0.0
 40
0.0439042609547562
100
AcDbArc
 50
180.0
 51
209.4985180895035
  0
LINE
  5
1865
330
17
100
AcDbEntity
  8
LINE
100
AcDbLine
 10
-1.443780158326716
 20
1.287006407196117
 30
0.0
 11
-1.480367042455724
 21
1.287006407196117
 31
0.0
  0
LINE
  5
1866
330
17
100
AcDbEntity
  8
LINE
100
AcDbLine
 10
-1.480367042455724
 20
1.390364354860424
 30
0.0
 11
-1.443780158326716
 21
1.390364354860424
 31
0.0
  0
LINE
  5
1867
330
17
100
AcDbEntity
  8
LINE
100
AcDbLine
 10
-1.535247368649095
 20
1.436097960021613
 30
0.0
 11
-1.424023240897013
 21
1.436097960021613
 31
0.0
  0
ARC
  5
1868
330
17
100
AcDbEntity
  8
LINE
100
AcDbCircle
 10
-1.454756223565396
 20
1.208344606318832
 30
0.0
 40
0.0329281957160671
100
AcDbArc
 50
0.0
 51
90.0
  0
LINE
  5
1869
330
17
100
AcDbEntity
  8
LINE
100
AcDbLine
 10
-1.480367042455724
 20
1.287006407196117
 30
0.0
 11
-1.480367042455724
 21
1.390364354860424
 31
0.0
  0
LINE
  5
186A
330
17
100
AcDbEntity
  8
LINE
100
AcDbLine
 10
-1.645008021036005
 20
1.287006407196117
 30
0.0
 11
-1.645008021036005
 21
1.390364354860424
 31
0.0
  0
LINE
  5
186B
330
17
100
AcDbEntity
  8
LINE
100
AcDbLine
 10
-1.568175564365218
 20
1.241272802034927
 30
0.0
 11
-1.568175564365218
 21
1.287006407196117
 31
0.0
  0
LINE
  5
186C
330
17
100
AcDbEntity
  8
LINE
100
AcDbLine
 10
-1.568175564365218
 20
1.241272802034927
 30
0.0
 11
-1.645008021036005
 21
1.241272802034927
 31
0.0
  0
LINE
  5
186D
330
17
100
AcDbEntity
  8
LINE
100
AcDbLine
 10
-1.454756223565396
 20
1.241272802034927
 30
0.0
 11
-1.480367042455724
 21
1.241272802034927
 31
0.0
  0
LINE
  5
186E
330
17
100
AcDbEntity
  8
LINE
100
AcDbLine
 10
-1.568175564365218
 20
1.287006407196117
 30
0.0
 11
-1.645008021036005
 21
1.287006407196117
 31
0.0
  0
LINE
  5
186F
330
17
100
AcDbEntity
  8
LINE
100
AcDbLine
 10
-1.568175564365218
 20
1.390364354860424
 30
0.0
 11
-1.568175564365218
 21
1.436097960021613
 31
0.0
  0
LINE
  5
1870
330
17
100
AcDbEntity
  8
LINE
100
AcDbLine
 10
-1.645008021036005
 20
1.390364354860424
 30
0.0
 11
-1.568175564365218
 21
1.390364354860424
 31
0.0
  0
LINE
  5
1871
330
17
100
AcDbEntity
  8
LINE
100
AcDbLine
 10
-1.743792608184235
 20
1.436097960021613
 30
0.0
 11
-1.743792608184235
 21
1.390364354860424
 31
0.0
  0
ARC
  5
1872
330
17
100
AcDbEntity
  8
LINE
100
AcDbCircle
 10
-1.823939912387003
 20
1.379022420780444
 30
0.0
 40
0.057075539241183
100
AcDbArc
 50
90.0
 51
204.9999999999978
  0
ARC
  5
1873
330
17
100
AcDbEntity
  8
LINE
100
AcDbCircle
 10
-1.806972856553812
 20
1.37207091279592
 30
0.0
 40
0.0182934420644818
100
AcDbArc
 50
90.0
 51
204.9999999999978
  0
LINE
  5
1874
330
17
100
AcDbEntity
  8
LINE
100
AcDbLine
 10
-1.743792608184235
 20
1.390364354860424
 30
0.0
 11
-1.806972856553812
 21
1.390364354860424
 31
0.0
  0
LINE
  5
1875
330
17
100
AcDbEntity
  8
LINE
100
AcDbLine
 10
-1.743792608184235
 20
1.436097960021613
 30
0.0
 11
-1.823939912387003
 21
1.436097960021613
 31
0.0
  0
LINE
  5
1876
330
17
100
AcDbEntity
  8
LINE
100
AcDbLine
 10
-1.699888347229403
 20
1.436097960021613
 30
0.0
 11
-1.568175564365218
 21
1.436097960021613
 31
0.0
  0
LINE
  5
1877
330
17
100
AcDbEntity
  8
LINE
100
AcDbLine
 10
-1.4218280278493
 20
1.308958537673504
 30
0.0
 11
-1.4218280278493
 21
1.368412224383007
 31
0.0
  0
LINE
  5
1878
330
17
100
AcDbEntity
  8
LINE
100
AcDbLine
 10
-1.366947701655902
 20
1.379022420780444
 30
0.0
 11
-1.366947701655902
 21
1.309873209776696
 31
0.0
  0
ARC
  5
1879
330
17
100
AcDbEntity
  8
LINE
100
AcDbCircle
 10
-1.443780158326716
 20
1.308958537673504
 30
0.0
 40
0.0219521304773781
100
AcDbArc
 50
270.0
 51
0.0
  0
ARC
  5
187A
330
17
100
AcDbEntity
  8
LINE
100
AcDbCircle
 10
-1.412681306817092
 20
1.309873209776696
 30
0.0
 40
0.0457336051612044
100
AcDbArc
 50
270.0
 51
0.0
  0
ARC
  5
187B
330
17
100
AcDbEntity
  8
LINE
100
AcDbCircle
 10
-1.424023240897013
 20
1.379022420780444
 30
0.0
 40
0.057075539241183
100
AcDbArc
 50
0.0
 51
90.0
  0
ARC
  5
187C
330
17
100
AcDbEntity
  8
LINE
100
AcDbCircle
 10
-1.443780158326716
 20
1.368412224383007
 30
0.0
 40
0.0219521304773781
100
AcDbArc
 50
0.0
 51
90.0
  0
ARC
  5
187D
330
17
100
AcDbEntity
  8
LINE
100
AcDbCircle
 10
-1.412681306817092
 20
1.218405999454319
 30
0.0
 40
0.0457336051612044
100
AcDbArc
 50
0.0
 51
90.0
  0
ENDSEC
  0
SECTION
  2
OBJECTS
  0
DICTIONARY
  5
C
330
0
100
AcDbDictionary
281
     1
  3
ACAD_GROUP
350
D
  3
ACAD_LAYOUT
350
1553
  3
ACAD_MLINESTYLE
350
1A
  3
ACAD_PLOTSETTINGS
350
1554
  3
ACAD_PLOTSTYLENAME
350
1551
  3
ACDBVARIABLEDICTIONARY
350
4D
  3
AcmDictionary
350
196C
  3
AMG
350
18B2
  3
AMGSNAPSETTINGS
350
19A7
  3
DWGPROPS
350
196F
  3
MAPISURF_MODULE
350
193E
  0
DICTIONARY
  5
19D2
330
17
100
AcDbDictionary
280
     1
281
     1
  3
ACAD_INDEX
360
19D3
  0
DICTIONARY
  5
D
102
{ACAD_REACTORS
330
C
102
}
330
C
100
AcDbDictionary
281
     1
  0
DICTIONARY
  5
1553
102
{ACAD_REACTORS
330
C
102
}
330
C
100
AcDbDictionary
281
     1
  3
Layout1
350
1556
  3
Model
350
1555
  0
DICTIONARY
  5
1A
102
{ACAD_REACTORS
330
C
102
}
330
C
100
AcDbDictionary
281
     1
  3
STANDARD
350
1B
  0
DICTIONARY
  5
1554
102
{ACAD_REACTORS
330
C
102
}
330
C
100
AcDbDictionary
281
     1
  0
ACDBDICTIONARYWDFLT
  5
1551
102
{ACAD_REACTORS
330
C
102
}
330
C
100
AcDbDictionary
281
     1
  3
Normal
350
1552
100
AcDbDictionaryWithDefault
340
1552
  0
DICTIONARY
  5
4D
102
{ACAD_REACTORS
330
C
102
}
330
C
100
AcDbDictionary
281
     1
  3
DIMADEC
350
4E
  3
DIMASSOC
350
155C
  3
INDEXCTL
350
19DB
  3
SORTENTS
350
40B
  0
DICTIONARY
  5
196C
102
{ACAD_REACTORS
330
C
102
}
330
C
100
AcDbDictionary
281
     1
  3
AcmBOMDATA
350
196D
  3
AcmStdDictionary
350
197B
  0
DICTIONARY
  5
18B2
102
{ACAD_REACTORS
330
C
102
}
330
C
100
AcDbDictionary
281
     1
  3
AcMgSettings
350
18B3
  3
AMGLAYCFG
350
197D
  0
DICTIONARY
  5
19A7
102
{ACAD_REACTORS
330
C
102
}
330
C
100
AcDbDictionary
281
     1
  3
DIMENSION
350
19AC
  3
FEA
350
19AB
  3
HATCH (1)
350
19A8
  3
HATCH (2)
350
19A9
  3
SIMPLE WELD
350
19AD
  3
SYMBOLS
350
19AA
  0
XRECORD
  5
196F
102
{ACAD_REACTORS
330
C
102
}
330
C
100
AcDbXrecord
280
     1
  1
DWGPROPS COOKIE
  2

  3

  4

  6

  7

  8

  9

300
AmdtFileType=84
301
=
302
=
303
=
304
=
305
=
306
=
307
=
308
=
309
=
 40
0.1915674652777778
 41
2449288.648393055
 42
2452937.561183159
  1

 90
        1
  0
DICTIONARY
  5
19D3
102
{ACAD_REACTORS
330
19D2
102
}
330
19D2
100
AcDbDictionary
281
     1
  3
*A1
350
19D4
  0
LAYOUT
  5
1556
102
{ACAD_REACTORS
330
1553
102
}
330
1553
100
AcDbPlotSettings
  1

  2
\\PRINT_SRV\HP LaserJet (Engineering)
  4

  6

 40
0.0
 41
0.0
 42
0.0
 43
0.0
 44
0.0
 45
0.0
 46
0.0
 47
0.0
 48
0.0
 49
0.0
140
0.0
141
0.0
142
1.0
143
1.0
 70
   688
 72
     0
 73
     0
 74
     5
  7
KPT.ctb
 75
    16
147
1.0
148
0.0
149
0.0
100
AcDbLayout
  1
Layout1
 70
     0
 71
     1
 10
0.0
 20
0.0
 11
12.0
 21
9.0
 12
0.0
 22
0.0
 32
0.0
 14
1.000000000000000E+20
 24
1.000000000000000E+20
 34
1.000000000000000E+20
 15
-1.000000000000000E+20
 25
-1.000000000000000E+20
 35
-1.000000000000000E+20
146
0.0
 13
0.0
 23
0.0
 33
0.0
 16
1.0
 26
0.0
 36
0.0
 17
0.0
 27
1.0
 37
0.0
 76
     0
330
14
  0
LAYOUT
  5
1555
102
{ACAD_REACTORS
330
1553
102
}
330
1553
100
AcDbPlotSettings
  1

  2
\\PRINT_SRV\HP LaserJet (Engineering)
  4

  6

 40
0.0
 41
0.0
 42
0.0
 43
0.0
 44
0.0
 45
0.0
 46
0.0
 47
0.0
 48
0.0
 49
0.0
140
0.0
141
0.0
142
1.0
143
1.0
 70
  1712
 72
     0
 73
     0
 74
     0
  7
KPT.ctb
 75
     0
147
1.0
148
0.0
149
0.0
100
AcDbLayout
  1
Model
 70
     1
 71
     0
 10
0.0
 20
0.0
 11
12.0
 21
9.0
 12
0.0
 22
0.0
 32
0.0
 14
0.0
 24
0.0
 34
0.0
 15
0.0
 25
0.0
 35
0.0
146
0.0
 13
0.0
 23
0.0
 33
0.0
 16
1.0
 26
0.0
 36
0.0
 17
0.0
 27
1.0
 37
0.0
 76
     0
330
17
  0
MLINESTYLE
  5
1B
102
{ACAD_REACTORS
330
1A
102
}
330
1A
100
AcDbMlineStyle
  2
STANDARD
 70
     0
  3

 62
   256
 51
90.0
 52
90.0
 71
     2
 49
0.5
 62
   256
  6
BYLAYER
 49
-0.5
 62
   256
  6
BYLAYER
  0
ACDBPLACEHOLDER
  5
1552
102
{ACAD_REACTORS
330
1551
102
}
330
1551
  0
DICTIONARYVAR
  5
4E
102
{ACAD_REACTORS
330
4D
102
}
330
4D
100
DictionaryVariables
280
     0
  1
0
  0
DICTIONARYVAR
  5
155C
102
{ACAD_REACTORS
330
4D
102
}
330
4D
100
DictionaryVariables
280
     0
  1
1
  0
DICTIONARYVAR
  5
19DB
102
{ACAD_REACTORS
330
4D
102
}
330
4D
100
DictionaryVariables
280
     0
  1
1
  0
DICTIONARYVAR
  5
40B
102
{ACAD_REACTORS
330
4D
102
}
330
4D
100
DictionaryVariables
280
     0
  1
96
  0
ACMDATADICTIONARY
  5
196D
102
{ACAD_REACTORS
330
196C
102
}
330
196C
100
AcDbDictionary
281
     1
  3
*A1
350
196E
100
AcmDataDictionary
  0
DICTIONARY
  5
197B
102
{ACAD_REACTORS
330
196C
102
}
330
196C
100
AcDbDictionary
281
     1
  3
ANSI
350
197C
  0
DICTIONARY
  5
18B3
102
{ACAD_REACTORS
330
18B2
102
}
330
18B2
100
AcDbDictionary
281
     1
  3
DWGSETTINGS
350
18B4
  3
TRANSSETTINGS
350
18B8
  0
ACAMGFILTERDAT
  5
19AC
102
{ACAD_REACTORS
330
19A7
102
}
330
19A7
100
AcAmgFilterDat
 70
    15
  1
DIMENSION,AMDT_*_DIM
  2
*
  3
*
  4
*
  5
*
290
     1
  0
ACAMGFILTERDAT
  5
19AB
102
{ACAD_REACTORS
330
19A7
102
}
330
19A7
100
AcAmgFilterDat
 70
    15
  1
*
  2
AM_FEA-AM_*
  3
*
  4
*
  5
*
290
     1
  0
ACAMGFILTERDAT
  5
19A8
102
{ACAD_REACTORS
330
19A7
102
}
330
19A7
100
AcAmgFilterDat
 70
    15
  1
HATCH
  2
*
  3
*
  4
*
  5
*
290
     1
  0
ACAMGFILTERDAT
  5
19A9
102
{ACAD_REACTORS
330
19A7
102
}
330
19A7
100
AcAmgFilterDat
 70
    15
  1
LINE
  2
8,8N,*-8,*-8N,AM_8,AM_8N,*-AM_8,*-AM_8N
  3
*
  4
*
  5
INSERT,STDPART2D
290
     1
  0
ACAMGFILTERDAT
  5
19AD
102
{ACAD_REACTORS
330
19A7
102
}
330
19A7
100
AcAmgFilterDat
 70
    15
  1
ARC
  2
AM_5
  3
*
  4
2
  5
INSERT
290
     0
  0
ACAMGFILTERDAT
  5
19AA
102
{ACAD_REACTORS
330
19A7
102
}
330
19A7
100
AcAmgFilterDat
 70
    15
  1
ACMFCFRAME,ACMDATUMTARGET,ACMDATUMID,ACMWELDSYM,ACMSURFSYM,ACMFEATID,ACMPARTREF,ACMBALLOON,AMDTEDGESYM,AMGSCREWCALCTABLE
  2
*
  3
*
  4
*
  5
*
290
     1
  0
LAYER_INDEX
  5
19D4
102
{ACAD_REACTORS
330
19D3
102
}
330
19D3
100
AcDbIndex
 40
2453133.637700555
100
AcDbLayerIndex
  8
0
360
19D5
 90
        0
  8
LINE
360
19D6
 90
      150
  8
HIDDEN
360
19D7
 90
       34
  8
CTRL
360
19D8
 90
        1
  8
DIM
360
19D9
 90
        4
  8
Defpoints
360
19DA
 90
        0
  0
ACMDATAENTRYBLOCK
  5
196E
102
{ACAD_REACTORS
330
196D
102
}
330
196D
100
AcmDataEntry
100
AcmDataEntryBlock
  0
IDBUFFER
  5
19D5
330
0
100
AcDbIdBuffer
  0
IDBUFFER
  5
19D6
330
0
100
AcDbIdBuffer
330
1858
330
1859
330
185A
330
185B
330
185C
330
185D
330
185E
330
185F
330
1860
330
1861
330
1862
330
1863
330
1864
330
1865
330
1866
330
1867
330
1868
330
1869
330
186A
330
186B
330
186C
330
186D
330
186E
330
186F
330
1870
330
1871
330
1872
330
1873
330
1874
330
1875
330
1876
330
1877
330
1878
330
1879
330
187A
330
187B
330
187C
330
187D
330
1A9
330
1B7
330
1B8
330
1BA
330
1C1
330
1E2
330
1E3
330
1E6
330
1F0
330
1F1
330
1F2
330
1F3
330
1F4
330
1F6
330
206
330
F0F
330
11C4
330
155E
330
155F
330
1568
330
1569
330
156A
330
156B
330
1570
330
1571
330
1572
330
1573
330
1574
330
1575
330
1576
330
1577
330
1578
330
1579
330
157A
330
157B
330
15E3
330
15E4
330
15E5
330
180E
330
180F
330
1810
330
1811
330
1812
330
1813
330
1814
330
1815
330
1816
330
1817
330
1818
330
1819
330
181A
330
181B
330
181C
330
181D
330
181E
330
181F
330
1820
330
1821
330
1822
330
1823
330
1824
330
1825
330
1826
330
1827
330
1828
330
1829
330
182A
330
182B
330
182C
330
182D
330
182E
330
182F
330
1830
330
1831
330
1832
330
1833
330
1834
330
1835
330
1836
330
1837
330
1838
330
1839
330
183A
330
183B
330
183C
330
183D
330
183E
330
183F
330
1840
330
1841
330
1842
330
1843
330
1844
330
1845
330
1846
330
1847
330
1848
330
1849
330
184A
330
184B
330
184C
330
184D
330
184E
330
184F
330
1850
330
1851
330
1852
330
1853
330
1854
330
1855
330
1856
330
1857
  0
IDBUFFER
  5
19D7
330
0
100
AcDbIdBuffer
330
1564
330
1565
330
1566
330
1567
330
156C
330
156D
330
156E
330
156F
330
15B5
330
15B6
330
15BA
330
15BB
330
15D9
330
15DA
330
15E2
330
15E7
330
15E8
330
15E9
330
1AB
330
1AC
330
1AD
330
1AE
330
1AF
330
1B0
330
1B2
330
1B3
330
1B4
330
1BC
330
1BD
330
1BE
330
1560
330
1561
330
1562
330
1563
  0
IDBUFFER
  5
19D8
330
0
100
AcDbIdBuffer
330
1BB
  0
IDBUFFER
  5
19D9
330
0
100
AcDbIdBuffer
330
1602
330
1610
330
161D
330
165A
  0
IDBUFFER
  5
19DA
330
0
100
AcDbIdBuffer
  0
ENDSEC
  0
EOF
