  0
SECTION
  2
HEADER
  9
$ACADVER
  1
AC1015
  9
$ACADMAINTVER
 70
    13
  9
$DWGCODEPAGE
  3
ANSI_1252
  9
$INSBASE
 10
0.0
 20
0.0000000000000007
 30
0.0
  9
$EXTMIN
 10
-5.378440545504815
 20
-1.771956837189375
 30
-0.0015258207003583
  9
$EXTMAX
 10
4.604060992352827
 20
3.760763621822754
 30
0.0000000349246037
  9
$LIMMIN
 10
0.0
 20
0.0
  9
$LIMMAX
 10
12.0
 20
9.0
  9
$ORTHOMODE
 70
     0
  9
$REGENMODE
 70
     1
  9
$FILLMODE
 70
     1
  9
$QTEXTMODE
 70
     0
  9
$MIRRTEXT
 70
     1
  9
$LTSCALE
 40
1.0
  9
$ATTMODE
 70
     1
  9
$TEXTSIZE
 40
0.2
  9
$TRACEWID
 40
0.05
  9
$TEXTSTYLE
  7
ROMANS
  9
$CLAYER
  8
DIM
  9
$CELTYPE
  6
BYLAYER
  9
$CECOLOR
 62
   256
  9
$CELTSCALE
 40
1.0
  9
$DISPSILH
 70
     0
  9
$DIMSCALE
 40
1.0
  9
$DIMASZ
 40
0.18
  9
$DIMEXO
 40
0.0625
  9
$DIMDLI
 40
0.38
  9
$DIMRND
 40
0.0
  9
$DIMDLE
 40
0.0
  9
$DIMEXE
 40
0.18
  9
$DIMTP
 40
0.0
  9
$DIMTM
 40
0.0
  9
$DIMTXT
 40
0.18
  9
$DIMCEN
 40
0.09
  9
$DIMTSZ
 40
0.0
  9
$DIMTOL
 70
     0
  9
$DIMLIM
 70
     0
  9
$DIMTIH
 70
     0
  9
$DIMTOH
 70
     0
  9
$DIMSE1
 70
     0
  9
$DIMSE2
 70
     0
  9
$DIMTAD
 70
     1
  9
$DIMZIN
 70
     0
  9
$DIMBLK
  1

  9
$DIMASO
 70
     1
  9
$DIMSHO
 70
     0
  9
$DIMPOST
  1

  9
$DIMAPOST
  1

  9
$DIMALT
 70
     0
  9
$DIMALTD
 70
     2
  9
$DIMALTF
 40
25.4
  9
$DIMLFAC
 40
1.0
  9
$DIMTOFL
 70
     0
  9
$DIMTVP
 40
0.0
  9
$DIMTIX
 70
     0
  9
$DIMSOXD
 70
     0
  9
$DIMSAH
 70
     0
  9
$DIMBLK1
  1

  9
$DIMBLK2
  1

  9
$DIMSTYLE
  2
STANDARD
  9
$DIMCLRD
 70
     0
  9
$DIMCLRE
 70
     0
  9
$DIMCLRT
 70
     0
  9
$DIMTFAC
 40
1.0
  9
$DIMGAP
 40
0.09
  9
$DIMJUST
 70
     0
  9
$DIMSD1
 70
     0
  9
$DIMSD2
 70
     0
  9
$DIMTOLJ
 70
     1
  9
$DIMTZIN
 70
     0
  9
$DIMALTZ
 70
     0
  9
$DIMALTTZ
 70
     0
  9
$DIMUPT
 70
     0
  9
$DIMDEC
 70
     3
  9
$DIMTDEC
 70
     3
  9
$DIMALTU
 70
     2
  9
$DIMALTTD
 70
     2
  9
$DIMTXSTY
  7
ROMANS
  9
$DIMAUNIT
 70
     0
  9
$DIMADEC
 70
     0
  9
$DIMALTRND
 40
0.0
  9
$DIMAZIN
 70
     0
  9
$DIMDSEP
 70
    46
  9
$DIMATFIT
 70
     3
  9
$DIMFRAC
 70
     0
  9
$DIMLDRBLK
  1

  9
$DIMLUNIT
 70
     2
  9
$DIMLWD
 70
    -2
  9
$DIMLWE
 70
    -2
  9
$DIMTMOVE
 70
     0
  9
$LUNITS
 70
     2
  9
$LUPREC
 70
     4
  9
$SKETCHINC
 40
0.1
  9
$FILLETRAD
 40
0.0
  9
$AUNITS
 70
     0
  9
$AUPREC
 70
     0
  9
$MENU
  1
acad
  9
$ELEVATION
 40
0.0
  9
$PELEVATION
 40
0.0
  9
$THICKNESS
 40
0.0
  9
$LIMCHECK
 70
     0
  9
$CHAMFERA
 40
1.5
  9
$CHAMFERB
 40
1.5
  9
$CHAMFERC
 40
0.0
  9
$CHAMFERD
 40
0.0
  9
$SKPOLY
 70
     0
  9
$TDCREATE
 40
2450004.749873032
  9
$TDUCREATE
 40
2450004.958206366
  9
$TDUPDATE
 40
2452852.609304837
  9
$TDUUPDATE
 40
2452852.817638171
  9
$TDINDWG
 40
0.0177078935
  9
$TDUSRTIMER
 40
0.0177076620
  9
$USRTIMER
 70
     1
  9
$ANGBASE
 50
0.0
  9
$ANGDIR
 70
     0
  9
$PDMODE
 70
     0
  9
$PDSIZE
 40
0.0
  9
$PLINEWID
 40
0.0
  9
$SPLFRAME
 70
     0
  9
$SPLINETYPE
 70
     6
  9
$SPLINESEGS
 70
     8
  9
$HANDSEED
  5
3AE
  9
$SURFTAB1
 70
     6
  9
$SURFTAB2
 70
     6
  9
$SURFTYPE
 70
     6
  9
$SURFU
 70
     6
  9
$SURFV
 70
     6
  9
$UCSBASE
  2

  9
$UCSNAME
  2

  9
$UCSORG
 10
0.0
 20
0.0
 30
0.0
  9
$UCSXDIR
 10
1.0
 20
0.0
 30
0.0
  9
$UCSYDIR
 10
0.0
 20
1.0
 30
0.0
  9
$UCSORTHOREF
  2

  9
$UCSORTHOVIEW
 70
     0
  9
$UCSORGTOP
 10
0.0
 20
0.0
 30
0.0
  9
$UCSORGBOTTOM
 10
0.0
 20
0.0
 30
0.0
  9
$UCSORGLEFT
 10
0.0
 20
0.0
 30
0.0
  9
$UCSORGRIGHT
 10
0.0
 20
0.0
 30
0.0
  9
$UCSORGFRONT
 10
0.0
 20
0.0
 30
0.0
  9
$UCSORGBACK
 10
0.0
 20
0.0
 30
0.0
  9
$PUCSBASE
  2

  9
$PUCSNAME
  2

  9
$PUCSORG
 10
0.0
 20
0.0
 30
0.0
  9
$PUCSXDIR
 10
1.0
 20
0.0
 30
0.0
  9
$PUCSYDIR
 10
0.0
 20
1.0
 30
0.0
  9
$PUCSORTHOREF
  2

  9
$PUCSORTHOVIEW
 70
     0
  9
$PUCSORGTOP
 10
0.0
 20
0.0
 30
0.0
  9
$PUCSORGBOTTOM
 10
0.0
 20
0.0
 30
0.0
  9
$PUCSORGLEFT
 10
0.0
 20
0.0
 30
0.0
  9
$PUCSORGRIGHT
 10
0.0
 20
0.0
 30
0.0
  9
$PUCSORGFRONT
 10
0.0
 20
0.0
 30
0.0
  9
$PUCSORGBACK
 10
0.0
 20
0.0
 30
0.0
  9
$USERI1
 70
     0
  9
$USERI2
 70
     0
  9
$USERI3
 70
     0
  9
$USERI4
 70
     0
  9
$USERI5
 70
     0
  9
$USERR1
 40
0.0
  9
$USERR2
 40
0.0
  9
$USERR3
 40
0.0
  9
$USERR4
 40
0.0
  9
$USERR5
 40
0.0
  9
$WORLDVIEW
 70
     1
  9
$SHADEDGE
 70
     3
  9
$SHADEDIF
 70
    70
  9
$TILEMODE
 70
     1
  9
$MAXACTVP
 70
    16
  9
$PINSBASE
 10
177.5871012527576
 20
50.0
 30
-203.7088212948281
  9
$PLIMCHECK
 70
     0
  9
$PEXTMIN
 10
1.000000000000000E+20
 20
1.000000000000000E+20
 30
1.000000000000000E+20
  9
$PEXTMAX
 10
-1.000000000000000E+20
 20
-1.000000000000000E+20
 30
-1.000000000000000E+20
  9
$PLIMMIN
 10
0.0
 20
0.0
  9
$PLIMMAX
 10
12.0
 20
9.0
  9
$UNITMODE
 70
     0
  9
$VISRETAIN
 70
     0
  9
$PLINEGEN
 70
     0
  9
$PSLTSCALE
 70
     1
  9
$TREEDEPTH
 70
  3020
  9
$CMLSTYLE
  2
STANDARD
  9
$CMLJUST
 70
     0
  9
$CMLSCALE
 40
1.0
  9
$PROXYGRAPHICS
 70
     1
  9
$MEASUREMENT
 70
     0
  9
$CELWEIGHT
370
    -1
  9
$ENDCAPS
280
     0
  9
$JOINSTYLE
280
     0
  9
$LWDISPLAY
290
     0
  9
$INSUNITS
 70
     0
  9
$HYPERLINKBASE
  1

  9
$STYLESHEET
  1

  9
$XEDIT
290
     1
  9
$CEPSNTYPE
380
     0
  9
$PSTYLEMODE
290
     1
  9
$FINGERPRINTGUID
  2
{60547B91-6432-4A4B-8604-97A56BDABF7A}
  9
$VERSIONGUID
  2
{0B540D20-63C1-4C58-ACC5-69A1EBAF41F7}
  9
$EXTNAMES
290
     1
  9
$PSVPSCALE
 40
0.0
  9
$OLESTARTUP
290
     0
  0
ENDSEC
  0
SECTION
  2
CLASSES
  0
CLASS
  1
DICTIONARYVAR
  2
AcDbDictionaryVar
  3
AutoCAD 2000
 90
        0
280
     0
281
     0
  0
CLASS
  1
LWPOLYLINE
  2
AcDbPolyline
  3
AutoCAD 2000
 90
    32768
280
     0
281
     1
  0
CLASS
  1
ACDBDICTIONARYWDFLT
  2
AcDbDictionaryWithDefault
  3
AutoCAD 2000
 90
        0
280
     0
281
     0
  0
CLASS
  1
ACDBPLACEHOLDER
  2
AcDbPlaceHolder
  3
AutoCAD 2000
 90
        0
280
     0
281
     0
  0
CLASS
  1
LAYOUT
  2
AcDbLayout
  3
AutoCAD 2000
 90
        0
280
     0
281
     0
  0
ENDSEC
  0
SECTION
  2
TABLES
  0
TABLE
  2
VPORT
  5
8
330
0
100
AcDbSymbolTable
 70
     4
  0
VPORT
  5
3AD
330
8
100
AcDbSymbolTableRecord
100
AcDbViewportTableRecord
  2
*Active
 70
     0
 10
0.0
 20
0.0
 11
1.0
 21
1.0
 12
-0.3871897765759939
 22
0.9944033923166895
 13
0.0
 23
0.0
 14
1.0
 24
1.0
 15
0.0
 25
0.0
 16
0.0
 26
0.0
 36
1.0
 17
0.0
 27
0.0
 37
0.0
 40
5.800773671039193
 41
1.731751824817518
 42
50.0
 43
0.0
 44
0.0
 50
0.0
 51
0.0
 71
     0
 72
  1000
 73
     1
 74
     0
 75
     0
 76
     0
 77
     0
 78
     0
281
     0
 65
     1
110
0.0
120
0.0
130
0.0
111
1.0
121
0.0
131
0.0
112
0.0
122
1.0
132
0.0
 79
     0
146
0.0
  0
ENDTAB
  0
TABLE
  2
LTYPE
  5
5
330
0
100
AcDbSymbolTable
 70
     3
  0
LTYPE
  5
11
330
5
100
AcDbSymbolTableRecord
100
AcDbLinetypeTableRecord
  2
BYBLOCK
 70
     0
  3

 72
    65
 73
     0
 40
0.0
  0
LTYPE
  5
12
330
5
100
AcDbSymbolTableRecord
100
AcDbLinetypeTableRecord
  2
BYLAYER
 70
     0
  3

 72
    65
 73
     0
 40
0.0
  0
LTYPE
  5
13
330
5
100
AcDbSymbolTableRecord
100
AcDbLinetypeTableRecord
  2
CONTINUOUS
 70
     0
  3
Solid line
 72
    65
 73
     0
 40
0.0
  0
LTYPE
  5
1D
330
5
100
AcDbSymbolTableRecord
100
AcDbLinetypeTableRecord
  2
HIDDEN
 70
     0
  3
_ _ _ _ _ _ _ _ _ _ _ _ _ _ _ _ _ _ _ _ _ _ _
 72
    65
 73
     2
 40
0.375
 49
0.25
 74
     0
 49
-0.125
 74
     0
  0
LTYPE
  5
1E
330
5
100
AcDbSymbolTableRecord
100
AcDbLinetypeTableRecord
  2
CENTER
 70
     0
  3
____ _ ____ _ ____ _ ____ _ ____ _ ____ _ ____
 72
    65
 73
     4
 40
2.0
 49
1.25
 74
     0
 49
-0.25
 74
     0
 49
0.25
 74
     0
 49
-0.25
 74
     0
  0
ENDTAB
  0
TABLE
  2
LAYER
  5
2
330
0
100
AcDbSymbolTable
 70
     6
  0
LAYER
  5
E
330
2
100
AcDbSymbolTableRecord
100
AcDbLayerTableRecord
  2
0
 70
     0
 62
     7
  6
CONTINUOUS
370
    -3
390
10F
  0
LAYER
  5
1F
330
2
100
AcDbSymbolTableRecord
100
AcDbLayerTableRecord
  2
LINE
 70
     0
 62
     3
  6
CONTINUOUS
370
    -3
390
10F
  0
LAYER
  5
20
330
2
100
AcDbSymbolTableRecord
100
AcDbLayerTableRecord
  2
CTRL
 70
     0
 62
     1
  6
CENTER
370
    -3
390
10F
  0
LAYER
  5
21
330
2
100
AcDbSymbolTableRecord
100
AcDbLayerTableRecord
  2
HIDDEN
 70
     0
 62
     2
  6
HIDDEN
370
    -3
390
10F
  0
LAYER
  5
22
330
2
100
AcDbSymbolTableRecord
100
AcDbLayerTableRecord
  2
DIM
 70
     0
 62
     7
  6
CONTINUOUS
370
    -3
390
10F
  0
LAYER
  5
23
330
2
100
AcDbSymbolTableRecord
100
AcDbLayerTableRecord
  2
DEFPOINTS
 70
     0
 62
     7
  6
CONTINUOUS
290
     0
370
    -3
390
10F
  0
ENDTAB
  0
TABLE
  2
STYLE
  5
3
330
0
100
AcDbSymbolTable
 70
     4
  0
STYLE
  5
F
330
3
100
AcDbSymbolTableRecord
100
AcDbTextStyleTableRecord
  2
STANDARD
 70
     0
 40
0.0
 41
1.0
 50
0.0
 71
     0
 42
0.2
  3
txt
  4

  0
STYLE
  5
118
330
3
100
AcDbSymbolTableRecord
100
AcDbTextStyleTableRecord
  2
ROMANS
 70
     0
 40
0.0
 41
1.0
 50
0.0
 71
     0
 42
0.2
  3
romans.shx
  4

  0
STYLE
  5
19A
330
3
100
AcDbSymbolTableRecord
100
AcDbTextStyleTableRecord
  2
STYLE1
 70
     0
 40
0.0
 41
1.0
 50
0.0
 71
     0
 42
0.2
  3
romans.shx
  4

  0
STYLE
  5
19B
330
3
100
AcDbSymbolTableRecord
100
AcDbTextStyleTableRecord
  2
LOGO
 70
     0
 40
0.0
 41
0.6
 50
0.0
 71
     0
 42
4.7
  3
ARIAL.TTF
  4

1001
ACAD
1000
Arial
1071
       34
  0
ENDTAB
  0
TABLE
  2
VIEW
  5
6
330
0
100
AcDbSymbolTable
 70
     0
  0
ENDTAB
  0
TABLE
  2
UCS
  5
7
330
0
100
AcDbSymbolTable
 70
     0
  0
ENDTAB
  0
TABLE
  2
APPID
  5
9
330
0
100
AcDbSymbolTable
 70
     1
  0
APPID
  5
10
330
9
100
AcDbSymbolTableRecord
100
AcDbRegAppTableRecord
  2
ACAD
 70
     0
  0
ENDTAB
  0
TABLE
  2
DIMSTYLE
  5
A
330
0
100
AcDbSymbolTable
 70
     2
100
AcDbDimStyleTable
 71
     1
340
106
  0
DIMSTYLE
105
106
102
{ACAD_REACTORS
330
11E
330
12B
330
138
330
145
102
}
330
A
100
AcDbSymbolTableRecord
100
AcDbDimStyleTableRecord
  2
STANDARD
 70
     0
 73
     0
 74
     0
 77
     1
271
     3
272
     3
340
118
  0
DIMSTYLE
105
19C
330
A
100
AcDbSymbolTableRecord
100
AcDbDimStyleTableRecord
  2
AM_ANSI
 70
     0
  4
"
 41
2.5
 42
1.0
 43
10.0
 44
1.0
 47
0.1
 48
0.1
 78
     8
 79
     2
140
3.5
141
0.0
143
0.0393701
146
0.71
147
1.5
176
   256
177
   256
178
     2
271
     2
272
     3
274
     4
284
     8
340
F
371
    -1
372
    -1
  0
ENDTAB
  0
TABLE
  2
BLOCK_RECORD
  5
1
330
0
100
AcDbSymbolTable
 70
     5
  0
BLOCK_RECORD
  5
17
330
1
100
AcDbSymbolTableRecord
100
AcDbBlockTableRecord
  2
*MODEL_SPACE
340
112
  0
BLOCK_RECORD
  5
14
330
1
100
AcDbSymbolTableRecord
100
AcDbBlockTableRecord
  2
*PAPER_SPACE
340
113
  0
BLOCK_RECORD
  5
11F
330
1
100
AcDbSymbolTableRecord
100
AcDbBlockTableRecord
  2
*D0
340
0
  0
BLOCK_RECORD
  5
12C
330
1
100
AcDbSymbolTableRecord
100
AcDbBlockTableRecord
  2
*D1
340
0
  0
BLOCK_RECORD
  5
139
330
1
100
AcDbSymbolTableRecord
100
AcDbBlockTableRecord
  2
*D2
340
0
  0
BLOCK_RECORD
  5
146
330
1
100
AcDbSymbolTableRecord
100
AcDbBlockTableRecord
  2
*D3
340
0
  0
ENDTAB
  0
ENDSEC
  0
SECTION
  2
BLOCKS
  0
BLOCK
  5
26
330
17
100
AcDbEntity
  8
0
100
AcDbBlockBegin
  2
*MODEL_SPACE
 70
     0
 10
0.0
 20
0.0
 30
0.0
  3
*MODEL_SPACE
  1

  0
ENDBLK
  5
27
330
17
100
AcDbEntity
  8
0
100
AcDbBlockEnd
  0
BLOCK
  5
24
330
14
100
AcDbEntity
 67
     1
  8
0
100
AcDbBlockBegin
  2
*PAPER_SPACE
 70
     0
 10
0.0
 20
0.0
 30
0.0
  3
*PAPER_SPACE
  1

  0
ENDBLK
  5
25
330
14
100
AcDbEntity
 67
     1
  8
0
100
AcDbBlockEnd
  0
BLOCK
  5
129
330
11F
100
AcDbEntity
  8
0
100
AcDbBlockBegin
  2
*D0
 70
     1
 10
0.0
 20
0.0
 30
0.0
  3
*D0
  1

  0
LINE
  5
182
330
11F
100
AcDbEntity
  8
DIM
 62
     0
370
    -2
100
AcDbLine
 10
-4.003436999999991
 20
0.9999979999999998
 30
0.0
 11
-5.286963956748937
 21
0.9999980000000007
 31
0.0
  0
LINE
  5
183
330
11F
100
AcDbEntity
  8
DIM
 62
     0
370
    -2
100
AcDbLine
 10
-4.003436999999991
 20
-0.9999979999999991
 30
0.0
 11
-5.286963956748937
 21
-0.9999979999999986
 31
0.0
  0
LINE
  5
184
330
11F
100
AcDbEntity
  8
DIM
 62
     0
370
    -2
100
AcDbLine
 10
-5.106963956748936
 20
0.8199980000000007
 30
0.0
 11
-5.106963956748936
 21
-0.8199979999999989
 31
0.0
  0
SOLID
  5
185
330
11F
100
AcDbEntity
  8
DIM
 62
     0
100
AcDbTrace
 10
-5.136963956748936
 20
0.8199980000000007
 30
0.0
 11
-5.076963956748937
 21
0.8199980000000007
 31
0.0
 12
-5.106963956748936
 22
0.9999980000000006
 32
0.0
 13
-5.106963956748936
 23
0.9999980000000006
 33
0.0
  0
SOLID
  5
186
330
11F
100
AcDbEntity
  8
DIM
 62
     0
100
AcDbTrace
 10
-5.136963956748936
 20
-0.8199979999999989
 30
0.0
 11
-5.076963956748937
 21
-0.8199979999999989
 31
0.0
 12
-5.106963956748936
 22
-0.9999979999999988
 32
0.0
 13
-5.106963956748936
 23
-0.9999979999999988
 33
0.0
  0
MTEXT
  5
187
330
11F
100
AcDbEntity
  8
DIM
 62
     0
100
AcDbMText
 10
-5.286963956748937
 20
0.0000000000000001
 30
0.0
 40
0.18
 41
0.0
 71
     5
 72
     1
  1
\A1;%%c2.000
  7
ROMANS
 11
0.0000000000000001
 21
1.0
 31
0.0
 73
     1
 44
1.0
  0
POINT
  5
188
330
11F
100
AcDbEntity
  8
DEFPOINTS
 62
     0
100
AcDbPoint
 10
-3.940936999999991
 20
0.9999979999999998
 30
0.0
  0
POINT
  5
189
330
11F
100
AcDbEntity
  8
DEFPOINTS
 62
     0
100
AcDbPoint
 10
-3.940936999999991
 20
-0.9999979999999991
 30
0.0
  0
POINT
  5
18A
330
11F
100
AcDbEntity
  8
DEFPOINTS
 62
     0
100
AcDbPoint
 10
-5.106963956748936
 20
-0.9999979999999988
 30
0.0
  0
ENDBLK
  5
12A
330
11F
100
AcDbEntity
  8
0
100
AcDbBlockEnd
  0
BLOCK
  5
136
330
12C
100
AcDbEntity
  8
0
100
AcDbBlockBegin
  2
*D1
 70
     1
 10
0.0
 20
0.0
 30
0.0
  3
*D1
  1

  0
LINE
  5
15E
330
12C
100
AcDbEntity
  8
DIM
 62
     0
370
    -2
100
AcDbLine
 10
-3.99999199999999
 20
1.003443
 30
0.0
 11
-3.99999199999999
 21
3.670610160841731
 31
0.0
  0
LINE
  5
15F
330
12C
100
AcDbEntity
  8
DIM
 62
     0
370
    -2
100
AcDbLine
 10
3.267710000000008
 20
1.79450007899998
 30
0.0
 11
3.267710000000008
 21
3.670610160841731
 31
0.0
  0
LINE
  5
160
330
12C
100
AcDbEntity
  8
DIM
 62
     0
370
    -2
100
AcDbLine
 10
-3.819991999999991
 20
3.490610160841732
 30
0.0
 11
3.087710000000008
 21
3.490610160841732
 31
0.0
  0
SOLID
  5
161
330
12C
100
AcDbEntity
  8
DIM
 62
     0
100
AcDbTrace
 10
-3.819991999999991
 20
3.520610160841731
 30
0.0
 11
-3.819991999999991
 21
3.460610160841731
 31
0.0
 12
-3.99999199999999
 22
3.490610160841732
 32
0.0
 13
-3.99999199999999
 23
3.490610160841732
 33
0.0
  0
SOLID
  5
162
330
12C
100
AcDbEntity
  8
DIM
 62
     0
100
AcDbTrace
 10
3.087710000000008
 20
3.520610160841731
 30
0.0
 11
3.087710000000008
 21
3.460610160841731
 31
0.0
 12
3.267710000000008
 22
3.490610160841732
 32
0.0
 13
3.267710000000008
 23
3.490610160841732
 33
0.0
  0
MTEXT
  5
163
330
12C
100
AcDbEntity
  8
DIM
 62
     0
100
AcDbMText
 10
-0.3661409999999916
 20
3.670610160841731
 30
0.0
 40
0.18
 41
0.0
 71
     5
 72
     1
  1
\A1;7.268
  7
ROMANS
 73
     1
 44
1.0
  0
POINT
  5
164
330
12C
100
AcDbEntity
  8
DEFPOINTS
 62
     0
100
AcDbPoint
 10
-3.99999199999999
 20
0.9409430000000003
 30
0.0
  0
POINT
  5
165
330
12C
100
AcDbEntity
  8
DEFPOINTS
 62
     0
100
AcDbPoint
 10
3.267710000000008
 20
1.73200007899998
 30
0.0
  0
POINT
  5
166
330
12C
100
AcDbEntity
  8
DEFPOINTS
 62
     0
100
AcDbPoint
 10
3.267710000000008
 20
3.490610160841732
 30
0.0
  0
ENDBLK
  5
137
330
12C
100
AcDbEntity
  8
0
100
AcDbBlockEnd
  0
BLOCK
  5
143
330
139
100
AcDbEntity
  8
0
100
AcDbBlockBegin
  2
*D2
 70
     1
 10
0.0
 20
0.0
 30
0.0
  3
*D2
  1

  0
LINE
  5
170
330
139
100
AcDbEntity
  8
DIM
 62
     0
370
    -2
100
AcDbLine
 10
0.0
 20
1.794629999999999
 30
0.0
 11
0.0000000000000001
 21
2.83951255767993
 31
0.0
  0
LINE
  5
171
330
139
100
AcDbEntity
  8
DIM
 62
     0
370
    -2
100
AcDbLine
 10
3.267710000000008
 20
1.79450007899998
 30
0.0
 11
3.267710000000008
 21
2.83951255767993
 31
0.0
  0
LINE
  5
172
330
139
100
AcDbEntity
  8
DIM
 62
     0
370
    -2
100
AcDbLine
 10
0.18
 20
2.659512557679931
 30
0.0
 11
3.087710000000008
 21
2.659512557679931
 31
0.0
  0
SOLID
  5
173
330
139
100
AcDbEntity
  8
DIM
 62
     0
100
AcDbTrace
 10
0.18
 20
2.68951255767993
 30
0.0
 11
0.18
 21
2.629512557679931
 31
0.0
 12
0.0000000000000001
 22
2.659512557679931
 32
0.0
 13
0.0000000000000001
 23
2.659512557679931
 33
0.0
  0
SOLID
  5
174
330
139
100
AcDbEntity
  8
DIM
 62
     0
100
AcDbTrace
 10
3.087710000000008
 20
2.68951255767993
 30
0.0
 11
3.087710000000008
 21
2.629512557679931
 31
0.0
 12
3.267710000000008
 22
2.659512557679931
 32
0.0
 13
3.267710000000008
 23
2.659512557679931
 33
0.0
  0
MTEXT
  5
175
330
139
100
AcDbEntity
  8
DIM
 62
     0
100
AcDbMText
 10
1.633855000000004
 20
2.83951255767993
 30
0.0
 40
0.18
 41
0.0
 71
     5
 72
     1
  1
\A1;3.268
  7
ROMANS
 73
     1
 44
1.0
  0
POINT
  5
176
330
139
100
AcDbEntity
  8
DEFPOINTS
 62
     0
100
AcDbPoint
 10
0.0
 20
1.732129999999999
 30
0.0
  0
POINT
  5
177
330
139
100
AcDbEntity
  8
DEFPOINTS
 62
     0
100
AcDbPoint
 10
3.267710000000008
 20
1.73200007899998
 30
0.0
  0
POINT
  5
178
330
139
100
AcDbEntity
  8
DEFPOINTS
 62
     0
100
AcDbPoint
 10
3.267710000000008
 20
2.659512557679931
 30
0.0
  0
ENDBLK
  5
144
330
139
100
AcDbEntity
  8
0
100
AcDbBlockEnd
  0
BLOCK
  5
150
330
146
100
AcDbEntity
  8
0
100
AcDbBlockBegin
  2
*D3
 70
     1
 10
0.0
 20
0.0
 30
0.0
  3
*D3
  1

  0
LINE
  5
18B
330
146
100
AcDbEntity
  8
DIM
 62
     0
370
    -2
100
AcDbLine
 10
3.290710079000006
 20
1.771499999999988
 30
0.0
 11
4.60263268845874
 21
1.771499999999988
 31
0.0
  0
LINE
  5
18C
330
146
100
AcDbEntity
  8
DIM
 62
     0
370
    -2
100
AcDbLine
 10
3.290710079000006
 20
-1.771499999999999
 30
0.0
 11
4.60263268845874
 21
-1.7715
 31
0.0
  0
LINE
  5
18D
330
146
100
AcDbEntity
  8
DIM
 62
     0
370
    -2
100
AcDbLine
 10
4.422632688458738
 20
1.591499999999989
 30
0.0
 11
4.422632688458738
 21
-1.591499999999999
 31
0.0
  0
SOLID
  5
18E
330
146
100
AcDbEntity
  8
DIM
 62
     0
100
AcDbTrace
 10
4.39263268845874
 20
1.591499999999989
 30
0.0
 11
4.452632688458741
 21
1.591499999999989
 31
0.0
 12
4.422632688458738
 22
1.771499999999988
 32
0.0
 13
4.422632688458738
 23
1.771499999999988
 33
0.0
  0
SOLID
  5
18F
330
146
100
AcDbEntity
  8
DIM
 62
     0
100
AcDbTrace
 10
4.39263268845874
 20
-1.591499999999999
 30
0.0
 11
4.452632688458741
 21
-1.591499999999999
 31
0.0
 12
4.422632688458738
 22
-1.7715
 32
0.0
 13
4.422632688458738
 23
-1.7715
 33
0.0
  0
MTEXT
  5
190
330
146
100
AcDbEntity
  8
DIM
 62
     0
100
AcDbMText
 10
4.242632688458741
 20
-0.000000000000004
 30
0.0
 40
0.18
 41
0.0
 71
     5
 72
     1
  1
\A1;%%c3.543
  7
ROMANS
 11
0.0000000000000001
 21
1.0
 31
0.0
 73
     1
 44
1.0
  0
POINT
  5
191
330
146
100
AcDbEntity
  8
DEFPOINTS
 62
     0
100
AcDbPoint
 10
3.228210079000006
 20
1.771499999999988
 30
0.0
  0
POINT
  5
192
330
146
100
AcDbEntity
  8
DEFPOINTS
 62
     0
100
AcDbPoint
 10
3.228210079000006
 20
-1.771499999999999
 30
0.0
  0
POINT
  5
193
330
146
100
AcDbEntity
  8
DEFPOINTS
 62
     0
100
AcDbPoint
 10
4.422632688458738
 20
-1.7715
 30
0.0
  0
ENDBLK
  5
151
330
146
100
AcDbEntity
  8
0
100
AcDbBlockEnd
  0
ENDSEC
  0
SECTION
  2
ENTITIES
  0
LINE
  5
BD
330
17
100
AcDbEntity
  8
CTRL
100
AcDbLine
 10
3.464560000000004
 20
0.0
 30
0.0
 11
-4.196842000000001
 21
0.0000000000000011
 31
0.0
  0
LINE
  5
BE
330
17
100
AcDbEntity
  8
LINE
100
AcDbLine
 10
-3.940936999999991
 20
0.9999979999999998
 30
0.0
 11
0.0
 21
0.9999979999999998
 31
0.0
  0
LINE
  5
BF
330
17
100
AcDbEntity
  8
LINE
100
AcDbLine
 10
-3.940937000000004
 20
-0.9999979999999991
 30
0.0
 11
0.0
 21
-0.9999979999999998
 31
0.0
  0
LINE
  5
C0
330
17
100
AcDbEntity
  8
HIDDEN
100
AcDbLine
 10
0.8379234897371786
 20
0.2840545500000012
 30
0.0
 11
-3.527551999999998
 21
0.2840545500000012
 31
0.0
  0
LINE
  5
C1
330
17
100
AcDbEntity
  8
HIDDEN
100
AcDbLine
 10
0.8379234897371643
 20
-0.284054549999998
 30
0.0
 11
-3.527551999999998
 21
-0.284054549999998
 31
0.0
  0
LINE
  5
C2
330
17
100
AcDbEntity
  8
LINE
100
AcDbLine
 10
-3.999992000000004
 20
-0.9409429999999991
 30
0.0
 11
-3.99999199999999
 21
0.9409430000000003
 31
0.0
  0
LINE
  5
C3
330
17
100
AcDbEntity
  8
HIDDEN
100
AcDbLine
 10
-3.527551999999998
 20
-0.284054549999998
 30
0.0
 11
-3.948705264238426
 21
-0.298761546061165
 31
0.0
  0
LINE
  5
C4
330
17
100
AcDbEntity
  8
HIDDEN
100
AcDbLine
 10
-3.527551999999998
 20
0.2840545500000012
 30
0.0
 11
-3.948705264238426
 21
0.2987615460611682
 31
0.0
  0
LINE
  5
C5
330
17
100
AcDbEntity
  8
HIDDEN
100
AcDbLine
 10
-3.527551999999998
 20
0.3082501011959436
 30
0.0
 11
-3.993311155343945
 21
0.3245147692983805
 31
0.0
  0
LINE
  5
C6
330
17
100
AcDbEntity
  8
HIDDEN
100
AcDbLine
 10
-3.527551999999998
 20
-0.3082501011959404
 30
0.0
 11
-3.993311155343945
 21
-0.3245147692983783
 31
0.0
  0
LINE
  5
C7
330
17
100
AcDbEntity
  8
HIDDEN
100
AcDbLine
 10
-3.948705264238426
 20
0.2987615460611682
 30
0.0
 11
-3.948705264238426
 21
-0.298761546061165
 31
0.0
  0
LINE
  5
C8
330
17
100
AcDbEntity
  8
LINE
100
AcDbLine
 10
-3.999992000000004
 20
-0.9409429999999991
 30
0.0
 11
-3.940937000000004
 21
-0.9999979999999991
 31
0.0
  0
LINE
  5
C9
330
17
100
AcDbEntity
  8
HIDDEN
100
AcDbLine
 10
-3.948705264238426
 20
-0.298761546061165
 30
0.0
 11
-3.99999199999999
 21
-0.3283719567589625
 31
0.0
  0
POINT
  5
CA
330
17
100
AcDbEntity
  8
DEFPOINTS
  6
ByBlock
 62
     0
100
AcDbPoint
 10
-3.99999199999999
 20
-0.3283719567589625
 30
0.0
  0
LINE
  5
CB
330
17
100
AcDbEntity
  8
HIDDEN
100
AcDbLine
 10
-3.948705264238426
 20
0.2987615460611682
 30
0.0
 11
-3.99999199999999
 21
0.3283719567589658
 31
0.0
  0
POINT
  5
CC
330
17
100
AcDbEntity
  8
DEFPOINTS
  6
ByBlock
 62
     0
100
AcDbPoint
 10
-3.99999199999999
 20
0.3283719567589658
 30
0.0
  0
LINE
  5
CD
330
17
100
AcDbEntity
  8
HIDDEN
100
AcDbLine
 10
-3.527551999999998
 20
-0.284054549999998
 30
0.0
 11
-3.527551999999998
 21
0.2840545500000012
 31
0.0
  0
LINE
  5
CE
330
17
100
AcDbEntity
  8
HIDDEN
100
AcDbLine
 10
-3.533579974588348
 20
-0.3115688660508714
 30
0.0
 11
-3.430895149150983
 21
-0.284054549999998
 31
0.0
  0
POINT
  5
CF
330
17
100
AcDbEntity
  8
DEFPOINTS
  6
ByBlock
 62
     0
100
AcDbPoint
 10
-2.71648155476322
 20
-0.284054549999998
 30
0.0
  0
LINE
  5
D0
330
17
100
AcDbEntity
  8
HIDDEN
100
AcDbLine
 10
-3.533579974588348
 20
0.3115688660508746
 30
0.0
 11
-3.430895149150983
 21
0.2840545500000012
 31
0.0
  0
LINE
  5
D1
330
17
100
AcDbEntity
  8
LINE
100
AcDbLine
 10
-3.940936999999991
 20
0.9999979999999998
 30
0.0
 11
-3.99999199999999
 21
0.9409430000000003
 31
0.0
  0
LINE
  5
D2
330
17
100
AcDbEntity
  8
LINE
100
AcDbLine
 10
3.267709999999993
 20
-0.0000000000000045
 30
0.0
 11
3.267710000000008
 21
1.73200007899998
 31
0.0
  0
LINE
  5
D3
330
17
100
AcDbEntity
  8
HIDDEN
100
AcDbLine
 10
1.196714142000004
 20
-0.0000000000000045
 30
0.0
 11
1.196714142000004
 21
0.9054981889999963
 31
0.0
  0
LINE
  5
D5
330
17
100
AcDbEntity
  8
LINE
100
AcDbLine
 10
0.0
 20
-1.732129999999999
 30
0.0
 11
0.0
 21
1.732129999999999
 31
0.0
  0
LINE
  5
D6
330
17
100
AcDbEntity
  8
HIDDEN
100
AcDbLine
 10
1.196714142000004
 20
0.9054981889999963
 30
0.0
 11
0.8379234897371786
 21
0.2840545500000012
 31
0.0
  0
LINE
  5
D7
330
17
100
AcDbEntity
  8
HIDDEN
100
AcDbLine
 10
1.196714142000004
 20
-0.9054981890000062
 30
0.0
 11
3.267710000000008
 21
-0.9054981890000052
 31
0.0
  0
LINE
  5
D8
330
17
100
AcDbEntity
  8
HIDDEN
100
AcDbLine
 10
3.267710000000008
 20
-1.264997470000001
 30
0.0
 11
2.362211811000008
 21
-1.264997470000001
 31
0.0
  0
CIRCLE
  5
D9
330
17
100
AcDbEntity
  8
HIDDEN
100
AcDbCircle
 10
2.517711500000002
 20
0.0
 30
0.0
 40
0.3939992119999988
  0
CIRCLE
  5
DA
330
17
100
AcDbEntity
  8
LINE
100
AcDbCircle
 10
2.517711500000002
 20
0.0
 30
0.0
 40
0.3635497954461926
  0
LWPOLYLINE
  5
DB
330
17
100
AcDbEntity
  8
LINE
100
AcDbPolyline
 90
       16
 70
     1
 43
0.0
 10
2.083113065928273
 20
0.0
 42
0.1044111848381521
 10
2.115748346804821
 20
-0.1545787505011493
 42
0.1007495086748555
 10
2.210404000174833
 20
-0.2880230692476014
 42
0.0959695462102251
 10
2.350106574626579
 20
-0.3759336350320455
 42
0.0928430288977556
 10
2.517711500000002
 20
-0.4073261308062824
 42
0.0928430288977547
 10
2.685316425373443
 20
-0.3759336350320455
 42
0.0959695462102259
 10
2.825018999825188
 20
-0.2880230692476014
 42
0.1007495086748551
 10
2.919674653195201
 20
-0.1545787505011493
 42
0.1044111848381507
 10
2.952309934071748
 20
0.0
 42
0.1044111848381505
 10
2.919674653195201
 20
0.1545787505011491
 42
0.1007495086748552
 10
2.825018999825188
 20
0.2880230692476002
 42
0.095969546210226
 10
2.685316425373443
 20
0.3759336350320443
 42
0.0928430288977559
 10
2.517711500000002
 20
0.4073261308062813
 42
0.0928430288977562
 10
2.350106574626579
 20
0.3759336350320443
 42
0.0959695462102269
 10
2.210404000174833
 20
0.2880230692476002
 42
0.1007495086748553
 10
2.115748346804821
 20
0.1545787505011491
 42
0.1044111848381514
  0
LWPOLYLINE
  5
ED
330
17
100
AcDbEntity
  8
LINE
100
AcDbPolyline
 90
        6
 70
     1
 43
0.0
 10
2.810888181439977
 20
0.1692656359494869
 10
2.517711500000002
 20
0.3385312718989738
 10
2.224534818560043
 20
0.1692656359494869
 10
2.224534818560043
 20
-0.169265635949487
 10
2.517711500000002
 20
-0.3385312718989739
 10
2.810888181439977
 20
-0.1692656359494881
  0
LINE
  5
F5
330
17
100
AcDbEntity
  8
LINE
100
AcDbLine
 10
0.039369999999991
 20
-1.7715
 30
0.0
 11
3.228210079000006
 21
-1.7715
 31
0.0
  0
LINE
  5
F6
330
17
100
AcDbEntity
  8
HIDDEN
100
AcDbLine
 10
2.362211811000008
 20
-0.9054981890000062
 30
0.0
 11
2.362211811000008
 21
-1.264997470000001
 31
0.0
  0
LINE
  5
FA
330
17
100
AcDbEntity
  8
LINE
100
AcDbLine
 10
0.0
 20
-1.732129999999999
 30
0.0
 11
0.039369999999991
 21
-1.7715
 31
0.0
  0
LINE
  5
FB
330
17
100
AcDbEntity
  8
HIDDEN
100
AcDbLine
 10
1.196714142000004
 20
-0.9054981890000062
 30
0.0
 11
0.8379234897371786
 21
-0.2840545500000114
 31
0.0
  0
LINE
  5
FC
330
17
100
AcDbEntity
  8
HIDDEN
100
AcDbLine
 10
0.8379234897371786
 20
0.2840545500000001
 30
0.0
 11
0.8379234897371786
 21
-0.284054549999998
 31
0.0
  0
LINE
  5
FD
330
17
100
AcDbEntity
  8
HIDDEN
100
AcDbLine
 10
1.196714142000004
 20
-0.0000000000000056
 30
0.0
 11
1.196714142000004
 21
-0.9054981890000062
 31
0.0
  0
LINE
  5
FE
330
17
100
AcDbEntity
  8
LINE
100
AcDbLine
 10
3.267709999999993
 20
-0.0000000000000056
 30
0.0
 11
3.267710000000008
 21
-1.732000078999988
 31
0.0
  0
LINE
  5
FF
330
17
100
AcDbEntity
  8
LINE
100
AcDbLine
 10
3.228210079000006
 20
-1.7715
 30
0.0
 11
3.267709999999993
 21
-1.732000079
 31
0.0
  0
LINE
  5
100
330
17
100
AcDbEntity
  8
HIDDEN
100
AcDbLine
 10
1.196714142000004
 20
0.9054981889999963
 30
0.0
 11
3.267710000000008
 21
0.9054981889999963
 31
0.0
  0
LINE
  5
101
330
17
100
AcDbEntity
  8
HIDDEN
100
AcDbLine
 10
3.267710000000008
 20
1.264997469999998
 30
0.0
 11
2.362211811000008
 21
1.264997469999998
 31
0.0
  0
LINE
  5
102
330
17
100
AcDbEntity
  8
LINE
100
AcDbLine
 10
0.0393700000000052
 20
1.7715
 30
0.0
 11
3.228210079000006
 21
1.7715
 31
0.0
  0
LINE
  5
103
330
17
100
AcDbEntity
  8
LINE
100
AcDbLine
 10
0.0393700000000052
 20
1.7715
 30
0.0
 11
0.0
 21
1.732129999999999
 31
0.0
  0
LINE
  5
104
330
17
100
AcDbEntity
  8
HIDDEN
100
AcDbLine
 10
2.362211811000008
 20
0.9054981890000064
 30
0.0
 11
2.362211811000008
 21
1.264997469999998
 31
0.0
  0
LINE
  5
105
330
17
100
AcDbEntity
  8
LINE
100
AcDbLine
 10
3.228210079000006
 20
1.771499999999988
 30
0.0
 11
3.267709999999993
 21
1.732000078999993
 31
0.0
  0
DIMENSION
  5
11E
330
17
100
AcDbEntity
  8
DIM
100
AcDbDimension
  2
*D0
 10
-5.106963956748936
 20
-0.9999979999999988
 30
0.0
 11
-5.286963956748937
 21
0.0000000000000001
 31
0.0
 70
    32
  1
%%c<>
 71
     5
 42
1.999995999999999
  3
STANDARD
100
AcDbAlignedDimension
 13
-3.940936999999991
 23
0.9999979999999998
 33
0.0
 14
-3.940936999999991
 24
-0.9999979999999991
 34
0.0
 50
90.0
100
AcDbRotatedDimension
  0
DIMENSION
  5
12B
330
17
100
AcDbEntity
  8
DIM
100
AcDbDimension
  2
*D1
 10
3.267710000000008
 20
3.490610160841732
 30
0.0
 11
-0.3661409999999916
 21
3.670610160841731
 31
0.0
 70
    32
 71
     5
 42
7.267701999999997
  3
STANDARD
100
AcDbAlignedDimension
 13
-3.99999199999999
 23
0.9409430000000003
 33
0.0
 14
3.267710000000008
 24
1.73200007899998
 34
0.0
100
AcDbRotatedDimension
  0
DIMENSION
  5
138
330
17
100
AcDbEntity
  8
DIM
100
AcDbDimension
  2
*D2
 10
3.267710000000008
 20
2.659512557679931
 30
0.0
 11
1.633855000000004
 21
2.83951255767993
 31
0.0
 70
    32
 71
     5
 42
3.267710000000008
  3
STANDARD
100
AcDbAlignedDimension
 13
0.0
 23
1.732129999999999
 33
0.0
 14
3.267710000000008
 24
1.73200007899998
 34
0.0
100
AcDbRotatedDimension
  0
DIMENSION
  5
145
330
17
100
AcDbEntity
  8
DIM
100
AcDbDimension
  2
*D3
 10
4.422632688458738
 20
-1.7715
 30
0.0
 11
4.242632688458741
 21
-0.000000000000004
 31
0.0
 70
    32
  1
%%c<>
 71
     5
 42
3.54299999999999
  3
STANDARD
100
AcDbAlignedDimension
 13
3.228210079000006
 23
1.771499999999988
 33
0.0
 14
3.228210079000006
 24
-1.771499999999999
 34
0.0
 50
90.0
100
AcDbRotatedDimension
  0
LINE
  5
33B
330
17
100
AcDbEntity
  8
LINE
100
AcDbLine
 10
-3.144049597213206
 20
1.523283641581596
 30
0.0
 11
-3.144049597213206
 21
1.867200352393856
 31
0.0
  0
ARC
  5
33C
330
17
100
AcDbEntity
  8
LINE
100
AcDbCircle
 10
-2.71757130524932
 20
1.769787773400494
 30
0.0
 40
0.1031984247723265
100
AcDbArc
 50
0.0
 51
70.72320733173912
  0
ARC
  5
33D
330
17
100
AcDbEntity
  8
LINE
100
AcDbCircle
 10
-2.70183653459211
 20
1.769787773400494
 30
0.0
 40
0.0584981162543635
100
AcDbArc
 50
117.9411040697628
 51
180.0
  0
ARC
  5
33E
330
17
100
AcDbEntity
  8
LINE
100
AcDbCircle
 10
-2.725032169456781
 20
1.769787773400494
 30
0.0
 40
0.0584981162543635
100
AcDbArc
 50
0.0
 51
62.05889593023716
  0
ARC
  5
33F
330
17
100
AcDbEntity
  8
LINE
100
AcDbCircle
 10
-3.046405925422608
 20
1.769787773400494
 30
0.0
 40
0.1031984247723265
100
AcDbArc
 50
313.7508402721822
 51
70.72320733173912
  0
ARC
  5
340
330
17
100
AcDbEntity
  8
LINE
100
AcDbCircle
 10
-2.712016552267583
 20
1.769787773400494
 30
0.0
 40
0.1031984247723265
100
AcDbArc
 50
109.2767926682608
 51
180.0
  0
LINE
  5
341
330
17
100
AcDbEntity
  8
LINE
100
AcDbLine
 10
-2.853600419954818
 20
1.867200352393856
 30
0.0
 11
-2.853600419954818
 21
1.523283641581596
 31
0.0
  0
LINE
  5
342
330
17
100
AcDbEntity
  8
LINE
100
AcDbLine
 10
-2.904822057735367
 20
1.523283641581596
 30
0.0
 11
-2.904822057735367
 21
1.867200352393856
 31
0.0
  0
LINE
  5
343
330
17
100
AcDbEntity
  8
LINE
100
AcDbLine
 10
-3.089169271019761
 20
1.821466747232654
 30
0.0
 11
-3.026456695340491
 21
1.821466747232654
 31
0.0
  0
LINE
  5
344
330
17
100
AcDbEntity
  8
LINE
100
AcDbLine
 10
-3.026456695340491
 20
1.718108799568327
 30
0.0
 11
-3.089169271019761
 21
1.718108799568327
 31
0.0
  0
LINE
  5
345
330
17
100
AcDbEntity
  8
LINE
100
AcDbLine
 10
-3.026456695340491
 20
1.672375194407125
 30
0.0
 11
-3.089169271019761
 21
1.672375194407125
 31
0.0
  0
LINE
  5
346
330
17
100
AcDbEntity
  8
LINE
100
AcDbLine
 10
-3.089169271019761
 20
1.569017246742797
 30
0.0
 11
-3.026456695340491
 21
1.569017246742797
 31
0.0
  0
LINE
  5
347
330
17
100
AcDbEntity
  8
LINE
100
AcDbLine
 10
-3.074534517368178
 20
1.523283641581596
 30
0.0
 11
-3.012336814348948
 21
1.523283641581596
 31
0.0
  0
LINE
  5
348
330
17
100
AcDbEntity
  8
LINE
100
AcDbLine
 10
-3.144049597213206
 20
1.523283641581596
 30
0.0
 11
-3.012336814348948
 21
1.523283641581596
 31
0.0
  0
LINE
  5
349
330
17
100
AcDbEntity
  8
LINE
100
AcDbLine
 10
-3.089169271019761
 20
1.569017246742797
 30
0.0
 11
-3.089169271019761
 21
1.672375194407125
 31
0.0
  0
LINE
  5
34A
330
17
100
AcDbEntity
  8
LINE
100
AcDbLine
 10
-3.089169271019761
 20
1.718108799568327
 30
0.0
 11
-3.089169271019761
 21
1.821466747232654
 31
0.0
  0
ARC
  5
34B
330
17
100
AcDbEntity
  8
LINE
100
AcDbCircle
 10
-3.053866789630069
 20
1.620696220574965
 30
0.0
 40
0.0584981162543635
100
AcDbArc
 50
297.9411040697627
 51
62.05889593023716
  0
ARC
  5
34C
330
17
100
AcDbEntity
  8
LINE
100
AcDbCircle
 10
-3.046405925422608
 20
1.620696220574965
 30
0.0
 40
0.1031984247723242
100
AcDbArc
 50
289.2767926682573
 51
46.24915972781781
  0
LINE
  5
34D
330
17
100
AcDbEntity
  8
LINE
100
AcDbLine
 10
-2.904822057735367
 20
1.523283641581596
 30
0.0
 11
-2.853600419954818
 21
1.523283641581596
 31
0.0
  0
ARC
  5
34E
330
17
100
AcDbEntity
  8
LINE
100
AcDbCircle
 10
-3.053866789630069
 20
1.769787773400494
 30
0.0
 40
0.0584981162543635
100
AcDbArc
 50
297.9411040697627
 51
62.05889593023716
  0
LINE
  5
34F
330
17
100
AcDbEntity
  8
LINE
100
AcDbLine
 10
-2.666534053202417
 20
1.620696220574965
 30
0.0
 11
-2.666534053202417
 21
1.672375194407125
 31
0.0
  0
LINE
  5
350
330
17
100
AcDbEntity
  8
LINE
100
AcDbLine
 10
-2.614372880476999
 20
1.620696220574965
 30
0.0
 11
-2.614372880476999
 21
1.718108799568327
 31
0.0
  0
LINE
  5
351
330
17
100
AcDbEntity
  8
LINE
100
AcDbLine
 10
-2.760334650846466
 20
1.620696220574965
 30
0.0
 11
-2.760334650846466
 21
1.672375194407125
 31
0.0
  0
LINE
  5
352
330
17
100
AcDbEntity
  8
LINE
100
AcDbLine
 10
-2.815214977039904
 20
1.620696220574965
 30
0.0
 11
-2.815214977039904
 21
1.769787773400494
 31
0.0
  0
LINE
  5
353
330
17
100
AcDbEntity
  8
LINE
100
AcDbLine
 10
-2.729246628881695
 20
1.569017246742797
 30
0.0
 11
-2.697622075167203
 21
1.569017246742797
 31
0.0
  0
LINE
  5
354
330
17
100
AcDbEntity
  8
LINE
100
AcDbLine
 10
-2.746085663341272
 20
1.523283641581596
 30
0.0
 11
-2.683502194175632
 21
1.523283641581596
 31
0.0
  0
LINE
  5
355
330
17
100
AcDbEntity
  8
LINE
100
AcDbLine
 10
-2.745699897194875
 20
1.523283641581596
 30
0.0
 11
-2.683502194175632
 21
1.523283641581596
 31
0.0
  0
ARC
  5
356
330
17
100
AcDbEntity
  8
LINE
100
AcDbCircle
 10
-2.712016552267583
 20
1.620696220574965
 30
0.0
 40
0.1031984247723265
100
AcDbArc
 50
180.0
 51
250.723207331739
  0
ARC
  5
357
330
17
100
AcDbEntity
  8
LINE
100
AcDbCircle
 10
-2.70183653459211
 20
1.620696220574965
 30
0.0
 40
0.0584981162543635
100
AcDbArc
 50
180.0
 51
242.0588959302372
  0
ARC
  5
358
330
17
100
AcDbEntity
  8
LINE
100
AcDbCircle
 10
-2.725032169456781
 20
1.620696220574965
 30
0.0
 40
0.0584981162543635
100
AcDbArc
 50
297.9411040697627
 51
0.0
  0
ARC
  5
359
330
17
100
AcDbEntity
  8
LINE
100
AcDbCircle
 10
-2.717571305249306
 20
1.620696220574965
 30
0.0
 40
0.1031984247723242
100
AcDbArc
 50
289.2767926682573
 51
0.0
  0
LINE
  5
35A
330
17
100
AcDbEntity
  8
LINE
100
AcDbLine
 10
-2.729246628881695
 20
1.821466747232654
 30
0.0
 11
-2.697622075167203
 21
1.821466747232654
 31
0.0
  0
LINE
  5
35B
330
17
100
AcDbEntity
  8
LINE
100
AcDbLine
 10
-2.760334650846466
 20
1.672375194407125
 30
0.0
 11
-2.760334650846466
 21
1.769787773400494
 31
0.0
  0
LINE
  5
35C
330
17
100
AcDbEntity
  8
LINE
100
AcDbLine
 10
-2.614372880476999
 20
1.718108799568327
 30
0.0
 11
-2.713434352024442
 21
1.718108799568327
 31
0.0
  0
LINE
  5
35D
330
17
100
AcDbEntity
  8
LINE
100
AcDbLine
 10
-2.713434352024442
 20
1.672375194407125
 30
0.0
 11
-2.713434352024442
 21
1.718108799568327
 31
0.0
  0
LINE
  5
35E
330
17
100
AcDbEntity
  8
LINE
100
AcDbLine
 10
-2.666534053202417
 20
1.672375194407125
 30
0.0
 11
-2.713434352024442
 21
1.672375194407125
 31
0.0
  0
LINE
  5
35F
330
17
100
AcDbEntity
  8
LINE
100
AcDbLine
 10
-2.666534053202417
 20
1.769787773400494
 30
0.0
 11
-2.614372880476999
 21
1.769787773400494
 31
0.0
  0
LINE
  5
360
330
17
100
AcDbEntity
  8
LINE
100
AcDbLine
 10
-3.074534517368178
 20
1.867200352393856
 30
0.0
 11
-3.012336814348948
 21
1.867200352393856
 31
0.0
  0
LINE
  5
361
330
17
100
AcDbEntity
  8
LINE
100
AcDbLine
 10
-3.144049597213206
 20
1.867200352393856
 30
0.0
 11
-3.012336814348948
 21
1.867200352393856
 31
0.0
  0
LINE
  5
362
330
17
100
AcDbEntity
  8
LINE
100
AcDbLine
 10
-2.904822057735367
 20
1.867200352393856
 30
0.0
 11
-2.853600419954818
 21
1.867200352393856
 31
0.0
  0
LINE
  5
363
330
17
100
AcDbEntity
  8
LINE
100
AcDbLine
 10
-2.745699897194875
 20
1.867200352393856
 30
0.0
 11
-2.683502194175632
 21
1.867200352393856
 31
0.0
  0
LINE
  5
364
330
17
100
AcDbEntity
  8
LINE
100
AcDbLine
 10
-2.746085663341272
 20
1.867200352393856
 30
0.0
 11
-2.683502194175632
 21
1.867200352393856
 31
0.0
  0
LINE
  5
365
330
17
100
AcDbEntity
  8
LINE
100
AcDbLine
 10
-1.754457092385604
 20
1.867200352393856
 30
0.0
 11
-1.622744309521339
 21
1.867200352393856
 31
0.0
  0
LINE
  5
366
330
17
100
AcDbEntity
  8
LINE
100
AcDbLine
 10
-1.622744309521339
 20
1.672375194407125
 30
0.0
 11
-1.699576766192173
 21
1.672375194407125
 31
0.0
  0
LINE
  5
367
330
17
100
AcDbEntity
  8
LINE
100
AcDbLine
 10
-1.699576766192173
 20
1.821466747232654
 30
0.0
 11
-1.622744309521339
 21
1.821466747232654
 31
0.0
  0
LINE
  5
368
330
17
100
AcDbEntity
  8
LINE
100
AcDbLine
 10
-1.622744309521339
 20
1.718108799568327
 30
0.0
 11
-1.699576766192173
 21
1.718108799568327
 31
0.0
  0
LINE
  5
369
330
17
100
AcDbEntity
  8
LINE
100
AcDbLine
 10
-1.699576766192173
 20
1.569017246742797
 30
0.0
 11
-1.622744309521339
 21
1.569017246742797
 31
0.0
  0
LINE
  5
36A
330
17
100
AcDbEntity
  8
LINE
100
AcDbLine
 10
-1.754457092385604
 20
1.523283641581596
 30
0.0
 11
-1.622744309521339
 21
1.523283641581596
 31
0.0
  0
LINE
  5
36B
330
17
100
AcDbEntity
  8
LINE
100
AcDbLine
 10
-2.137599562050604
 20
1.867200352393856
 30
0.0
 11
-2.045447357124891
 21
1.523283641581588
 31
0.0
  0
LINE
  5
36C
330
17
100
AcDbEntity
  8
LINE
100
AcDbLine
 10
-1.973978397159377
 20
1.867200352393856
 30
0.0
 11
-1.973978397159377
 21
1.523283641581596
 31
0.0
  0
LINE
  5
36D
330
17
100
AcDbEntity
  8
LINE
100
AcDbLine
 10
-2.025200034939926
 20
1.523283641581596
 30
0.0
 11
-2.025200034939926
 21
1.867200352393856
 31
0.0
  0
LINE
  5
36E
330
17
100
AcDbEntity
  8
LINE
100
AcDbLine
 10
-1.754457092385604
 20
1.523283641581596
 30
0.0
 11
-1.754457092385604
 21
1.867200352393856
 31
0.0
  0
LINE
  5
36F
330
17
100
AcDbEntity
  8
LINE
100
AcDbLine
 10
-1.798361353340361
 20
1.867200352393856
 30
0.0
 11
-1.798361353340361
 21
1.821466747232654
 31
0.0
  0
ARC
  5
370
330
17
100
AcDbEntity
  8
LINE
100
AcDbCircle
 10
-1.878508657543146
 20
1.810124813152675
 30
0.0
 40
0.057075539241183
100
AcDbArc
 50
90.0
 51
204.9999999999986
  0
ARC
  5
371
330
17
100
AcDbEntity
  8
LINE
100
AcDbCircle
 10
-1.861541601709941
 20
1.803173305168168
 30
0.0
 40
0.0182934420644818
100
AcDbArc
 50
90.0
 51
204.9999999999986
  0
LINE
  5
372
330
17
100
AcDbEntity
  8
LINE
100
AcDbLine
 10
-2.429531344597244
 20
1.867200352393856
 30
0.0
 11
-2.429531344597244
 21
1.70621806222641
 31
0.0
  0
LINE
  5
373
330
17
100
AcDbEntity
  8
LINE
100
AcDbLine
 10
-2.429531344597244
 20
1.70621806222641
 30
0.0
 11
-2.354464069864823
 21
1.867200352393856
 31
0.0
  0
LINE
  5
374
330
17
100
AcDbEntity
  8
LINE
100
AcDbLine
 10
-2.366226919804597
 20
1.708591434728528
 30
0.0
 11
-2.292266366845594
 21
1.867200352393856
 31
0.0
  0
LINE
  5
375
330
17
100
AcDbEntity
  8
LINE
100
AcDbLine
 10
-2.491729047616474
 20
1.867200352393856
 30
0.0
 11
-2.491729047616474
 21
1.523283641581596
 31
0.0
  0
LINE
  5
376
330
17
100
AcDbEntity
  8
LINE
100
AcDbLine
 10
-2.275882450276147
 20
1.523283641581588
 30
0.0
 11
-2.209031813710841
 21
1.867200352393856
 31
0.0
  0
LINE
  5
377
330
17
100
AcDbEntity
  8
LINE
100
AcDbLine
 10
-2.100327683318343
 20
1.523283641581588
 30
0.0
 11
-2.180183377188049
 21
1.775930044953176
 31
0.0
  0
LINE
  5
378
330
17
100
AcDbEntity
  8
LINE
100
AcDbLine
 10
-2.354464069864823
 20
1.523283641581596
 30
0.0
 11
-2.399740031331178
 21
1.636722335131985
 31
0.0
  0
LINE
  5
379
330
17
100
AcDbEntity
  8
LINE
100
AcDbLine
 10
-2.292266366845594
 20
1.523283641581588
 30
0.0
 11
-2.366226919804597
 21
1.708591434728528
 31
0.0
  0
LINE
  5
37A
330
17
100
AcDbEntity
  8
LINE
100
AcDbLine
 10
-2.491729047616474
 20
1.523283641581596
 30
0.0
 11
-2.429531344597244
 21
1.523283641581596
 31
0.0
  0
LINE
  5
37B
330
17
100
AcDbEntity
  8
LINE
100
AcDbLine
 10
-2.429531344597244
 20
1.572834657661861
 30
0.0
 11
-2.399740031331178
 21
1.636722335131985
 31
0.0
  0
LINE
  5
37C
330
17
100
AcDbEntity
  8
LINE
100
AcDbLine
 10
-2.429531344597244
 20
1.523283641581596
 30
0.0
 11
-2.429531344597244
 21
1.572834657661861
 31
0.0
  0
LINE
  5
37D
330
17
100
AcDbEntity
  8
LINE
100
AcDbLine
 10
-2.220403150868728
 20
1.569017246742797
 30
0.0
 11
-2.180183377188049
 21
1.775930044953176
 31
0.0
  0
LINE
  5
37E
330
17
100
AcDbEntity
  8
LINE
100
AcDbLine
 10
-2.275882450276147
 20
1.523283641581588
 30
0.0
 11
-2.144169667411902
 21
1.523283641581588
 31
0.0
  0
LINE
  5
37F
330
17
100
AcDbEntity
  8
LINE
100
AcDbLine
 10
-2.354464069864823
 20
1.523283641581596
 30
0.0
 11
-2.292266366845594
 21
1.523283641581596
 31
0.0
  0
LINE
  5
380
330
17
100
AcDbEntity
  8
LINE
100
AcDbLine
 10
-2.220403150868728
 20
1.569017246742797
 30
0.0
 11
-2.15642394998181
 21
1.569017246742797
 31
0.0
  0
LINE
  5
381
330
17
100
AcDbEntity
  8
LINE
100
AcDbLine
 10
-2.144169667411902
 20
1.523283641581588
 30
0.0
 11
-2.15642394998181
 21
1.569017246742797
 31
0.0
  0
LINE
  5
382
330
17
100
AcDbEntity
  8
LINE
100
AcDbLine
 10
-1.937391513030432
 20
1.569017246742797
 30
0.0
 11
-1.85776919476317
 21
1.569017246742797
 31
0.0
  0
LINE
  5
383
330
17
100
AcDbEntity
  8
LINE
100
AcDbLine
 10
-1.937391513030432
 20
1.523283641581596
 30
0.0
 11
-1.840802138929944
 21
1.523283641581596
 31
0.0
  0
LINE
  5
384
330
17
100
AcDbEntity
  8
LINE
100
AcDbLine
 10
-1.841189705768445
 20
1.595041831493825
 30
0.0
 11
-1.930236663206756
 21
1.786003647970644
 31
0.0
  0
LINE
  5
385
330
17
100
AcDbEntity
  8
LINE
100
AcDbLine
 10
-2.02520003493994
 20
1.523283641581596
 30
0.0
 11
-1.973978397159377
 21
1.523283641581596
 31
0.0
  0
LINE
  5
386
330
17
100
AcDbEntity
  8
LINE
100
AcDbLine
 10
-2.045447357124891
 20
1.523283641581588
 30
0.0
 11
-2.100327683318343
 21
1.523283641581588
 31
0.0
  0
LINE
  5
387
330
17
100
AcDbEntity
  8
LINE
100
AcDbLine
 10
-1.937391513030432
 20
1.569017246742797
 30
0.0
 11
-1.937391513030432
 21
1.523283641581596
 31
0.0
  0
LINE
  5
388
330
17
100
AcDbEntity
  8
LINE
100
AcDbLine
 10
-1.699576766192173
 20
1.569017246742797
 30
0.0
 11
-1.699576766192173
 21
1.672375194407125
 31
0.0
  0
LINE
  5
389
330
17
100
AcDbEntity
  8
LINE
100
AcDbLine
 10
-1.789074133266348
 20
1.6044803460048
 30
0.0
 11
-1.878121090704687
 21
1.795442162481613
 31
0.0
  0
ARC
  5
38A
330
17
100
AcDbEntity
  8
LINE
100
AcDbCircle
 10
-1.840802138929944
 20
1.580359180822791
 30
0.0
 40
0.057075539241183
100
AcDbArc
 50
270.0
 51
24.9999999999988
  0
ARC
  5
38B
330
17
100
AcDbEntity
  8
LINE
100
AcDbCircle
 10
-1.85776919476317
 20
1.587310688807284
 30
0.0
 40
0.0182934420644818
100
AcDbArc
 50
270.0
 51
24.9999999999988
  0
LINE
  5
38C
330
17
100
AcDbEntity
  8
LINE
100
AcDbLine
 10
-1.798361353340361
 20
1.821466747232654
 30
0.0
 11
-1.861541601709941
 21
1.82146674723264
 31
0.0
  0
LINE
  5
38D
330
17
100
AcDbEntity
  8
LINE
100
AcDbLine
 10
-1.699576766192173
 20
1.718108799568327
 30
0.0
 11
-1.699576766192173
 21
1.821466747232654
 31
0.0
  0
LINE
  5
38E
330
17
100
AcDbEntity
  8
LINE
100
AcDbLine
 10
-2.491729047616474
 20
1.867200352393856
 30
0.0
 11
-2.429531344597244
 21
1.867200352393856
 31
0.0
  0
LINE
  5
38F
330
17
100
AcDbEntity
  8
LINE
100
AcDbLine
 10
-2.354464069864823
 20
1.867200352393856
 30
0.0
 11
-2.292266366845594
 21
1.867200352393856
 31
0.0
  0
LINE
  5
390
330
17
100
AcDbEntity
  8
LINE
100
AcDbLine
 10
-2.209031813710841
 20
1.867200352393856
 30
0.0
 11
-2.137599562050604
 21
1.867200352393856
 31
0.0
  0
LINE
  5
391
330
17
100
AcDbEntity
  8
LINE
100
AcDbLine
 10
-2.025200034939926
 20
1.867200352393856
 30
0.0
 11
-1.973978397159377
 21
1.867200352393856
 31
0.0
  0
LINE
  5
392
330
17
100
AcDbEntity
  8
LINE
100
AcDbLine
 10
-1.798361353340361
 20
1.867200352393856
 30
0.0
 11
-1.878508657543146
 21
1.867200352393856
 31
0.0
  0
LINE
  5
393
330
17
100
AcDbEntity
  8
LINE
100
AcDbLine
 10
-1.589816113805276
 20
1.523283641581596
 30
0.0
 11
-1.589816113805276
 21
1.867200352393856
 31
0.0
  0
ARC
  5
394
330
17
100
AcDbEntity
  8
LINE
100
AcDbCircle
 10
-1.498348903482851
 20
1.799514616755265
 30
0.0
 40
0.0219521304773781
100
AcDbArc
 50
0.0
 51
90.0
  0
LINE
  5
395
330
17
100
AcDbEntity
  8
LINE
100
AcDbLine
 10
-1.622744309521339
 20
1.821466747232654
 30
0.0
 11
-1.622744309521339
 21
1.867200352393856
 31
0.0
  0
ARC
  5
396
330
17
100
AcDbEntity
  8
LINE
100
AcDbCircle
 10
-1.478591986053205
 20
1.810124813152675
 30
0.0
 40
0.057075539241183
100
AcDbArc
 50
0.0
 51
90.0
  0
ARC
  5
397
330
17
100
AcDbEntity
  8
LINE
100
AcDbCircle
 10
-1.467250051973232
 20
1.740975602148931
 30
0.0
 40
0.0457336051612044
100
AcDbArc
 50
270.0
 51
0.0
  0
ARC
  5
398
330
17
100
AcDbEntity
  8
LINE
100
AcDbCircle
 10
-1.467250051973232
 20
1.649508391826521
 30
0.0
 40
0.0457336051612044
100
AcDbArc
 50
0.0
 51
90.0
  0
ARC
  5
399
330
17
100
AcDbEntity
  8
LINE
100
AcDbCircle
 10
-1.509324968721545
 20
1.639446998691062
 30
0.0
 40
0.0329281957160671
100
AcDbArc
 50
0.0
 51
90.0
  0
LINE
  5
39A
330
17
100
AcDbEntity
  8
LINE
100
AcDbLine
 10
-1.534935787611831
 20
1.523283641581596
 30
0.0
 11
-1.534935787611831
 21
1.672375194407125
 31
0.0
  0
LINE
  5
39B
330
17
100
AcDbEntity
  8
LINE
100
AcDbLine
 10
-1.622744309521339
 20
1.523283641581596
 30
0.0
 11
-1.622744309521339
 21
1.569017246742797
 31
0.0
  0
LINE
  5
39C
330
17
100
AcDbEntity
  8
LINE
100
AcDbLine
 10
-1.589816113805276
 20
1.523283641581596
 30
0.0
 11
-1.534935787611831
 21
1.523283641581596
 31
0.0
  0
LINE
  5
39D
330
17
100
AcDbEntity
  8
LINE
100
AcDbLine
 10
-1.421516446812052
 20
1.544902145725624
 30
0.0
 11
-1.421516446812052
 21
1.649508391826521
 31
0.0
  0
LINE
  5
39E
330
17
100
AcDbEntity
  8
LINE
100
AcDbLine
 10
-1.476396773005475
 20
1.639446998691062
 30
0.0
 11
-1.476396773005475
 21
1.541439447713025
 31
0.0
  0
LINE
  5
39F
330
17
100
AcDbEntity
  8
LINE
100
AcDbLine
 10
-1.474108596123889
 20
1.523283641581596
 30
0.0
 11
-1.41582506861385
 21
1.523283641581596
 31
0.0
  0
ARC
  5
3A0
330
17
100
AcDbEntity
  8
LINE
100
AcDbCircle
 10
-1.403223004747552
 20
1.541439447713025
 30
0.0
 40
0.073173768257927
100
AcDbArc
 50
180.0
 51
194.3662353416889
  0
ARC
  5
3A1
330
17
100
AcDbEntity
  8
LINE
100
AcDbCircle
 10
-1.377612185857295
 20
1.544902145725624
 30
0.0
 40
0.0439042609547562
100
AcDbArc
 50
180.0
 51
209.4985180895031
  0
LINE
  5
3A2
330
17
100
AcDbEntity
  8
LINE
100
AcDbLine
 10
-1.534935787611831
 20
1.821466747232654
 30
0.0
 11
-1.498348903482851
 21
1.821466747232654
 31
0.0
  0
LINE
  5
3A3
330
17
100
AcDbEntity
  8
LINE
100
AcDbLine
 10
-1.509324968721545
 20
1.672375194407125
 30
0.0
 11
-1.534935787611831
 21
1.672375194407125
 31
0.0
  0
LINE
  5
3A4
330
17
100
AcDbEntity
  8
LINE
100
AcDbLine
 10
-1.498348903482851
 20
1.718108799568327
 30
0.0
 11
-1.534935787611831
 21
1.718108799568327
 31
0.0
  0
LINE
  5
3A5
330
17
100
AcDbEntity
  8
LINE
100
AcDbLine
 10
-1.534935787611831
 20
1.718108799568327
 30
0.0
 11
-1.534935787611831
 21
1.821466747232654
 31
0.0
  0
LINE
  5
3A6
330
17
100
AcDbEntity
  8
LINE
100
AcDbLine
 10
-1.622744309521339
 20
1.672375194407125
 30
0.0
 11
-1.622744309521339
 21
1.718108799568327
 31
0.0
  0
LINE
  5
3A7
330
17
100
AcDbEntity
  8
LINE
100
AcDbLine
 10
-1.421516446812052
 20
1.810124813152675
 30
0.0
 11
-1.421516446812052
 21
1.740975602148931
 31
0.0
  0
LINE
  5
3A8
330
17
100
AcDbEntity
  8
LINE
100
AcDbLine
 10
-1.476396773005475
 20
1.740060930045709
 30
0.0
 11
-1.476396773005475
 21
1.799514616755265
 31
0.0
  0
ARC
  5
3A9
330
17
100
AcDbEntity
  8
LINE
100
AcDbCircle
 10
-1.498348903482851
 20
1.740060930045709
 30
0.0
 40
0.0219521304773781
100
AcDbArc
 50
270.0
 51
0.0
  0
LINE
  5
3AA
330
17
100
AcDbEntity
  8
LINE
100
AcDbLine
 10
-1.589816113805276
 20
1.867200352393856
 30
0.0
 11
-1.478591986053205
 21
1.867200352393856
 31
0.0
  0
ENDSEC
  0
SECTION
  2
OBJECTS
  0
DICTIONARY
  5
C
330
0
100
AcDbDictionary
281
     1
  3
ACAD_GROUP
350
D
  3
ACAD_LAYOUT
350
110
  3
ACAD_MLINESTYLE
350
1A
  3
ACAD_PLOTSETTINGS
350
111
  3
ACAD_PLOTSTYLENAME
350
10E
  3
ACDBVARIABLEDICTIONARY
350
28
  0
DICTIONARY
  5
D
102
{ACAD_REACTORS
330
C
102
}
330
C
100
AcDbDictionary
281
     1
  0
DICTIONARY
  5
110
102
{ACAD_REACTORS
330
C
102
}
330
C
100
AcDbDictionary
281
     1
  3
Layout1
350
113
  3
Model
350
112
  0
DICTIONARY
  5
1A
102
{ACAD_REACTORS
330
C
102
}
330
C
100
AcDbDictionary
281
     1
  3
STANDARD
350
1B
  0
DICTIONARY
  5
111
102
{ACAD_REACTORS
330
C
102
}
330
C
100
AcDbDictionary
281
     1
  0
ACDBDICTIONARYWDFLT
  5
10E
102
{ACAD_REACTORS
330
C
102
}
330
C
100
AcDbDictionary
281
     1
  3
Normal
350
10F
100
AcDbDictionaryWithDefault
340
10F
  0
DICTIONARY
  5
28
102
{ACAD_REACTORS
330
C
102
}
330
C
100
AcDbDictionary
281
     1
  3
DIMADEC
350
29
  3
DIMASSOC
350
116
  0
LAYOUT
  5
113
102
{ACAD_REACTORS
330
110
102
}
330
110
100
AcDbPlotSettings
  1

  2
\\PRINT_SRV\HP LaserJet (Engineering)
  4

  6

 40
0.0
 41
0.0
 42
0.0
 43
0.0
 44
0.0
 45
0.0
 46
0.0
 47
0.0
 48
0.0
 49
0.0
140
0.0
141
0.0
142
1.0
143
1.0
 70
   688
 72
     0
 73
     0
 74
     5
  7
KPT.ctb
 75
    16
147
1.0
148
0.0
149
0.0
100
AcDbLayout
  1
Layout1
 70
     1
 71
     1
 10
0.0
 20
0.0
 11
12.0
 21
9.0
 12
177.5871012527576
 22
50.0
 32
-203.7088212948281
 14
1.000000000000000E+20
 24
1.000000000000000E+20
 34
1.000000000000000E+20
 15
-1.000000000000000E+20
 25
-1.000000000000000E+20
 35
-1.000000000000000E+20
146
0.0
 13
0.0
 23
0.0
 33
0.0
 16
1.0
 26
0.0
 36
0.0
 17
0.0
 27
1.0
 37
0.0
 76
     0
330
14
  0
LAYOUT
  5
112
102
{ACAD_REACTORS
330
110
102
}
330
110
100
AcDbPlotSettings
  1

  2
\\PRINT_SRV\HP LaserJet (Engineering)
  4

  6

 40
0.0
 41
0.0
 42
0.0
 43
0.0
 44
0.0
 45
0.0
 46
0.0
 47
0.0
 48
0.0
 49
0.0
140
0.0
141
0.0
142
1.0
143
1.0
 70
  1712
 72
     0
 73
     0
 74
     0
  7
KPT.ctb
 75
     0
147
1.0
148
0.0
149
0.0
100
AcDbLayout
  1
Model
 70
     1
 71
     0
 10
0.0
 20
0.0
 11
12.0
 21
9.0
 12
0.0
 22
0.0
 32
0.0
 14
0.0
 24
0.0
 34
0.0
 15
0.0
 25
0.0
 35
0.0
146
0.0
 13
0.0
 23
0.0
 33
0.0
 16
1.0
 26
0.0
 36
0.0
 17
0.0
 27
1.0
 37
0.0
 76
     0
330
17
  0
MLINESTYLE
  5
1B
102
{ACAD_REACTORS
330
1A
102
}
330
1A
100
AcDbMlineStyle
  2
STANDARD
 70
     0
  3

 62
   256
 51
90.0
 52
90.0
 71
     2
 49
0.5
 62
   256
  6
BYLAYER
 49
-0.5
 62
   256
  6
BYLAYER
  0
ACDBPLACEHOLDER
  5
10F
102
{ACAD_REACTORS
330
10E
102
}
330
10E
  0
DICTIONARYVAR
  5
29
102
{ACAD_REACTORS
330
28
102
}
330
28
100
DictionaryVariables
280
     0
  1
0
  0
DICTIONARYVAR
  5
116
102
{ACAD_REACTORS
330
28
102
}
330
28
100
DictionaryVariables
280
     0
  1
1
  0
ENDSEC
  0
EOF
