  0
SECTION
  2
HEADER
  9
$ACADVER
  1
AC1015
  9
$ACADMAINTVER
 70
    13
  9
$DWGCODEPAGE
  3
ANSI_1252
  9
$INSBASE
 10
0.0
 20
0.0
 30
0.0
  9
$EXTMIN
 10
-5.016368436728306
 20
-1.2455
 30
0.0
  9
$EXTMAX
 10
3.52204541850471
 20
3.202068899448266
 30
0.0
  9
$LIMMIN
 10
0.0
 20
0.0
  9
$LIMMAX
 10
5.5
 20
4.25
  9
$ORTHOMODE
 70
     1
  9
$REGENMODE
 70
     1
  9
$FILLMODE
 70
     1
  9
$QTEXTMODE
 70
     0
  9
$MIRRTEXT
 70
     1
  9
$LTSCALE
 40
1.0
  9
$ATTMODE
 70
     1
  9
$TEXTSIZE
 40
1.6
  9
$TRACEWID
 40
0.05
  9
$TEXTSTYLE
  7
ROMANS
  9
$CLAYER
  8
DIM
  9
$CELTYPE
  6
BYLAYER
  9
$CECOLOR
 62
   256
  9
$CELTSCALE
 40
1.0
  9
$DISPSILH
 70
     0
  9
$DIMSCALE
 40
1.0
  9
$DIMASZ
 40
0.18
  9
$DIMEXO
 40
0.0625
  9
$DIMDLI
 40
0.38
  9
$DIMRND
 40
0.0
  9
$DIMDLE
 40
0.0
  9
$DIMEXE
 40
0.18
  9
$DIMTP
 40
0.0
  9
$DIMTM
 40
0.0
  9
$DIMTXT
 40
0.18
  9
$DIMCEN
 40
0.09
  9
$DIMTSZ
 40
0.0
  9
$DIMTOL
 70
     0
  9
$DIMLIM
 70
     0
  9
$DIMTIH
 70
     0
  9
$DIMTOH
 70
     0
  9
$DIMSE1
 70
     0
  9
$DIMSE2
 70
     0
  9
$DIMTAD
 70
     1
  9
$DIMZIN
 70
     0
  9
$DIMBLK
  1

  9
$DIMASO
 70
     1
  9
$DIMSHO
 70
     0
  9
$DIMPOST
  1

  9
$DIMAPOST
  1

  9
$DIMALT
 70
     0
  9
$DIMALTD
 70
     2
  9
$DIMALTF
 40
25.4
  9
$DIMLFAC
 40
1.0
  9
$DIMTOFL
 70
     0
  9
$DIMTVP
 40
0.0
  9
$DIMTIX
 70
     0
  9
$DIMSOXD
 70
     0
  9
$DIMSAH
 70
     0
  9
$DIMBLK1
  1

  9
$DIMBLK2
  1

  9
$DIMSTYLE
  2
STANDARD
  9
$DIMCLRD
 70
     0
  9
$DIMCLRE
 70
     0
  9
$DIMCLRT
 70
     0
  9
$DIMTFAC
 40
1.0
  9
$DIMGAP
 40
0.09
  9
$DIMJUST
 70
     0
  9
$DIMSD1
 70
     0
  9
$DIMSD2
 70
     0
  9
$DIMTOLJ
 70
     1
  9
$DIMTZIN
 70
     0
  9
$DIMALTZ
 70
     0
  9
$DIMALTTZ
 70
     0
  9
$DIMUPT
 70
     0
  9
$DIMDEC
 70
     3
  9
$DIMTDEC
 70
     3
  9
$DIMALTU
 70
     2
  9
$DIMALTTD
 70
     2
  9
$DIMTXSTY
  7
ROMANS
  9
$DIMAUNIT
 70
     0
  9
$DIMADEC
 70
     0
  9
$DIMALTRND
 40
0.0
  9
$DIMAZIN
 70
     0
  9
$DIMDSEP
 70
    46
  9
$DIMATFIT
 70
     3
  9
$DIMFRAC
 70
     0
  9
$DIMLDRBLK
  1

  9
$DIMLUNIT
 70
     2
  9
$DIMLWD
 70
    -2
  9
$DIMLWE
 70
    -2
  9
$DIMTMOVE
 70
     0
  9
$LUNITS
 70
     2
  9
$LUPREC
 70
     4
  9
$SKETCHINC
 40
0.1
  9
$FILLETRAD
 40
5.0
  9
$AUNITS
 70
     0
  9
$AUPREC
 70
     0
  9
$MENU
  1
acad
  9
$ELEVATION
 40
0.0
  9
$PELEVATION
 40
0.0
  9
$THICKNESS
 40
0.0
  9
$LIMCHECK
 70
     0
  9
$CHAMFERA
 40
2.0
  9
$CHAMFERB
 40
2.0
  9
$CHAMFERC
 40
0.0
  9
$CHAMFERD
 40
0.0
  9
$SKPOLY
 70
     0
  9
$TDCREATE
 40
2450004.749572338
  9
$TDUCREATE
 40
2450004.957905671
  9
$TDUPDATE
 40
2452852.609405451
  9
$TDUUPDATE
 40
2452852.817738785
  9
$TDINDWG
 40
0.0163161574
  9
$TDUSRTIMER
 40
0.0163159259
  9
$USRTIMER
 70
     1
  9
$ANGBASE
 50
0.0
  9
$ANGDIR
 70
     0
  9
$PDMODE
 70
     0
  9
$PDSIZE
 40
0.0
  9
$PLINEWID
 40
0.0
  9
$SPLFRAME
 70
     0
  9
$SPLINETYPE
 70
     6
  9
$SPLINESEGS
 70
     8
  9
$HANDSEED
  5
3D5
  9
$SURFTAB1
 70
     6
  9
$SURFTAB2
 70
     6
  9
$SURFTYPE
 70
     6
  9
$SURFU
 70
     6
  9
$SURFV
 70
     6
  9
$UCSBASE
  2

  9
$UCSNAME
  2

  9
$UCSORG
 10
0.0
 20
0.0
 30
0.0
  9
$UCSXDIR
 10
1.0
 20
0.0
 30
0.0
  9
$UCSYDIR
 10
0.0
 20
1.0
 30
0.0
  9
$UCSORTHOREF
  2

  9
$UCSORTHOVIEW
 70
     0
  9
$UCSORGTOP
 10
0.0
 20
0.0
 30
0.0
  9
$UCSORGBOTTOM
 10
0.0
 20
0.0
 30
0.0
  9
$UCSORGLEFT
 10
0.0
 20
0.0
 30
0.0
  9
$UCSORGRIGHT
 10
0.0
 20
0.0
 30
0.0
  9
$UCSORGFRONT
 10
0.0
 20
0.0
 30
0.0
  9
$UCSORGBACK
 10
0.0
 20
0.0
 30
0.0
  9
$PUCSBASE
  2

  9
$PUCSNAME
  2

  9
$PUCSORG
 10
0.0
 20
0.0
 30
0.0
  9
$PUCSXDIR
 10
1.0
 20
0.0
 30
0.0
  9
$PUCSYDIR
 10
0.0
 20
1.0
 30
0.0
  9
$PUCSORTHOREF
  2

  9
$PUCSORTHOVIEW
 70
     0
  9
$PUCSORGTOP
 10
0.0
 20
0.0
 30
0.0
  9
$PUCSORGBOTTOM
 10
0.0
 20
0.0
 30
0.0
  9
$PUCSORGLEFT
 10
0.0
 20
0.0
 30
0.0
  9
$PUCSORGRIGHT
 10
0.0
 20
0.0
 30
0.0
  9
$PUCSORGFRONT
 10
0.0
 20
0.0
 30
0.0
  9
$PUCSORGBACK
 10
0.0
 20
0.0
 30
0.0
  9
$USERI1
 70
     0
  9
$USERI2
 70
     0
  9
$USERI3
 70
     0
  9
$USERI4
 70
     0
  9
$USERI5
 70
     0
  9
$USERR1
 40
0.0
  9
$USERR2
 40
0.0
  9
$USERR3
 40
0.0
  9
$USERR4
 40
0.0
  9
$USERR5
 40
0.0
  9
$WORLDVIEW
 70
     1
  9
$SHADEDGE
 70
     3
  9
$SHADEDIF
 70
    70
  9
$TILEMODE
 70
     1
  9
$MAXACTVP
 70
    16
  9
$PINSBASE
 10
120.050730115191
 20
50.0
 30
49.74901483950825
  9
$PLIMCHECK
 70
     0
  9
$PEXTMIN
 10
1.000000000000000E+20
 20
1.000000000000000E+20
 30
1.000000000000000E+20
  9
$PEXTMAX
 10
-1.000000000000000E+20
 20
-1.000000000000000E+20
 30
-1.000000000000000E+20
  9
$PLIMMIN
 10
0.0
 20
0.0
  9
$PLIMMAX
 10
12.0
 20
9.0
  9
$UNITMODE
 70
     0
  9
$VISRETAIN
 70
     0
  9
$PLINEGEN
 70
     0
  9
$PSLTSCALE
 70
     0
  9
$TREEDEPTH
 70
  3020
  9
$CMLSTYLE
  2
STANDARD
  9
$CMLJUST
 70
     0
  9
$CMLSCALE
 40
1.0
  9
$PROXYGRAPHICS
 70
     1
  9
$MEASUREMENT
 70
     0
  9
$CELWEIGHT
370
    -1
  9
$ENDCAPS
280
     0
  9
$JOINSTYLE
280
     0
  9
$LWDISPLAY
290
     0
  9
$INSUNITS
 70
     0
  9
$HYPERLINKBASE
  1

  9
$STYLESHEET
  1

  9
$XEDIT
290
     1
  9
$CEPSNTYPE
380
     0
  9
$PSTYLEMODE
290
     1
  9
$FINGERPRINTGUID
  2
{E15592B9-7DE3-4152-9E59-A97772E569A7}
  9
$VERSIONGUID
  2
{BFF06270-A8A6-4F73-A649-BBE7690C53C5}
  9
$EXTNAMES
290
     1
  9
$PSVPSCALE
 40
0.0
  9
$OLESTARTUP
290
     0
  0
ENDSEC
  0
SECTION
  2
CLASSES
  0
CLASS
  1
LWPOLYLINE
  2
AcDbPolyline
  3
AutoCAD 2000
 90
    32768
280
     0
281
     1
  0
CLASS
  1
ACDBDICTIONARYWDFLT
  2
AcDbDictionaryWithDefault
  3
AutoCAD 2000
 90
        0
280
     0
281
     0
  0
CLASS
  1
ACDBPLACEHOLDER
  2
AcDbPlaceHolder
  3
AutoCAD 2000
 90
        0
280
     0
281
     0
  0
CLASS
  1
LAYOUT
  2
AcDbLayout
  3
AutoCAD 2000
 90
        0
280
     0
281
     0
  0
CLASS
  1
DICTIONARYVAR
  2
AcDbDictionaryVar
  3
AutoCAD 2000
 90
        0
280
     0
281
     0
  0
ENDSEC
  0
SECTION
  2
TABLES
  0
TABLE
  2
VPORT
  5
8
330
0
100
AcDbSymbolTable
 70
     2
  0
VPORT
  5
3D4
330
8
100
AcDbSymbolTableRecord
100
AcDbViewportTableRecord
  2
*Active
 70
     0
 10
0.0
 20
0.0
 11
1.0
 21
1.0
 12
-0.0800675263494952
 22
0.9782344534804972
 13
0.0
 23
0.0
 14
1.0
 24
1.0
 15
0.0
 25
0.0
 16
0.0
 26
0.0
 36
1.0
 17
0.0
 27
0.0
 37
0.0
 40
5.727233499383032
 41
1.731751824817518
 42
50.0
 43
0.0
 44
0.0
 50
0.0
 51
0.0
 71
     0
 72
   100
 73
     1
 74
     1
 75
     0
 76
     0
 77
     0
 78
     0
281
     0
 65
     1
110
0.0
120
0.0
130
0.0
111
1.0
121
0.0
131
0.0
112
0.0
122
1.0
132
0.0
 79
     0
146
0.0
  0
ENDTAB
  0
TABLE
  2
LTYPE
  5
5
330
0
100
AcDbSymbolTable
 70
     3
  0
LTYPE
  5
12
330
5
100
AcDbSymbolTableRecord
100
AcDbLinetypeTableRecord
  2
BYBLOCK
 70
     0
  3

 72
    65
 73
     0
 40
0.0
  0
LTYPE
  5
13
330
5
100
AcDbSymbolTableRecord
100
AcDbLinetypeTableRecord
  2
BYLAYER
 70
     0
  3

 72
    65
 73
     0
 40
0.0
  0
LTYPE
  5
14
330
5
100
AcDbSymbolTableRecord
100
AcDbLinetypeTableRecord
  2
CONTINUOUS
 70
     0
  3
Solid line
 72
    65
 73
     0
 40
0.0
  0
LTYPE
  5
2D
330
5
100
AcDbSymbolTableRecord
100
AcDbLinetypeTableRecord
  2
HIDDEN
 70
     0
  3
_ _ _ _ _ _ _ _ _ _ _ _ _ _ _ _ _ _ _ _ _ _ _
 72
    65
 73
     2
 40
0.375
 49
0.25
 74
     0
 49
-0.125
 74
     0
  0
LTYPE
  5
2F
330
5
100
AcDbSymbolTableRecord
100
AcDbLinetypeTableRecord
  2
CENTER
 70
     0
  3
____ _ ____ _ ____ _ ____ _ ____ _ ____ _ ____
 72
    65
 73
     4
 40
2.0
 49
1.25
 74
     0
 49
-0.25
 74
     0
 49
0.25
 74
     0
 49
-0.25
 74
     0
  0
ENDTAB
  0
TABLE
  2
LAYER
  5
2
330
0
100
AcDbSymbolTable
 70
     6
  0
LAYER
  5
F
330
2
100
AcDbSymbolTableRecord
100
AcDbLayerTableRecord
  2
0
 70
     0
 62
     7
  6
CONTINUOUS
370
    -3
390
137
  0
LAYER
  5
30
330
2
100
AcDbSymbolTableRecord
100
AcDbLayerTableRecord
  2
LINE
 70
     0
 62
     3
  6
CONTINUOUS
370
    -3
390
137
  0
LAYER
  5
31
330
2
100
AcDbSymbolTableRecord
100
AcDbLayerTableRecord
  2
HIDDEN
 70
     0
 62
     2
  6
HIDDEN
370
    -3
390
137
  0
LAYER
  5
33
330
2
100
AcDbSymbolTableRecord
100
AcDbLayerTableRecord
  2
CTRL
 70
     0
 62
     1
  6
CENTER
370
    -3
390
137
  0
LAYER
  5
34
330
2
100
AcDbSymbolTableRecord
100
AcDbLayerTableRecord
  2
DIM
 70
     0
 62
     7
  6
CONTINUOUS
370
    -3
390
137
  0
LAYER
  5
38
330
2
100
AcDbSymbolTableRecord
100
AcDbLayerTableRecord
  2
DEFPOINTS
 70
     0
 62
     7
  6
CONTINUOUS
290
     0
370
    -3
390
137
  0
ENDTAB
  0
TABLE
  2
STYLE
  5
3
330
0
100
AcDbSymbolTable
 70
     4
  0
STYLE
  5
10
330
3
100
AcDbSymbolTableRecord
100
AcDbTextStyleTableRecord
  2
STANDARD
 70
     0
 40
0.0
 41
1.0
 50
0.0
 71
     0
 42
1.6
  3
txt
  4

  0
STYLE
  5
141
330
3
100
AcDbSymbolTableRecord
100
AcDbTextStyleTableRecord
  2
ROMANS
 70
     0
 40
0.0
 41
1.0
 50
0.0
 71
     0
 42
1.6
  3
romans.shx
  4

  0
STYLE
  5
1C3
330
3
100
AcDbSymbolTableRecord
100
AcDbTextStyleTableRecord
  2
STYLE1
 70
     0
 40
0.0
 41
1.0
 50
0.0
 71
     0
 42
0.2
  3
romans.shx
  4

  0
STYLE
  5
1C4
330
3
100
AcDbSymbolTableRecord
100
AcDbTextStyleTableRecord
  2
LOGO
 70
     0
 40
0.0
 41
0.6
 50
0.0
 71
     0
 42
4.7
  3
ARIAL.TTF
  4

1001
ACAD
1000
Arial
1071
       34
  0
ENDTAB
  0
TABLE
  2
VIEW
  5
6
330
0
100
AcDbSymbolTable
 70
     0
  0
ENDTAB
  0
TABLE
  2
UCS
  5
7
330
0
100
AcDbSymbolTable
 70
     0
  0
ENDTAB
  0
TABLE
  2
APPID
  5
9
330
0
100
AcDbSymbolTable
 70
     1
  0
APPID
  5
11
330
9
100
AcDbSymbolTableRecord
100
AcDbRegAppTableRecord
  2
ACAD
 70
     0
  0
ENDTAB
  0
TABLE
  2
DIMSTYLE
  5
A
330
0
100
AcDbSymbolTable
 70
     2
100
AcDbDimStyleTable
 71
     1
340
12A
  0
DIMSTYLE
105
12A
102
{ACAD_REACTORS
330
147
330
154
330
161
330
16E
102
}
330
A
100
AcDbSymbolTableRecord
100
AcDbDimStyleTableRecord
  2
STANDARD
 70
     0
 73
     0
 74
     0
 77
     1
271
     3
272
     3
340
141
  0
DIMSTYLE
105
1C5
330
A
100
AcDbSymbolTableRecord
100
AcDbDimStyleTableRecord
  2
AM_ANSI
 70
     0
  4
"
 41
2.5
 42
1.0
 43
10.0
 44
1.0
 47
0.1
 48
0.1
 78
     8
 79
     2
140
3.5
141
0.0
143
0.0393701
146
0.71
147
1.5
176
   256
177
   256
178
     2
271
     2
272
     3
274
     4
284
     8
340
10
371
    -1
372
    -1
  0
ENDTAB
  0
TABLE
  2
BLOCK_RECORD
  5
1
330
0
100
AcDbSymbolTable
 70
     5
  0
BLOCK_RECORD
  5
18
330
1
100
AcDbSymbolTableRecord
100
AcDbBlockTableRecord
  2
*MODEL_SPACE
340
13A
  0
BLOCK_RECORD
  5
15
330
1
100
AcDbSymbolTableRecord
100
AcDbBlockTableRecord
  2
*PAPER_SPACE
340
13B
  0
BLOCK_RECORD
  5
148
330
1
100
AcDbSymbolTableRecord
100
AcDbBlockTableRecord
  2
*D0
340
0
  0
BLOCK_RECORD
  5
155
330
1
100
AcDbSymbolTableRecord
100
AcDbBlockTableRecord
  2
*D1
340
0
  0
BLOCK_RECORD
  5
162
330
1
100
AcDbSymbolTableRecord
100
AcDbBlockTableRecord
  2
*D2
340
0
  0
BLOCK_RECORD
  5
16F
330
1
100
AcDbSymbolTableRecord
100
AcDbBlockTableRecord
  2
*D3
340
0
  0
ENDTAB
  0
ENDSEC
  0
SECTION
  2
BLOCKS
  0
BLOCK
  5
3B
330
18
100
AcDbEntity
  8
0
100
AcDbBlockBegin
  2
*MODEL_SPACE
 70
     0
 10
0.0
 20
0.0
 30
0.0
  3
*MODEL_SPACE
  1

  0
ENDBLK
  5
3C
330
18
100
AcDbEntity
  8
0
100
AcDbBlockEnd
  0
BLOCK
  5
39
330
15
100
AcDbEntity
 67
     1
  8
0
100
AcDbBlockBegin
  2
*PAPER_SPACE
 70
     0
 10
0.0
 20
0.0
 30
0.0
  3
*PAPER_SPACE
  1

  0
ENDBLK
  5
3A
330
15
100
AcDbEntity
 67
     1
  8
0
100
AcDbBlockEnd
  0
BLOCK
  5
152
330
148
100
AcDbEntity
  8
0
100
AcDbBlockBegin
  2
*D0
 70
     1
 10
0.0
 20
0.0
 30
0.0
  3
*D0
  1

  0
LINE
  5
1AB
330
148
100
AcDbEntity
  8
DIM
 62
     0
370
    -2
100
AcDbLine
 10
-3.983752000000001
 20
0.9998011500000004
 30
0.0
 11
-4.926368436728306
 21
0.9998011500000007
 31
0.0
  0
LINE
  5
1AC
330
148
100
AcDbEntity
  8
DIM
 62
     0
370
    -2
100
AcDbLine
 10
-3.983752000000001
 20
-0.9998011500000004
 30
0.0
 11
-4.926368436728306
 21
-0.9998011500000002
 31
0.0
  0
LINE
  5
1AD
330
148
100
AcDbEntity
  8
DIM
 62
     0
370
    -2
100
AcDbLine
 10
-4.746368436728306
 20
0.8198011500000005
 30
0.0
 11
-4.746368436728306
 21
-0.8198011500000005
 31
0.0
  0
SOLID
  5
1AE
330
148
100
AcDbEntity
  8
DIM
 62
     0
100
AcDbTrace
 10
-4.776368436728306
 20
0.8198011500000006
 30
0.0
 11
-4.716368436728306
 21
0.8198011500000005
 31
0.0
 12
-4.746368436728306
 22
0.9998011500000004
 32
0.0
 13
-4.746368436728306
 23
0.9998011500000004
 33
0.0
  0
SOLID
  5
1AF
330
148
100
AcDbEntity
  8
DIM
 62
     0
100
AcDbTrace
 10
-4.776368436728306
 20
-0.8198011500000003
 30
0.0
 11
-4.716368436728306
 21
-0.8198011500000005
 31
0.0
 12
-4.746368436728306
 22
-0.9998011500000004
 32
0.0
 13
-4.746368436728306
 23
-0.9998011500000004
 33
0.0
  0
MTEXT
  5
1B0
330
148
100
AcDbEntity
  8
DIM
 62
     0
100
AcDbMText
 10
-4.926368436728306
 20
-0.0000000000000007
 30
0.0
 40
0.18
 41
0.0
 71
     5
 72
     1
  1
\A1;%%c2.000
  7
ROMANS
 11
0.0000000000000001
 21
1.0
 31
0.0
 73
     1
 44
1.0
  0
POINT
  5
1B1
330
148
100
AcDbEntity
  8
DEFPOINTS
 62
     0
100
AcDbPoint
 10
-3.921252000000001
 20
0.9998011500000004
 30
0.0
  0
POINT
  5
1B2
330
148
100
AcDbEntity
  8
DEFPOINTS
 62
     0
100
AcDbPoint
 10
-3.921252000000001
 20
-0.9998011500000004
 30
0.0
  0
POINT
  5
1B3
330
148
100
AcDbEntity
  8
DEFPOINTS
 62
     0
100
AcDbPoint
 10
-4.746368436728306
 20
-0.9998011500000004
 30
0.0
  0
ENDBLK
  5
153
330
148
100
AcDbEntity
  8
0
100
AcDbBlockEnd
  0
BLOCK
  5
15F
330
155
100
AcDbEntity
  8
0
100
AcDbBlockBegin
  2
*D1
 70
     1
 10
0.0
 20
0.0
 30
0.0
  3
*D1
  1

  0
LINE
  5
190
330
155
100
AcDbEntity
  8
DIM
 62
     0
370
    -2
100
AcDbLine
 10
-3.999991999999997
 20
0.9835611500000004
 30
0.0
 11
-3.999991999999997
 21
3.112068899448265
 31
0.0
  0
LINE
  5
191
330
155
100
AcDbEntity
  8
DIM
 62
     0
370
    -2
100
AcDbLine
 10
1.999995999999995
 20
1.248000120000001
 30
0.0
 11
1.999995999999995
 21
3.112068899448265
 31
0.0
  0
LINE
  5
192
330
155
100
AcDbEntity
  8
DIM
 62
     0
370
    -2
100
AcDbLine
 10
-3.819991999999998
 20
2.932068899448266
 30
0.0
 11
1.819995999999995
 21
2.932068899448266
 31
0.0
  0
SOLID
  5
193
330
155
100
AcDbEntity
  8
DIM
 62
     0
100
AcDbTrace
 10
-3.819991999999998
 20
2.962068899448265
 30
0.0
 11
-3.819991999999998
 21
2.902068899448265
 31
0.0
 12
-3.999991999999997
 22
2.932068899448266
 32
0.0
 13
-3.999991999999997
 23
2.932068899448266
 33
0.0
  0
SOLID
  5
194
330
155
100
AcDbEntity
  8
DIM
 62
     0
100
AcDbTrace
 10
1.819995999999995
 20
2.962068899448265
 30
0.0
 11
1.819995999999995
 21
2.902068899448265
 31
0.0
 12
1.999995999999995
 22
2.932068899448266
 32
0.0
 13
1.999995999999995
 23
2.932068899448266
 33
0.0
  0
MTEXT
  5
195
330
155
100
AcDbEntity
  8
DIM
 62
     0
100
AcDbMText
 10
-0.9999980000000016
 20
3.112068899448265
 30
0.0
 40
0.18
 41
0.0
 71
     5
 72
     1
  1
\A1;6.000
  7
ROMANS
 73
     1
 44
1.0
  0
POINT
  5
196
330
155
100
AcDbEntity
  8
DEFPOINTS
 62
     0
100
AcDbPoint
 10
-3.999991999999997
 20
0.9210611500000004
 30
0.0
  0
POINT
  5
197
330
155
100
AcDbEntity
  8
DEFPOINTS
 62
     0
100
AcDbPoint
 10
1.999995999999995
 20
1.185500120000001
 30
0.0
  0
POINT
  5
198
330
155
100
AcDbEntity
  8
DEFPOINTS
 62
     0
100
AcDbPoint
 10
1.999995999999995
 20
2.932068899448266
 30
0.0
  0
ENDBLK
  5
160
330
155
100
AcDbEntity
  8
0
100
AcDbBlockEnd
  0
BLOCK
  5
16C
330
162
100
AcDbEntity
  8
0
100
AcDbBlockBegin
  2
*D2
 70
     1
 10
0.0
 20
0.0
 30
0.0
  3
*D2
  1

  0
LINE
  5
187
330
162
100
AcDbEntity
  8
DIM
 62
     0
370
    -2
100
AcDbLine
 10
0.0
 20
1.268629999999999
 30
0.0
 11
0.0000000000000001
 21
2.357170600407884
 31
0.0
  0
LINE
  5
188
330
162
100
AcDbEntity
  8
DIM
 62
     0
370
    -2
100
AcDbLine
 10
1.999995999999995
 20
1.248000120000001
 30
0.0
 11
1.999995999999995
 21
2.357170600407884
 31
0.0
  0
LINE
  5
189
330
162
100
AcDbEntity
  8
DIM
 62
     0
370
    -2
100
AcDbLine
 10
0.18
 20
2.177170600407887
 30
0.0
 11
1.819995999999995
 21
2.177170600407887
 31
0.0
  0
SOLID
  5
18A
330
162
100
AcDbEntity
  8
DIM
 62
     0
100
AcDbTrace
 10
0.18
 20
2.207170600407885
 30
0.0
 11
0.18
 21
2.147170600407886
 31
0.0
 12
0.0000000000000001
 22
2.177170600407887
 32
0.0
 13
0.0000000000000001
 23
2.177170600407887
 33
0.0
  0
SOLID
  5
18B
330
162
100
AcDbEntity
  8
DIM
 62
     0
100
AcDbTrace
 10
1.819995999999995
 20
2.207170600407885
 30
0.0
 11
1.819995999999995
 21
2.147170600407886
 31
0.0
 12
1.999995999999995
 22
2.177170600407887
 32
0.0
 13
1.999995999999995
 23
2.177170600407887
 33
0.0
  0
MTEXT
  5
18C
330
162
100
AcDbEntity
  8
DIM
 62
     0
100
AcDbMText
 10
0.9999979999999975
 20
2.357170600407885
 30
0.0
 40
0.18
 41
0.0
 71
     5
 72
     1
  1
\A1;2.000
  7
ROMANS
 73
     1
 44
1.0
  0
POINT
  5
18D
330
162
100
AcDbEntity
  8
DEFPOINTS
 62
     0
100
AcDbPoint
 10
0.0
 20
1.206129999999999
 30
0.0
  0
POINT
  5
18E
330
162
100
AcDbEntity
  8
DEFPOINTS
 62
     0
100
AcDbPoint
 10
1.999995999999995
 20
1.185500120000001
 30
0.0
  0
POINT
  5
18F
330
162
100
AcDbEntity
  8
DEFPOINTS
 62
     0
100
AcDbPoint
 10
1.999995999999995
 20
2.177170600407887
 30
0.0
  0
ENDBLK
  5
16D
330
162
100
AcDbEntity
  8
0
100
AcDbBlockEnd
  0
BLOCK
  5
179
330
16F
100
AcDbEntity
  8
0
100
AcDbBlockBegin
  2
*D3
 70
     1
 10
0.0
 20
0.0
 30
0.0
  3
*D3
  1

  0
LINE
  5
1B4
330
16F
100
AcDbEntity
  8
DIM
 62
     0
370
    -2
100
AcDbLine
 10
2.002496119999995
 20
1.2455
 30
0.0
 11
3.52204541850471
 21
1.245499999999998
 31
0.0
  0
LINE
  5
1B5
330
16F
100
AcDbEntity
  8
DIM
 62
     0
370
    -2
100
AcDbLine
 10
2.002496119999995
 20
-1.2455
 30
0.0
 11
3.522045418504707
 21
-1.2455
 31
0.0
  0
LINE
  5
1B6
330
16F
100
AcDbEntity
  8
DIM
 62
     0
370
    -2
100
AcDbLine
 10
3.342045418504711
 20
1.065499999999999
 30
0.0
 11
3.34204541850471
 21
-1.065499999999999
 31
0.0
  0
SOLID
  5
1B7
330
16F
100
AcDbEntity
  8
DIM
 62
     0
100
AcDbTrace
 10
3.312045418504711
 20
1.065499999999999
 30
0.0
 11
3.37204541850471
 21
1.065499999999999
 31
0.0
 12
3.342045418504711
 22
1.245499999999998
 32
0.0
 13
3.342045418504711
 23
1.245499999999998
 33
0.0
  0
SOLID
  5
1B8
330
16F
100
AcDbEntity
  8
DIM
 62
     0
100
AcDbTrace
 10
3.31204541850471
 20
-1.065499999999999
 30
0.0
 11
3.372045418504709
 21
-1.065499999999999
 31
0.0
 12
3.34204541850471
 22
-1.2455
 32
0.0
 13
3.34204541850471
 23
-1.2455
 33
0.0
  0
MTEXT
  5
1B9
330
16F
100
AcDbEntity
  8
DIM
 62
     0
100
AcDbMText
 10
3.162045418504709
 20
0.0000000000000003
 30
0.0
 40
0.18
 41
0.0
 71
     5
 72
     1
  1
\A1;%%c2.491
  7
ROMANS
 11
0.0000000000000001
 21
1.0
 31
0.0
 73
     1
 44
1.0
  0
POINT
  5
1BA
330
16F
100
AcDbEntity
  8
DEFPOINTS
 62
     0
100
AcDbPoint
 10
1.939996119999995
 20
1.2455
 30
0.0
  0
POINT
  5
1BB
330
16F
100
AcDbEntity
  8
DEFPOINTS
 62
     0
100
AcDbPoint
 10
1.939996119999995
 20
-1.2455
 30
0.0
  0
POINT
  5
1BC
330
16F
100
AcDbEntity
  8
DEFPOINTS
 62
     0
100
AcDbPoint
 10
3.34204541850471
 20
-1.2455
 30
0.0
  0
ENDBLK
  5
17A
330
16F
100
AcDbEntity
  8
0
100
AcDbBlockEnd
  0
ENDSEC
  0
SECTION
  2
ENTITIES
  0
LINE
  5
CF
330
18
100
AcDbEntity
  8
HIDDEN
100
AcDbLine
 10
-2.031993725318749
 20
-0.284054549999999
 30
0.0
 11
-3.527551999999998
 21
-0.284054549999999
 31
0.0
  0
LINE
  5
D0
330
18
100
AcDbEntity
  8
HIDDEN
100
AcDbLine
 10
-2.031993725318741
 20
0.2840545500000001
 30
0.0
 11
-3.527551999999998
 21
0.2840545500000001
 31
0.0
  0
LINE
  5
D1
330
18
100
AcDbEntity
  8
LINE
100
AcDbLine
 10
0.0
 20
-0.9998011499999993
 30
0.0
 11
-3.921252000000001
 21
-0.9998011500000004
 31
0.0
  0
LINE
  5
D2
330
18
100
AcDbEntity
  8
LINE
100
AcDbLine
 10
0.0
 20
0.9998011500000004
 30
0.0
 11
-3.921252000000001
 21
0.9998011500000004
 31
0.0
  0
LINE
  5
D3
330
18
100
AcDbEntity
  8
CTRL
100
AcDbLine
 10
2.218233842067419
 20
0.0
 30
0.0
 11
-4.33667451584847
 21
0.0
 31
0.0
  0
LINE
  5
D4
330
18
100
AcDbEntity
  8
HIDDEN
100
AcDbLine
 10
-3.948705264238433
 20
0.2987615460611672
 30
0.0
 11
-3.948705264238433
 21
-0.2987615460611661
 31
0.0
  0
LINE
  5
D5
330
18
100
AcDbEntity
  8
HIDDEN
100
AcDbLine
 10
-3.527551999999998
 20
-0.284054549999999
 30
0.0
 11
-3.527551999999998
 21
0.2840545500000001
 31
0.0
  0
LINE
  5
D6
330
18
100
AcDbEntity
  8
LINE
100
AcDbLine
 10
-3.921252000000001
 20
0.9998011500000004
 30
0.0
 11
-3.921252000000001
 21
-1.003104902986772
 31
0.0
  0
LINE
  5
D7
330
18
100
AcDbEntity
  8
LINE
100
AcDbLine
 10
-3.999991999999997
 20
0.0
 30
0.0
 11
-3.999991999999997
 21
0.9210611500000004
 31
0.0
  0
LINE
  5
D8
330
18
100
AcDbEntity
  8
LINE
100
AcDbLine
 10
-3.999991999999997
 20
0.0
 30
0.0
 11
-3.999991999999997
 21
-0.9210611500000004
 31
0.0
  0
LINE
  5
D9
330
18
100
AcDbEntity
  8
LINE
100
AcDbLine
 10
-3.921252000000001
 20
-0.9998011500000004
 30
0.0
 11
-3.999991999999997
 21
-0.9210611500000004
 31
0.0
  0
POINT
  5
DA
330
18
100
AcDbEntity
  8
DEFPOINTS
  6
ByBlock
 62
     0
100
AcDbPoint
 10
-3.999991999999997
 20
-0.9210611500000004
 30
0.0
  0
LINE
  5
DB
330
18
100
AcDbEntity
  8
HIDDEN
100
AcDbLine
 10
-3.527551999999998
 20
-0.3082501011959414
 30
0.0
 11
-3.999991999999997
 21
-0.3247480695346229
 31
0.0
  0
LINE
  5
DC
330
18
100
AcDbEntity
  8
HIDDEN
100
AcDbLine
 10
-3.527551999999998
 20
-0.284054549999999
 30
0.0
 11
-3.948705264238433
 21
-0.2987615460611661
 31
0.0
  0
POINT
  5
DD
330
18
100
AcDbEntity
  8
DEFPOINTS
  6
ByBlock
 62
     0
100
AcDbPoint
 10
-3.999991999999997
 20
-0.3283719567589636
 30
0.0
  0
LINE
  5
DE
330
18
100
AcDbEntity
  8
HIDDEN
100
AcDbLine
 10
-3.948705264238433
 20
-0.2987615460611661
 30
0.0
 11
-3.999991999999997
 21
-0.3283719567589636
 31
0.0
  0
LINE
  5
DF
330
18
100
AcDbEntity
  8
HIDDEN
100
AcDbLine
 10
-3.533579974588356
 20
-0.3115688660508725
 30
0.0
 11
-3.430895149150983
 21
-0.284054549999999
 31
0.0
  0
POINT
  5
E0
330
18
100
AcDbEntity
  8
DEFPOINTS
  6
ByBlock
 62
     0
100
AcDbPoint
 10
-2.71648155476322
 20
-0.284054549999999
 30
0.0
  0
LINE
  5
E1
330
18
100
AcDbEntity
  8
HIDDEN
100
AcDbLine
 10
-3.527551999999998
 20
0.2840545500000001
 30
0.0
 11
-3.948705264238433
 21
0.2987615460611672
 31
0.0
  0
LINE
  5
E2
330
18
100
AcDbEntity
  8
HIDDEN
100
AcDbLine
 10
-3.527551999999998
 20
0.3082501011959425
 30
0.0
 11
-3.999991999999997
 21
0.3247480695346229
 31
0.0
  0
POINT
  5
E3
330
18
100
AcDbEntity
  8
DEFPOINTS
  6
ByBlock
 62
     0
100
AcDbPoint
 10
-3.999991999999997
 20
0.3283719567589647
 30
0.0
  0
LINE
  5
E4
330
18
100
AcDbEntity
  8
HIDDEN
100
AcDbLine
 10
-3.948705264238433
 20
0.2987615460611672
 30
0.0
 11
-3.999991999999997
 21
0.3283719567589647
 31
0.0
  0
LINE
  5
E5
330
18
100
AcDbEntity
  8
LINE
100
AcDbLine
 10
-3.921252000000001
 20
0.9998011500000004
 30
0.0
 11
-3.999991999999997
 21
0.9210611500000004
 31
0.0
  0
LINE
  5
E6
330
18
100
AcDbEntity
  8
HIDDEN
100
AcDbLine
 10
-3.533579974588356
 20
0.3115688660508736
 30
0.0
 11
-3.430895149150983
 21
0.2840545500000001
 31
0.0
  0
LINE
  5
EA
330
18
100
AcDbEntity
  8
LINE
100
AcDbLine
 10
0.0393699999999981
 20
1.2455
 30
0.0
 11
1.939996119999995
 21
1.2455
 31
0.0
  0
LINE
  5
EB
330
18
100
AcDbEntity
  8
LINE
100
AcDbLine
 10
0.0393699999999981
 20
-1.2455
 30
0.0
 11
1.939996119999995
 21
-1.2455
 31
0.0
  0
LINE
  5
EC
330
18
100
AcDbEntity
  8
HIDDEN
100
AcDbLine
 10
0.2399995199999978
 20
0.7084985830000014
 30
0.0
 11
1.999995999999995
 21
0.7084985830000004
 31
0.0
  0
LINE
  5
ED
330
18
100
AcDbEntity
  8
HIDDEN
100
AcDbLine
 10
0.2399995199999978
 20
-0.7084985830000019
 30
0.0
 11
1.999995999999995
 21
-0.7084985830000008
 31
0.0
  0
LINE
  5
EE
330
18
100
AcDbEntity
  8
HIDDEN
100
AcDbLine
 10
-2.031993725318741
 20
0.284054549999999
 30
0.0
 11
-2.031993725318741
 21
-0.284054549999999
 31
0.0
  0
LINE
  5
EF
330
18
100
AcDbEntity
  8
HIDDEN
100
AcDbLine
 10
0.1264413136584181
 20
0.5118099999999945
 30
0.0
 11
0.1264413136584181
 21
-0.5118099999999961
 31
0.0
  0
LINE
  5
F0
330
18
100
AcDbEntity
  8
HIDDEN
100
AcDbLine
 10
-1.900499054951843
 20
0.5118099999999945
 30
0.0
 11
-1.900499054951843
 21
-0.5118099999999961
 31
0.0
  0
LINE
  5
F3
330
18
100
AcDbEntity
  8
LINE
100
AcDbLine
 10
0.0
 20
-1.206129999999999
 30
0.0
 11
0.0
 21
1.206129999999999
 31
0.0
  0
LINE
  5
F4
330
18
100
AcDbEntity
  8
HIDDEN
100
AcDbLine
 10
0.2399995199999978
 20
0.7084985830000014
 30
0.0
 11
0.2399995199999978
 21
-0.7084985830000019
 31
0.0
  0
LINE
  5
F5
330
18
100
AcDbEntity
  8
HIDDEN
100
AcDbLine
 10
0.1264413136584181
 20
-0.5118099999999956
 30
0.0
 11
-1.900499054951843
 21
-0.5118099999999956
 31
0.0
  0
LINE
  5
F6
330
18
100
AcDbEntity
  8
HIDDEN
100
AcDbLine
 10
-1.900499054951843
 20
-0.5118100000000011
 30
0.0
 11
-2.031993725318741
 21
-0.2840545500000013
 31
0.0
  0
LINE
  5
F8
330
18
100
AcDbEntity
  8
LINE
100
AcDbLine
 10
0.0
 20
-1.206129999999999
 30
0.0
 11
0.0393699999999981
 21
-1.2455
 31
0.0
  0
LINE
  5
F9
330
18
100
AcDbEntity
  8
HIDDEN
100
AcDbLine
 10
0.2399995199999978
 20
-0.7084985830000014
 30
0.0
 11
0.1264413136584181
 21
-0.5118099999999961
 31
0.0
  0
POINT
  5
FA
330
18
100
AcDbEntity
  8
DEFPOINTS
  6
ByBlock
 62
     0
100
AcDbPoint
 10
-0.0050533567084798
 20
-0.284054549999999
 30
0.0
  0
LINE
  5
FB
330
18
100
AcDbEntity
  8
HIDDEN
100
AcDbLine
 10
0.1264413136584181
 20
0.5118099999999945
 30
0.0
 11
-1.900499054951843
 21
0.5118099999999945
 31
0.0
  0
LINE
  5
FC
330
18
100
AcDbEntity
  8
HIDDEN
100
AcDbLine
 10
-1.900499054951843
 20
0.51181
 30
0.0
 11
-2.031993725318741
 21
0.2840545500000001
 31
0.0
  0
LINE
  5
FE
330
18
100
AcDbEntity
  8
HIDDEN
100
AcDbLine
 10
0.2399995199999978
 20
0.7084985830000014
 30
0.0
 11
0.1264413136584181
 21
0.5118099999999945
 31
0.0
  0
POINT
  5
FF
330
18
100
AcDbEntity
  8
DEFPOINTS
  6
ByBlock
 62
     0
100
AcDbPoint
 10
-0.0050533567084798
 20
0.2840545500000001
 30
0.0
  0
LINE
  5
100
330
18
100
AcDbEntity
  8
LINE
100
AcDbLine
 10
0.0
 20
1.206129999999999
 30
0.0
 11
0.0393699999999981
 21
1.2455
 31
0.0
  0
LINE
  5
101
330
18
100
AcDbEntity
  8
LINE
100
AcDbLine
 10
1.999995999999995
 20
0.0
 30
0.0
 11
1.999995999999995
 21
1.185500120000001
 31
0.0
  0
LINE
  5
103
330
18
100
AcDbEntity
  8
HIDDEN
100
AcDbLine
 10
1.342997313999999
 20
-0.9919980159999994
 30
0.0
 11
1.342997313999999
 21
-0.7084985830000014
 31
0.0
  0
LINE
  5
105
330
18
100
AcDbEntity
  8
LINE
100
AcDbLine
 10
1.999995999999995
 20
0.0
 30
0.0
 11
1.999995999999995
 21
-1.185500119999999
 31
0.0
  0
LINE
  5
106
330
18
100
AcDbEntity
  8
HIDDEN
100
AcDbLine
 10
1.999995999999995
 20
-0.9919980159999994
 30
0.0
 11
1.342997313999999
 21
-0.9919980159999994
 31
0.0
  0
LINE
  5
107
330
18
100
AcDbEntity
  8
LINE
100
AcDbLine
 10
1.999995999999995
 20
-1.185500119999999
 30
0.0
 11
1.939996119999995
 21
-1.2455
 31
0.0
  0
POINT
  5
108
330
18
100
AcDbEntity
  8
DEFPOINTS
  6
ByBlock
 62
     0
100
AcDbPoint
 10
1.999995999999995
 20
-1.1999976
 30
0.0
  0
LWPOLYLINE
  5
109
330
18
100
AcDbEntity
  8
LINE
100
AcDbPolyline
 90
       16
 70
     1
 43
0.0
 10
1.099651334031988
 20
0.0000000000000011
 42
0.1075270714354371
 10
1.119653714992836
 20
-0.0919355086409339
 42
0.1017862429383482
 10
1.178248037215809
 20
-0.1720740636260328
 42
0.0945967217597763
 10
1.264124864332528
 20
-0.2244842144935803
 42
0.0900730289486178
 10
1.367997264000003
 20
-0.2433494745125874
 42
0.0900730289486174
 10
1.471869663667475
 20
-0.2244842144935803
 42
0.0945967217597764
 10
1.557746490784196
 20
-0.1720740636260328
 42
0.1017862429383479
 10
1.616340813007175
 20
-0.0919355086409339
 42
0.1075270714354359
 10
1.636343193968015
 20
0.0000000000000011
 42
0.1075270714354361
 10
1.616340813007175
 20
0.091935508640935
 42
0.1017862429383472
 10
1.557746490784196
 20
0.1720740636260339
 42
0.0945967217597756
 10
1.471869663667475
 20
0.2244842144935814
 42
0.0900730289486177
 10
1.367997264000003
 20
0.2433494745125885
 42
0.0900730289486173
 10
1.264124864332528
 20
0.2244842144935814
 42
0.0945967217597766
 10
1.178248037215809
 20
0.1720740636260339
 42
0.1017862429383487
 10
1.119653714992836
 20
0.091935508640935
 42
0.1075270714354371
  0
LWPOLYLINE
  5
11C
330
18
100
AcDbEntity
  8
LINE
100
AcDbPolyline
 90
        6
 70
     1
 43
0.0
 10
1.268552008010876
 20
0.1722442359448525
 10
1.169106752021759
 20
0.0000000000000011
 10
1.268552008010876
 20
-0.1722442359448514
 10
1.467442519989127
 20
-0.1722442359448514
 10
1.566887775978244
 20
0.0
 10
1.467442519989127
 20
0.1722442359448525
  0
POINT
  5
125
330
18
100
AcDbEntity
  8
DEFPOINTS
  6
ByBlock
 62
     0
100
AcDbPoint
 10
1.999995999999995
 20
-0.7084985830000004
 30
0.0
  0
LINE
  5
126
330
18
100
AcDbEntity
  8
HIDDEN
100
AcDbLine
 10
1.999995999999995
 20
0.991998016000001
 30
0.0
 11
1.342997313999999
 21
0.991998016000001
 31
0.0
  0
LINE
  5
127
330
18
100
AcDbEntity
  8
HIDDEN
100
AcDbLine
 10
1.342997313999999
 20
0.991998016000001
 30
0.0
 11
1.342997313999999
 21
0.7084985830000026
 31
0.0
  0
POINT
  5
128
330
18
100
AcDbEntity
  8
DEFPOINTS
  6
ByBlock
 62
     0
100
AcDbPoint
 10
1.999995999999995
 20
0.7084985830000004
 30
0.0
  0
LINE
  5
129
330
18
100
AcDbEntity
  8
LINE
100
AcDbLine
 10
1.999995999999995
 20
1.185500120000001
 30
0.0
 11
1.939996119999995
 21
1.2455
 31
0.0
  0
DIMENSION
  5
147
330
18
100
AcDbEntity
  8
DIM
100
AcDbDimension
  2
*D0
 10
-4.746368436728306
 20
-0.9998011500000004
 30
0.0
 11
-4.926368436728306
 21
-0.0000000000000007
 31
0.0
 70
    32
  1
%%c<>
 71
     5
 42
1.9996023
  3
STANDARD
100
AcDbAlignedDimension
 13
-3.921252000000001
 23
0.9998011500000004
 33
0.0
 14
-3.921252000000001
 24
-0.9998011500000004
 34
0.0
 50
90.0
100
AcDbRotatedDimension
  0
DIMENSION
  5
154
330
18
100
AcDbEntity
  8
DIM
100
AcDbDimension
  2
*D1
 10
1.999995999999995
 20
2.932068899448266
 30
0.0
 11
-0.9999980000000016
 21
3.112068899448265
 31
0.0
 70
    32
 71
     5
 42
5.999987999999991
  3
STANDARD
100
AcDbAlignedDimension
 13
-3.999991999999997
 23
0.9210611500000004
 33
0.0
 14
1.999995999999995
 24
1.185500120000001
 34
0.0
100
AcDbRotatedDimension
  0
DIMENSION
  5
161
330
18
100
AcDbEntity
  8
DIM
100
AcDbDimension
  2
*D2
 10
1.999995999999995
 20
2.177170600407887
 30
0.0
 11
0.9999979999999975
 21
2.357170600407885
 31
0.0
 70
    32
 71
     5
 42
1.999995999999995
  3
STANDARD
100
AcDbAlignedDimension
 13
0.0
 23
1.206129999999999
 33
0.0
 14
1.999995999999995
 24
1.185500120000001
 34
0.0
100
AcDbRotatedDimension
  0
DIMENSION
  5
16E
330
18
100
AcDbEntity
  8
DIM
100
AcDbDimension
  2
*D3
 10
3.34204541850471
 20
-1.2455
 30
0.0
 11
3.162045418504709
 21
0.0000000000000003
 31
0.0
 70
    32
  1
%%c<>
 71
     5
 42
2.491
  3
STANDARD
100
AcDbAlignedDimension
 13
1.939996119999995
 23
1.2455
 33
0.0
 14
1.939996119999995
 24
-1.2455
 34
0.0
 50
90.0
100
AcDbRotatedDimension
  0
LINE
  5
364
330
18
100
AcDbEntity
  8
LINE
100
AcDbLine
 10
-1.962762464172334
 20
1.697707432779941
 30
0.0
 11
-1.911540826391784
 21
1.697707432779941
 31
0.0
  0
LINE
  5
365
330
18
100
AcDbEntity
  8
LINE
100
AcDbLine
 10
-1.962762464172348
 20
1.35379072196768
 30
0.0
 11
-1.911540826391784
 21
1.35379072196768
 31
0.0
  0
LINE
  5
366
330
18
100
AcDbEntity
  8
LINE
100
AcDbLine
 10
-1.962762464172334
 20
1.35379072196768
 30
0.0
 11
-1.962762464172334
 21
1.697707432779941
 31
0.0
  0
LINE
  5
367
330
18
100
AcDbEntity
  8
LINE
100
AcDbLine
 10
-2.03789011255075
 20
1.353790721967673
 30
0.0
 11
-2.117745806420457
 21
1.60643712533926
 31
0.0
  0
LINE
  5
368
330
18
100
AcDbEntity
  8
LINE
100
AcDbLine
 10
-2.075161991283011
 20
1.697707432779941
 30
0.0
 11
-1.983009786357298
 21
1.353790721967673
 31
0.0
  0
LINE
  5
369
330
18
100
AcDbEntity
  8
LINE
100
AcDbLine
 10
-2.292026499097231
 20
1.35379072196768
 30
0.0
 11
-2.337302460563585
 21
1.467229415518069
 31
0.0
  0
LINE
  5
36A
330
18
100
AcDbEntity
  8
LINE
100
AcDbLine
 10
-2.367093773829652
 20
1.403341738047945
 30
0.0
 11
-2.337302460563585
 21
1.467229415518069
 31
0.0
  0
ARC
  5
36B
330
18
100
AcDbEntity
  8
LINE
100
AcDbCircle
 10
-2.639398963824517
 20
1.451203300961049
 30
0.0
 40
0.0584981162543635
100
AcDbArc
 50
180.0
 51
242.0588959302372
  0
ARC
  5
36C
330
18
100
AcDbEntity
  8
LINE
100
AcDbCircle
 10
-2.649578981499991
 20
1.451203300961049
 30
0.0
 40
0.1031984247723265
100
AcDbArc
 50
180.0
 51
250.723207331739
  0
ARC
  5
36D
330
18
100
AcDbEntity
  8
LINE
100
AcDbCircle
 10
-2.662594598689189
 20
1.451203300961049
 30
0.0
 40
0.0584981162543635
100
AcDbArc
 50
297.9411040697627
 51
0.0
  0
ARC
  5
36E
330
18
100
AcDbEntity
  8
LINE
100
AcDbCircle
 10
-2.655133734481713
 20
1.451203300961049
 30
0.0
 40
0.1031984247723242
100
AcDbArc
 50
289.2767926682573
 51
0.0
  0
LINE
  5
36F
330
18
100
AcDbEntity
  8
LINE
100
AcDbLine
 10
-2.229828796078001
 20
1.353790721967673
 30
0.0
 11
-2.303789349037005
 21
1.539098515114613
 31
0.0
  0
LINE
  5
370
330
18
100
AcDbEntity
  8
LINE
100
AcDbLine
 10
-2.429291476848882
 20
1.697707432779941
 30
0.0
 11
-2.429291476848882
 21
1.35379072196768
 31
0.0
  0
LINE
  5
371
330
18
100
AcDbEntity
  8
LINE
100
AcDbLine
 10
-2.842384486967775
 20
1.35379072196768
 30
0.0
 11
-2.842384486967775
 21
1.697707432779941
 31
0.0
  0
LINE
  5
372
330
18
100
AcDbEntity
  8
LINE
100
AcDbLine
 10
-2.791162849187225
 20
1.697707432779941
 30
0.0
 11
-2.791162849187225
 21
1.35379072196768
 31
0.0
  0
ARC
  5
373
330
18
100
AcDbEntity
  8
LINE
100
AcDbCircle
 10
-2.991429218862477
 20
1.451203300961049
 30
0.0
 40
0.0584981162543635
100
AcDbArc
 50
297.9411040697627
 51
62.05889593023716
  0
LINE
  5
374
330
18
100
AcDbEntity
  8
LINE
100
AcDbLine
 10
-3.026731700252169
 20
1.399524327128881
 30
0.0
 11
-3.026731700252169
 21
1.50288227479321
 31
0.0
  0
ARC
  5
375
330
18
100
AcDbEntity
  8
LINE
100
AcDbCircle
 10
-2.983968354655016
 20
1.451203300961049
 30
0.0
 40
0.1031984247723242
100
AcDbArc
 50
289.2767926682573
 51
46.24915972781781
  0
LINE
  5
376
330
18
100
AcDbEntity
  8
LINE
100
AcDbLine
 10
-2.213444879508554
 20
1.353790721967673
 30
0.0
 11
-2.146594242943248
 21
1.697707432779941
 31
0.0
  0
LINE
  5
377
330
18
100
AcDbEntity
  8
LINE
100
AcDbLine
 10
-3.081612026445614
 20
1.35379072196768
 30
0.0
 11
-3.081612026445614
 21
1.697707432779941
 31
0.0
  0
LINE
  5
378
330
18
100
AcDbEntity
  8
LINE
100
AcDbLine
 10
-2.157965580101136
 20
1.399524327128881
 30
0.0
 11
-2.117745806420457
 21
1.60643712533926
 31
0.0
  0
LINE
  5
379
330
18
100
AcDbEntity
  8
LINE
100
AcDbLine
 10
-3.012096946600586
 20
1.35379072196768
 30
0.0
 11
-2.949899243581356
 21
1.35379072196768
 31
0.0
  0
LINE
  5
37A
330
18
100
AcDbEntity
  8
LINE
100
AcDbLine
 10
-3.026731700252169
 20
1.399524327128881
 30
0.0
 11
-2.964019124572899
 21
1.399524327128881
 31
0.0
  0
LINE
  5
37B
330
18
100
AcDbEntity
  8
LINE
100
AcDbLine
 10
-3.081612026445614
 20
1.35379072196768
 30
0.0
 11
-2.949899243581356
 21
1.35379072196768
 31
0.0
  0
LINE
  5
37C
330
18
100
AcDbEntity
  8
LINE
100
AcDbLine
 10
-2.429291476848882
 20
1.35379072196768
 30
0.0
 11
-2.367093773829652
 21
1.35379072196768
 31
0.0
  0
LINE
  5
37D
330
18
100
AcDbEntity
  8
LINE
100
AcDbLine
 10
-2.842384486967775
 20
1.35379072196768
 30
0.0
 11
-2.791162849187225
 21
1.35379072196768
 31
0.0
  0
LINE
  5
37E
330
18
100
AcDbEntity
  8
LINE
100
AcDbLine
 10
-2.683262326427283
 20
1.35379072196768
 30
0.0
 11
-2.621064623408039
 21
1.35379072196768
 31
0.0
  0
LINE
  5
37F
330
18
100
AcDbEntity
  8
LINE
100
AcDbLine
 10
-2.683648092573679
 20
1.35379072196768
 30
0.0
 11
-2.621064623408039
 21
1.35379072196768
 31
0.0
  0
LINE
  5
380
330
18
100
AcDbEntity
  8
LINE
100
AcDbLine
 10
-2.666809058114102
 20
1.399524327128881
 30
0.0
 11
-2.635184504399611
 21
1.399524327128881
 31
0.0
  0
LINE
  5
381
330
18
100
AcDbEntity
  8
LINE
100
AcDbLine
 10
-1.983009786357298
 20
1.353790721967673
 30
0.0
 11
-2.03789011255075
 21
1.353790721967673
 31
0.0
  0
LINE
  5
382
330
18
100
AcDbEntity
  8
LINE
100
AcDbLine
 10
-2.08173209664431
 20
1.353790721967673
 30
0.0
 11
-2.093986379214217
 21
1.399524327128881
 31
0.0
  0
LINE
  5
383
330
18
100
AcDbEntity
  8
LINE
100
AcDbLine
 10
-2.367093773829652
 20
1.35379072196768
 30
0.0
 11
-2.367093773829652
 21
1.403341738047945
 31
0.0
  0
LINE
  5
384
330
18
100
AcDbEntity
  8
LINE
100
AcDbLine
 10
-2.292026499097231
 20
1.35379072196768
 30
0.0
 11
-2.229828796078001
 21
1.35379072196768
 31
0.0
  0
LINE
  5
385
330
18
100
AcDbEntity
  8
LINE
100
AcDbLine
 10
-2.157965580101136
 20
1.399524327128881
 30
0.0
 11
-2.093986379214217
 21
1.399524327128881
 31
0.0
  0
LINE
  5
386
330
18
100
AcDbEntity
  8
LINE
100
AcDbLine
 10
-2.213444879508554
 20
1.353790721967673
 30
0.0
 11
-2.08173209664431
 21
1.353790721967673
 31
0.0
  0
ARC
  5
387
330
18
100
AcDbEntity
  8
LINE
100
AcDbCircle
 10
-2.983968354655016
 20
1.600294853786579
 30
0.0
 40
0.1031984247723265
100
AcDbArc
 50
313.7508402721822
 51
70.72320733173913
  0
ARC
  5
388
330
18
100
AcDbEntity
  8
LINE
100
AcDbCircle
 10
-2.991429218862477
 20
1.600294853786579
 30
0.0
 40
0.0584981162543635
100
AcDbArc
 50
297.9411040697627
 51
62.05889593023716
  0
LINE
  5
389
330
18
100
AcDbEntity
  8
LINE
100
AcDbLine
 10
-3.026731700252169
 20
1.548615879954411
 30
0.0
 11
-3.026731700252169
 21
1.651973827618738
 31
0.0
  0
LINE
  5
38A
330
18
100
AcDbEntity
  8
LINE
100
AcDbLine
 10
-2.964019124572899
 20
1.50288227479321
 30
0.0
 11
-3.026731700252169
 21
1.50288227479321
 31
0.0
  0
LINE
  5
38B
330
18
100
AcDbEntity
  8
LINE
100
AcDbLine
 10
-2.964019124572899
 20
1.548615879954411
 30
0.0
 11
-3.026731700252169
 21
1.548615879954411
 31
0.0
  0
LINE
  5
38C
330
18
100
AcDbEntity
  8
LINE
100
AcDbLine
 10
-3.026731700252169
 20
1.651973827618738
 30
0.0
 11
-2.964019124572899
 21
1.651973827618738
 31
0.0
  0
LINE
  5
38D
330
18
100
AcDbEntity
  8
LINE
100
AcDbLine
 10
-3.012096946600586
 20
1.697707432779941
 30
0.0
 11
-2.949899243581356
 21
1.697707432779941
 31
0.0
  0
LINE
  5
38E
330
18
100
AcDbEntity
  8
LINE
100
AcDbLine
 10
-3.081612026445614
 20
1.697707432779941
 30
0.0
 11
-2.949899243581356
 21
1.697707432779941
 31
0.0
  0
LINE
  5
38F
330
18
100
AcDbEntity
  8
LINE
100
AcDbLine
 10
-2.429291476848882
 20
1.697707432779941
 30
0.0
 11
-2.367093773829652
 21
1.697707432779941
 31
0.0
  0
ARC
  5
390
330
18
100
AcDbEntity
  8
LINE
100
AcDbCircle
 10
-2.649578981499991
 20
1.600294853786579
 30
0.0
 40
0.1031984247723265
100
AcDbArc
 50
109.2767926682608
 51
180.0
  0
ARC
  5
391
330
18
100
AcDbEntity
  8
LINE
100
AcDbCircle
 10
-2.639398963824517
 20
1.600294853786579
 30
0.0
 40
0.0584981162543635
100
AcDbArc
 50
117.9411040697628
 51
180.0
  0
LINE
  5
392
330
18
100
AcDbEntity
  8
LINE
100
AcDbLine
 10
-2.65099678125685
 20
1.50288227479321
 30
0.0
 11
-2.65099678125685
 21
1.548615879954411
 31
0.0
  0
LINE
  5
393
330
18
100
AcDbEntity
  8
LINE
100
AcDbLine
 10
-2.697897080078874
 20
1.50288227479321
 30
0.0
 11
-2.697897080078874
 21
1.600294853786579
 31
0.0
  0
LINE
  5
394
330
18
100
AcDbEntity
  8
LINE
100
AcDbLine
 10
-2.604096482434825
 20
1.50288227479321
 30
0.0
 11
-2.65099678125685
 21
1.50288227479321
 31
0.0
  0
LINE
  5
395
330
18
100
AcDbEntity
  8
LINE
100
AcDbLine
 10
-2.666809058114102
 20
1.651973827618738
 30
0.0
 11
-2.635184504399611
 21
1.651973827618738
 31
0.0
  0
LINE
  5
396
330
18
100
AcDbEntity
  8
LINE
100
AcDbLine
 10
-2.842384486967775
 20
1.697707432779941
 30
0.0
 11
-2.791162849187225
 21
1.697707432779941
 31
0.0
  0
LINE
  5
397
330
18
100
AcDbEntity
  8
LINE
100
AcDbLine
 10
-2.683648092573679
 20
1.697707432779941
 30
0.0
 11
-2.621064623408039
 21
1.697707432779941
 31
0.0
  0
LINE
  5
398
330
18
100
AcDbEntity
  8
LINE
100
AcDbLine
 10
-2.683262326427283
 20
1.697707432779941
 30
0.0
 11
-2.621064623408039
 21
1.697707432779941
 31
0.0
  0
ARC
  5
399
330
18
100
AcDbEntity
  8
LINE
100
AcDbCircle
 10
-2.662594598689189
 20
1.600294853786579
 30
0.0
 40
0.0584981162543635
100
AcDbArc
 50
0.0
 51
62.05889593023716
  0
ARC
  5
39A
330
18
100
AcDbEntity
  8
LINE
100
AcDbCircle
 10
-2.655133734481728
 20
1.600294853786579
 30
0.0
 40
0.1031984247723265
100
AcDbArc
 50
0.0
 51
70.72320733173913
  0
LINE
  5
39B
330
18
100
AcDbEntity
  8
LINE
100
AcDbLine
 10
-2.604096482434825
 20
1.600294853786579
 30
0.0
 11
-2.551935309709407
 21
1.600294853786579
 31
0.0
  0
LINE
  5
39C
330
18
100
AcDbEntity
  8
LINE
100
AcDbLine
 10
-2.551935309709407
 20
1.548615879954411
 30
0.0
 11
-2.65099678125685
 21
1.548615879954411
 31
0.0
  0
LINE
  5
39D
330
18
100
AcDbEntity
  8
LINE
100
AcDbLine
 10
-2.752777406272312
 20
1.451203300961049
 30
0.0
 11
-2.752777406272312
 21
1.600294853786579
 31
0.0
  0
LINE
  5
39E
330
18
100
AcDbEntity
  8
LINE
100
AcDbLine
 10
-2.604096482434825
 20
1.451203300961049
 30
0.0
 11
-2.604096482434825
 21
1.50288227479321
 31
0.0
  0
LINE
  5
39F
330
18
100
AcDbEntity
  8
LINE
100
AcDbLine
 10
-2.697897080078874
 20
1.451203300961049
 30
0.0
 11
-2.697897080078874
 21
1.50288227479321
 31
0.0
  0
LINE
  5
3A0
330
18
100
AcDbEntity
  8
LINE
100
AcDbLine
 10
-2.551935309709407
 20
1.451203300961049
 30
0.0
 11
-2.551935309709407
 21
1.548615879954411
 31
0.0
  0
LINE
  5
3A1
330
18
100
AcDbEntity
  8
LINE
100
AcDbLine
 10
-2.303789349037005
 20
1.539098515114613
 30
0.0
 11
-2.229828796078001
 21
1.697707432779941
 31
0.0
  0
LINE
  5
3A2
330
18
100
AcDbEntity
  8
LINE
100
AcDbLine
 10
-2.367093773829652
 20
1.536725142612494
 30
0.0
 11
-2.292026499097231
 21
1.697707432779941
 31
0.0
  0
LINE
  5
3A3
330
18
100
AcDbEntity
  8
LINE
100
AcDbLine
 10
-2.367093773829652
 20
1.697707432779941
 30
0.0
 11
-2.367093773829652
 21
1.536725142612494
 31
0.0
  0
LINE
  5
3A4
330
18
100
AcDbEntity
  8
LINE
100
AcDbLine
 10
-2.292026499097231
 20
1.697707432779941
 30
0.0
 11
-2.229828796078001
 21
1.697707432779941
 31
0.0
  0
LINE
  5
3A5
330
18
100
AcDbEntity
  8
LINE
100
AcDbLine
 10
-2.146594242943248
 20
1.697707432779941
 30
0.0
 11
-2.075161991283011
 21
1.697707432779941
 31
0.0
  0
LINE
  5
3A6
330
18
100
AcDbEntity
  8
LINE
100
AcDbLine
 10
-1.359078876044459
 20
1.375409226111709
 30
0.0
 11
-1.359078876044459
 21
1.480015472212605
 31
0.0
  0
LINE
  5
3A7
330
18
100
AcDbEntity
  8
LINE
100
AcDbLine
 10
-1.413959202237883
 20
1.469954079077147
 30
0.0
 11
-1.413959202237883
 21
1.371946528099109
 31
0.0
  0
LINE
  5
3A8
330
18
100
AcDbEntity
  8
LINE
100
AcDbLine
 10
-1.472498216844238
 20
1.35379072196768
 30
0.0
 11
-1.472498216844238
 21
1.50288227479321
 31
0.0
  0
LINE
  5
3A9
330
18
100
AcDbEntity
  8
LINE
100
AcDbLine
 10
-1.527378543037683
 20
1.35379072196768
 30
0.0
 11
-1.527378543037683
 21
1.697707432779941
 31
0.0
  0
LINE
  5
3AA
330
18
100
AcDbEntity
  8
LINE
100
AcDbLine
 10
-1.63713919542458
 20
1.399524327128881
 30
0.0
 11
-1.63713919542458
 21
1.50288227479321
 31
0.0
  0
LINE
  5
3AB
330
18
100
AcDbEntity
  8
LINE
100
AcDbLine
 10
-1.692019521618011
 20
1.35379072196768
 30
0.0
 11
-1.692019521618011
 21
1.697707432779941
 31
0.0
  0
LINE
  5
3AC
330
18
100
AcDbEntity
  8
LINE
100
AcDbLine
 10
-1.911540826391784
 20
1.697707432779941
 30
0.0
 11
-1.911540826391784
 21
1.35379072196768
 31
0.0
  0
LINE
  5
3AD
330
18
100
AcDbEntity
  8
LINE
100
AcDbLine
 10
-1.726636562498756
 20
1.434987426390884
 30
0.0
 11
-1.815683519937095
 21
1.625949242867697
 31
0.0
  0
LINE
  5
3AE
330
18
100
AcDbEntity
  8
LINE
100
AcDbLine
 10
-1.778752135000853
 20
1.425548911879909
 30
0.0
 11
-1.867799092439163
 21
1.616510728356728
 31
0.0
  0
LINE
  5
3AF
330
18
100
AcDbEntity
  8
LINE
100
AcDbLine
 10
-1.560306738753746
 20
1.35379072196768
 30
0.0
 11
-1.560306738753746
 21
1.399524327128881
 31
0.0
  0
LINE
  5
3B0
330
18
100
AcDbEntity
  8
LINE
100
AcDbLine
 10
-1.63713919542458
 20
1.399524327128881
 30
0.0
 11
-1.560306738753746
 21
1.399524327128881
 31
0.0
  0
LINE
  5
3B1
330
18
100
AcDbEntity
  8
LINE
100
AcDbLine
 10
-1.527378543037683
 20
1.35379072196768
 30
0.0
 11
-1.472498216844238
 21
1.35379072196768
 31
0.0
  0
ARC
  5
3B2
330
18
100
AcDbEntity
  8
LINE
100
AcDbCircle
 10
-1.795331623995578
 20
1.417817769193368
 30
0.0
 40
0.0182934420644818
100
AcDbArc
 50
270.0
 51
24.9999999999988
  0
ARC
  5
3B3
330
18
100
AcDbEntity
  8
LINE
100
AcDbCircle
 10
-1.778364568162352
 20
1.410866261208875
 30
0.0
 40
0.057075539241183
100
AcDbArc
 50
270.0
 51
24.9999999999988
  0
LINE
  5
3B4
330
18
100
AcDbEntity
  8
LINE
100
AcDbLine
 10
-1.87495394226284
 20
1.35379072196768
 30
0.0
 11
-1.778364568162352
 21
1.35379072196768
 31
0.0
  0
LINE
  5
3B5
330
18
100
AcDbEntity
  8
LINE
100
AcDbLine
 10
-1.87495394226284
 20
1.399524327128881
 30
0.0
 11
-1.795331623995578
 21
1.399524327128881
 31
0.0
  0
LINE
  5
3B6
330
18
100
AcDbEntity
  8
LINE
100
AcDbLine
 10
-1.87495394226284
 20
1.399524327128881
 30
0.0
 11
-1.87495394226284
 21
1.35379072196768
 31
0.0
  0
LINE
  5
3B7
330
18
100
AcDbEntity
  8
LINE
100
AcDbLine
 10
-1.692019521618011
 20
1.35379072196768
 30
0.0
 11
-1.560306738753746
 21
1.35379072196768
 31
0.0
  0
LINE
  5
3B8
330
18
100
AcDbEntity
  8
LINE
100
AcDbLine
 10
-1.411671025356297
 20
1.35379072196768
 30
0.0
 11
-1.353387497846257
 21
1.35379072196768
 31
0.0
  0
ARC
  5
3B9
330
18
100
AcDbEntity
  8
LINE
100
AcDbCircle
 10
-1.340785433979959
 20
1.371946528099109
 30
0.0
 40
0.073173768257927
100
AcDbArc
 50
180.0
 51
194.3662353416889
  0
ARC
  5
3BA
330
18
100
AcDbEntity
  8
LINE
100
AcDbCircle
 10
-1.315174615089702
 20
1.375409226111709
 30
0.0
 40
0.0439042609547562
100
AcDbArc
 50
180.0
 51
209.4985180895031
  0
LINE
  5
3BB
330
18
100
AcDbEntity
  8
LINE
100
AcDbLine
 10
-1.435911332715259
 20
1.548615879954411
 30
0.0
 11
-1.472498216844238
 21
1.548615879954411
 31
0.0
  0
LINE
  5
3BC
330
18
100
AcDbEntity
  8
LINE
100
AcDbLine
 10
-1.472498216844238
 20
1.651973827618738
 30
0.0
 11
-1.435911332715259
 21
1.651973827618738
 31
0.0
  0
LINE
  5
3BD
330
18
100
AcDbEntity
  8
LINE
100
AcDbLine
 10
-1.527378543037683
 20
1.697707432779941
 30
0.0
 11
-1.416154415285612
 21
1.697707432779941
 31
0.0
  0
ARC
  5
3BE
330
18
100
AcDbEntity
  8
LINE
100
AcDbCircle
 10
-1.446887397953953
 20
1.469954079077147
 30
0.0
 40
0.0329281957160671
100
AcDbArc
 50
0.0
 51
90.0
  0
LINE
  5
3BF
330
18
100
AcDbEntity
  8
LINE
100
AcDbLine
 10
-1.472498216844238
 20
1.548615879954411
 30
0.0
 11
-1.472498216844238
 21
1.651973827618738
 31
0.0
  0
LINE
  5
3C0
330
18
100
AcDbEntity
  8
LINE
100
AcDbLine
 10
-1.63713919542458
 20
1.548615879954411
 30
0.0
 11
-1.63713919542458
 21
1.651973827618738
 31
0.0
  0
LINE
  5
3C1
330
18
100
AcDbEntity
  8
LINE
100
AcDbLine
 10
-1.560306738753746
 20
1.50288227479321
 30
0.0
 11
-1.560306738753746
 21
1.548615879954411
 31
0.0
  0
LINE
  5
3C2
330
18
100
AcDbEntity
  8
LINE
100
AcDbLine
 10
-1.560306738753746
 20
1.50288227479321
 30
0.0
 11
-1.63713919542458
 21
1.50288227479321
 31
0.0
  0
LINE
  5
3C3
330
18
100
AcDbEntity
  8
LINE
100
AcDbLine
 10
-1.446887397953953
 20
1.50288227479321
 30
0.0
 11
-1.472498216844238
 21
1.50288227479321
 31
0.0
  0
LINE
  5
3C4
330
18
100
AcDbEntity
  8
LINE
100
AcDbLine
 10
-1.560306738753746
 20
1.548615879954411
 30
0.0
 11
-1.63713919542458
 21
1.548615879954411
 31
0.0
  0
LINE
  5
3C5
330
18
100
AcDbEntity
  8
LINE
100
AcDbLine
 10
-1.560306738753746
 20
1.651973827618738
 30
0.0
 11
-1.560306738753746
 21
1.697707432779941
 31
0.0
  0
LINE
  5
3C6
330
18
100
AcDbEntity
  8
LINE
100
AcDbLine
 10
-1.63713919542458
 20
1.651973827618738
 30
0.0
 11
-1.560306738753746
 21
1.651973827618738
 31
0.0
  0
LINE
  5
3C7
330
18
100
AcDbEntity
  8
LINE
100
AcDbLine
 10
-1.735923782572768
 20
1.697707432779941
 30
0.0
 11
-1.735923782572768
 21
1.651973827618738
 31
0.0
  0
ARC
  5
3C8
330
18
100
AcDbEntity
  8
LINE
100
AcDbCircle
 10
-1.816071086775553
 20
1.64063189353876
 30
0.0
 40
0.057075539241183
100
AcDbArc
 50
90.0
 51
204.9999999999986
  0
ARC
  5
3C9
330
18
100
AcDbEntity
  8
LINE
100
AcDbCircle
 10
-1.799104030942349
 20
1.633680385554252
 30
0.0
 40
0.0182934420644818
100
AcDbArc
 50
90.0
 51
204.9999999999986
  0
LINE
  5
3CA
330
18
100
AcDbEntity
  8
LINE
100
AcDbLine
 10
-1.735923782572768
 20
1.651973827618738
 30
0.0
 11
-1.799104030942349
 21
1.651973827618724
 31
0.0
  0
LINE
  5
3CB
330
18
100
AcDbEntity
  8
LINE
100
AcDbLine
 10
-1.735923782572768
 20
1.697707432779941
 30
0.0
 11
-1.816071086775553
 21
1.697707432779941
 31
0.0
  0
LINE
  5
3CC
330
18
100
AcDbEntity
  8
LINE
100
AcDbLine
 10
-1.692019521618011
 20
1.697707432779941
 30
0.0
 11
-1.560306738753746
 21
1.697707432779941
 31
0.0
  0
LINE
  5
3CD
330
18
100
AcDbEntity
  8
LINE
100
AcDbLine
 10
-1.413959202237883
 20
1.570568010431793
 30
0.0
 11
-1.413959202237883
 21
1.63002169714135
 31
0.0
  0
LINE
  5
3CE
330
18
100
AcDbEntity
  8
LINE
100
AcDbLine
 10
-1.359078876044459
 20
1.64063189353876
 30
0.0
 11
-1.359078876044459
 21
1.571482682535015
 31
0.0
  0
ARC
  5
3CF
330
18
100
AcDbEntity
  8
LINE
100
AcDbCircle
 10
-1.435911332715259
 20
1.570568010431793
 30
0.0
 40
0.0219521304773781
100
AcDbArc
 50
270.0
 51
0.0
  0
ARC
  5
3D0
330
18
100
AcDbEntity
  8
LINE
100
AcDbCircle
 10
-1.40481248120564
 20
1.571482682535015
 30
0.0
 40
0.0457336051612044
100
AcDbArc
 50
270.0
 51
0.0
  0
ARC
  5
3D1
330
18
100
AcDbEntity
  8
LINE
100
AcDbCircle
 10
-1.416154415285612
 20
1.64063189353876
 30
0.0
 40
0.057075539241183
100
AcDbArc
 50
0.0
 51
90.0
  0
ARC
  5
3D2
330
18
100
AcDbEntity
  8
LINE
100
AcDbCircle
 10
-1.435911332715259
 20
1.63002169714135
 30
0.0
 40
0.0219521304773781
100
AcDbArc
 50
0.0
 51
90.0
  0
ARC
  5
3D3
330
18
100
AcDbEntity
  8
LINE
100
AcDbCircle
 10
-1.40481248120564
 20
1.480015472212605
 30
0.0
 40
0.0457336051612044
100
AcDbArc
 50
0.0
 51
90.0
  0
ENDSEC
  0
SECTION
  2
OBJECTS
  0
DICTIONARY
  5
C
330
0
100
AcDbDictionary
281
     1
  3
ACAD_GROUP
350
D
  3
ACAD_LAYOUT
350
138
  3
ACAD_MLINESTYLE
350
E
  3
ACAD_PLOTSETTINGS
350
139
  3
ACAD_PLOTSTYLENAME
350
136
  3
AcDbVariableDictionary
350
13E
  0
DICTIONARY
  5
D
102
{ACAD_REACTORS
330
C
102
}
330
C
100
AcDbDictionary
281
     1
  0
DICTIONARY
  5
138
102
{ACAD_REACTORS
330
C
102
}
330
C
100
AcDbDictionary
281
     1
  3
Layout1
350
13B
  3
Model
350
13A
  0
DICTIONARY
  5
E
102
{ACAD_REACTORS
330
C
102
}
330
C
100
AcDbDictionary
281
     1
  3
STANDARD
350
1B
  0
DICTIONARY
  5
139
102
{ACAD_REACTORS
330
C
102
}
330
C
100
AcDbDictionary
281
     1
  0
ACDBDICTIONARYWDFLT
  5
136
102
{ACAD_REACTORS
330
C
102
}
330
C
100
AcDbDictionary
281
     1
  3
Normal
350
137
100
AcDbDictionaryWithDefault
340
137
  0
DICTIONARY
  5
13E
102
{ACAD_REACTORS
330
C
102
}
330
C
100
AcDbDictionary
281
     1
  3
DIMASSOC
350
13F
  0
LAYOUT
  5
13B
102
{ACAD_REACTORS
330
138
102
}
330
138
100
AcDbPlotSettings
  1

  2
\\PRINT_SRV\HP LaserJet (Engineering)
  4

  6

 40
0.0
 41
0.0
 42
0.0
 43
0.0
 44
0.0
 45
0.0
 46
0.0
 47
0.0
 48
0.0
 49
0.0
140
0.0
141
0.0
142
1.0
143
1.0
 70
   688
 72
     0
 73
     0
 74
     5
  7
KPT.ctb
 75
    16
147
1.0
148
0.0
149
0.0
100
AcDbLayout
  1
Layout1
 70
     0
 71
     1
 10
0.0
 20
0.0
 11
12.0
 21
9.0
 12
120.050730115191
 22
50.0
 32
49.74901483950825
 14
1.000000000000000E+20
 24
1.000000000000000E+20
 34
1.000000000000000E+20
 15
-1.000000000000000E+20
 25
-1.000000000000000E+20
 35
-1.000000000000000E+20
146
0.0
 13
0.0
 23
0.0
 33
0.0
 16
1.0
 26
0.0
 36
0.0
 17
0.0
 27
1.0
 37
0.0
 76
     0
330
15
  0
LAYOUT
  5
13A
102
{ACAD_REACTORS
330
138
102
}
330
138
100
AcDbPlotSettings
  1

  2
\\PRINT_SRV\HP LaserJet (Engineering)
  4

  6

 40
0.0
 41
0.0
 42
0.0
 43
0.0
 44
0.0
 45
0.0
 46
0.0
 47
0.0
 48
0.0
 49
0.0
140
0.0
141
0.0
142
1.0
143
1.0
 70
  1712
 72
     0
 73
     0
 74
     0
  7
KPT.ctb
 75
     0
147
1.0
148
0.0
149
0.0
100
AcDbLayout
  1
Model
 70
     1
 71
     0
 10
0.0
 20
0.0
 11
12.0
 21
9.0
 12
0.0
 22
0.0
 32
0.0
 14
0.0
 24
0.0
 34
0.0
 15
0.0
 25
0.0
 35
0.0
146
0.0
 13
0.0
 23
0.0
 33
0.0
 16
1.0
 26
0.0
 36
0.0
 17
0.0
 27
1.0
 37
0.0
 76
     0
330
18
  0
MLINESTYLE
  5
1B
102
{ACAD_REACTORS
330
E
102
}
330
E
100
AcDbMlineStyle
  2
STANDARD
 70
     0
  3

 62
     0
 51
90.0
 52
90.0
 71
     2
 49
0.5
 62
   256
  6
BYLAYER
 49
-0.5
 62
   256
  6
BYLAYER
  0
ACDBPLACEHOLDER
  5
137
102
{ACAD_REACTORS
330
136
102
}
330
136
  0
DICTIONARYVAR
  5
13F
102
{ACAD_REACTORS
330
13E
102
}
330
13E
100
DictionaryVariables
280
     0
  1
1
  0
ENDSEC
  0
EOF
