  0
SECTION
  2
HEADER
  9
$ACADVER
  1
AC1015
  9
$ACADMAINTVER
 70
    13
  9
$DWGCODEPAGE
  3
ANSI_1252
  9
$INSBASE
 10
212.4024986198655
 20
316.5173530173875
 30
0.0
  9
$EXTMIN
 10
-4.738235480580708
 20
-1.2455
 30
0.0
  9
$EXTMAX
 10
3.107210082621556
 20
3.089477117223673
 30
0.0
  9
$LIMMIN
 10
0.0
 20
0.0
  9
$LIMMAX
 10
12.0
 20
9.0
  9
$ORTHOMODE
 70
     1
  9
$REGENMODE
 70
     1
  9
$FILLMODE
 70
     1
  9
$QTEXTMODE
 70
     0
  9
$MIRRTEXT
 70
     1
  9
$LTSCALE
 40
1.0
  9
$ATTMODE
 70
     1
  9
$TEXTSIZE
 40
0.2
  9
$TRACEWID
 40
0.05
  9
$TEXTSTYLE
  7
STYLE1
  9
$CLAYER
  8
DIM
  9
$CELTYPE
  6
BYLAYER
  9
$CECOLOR
 62
   256
  9
$CELTSCALE
 40
1.0
  9
$DISPSILH
 70
     0
  9
$DIMSCALE
 40
1.0
  9
$DIMASZ
 40
0.12
  9
$DIMEXO
 40
0.0625
  9
$DIMDLI
 40
0.38
  9
$DIMRND
 40
0.0
  9
$DIMDLE
 40
0.0
  9
$DIMEXE
 40
0.0625
  9
$DIMTP
 40
0.0
  9
$DIMTM
 40
0.0
  9
$DIMTXT
 40
0.125
  9
$DIMCEN
 40
0.0
  9
$DIMTSZ
 40
0.0
  9
$DIMTOL
 70
     0
  9
$DIMLIM
 70
     0
  9
$DIMTIH
 70
     0
  9
$DIMTOH
 70
     0
  9
$DIMSE1
 70
     0
  9
$DIMSE2
 70
     0
  9
$DIMTAD
 70
     1
  9
$DIMZIN
 70
     0
  9
$DIMBLK
  1

  9
$DIMASO
 70
     1
  9
$DIMSHO
 70
     1
  9
$DIMPOST
  1

  9
$DIMAPOST
  1

  9
$DIMALT
 70
     0
  9
$DIMALTD
 70
     2
  9
$DIMALTF
 40
25.4
  9
$DIMLFAC
 40
1.0
  9
$DIMTOFL
 70
     1
  9
$DIMTVP
 40
0.0
  9
$DIMTIX
 70
     0
  9
$DIMSOXD
 70
     0
  9
$DIMSAH
 70
     0
  9
$DIMBLK1
  1

  9
$DIMBLK2
  1

  9
$DIMSTYLE
  2
STANDARD
  9
$DIMCLRD
 70
     0
  9
$DIMCLRE
 70
     0
  9
$DIMCLRT
 70
     0
  9
$DIMTFAC
 40
1.0
  9
$DIMGAP
 40
0.05
  9
$DIMJUST
 70
     0
  9
$DIMSD1
 70
     0
  9
$DIMSD2
 70
     0
  9
$DIMTOLJ
 70
     1
  9
$DIMTZIN
 70
     0
  9
$DIMALTZ
 70
     0
  9
$DIMALTTZ
 70
     0
  9
$DIMUPT
 70
     1
  9
$DIMDEC
 70
     3
  9
$DIMTDEC
 70
     3
  9
$DIMALTU
 70
     2
  9
$DIMALTTD
 70
     2
  9
$DIMTXSTY
  7
ROMANS
  9
$DIMAUNIT
 70
     0
  9
$DIMADEC
 70
     0
  9
$DIMALTRND
 40
0.0
  9
$DIMAZIN
 70
     0
  9
$DIMDSEP
 70
    46
  9
$DIMATFIT
 70
     3
  9
$DIMFRAC
 70
     0
  9
$DIMLDRBLK
  1

  9
$DIMLUNIT
 70
     2
  9
$DIMLWD
 70
    -2
  9
$DIMLWE
 70
    -2
  9
$DIMTMOVE
 70
     0
  9
$LUNITS
 70
     2
  9
$LUPREC
 70
     4
  9
$SKETCHINC
 40
0.1
  9
$FILLETRAD
 40
0.0
  9
$AUNITS
 70
     0
  9
$AUPREC
 70
     0
  9
$MENU
  1
acad
  9
$ELEVATION
 40
0.0
  9
$PELEVATION
 40
0.0
  9
$THICKNESS
 40
0.0
  9
$LIMCHECK
 70
     0
  9
$CHAMFERA
 40
0.0
  9
$CHAMFERB
 40
0.0
  9
$CHAMFERC
 40
0.0
  9
$CHAMFERD
 40
0.0
  9
$SKPOLY
 70
     0
  9
$TDCREATE
 40
2452415.445890034
  9
$TDUCREATE
 40
2452415.654223368
  9
$TDUPDATE
 40
2452852.609487396
  9
$TDUUPDATE
 40
2452852.817820729
  9
$TDINDWG
 40
0.0200838657
  9
$TDUSRTIMER
 40
0.0200815509
  9
$USRTIMER
 70
     1
  9
$ANGBASE
 50
0.0
  9
$ANGDIR
 70
     0
  9
$PDMODE
 70
    65
  9
$PDSIZE
 40
-2.0
  9
$PLINEWID
 40
0.0
  9
$SPLFRAME
 70
     0
  9
$SPLINETYPE
 70
     6
  9
$SPLINESEGS
 70
     8
  9
$HANDSEED
  5
383
  9
$SURFTAB1
 70
     6
  9
$SURFTAB2
 70
     6
  9
$SURFTYPE
 70
     6
  9
$SURFU
 70
     6
  9
$SURFV
 70
     6
  9
$UCSBASE
  2

  9
$UCSNAME
  2

  9
$UCSORG
 10
0.0
 20
0.0
 30
0.0
  9
$UCSXDIR
 10
1.0
 20
0.0
 30
0.0
  9
$UCSYDIR
 10
0.0
 20
1.0
 30
0.0
  9
$UCSORTHOREF
  2

  9
$UCSORTHOVIEW
 70
     0
  9
$UCSORGTOP
 10
0.0
 20
0.0
 30
0.0
  9
$UCSORGBOTTOM
 10
0.0
 20
0.0
 30
0.0
  9
$UCSORGLEFT
 10
0.0
 20
0.0
 30
0.0
  9
$UCSORGRIGHT
 10
0.0
 20
0.0
 30
0.0
  9
$UCSORGFRONT
 10
0.0
 20
0.0
 30
0.0
  9
$UCSORGBACK
 10
0.0
 20
0.0
 30
0.0
  9
$PUCSBASE
  2

  9
$PUCSNAME
  2

  9
$PUCSORG
 10
0.0
 20
0.0
 30
0.0
  9
$PUCSXDIR
 10
1.0
 20
0.0
 30
0.0
  9
$PUCSYDIR
 10
0.0
 20
1.0
 30
0.0
  9
$PUCSORTHOREF
  2

  9
$PUCSORTHOVIEW
 70
     0
  9
$PUCSORGTOP
 10
0.0
 20
0.0
 30
0.0
  9
$PUCSORGBOTTOM
 10
0.0
 20
0.0
 30
0.0
  9
$PUCSORGLEFT
 10
0.0
 20
0.0
 30
0.0
  9
$PUCSORGRIGHT
 10
0.0
 20
0.0
 30
0.0
  9
$PUCSORGFRONT
 10
0.0
 20
0.0
 30
0.0
  9
$PUCSORGBACK
 10
0.0
 20
0.0
 30
0.0
  9
$USERI1
 70
     0
  9
$USERI2
 70
     0
  9
$USERI3
 70
     0
  9
$USERI4
 70
     0
  9
$USERI5
 70
     0
  9
$USERR1
 40
0.0
  9
$USERR2
 40
0.0
  9
$USERR3
 40
0.0
  9
$USERR4
 40
0.0
  9
$USERR5
 40
0.0
  9
$WORLDVIEW
 70
     1
  9
$SHADEDGE
 70
     3
  9
$SHADEDIF
 70
    70
  9
$TILEMODE
 70
     1
  9
$MAXACTVP
 70
    16
  9
$PINSBASE
 10
0.0
 20
0.0
 30
0.0
  9
$PLIMCHECK
 70
     0
  9
$PEXTMIN
 10
1.000000000000000E+20
 20
1.000000000000000E+20
 30
1.000000000000000E+20
  9
$PEXTMAX
 10
-1.000000000000000E+20
 20
-1.000000000000000E+20
 30
-1.000000000000000E+20
  9
$PLIMMIN
 10
0.0
 20
0.0
  9
$PLIMMAX
 10
12.0
 20
9.0
  9
$UNITMODE
 70
     0
  9
$VISRETAIN
 70
     0
  9
$PLINEGEN
 70
     0
  9
$PSLTSCALE
 70
     1
  9
$TREEDEPTH
 70
  3020
  9
$CMLSTYLE
  2
STANDARD
  9
$CMLJUST
 70
     0
  9
$CMLSCALE
 40
1.0
  9
$PROXYGRAPHICS
 70
     1
  9
$MEASUREMENT
 70
     1
  9
$CELWEIGHT
370
    -1
  9
$ENDCAPS
280
     0
  9
$JOINSTYLE
280
     0
  9
$LWDISPLAY
290
     0
  9
$INSUNITS
 70
     0
  9
$HYPERLINKBASE
  1

  9
$STYLESHEET
  1

  9
$XEDIT
290
     1
  9
$CEPSNTYPE
380
     0
  9
$PSTYLEMODE
290
     1
  9
$FINGERPRINTGUID
  2
{D1A600B4-0B7C-4C98-A56B-7CC634BBC99F}
  9
$VERSIONGUID
  2
{28F74E6C-6B69-4331-AF1A-F044A91F6169}
  9
$EXTNAMES
290
     1
  9
$PSVPSCALE
 40
0.0
  9
$OLESTARTUP
290
     0
  0
ENDSEC
  0
SECTION
  2
CLASSES
  0
CLASS
  1
ACDBDICTIONARYWDFLT
  2
AcDbDictionaryWithDefault
  3
AutoCAD 2000
 90
        0
280
     0
281
     0
  0
CLASS
  1
ACDBPLACEHOLDER
  2
AcDbPlaceHolder
  3
AutoCAD 2000
 90
        0
280
     0
281
     0
  0
CLASS
  1
LAYOUT
  2
AcDbLayout
  3
AutoCAD 2000
 90
        0
280
     0
281
     0
  0
CLASS
  1
DICTIONARYVAR
  2
AcDbDictionaryVar
  3
AutoCAD 2000
 90
        0
280
     0
281
     0
  0
ENDSEC
  0
SECTION
  2
TABLES
  0
TABLE
  2
VPORT
  5
19
330
0
100
AcDbSymbolTable
 70
     2
  0
VPORT
  5
382
330
19
100
AcDbSymbolTableRecord
100
AcDbViewportTableRecord
  2
*Active
 70
     0
 10
0.0
 20
0.0
 11
1.0
 21
1.0
 12
-0.2025188035783696
 22
0.9216766567058272
 13
0.0
 23
0.0
 14
1.0
 24
1.0
 15
0.0
 25
0.0
 16
0.0
 26
0.0
 36
1.0
 17
0.0
 27
0.0
 37
0.0
 40
5.266265962936367
 41
1.731751824817518
 42
50.0
 43
0.0
 44
0.0
 50
0.0
 51
0.0
 71
     0
 72
  1000
 73
     1
 74
     0
 75
     0
 76
     0
 77
     0
 78
     0
281
     0
 65
     1
110
0.0
120
0.0
130
0.0
111
1.0
121
0.0
131
0.0
112
0.0
122
1.0
132
0.0
 79
     0
146
0.0
  0
ENDTAB
  0
TABLE
  2
LTYPE
  5
14
330
0
100
AcDbSymbolTable
 70
     3
  0
LTYPE
  5
15
330
14
100
AcDbSymbolTableRecord
100
AcDbLinetypeTableRecord
  2
BYBLOCK
 70
     0
  3

 72
    65
 73
     0
 40
0.0
  0
LTYPE
  5
16
330
14
100
AcDbSymbolTableRecord
100
AcDbLinetypeTableRecord
  2
BYLAYER
 70
     0
  3

 72
    65
 73
     0
 40
0.0
  0
LTYPE
  5
8
330
14
100
AcDbSymbolTableRecord
100
AcDbLinetypeTableRecord
  2
CONTINUOUS
 70
     0
  3
Solid line
 72
    65
 73
     0
 40
0.0
  0
LTYPE
  5
2A
330
14
100
AcDbSymbolTableRecord
100
AcDbLinetypeTableRecord
  2
HIDDEN
 70
     0
  3
__ __ __ __ __ __ __ __ __ __ __ __ __ __ __ __
 72
    65
 73
     2
 40
0.375
 49
0.25
 74
     0
 49
-0.125
 74
     0
  0
LTYPE
  5
EB
330
14
100
AcDbSymbolTableRecord
100
AcDbLinetypeTableRecord
  2
CENTER
 70
     0
  3
____ _ ____ _ ____ _ ____ _ ____ _ ____ _ ____
 72
    65
 73
     4
 40
2.0
 49
1.25
 74
     0
 49
-0.25
 74
     0
 49
0.25
 74
     0
 49
-0.25
 74
     0
  0
ENDTAB
  0
TABLE
  2
LAYER
  5
10
330
0
100
AcDbSymbolTable
 70
     6
  0
LAYER
  5
4
330
10
100
AcDbSymbolTableRecord
100
AcDbLayerTableRecord
  2
0
 70
     0
 62
     7
  6
CONTINUOUS
370
    -3
390
5
  0
LAYER
  5
22
330
10
100
AcDbSymbolTableRecord
100
AcDbLayerTableRecord
  2
LINE
 70
     0
 62
     3
  6
CONTINUOUS
370
    -3
390
5
  0
LAYER
  5
29
330
10
100
AcDbSymbolTableRecord
100
AcDbLayerTableRecord
  2
HIDDEN
 70
     0
 62
     2
  6
HIDDEN
370
    -3
390
5
  0
LAYER
  5
51
330
10
100
AcDbSymbolTableRecord
100
AcDbLayerTableRecord
  2
DIM
 70
     0
 62
     7
  6
CONTINUOUS
370
    -3
390
5
  0
LAYER
  5
EA
330
10
100
AcDbSymbolTableRecord
100
AcDbLayerTableRecord
  2
CTRL
 70
     0
 62
     1
  6
CENTER
370
    -3
390
5
  0
LAYER
  5
F6
330
10
100
AcDbSymbolTableRecord
100
AcDbLayerTableRecord
  2
Defpoints
 70
     0
 62
     7
  6
CONTINUOUS
290
     0
370
    -3
390
5
  0
ENDTAB
  0
TABLE
  2
STYLE
  5
11
330
0
100
AcDbSymbolTable
 70
     4
  0
STYLE
  5
12
330
11
100
AcDbSymbolTableRecord
100
AcDbTextStyleTableRecord
  2
STANDARD
 70
     0
 40
0.0
 41
1.0
 50
0.0
 71
     0
 42
0.2
  3
txt
  4

  0
STYLE
  5
23
330
11
100
AcDbSymbolTableRecord
100
AcDbTextStyleTableRecord
  2
ROMANS
 70
     0
 40
0.0
 41
1.0
 50
0.0
 71
     0
 42
0.24
  3
romans
  4

  0
STYLE
  5
24
330
11
100
AcDbSymbolTableRecord
100
AcDbTextStyleTableRecord
  2
STYLE1
 70
     0
 40
0.0
 41
1.0
 50
0.0
 71
     0
 42
0.2
  3
romans.shx
  4

  0
STYLE
  5
172
330
11
100
AcDbSymbolTableRecord
100
AcDbTextStyleTableRecord
  2
LOGO
 70
     0
 40
0.0
 41
0.6
 50
0.0
 71
     0
 42
4.7
  3
ARIAL.TTF
  4

1001
ACAD
1000
Arial
1071
       34
  0
ENDTAB
  0
TABLE
  2
VIEW
  5
17
330
0
100
AcDbSymbolTable
 70
     0
  0
ENDTAB
  0
TABLE
  2
UCS
  5
18
330
0
100
AcDbSymbolTable
 70
     0
  0
ENDTAB
  0
TABLE
  2
APPID
  5
1B
330
0
100
AcDbSymbolTable
 70
     1
  0
APPID
  5
1C
330
1B
100
AcDbSymbolTableRecord
100
AcDbRegAppTableRecord
  2
ACAD
 70
     0
  0
ENDTAB
  0
TABLE
  2
DIMSTYLE
  5
1D
330
0
100
AcDbSymbolTable
 70
     2
100
AcDbDimStyleTable
 71
     1
340
26
  0
DIMSTYLE
105
26
102
{ACAD_REACTORS
330
F5
330
103
330
110
330
11D
102
}
330
1D
100
AcDbSymbolTableRecord
100
AcDbDimStyleTableRecord
  2
STANDARD
 70
     0
 41
0.12
 44
0.0625
 73
     0
 74
     0
 77
     1
140
0.125
141
0.0
147
0.05
172
     1
271
     3
272
     3
288
     1
340
23
  0
DIMSTYLE
105
173
330
1D
100
AcDbSymbolTableRecord
100
AcDbDimStyleTableRecord
  2
AM_ANSI
 70
     0
  4
"
 41
2.5
 42
1.0
 43
10.0
 44
1.0
 47
0.1
 48
0.1
 78
     8
 79
     2
140
3.5
141
0.0
143
0.0393701
146
0.71
147
1.5
176
   256
177
   256
178
     2
271
     2
272
     3
274
     4
284
     8
340
12
371
    -1
372
    -1
  0
ENDTAB
  0
TABLE
  2
BLOCK_RECORD
  5
1
330
0
100
AcDbSymbolTable
 70
     5
  0
BLOCK_RECORD
  5
2
330
1
100
AcDbSymbolTableRecord
100
AcDbBlockTableRecord
  2
*MODEL_SPACE
340
A
  0
BLOCK_RECORD
  5
C
330
1
100
AcDbSymbolTableRecord
100
AcDbBlockTableRecord
  2
*PAPER_SPACE
340
F
  0
BLOCK_RECORD
  5
F7
330
1
100
AcDbSymbolTableRecord
100
AcDbBlockTableRecord
  2
*D0
340
0
  0
BLOCK_RECORD
  5
104
330
1
100
AcDbSymbolTableRecord
100
AcDbBlockTableRecord
  2
*D1
340
0
  0
BLOCK_RECORD
  5
111
330
1
100
AcDbSymbolTableRecord
100
AcDbBlockTableRecord
  2
*D2
340
0
  0
BLOCK_RECORD
  5
11E
330
1
100
AcDbSymbolTableRecord
100
AcDbBlockTableRecord
  2
*D3
340
0
  0
ENDTAB
  0
ENDSEC
  0
SECTION
  2
BLOCKS
  0
BLOCK
  5
3
330
2
100
AcDbEntity
  8
0
100
AcDbBlockBegin
  2
*MODEL_SPACE
 70
     0
 10
0.0
 20
0.0
 30
0.0
  3
*MODEL_SPACE
  1

  0
ENDBLK
  5
9
330
2
100
AcDbEntity
  8
0
100
AcDbBlockEnd
  0
BLOCK
  5
D
330
C
100
AcDbEntity
 67
     1
  8
0
100
AcDbBlockBegin
  2
*PAPER_SPACE
 70
     0
 10
0.0
 20
0.0
 30
0.0
  3
*PAPER_SPACE
  1

  0
ENDBLK
  5
E
330
C
100
AcDbEntity
 67
     1
  8
0
100
AcDbBlockEnd
  0
BLOCK
  5
101
330
F7
100
AcDbEntity
  8
0
100
AcDbBlockBegin
  2
*D0
 70
     1
 10
0.0
 20
0.0
 30
0.0
  3
*D0
  1

  0
LINE
  5
15A
330
F7
100
AcDbEntity
  8
DIM
 62
     0
370
    -2
100
AcDbLine
 10
-3.983752000000008
 20
0.7499985000000038
 30
0.0
 11
-4.62573548058071
 21
0.7499985000000039
 31
0.0
  0
LINE
  5
15B
330
F7
100
AcDbEntity
  8
DIM
 62
     0
370
    -2
100
AcDbLine
 10
-3.983752000000008
 20
-0.7499985000000038
 30
0.0
 11
-4.62573548058071
 21
-0.7499985000000037
 31
0.0
  0
LINE
  5
15C
330
F7
100
AcDbEntity
  8
DIM
 62
     0
370
    -2
100
AcDbLine
 10
-4.56323548058071
 20
0.6299985000000039
 30
0.0
 11
-4.56323548058071
 21
-0.6299985000000037
 31
0.0
  0
SOLID
  5
15D
330
F7
100
AcDbEntity
  8
DIM
 62
     0
100
AcDbTrace
 10
-4.583235480580707
 20
0.6299985000000039
 30
0.0
 11
-4.54323548058071
 21
0.6299985000000039
 31
0.0
 12
-4.56323548058071
 22
0.7499985000000039
 32
0.0
 13
-4.56323548058071
 23
0.7499985000000039
 33
0.0
  0
SOLID
  5
15E
330
F7
100
AcDbEntity
  8
DIM
 62
     0
100
AcDbTrace
 10
-4.583235480580707
 20
-0.6299985000000037
 30
0.0
 11
-4.54323548058071
 21
-0.6299985000000037
 31
0.0
 12
-4.56323548058071
 22
-0.7499985000000037
 32
0.0
 13
-4.56323548058071
 23
-0.7499985000000037
 33
0.0
  0
MTEXT
  5
15F
330
F7
100
AcDbEntity
  8
DIM
 62
     0
100
AcDbMText
 10
-4.675735480580708
 20
0.0104461533490295
 30
0.0
 40
0.125
 41
0.0
 71
     5
 72
     1
  1
\A1;%%c1.500
  7
ROMANS
 11
0.0000000000000001
 21
1.0
 31
0.0
 73
     1
 44
1.0
  0
POINT
  5
160
330
F7
100
AcDbEntity
  8
Defpoints
 62
     0
100
AcDbPoint
 10
-3.921252000000008
 20
0.7499985000000038
 30
0.0
  0
POINT
  5
161
330
F7
100
AcDbEntity
  8
Defpoints
 62
     0
100
AcDbPoint
 10
-3.921252000000008
 20
-0.7499985000000038
 30
0.0
  0
POINT
  5
162
330
F7
100
AcDbEntity
  8
Defpoints
 62
     0
100
AcDbPoint
 10
-4.56323548058071
 20
-0.7499985000000037
 30
0.0
  0
ENDBLK
  5
102
330
F7
100
AcDbEntity
  8
0
100
AcDbBlockEnd
  0
BLOCK
  5
10E
330
104
100
AcDbEntity
  8
0
100
AcDbBlockBegin
  2
*D1
 70
     1
 10
0.0
 20
0.0
 30
0.0
  3
*D1
  1

  0
LINE
  5
148
330
104
100
AcDbEntity
  8
DIM
 62
     0
370
    -2
100
AcDbLine
 10
-3.99999199999999
 20
0.7337585000000219
 30
0.0
 11
-3.99999199999999
 21
2.976977117223674
 31
0.0
  0
LINE
  5
149
330
104
100
AcDbEntity
  8
DIM
 62
     0
370
    -2
100
AcDbLine
 10
1.99999600000001
 20
1.248000120000034
 30
0.0
 11
1.99999600000001
 21
2.976977117223674
 31
0.0
  0
LINE
  5
14A
330
104
100
AcDbEntity
  8
DIM
 62
     0
370
    -2
100
AcDbLine
 10
-3.879991999999991
 20
2.914477117223674
 30
0.0
 11
1.879996000000008
 21
2.914477117223674
 31
0.0
  0
SOLID
  5
14B
330
104
100
AcDbEntity
  8
DIM
 62
     0
100
AcDbTrace
 10
-3.879991999999991
 20
2.934477117223674
 30
0.0
 11
-3.879991999999991
 21
2.894477117223674
 31
0.0
 12
-3.99999199999999
 22
2.914477117223674
 32
0.0
 13
-3.99999199999999
 23
2.914477117223674
 33
0.0
  0
SOLID
  5
14C
330
104
100
AcDbEntity
  8
DIM
 62
     0
100
AcDbTrace
 10
1.879996000000008
 20
2.934477117223674
 30
0.0
 11
1.879996000000008
 21
2.894477117223674
 31
0.0
 12
1.99999600000001
 22
2.914477117223674
 32
0.0
 13
1.99999600000001
 23
2.914477117223674
 33
0.0
  0
MTEXT
  5
14D
330
104
100
AcDbEntity
  8
DIM
 62
     0
100
AcDbMText
 10
-0.9787226661613264
 20
3.026977117223673
 30
0.0
 40
0.125
 41
0.0
 71
     5
 72
     1
  1
\A1;6.000
  7
ROMANS
 73
     1
 44
1.0
  0
POINT
  5
14E
330
104
100
AcDbEntity
  8
Defpoints
 62
     0
100
AcDbPoint
 10
-3.99999199999999
 20
0.6712585000000219
 30
0.0
  0
POINT
  5
14F
330
104
100
AcDbEntity
  8
Defpoints
 62
     0
100
AcDbPoint
 10
1.99999600000001
 20
1.185500120000034
 30
0.0
  0
POINT
  5
150
330
104
100
AcDbEntity
  8
Defpoints
 62
     0
100
AcDbPoint
 10
1.99999600000001
 20
2.914477117223674
 30
0.0
  0
ENDBLK
  5
10F
330
104
100
AcDbEntity
  8
0
100
AcDbBlockEnd
  0
BLOCK
  5
11B
330
111
100
AcDbEntity
  8
0
100
AcDbBlockBegin
  2
*D2
 70
     1
 10
0.0
 20
0.0
 30
0.0
  3
*D2
  1

  0
LINE
  5
13F
330
111
100
AcDbEntity
  8
DIM
 62
     0
370
    -2
100
AcDbLine
 10
-0.0000000000000002
 20
1.150520000000034
 30
0.0
 11
-0.0000000000000002
 21
2.089053979765969
 31
0.0
  0
LINE
  5
140
330
111
100
AcDbEntity
  8
DIM
 62
     0
370
    -2
100
AcDbLine
 10
1.99999600000001
 20
1.248000120000034
 30
0.0
 11
1.99999600000001
 21
2.089053979765969
 31
0.0
  0
LINE
  5
141
330
111
100
AcDbEntity
  8
DIM
 62
     0
370
    -2
100
AcDbLine
 10
0.1199999999999998
 20
2.026553979765969
 30
0.0
 11
1.879996000000008
 21
2.026553979765969
 31
0.0
  0
SOLID
  5
142
330
111
100
AcDbEntity
  8
DIM
 62
     0
100
AcDbTrace
 10
0.1199999999999998
 20
2.046553979765969
 30
0.0
 11
0.1199999999999998
 21
2.006553979765969
 31
0.0
 12
-0.0000000000000002
 22
2.026553979765969
 32
0.0
 13
-0.0000000000000002
 23
2.026553979765969
 33
0.0
  0
SOLID
  5
143
330
111
100
AcDbEntity
  8
DIM
 62
     0
100
AcDbTrace
 10
1.879996000000008
 20
2.046553979765969
 30
0.0
 11
1.879996000000008
 21
2.006553979765969
 31
0.0
 12
1.99999600000001
 22
2.026553979765969
 32
0.0
 13
1.99999600000001
 23
2.026553979765969
 33
0.0
  0
MTEXT
  5
144
330
111
100
AcDbEntity
  8
DIM
 62
     0
100
AcDbMText
 10
1.059119904056792
 20
2.139053979765968
 30
0.0
 40
0.125
 41
0.0
 71
     5
 72
     1
  1
\A1;2.000
  7
ROMANS
 73
     1
 44
1.0
  0
POINT
  5
145
330
111
100
AcDbEntity
  8
Defpoints
 62
     0
100
AcDbPoint
 10
-0.0000000000000002
 20
1.088020000000035
 30
0.0
  0
POINT
  5
146
330
111
100
AcDbEntity
  8
Defpoints
 62
     0
100
AcDbPoint
 10
1.99999600000001
 20
1.185500120000034
 30
0.0
  0
POINT
  5
147
330
111
100
AcDbEntity
  8
Defpoints
 62
     0
100
AcDbPoint
 10
1.99999600000001
 20
2.026553979765969
 30
0.0
  0
ENDBLK
  5
11C
330
111
100
AcDbEntity
  8
0
100
AcDbBlockEnd
  0
BLOCK
  5
128
330
11E
100
AcDbEntity
  8
0
100
AcDbBlockBegin
  2
*D3
 70
     1
 10
0.0
 20
0.0
 30
0.0
  3
*D3
  1

  0
LINE
  5
163
330
11E
100
AcDbEntity
  8
DIM
 62
     0
370
    -2
100
AcDbLine
 10
2.002496119999988
 20
1.2455
 30
0.0
 11
3.107210082621556
 21
1.245499999999998
 31
0.0
  0
LINE
  5
164
330
11E
100
AcDbEntity
  8
DIM
 62
     0
370
    -2
100
AcDbLine
 10
2.002496119999988
 20
-1.2455
 30
0.0
 11
3.107210082621555
 21
-1.2455
 31
0.0
  0
LINE
  5
165
330
11E
100
AcDbEntity
  8
DIM
 62
     0
370
    -2
100
AcDbLine
 10
3.044710082621556
 20
1.125499999999999
 30
0.0
 11
3.044710082621555
 21
-1.125499999999999
 31
0.0
  0
SOLID
  5
166
330
11E
100
AcDbEntity
  8
DIM
 62
     0
100
AcDbTrace
 10
3.024710082621556
 20
1.125499999999999
 30
0.0
 11
3.064710082621556
 21
1.125499999999999
 31
0.0
 12
3.044710082621556
 22
1.245499999999998
 32
0.0
 13
3.044710082621556
 23
1.245499999999998
 33
0.0
  0
SOLID
  5
167
330
11E
100
AcDbEntity
  8
DIM
 62
     0
100
AcDbTrace
 10
3.024710082621555
 20
-1.125499999999999
 30
0.0
 11
3.064710082621555
 21
-1.125499999999999
 31
0.0
 12
3.044710082621555
 22
-1.2455
 32
0.0
 13
3.044710082621555
 23
-1.2455
 33
0.0
  0
MTEXT
  5
168
330
11E
100
AcDbEntity
  8
DIM
 62
     0
100
AcDbMText
 10
2.932210082621555
 20
0.0104461533490295
 30
0.0
 40
0.125
 41
0.0
 71
     5
 72
     1
  1
\A1;%%c2.491
  7
ROMANS
 11
0.0000000000000001
 21
1.0
 31
0.0
 73
     1
 44
1.0
  0
POINT
  5
169
330
11E
100
AcDbEntity
  8
Defpoints
 62
     0
100
AcDbPoint
 10
1.939996119999987
 20
1.2455
 30
0.0
  0
POINT
  5
16A
330
11E
100
AcDbEntity
  8
Defpoints
 62
     0
100
AcDbPoint
 10
1.939996119999987
 20
-1.2455
 30
0.0
  0
POINT
  5
16B
330
11E
100
AcDbEntity
  8
Defpoints
 62
     0
100
AcDbPoint
 10
3.044710082621555
 20
-1.2455
 30
0.0
  0
ENDBLK
  5
129
330
11E
100
AcDbEntity
  8
0
100
AcDbBlockEnd
  0
ENDSEC
  0
SECTION
  2
ENTITIES
  0
LWPOLYLINE
  5
27
330
2
100
AcDbEntity
  8
LINE
100
AcDbPolyline
 90
        6
 70
     1
 43
0.0
 10
1.299806423706
 20
0.1181100000000015
 10
1.231615583412007
 20
0.0
 10
1.299806423706
 20
-0.1181100000000015
 10
1.436188104293989
 20
-0.1181100000000015
 10
1.504378944587983
 20
0.0
 10
1.436188104293989
 20
0.1181100000000015
  0
LINE
  5
28
330
2
100
AcDbEntity
  8
HIDDEN
100
AcDbLine
 10
-0.0050533567084869
 20
-0.2840545500000076
 30
0.0
 11
-3.527552000000012
 21
-0.2840545500000076
 31
0.0
  0
LINE
  5
2B
330
2
100
AcDbEntity
  8
HIDDEN
100
AcDbLine
 10
0.2399995199999978
 20
-0.7084985829999937
 30
0.0
 11
-0.0050533567084869
 21
-0.2840545500000076
 31
0.0
  0
LINE
  5
2C
330
2
100
AcDbEntity
  8
HIDDEN
100
AcDbLine
 10
-0.0050533567084869
 20
0.2840545500000076
 30
0.0
 11
-3.527552000000012
 21
0.2840545500000076
 31
0.0
  0
LINE
  5
2D
330
2
100
AcDbEntity
  8
HIDDEN
100
AcDbLine
 10
0.2399995199999978
 20
0.7084985829999937
 30
0.0
 11
-0.0050533567084869
 21
0.2840545500000076
 31
0.0
  0
LINE
  5
2E
330
2
100
AcDbEntity
  8
HIDDEN
100
AcDbLine
 10
-3.948705264238441
 20
0.2987615460611437
 30
0.0
 11
-3.948705264238441
 21
-0.2987615460611437
 31
0.0
  0
LINE
  5
2F
330
2
100
AcDbEntity
  8
HIDDEN
100
AcDbLine
 10
-3.527552000000012
 20
-0.2840545500000076
 30
0.0
 11
-3.527552000000012
 21
0.2840545500000076
 31
0.0
  0
LINE
  5
30
330
2
100
AcDbEntity
  8
HIDDEN
100
AcDbLine
 10
-3.527552000000012
 20
-0.308250101195938
 30
0.0
 11
-3.99999199999999
 21
-0.3247480695346212
 31
0.0
  0
LINE
  5
31
330
2
100
AcDbEntity
  8
HIDDEN
100
AcDbLine
 10
-3.527552000000012
 20
-0.2840545500000076
 30
0.0
 11
-3.948705264238441
 21
-0.2987615460611437
 31
0.0
  0
LINE
  5
32
330
2
100
AcDbEntity
  8
HIDDEN
100
AcDbLine
 10
-3.948705264238441
 20
-0.2987615460611437
 30
0.0
 11
-3.99999199999999
 21
-0.3283719567589856
 31
0.0
  0
LINE
  5
33
330
2
100
AcDbEntity
  8
HIDDEN
100
AcDbLine
 10
-3.533579974588348
 20
-0.3115688660508908
 30
0.0
 11
-3.430895149150983
 21
-0.2840545500000076
 31
0.0
  0
LINE
  5
34
330
2
100
AcDbEntity
  8
HIDDEN
100
AcDbLine
 10
-3.527552000000012
 20
0.2840545500000076
 30
0.0
 11
-3.948705264238441
 21
0.2987615460611437
 31
0.0
  0
LINE
  5
35
330
2
100
AcDbEntity
  8
HIDDEN
100
AcDbLine
 10
-3.527552000000012
 20
0.308250101195938
 30
0.0
 11
-3.99999199999999
 21
0.3247480695346212
 31
0.0
  0
LINE
  5
36
330
2
100
AcDbEntity
  8
HIDDEN
100
AcDbLine
 10
-3.948705264238441
 20
0.2987615460611437
 30
0.0
 11
-3.99999199999999
 21
0.3283719567589856
 31
0.0
  0
LINE
  5
37
330
2
100
AcDbEntity
  8
HIDDEN
100
AcDbLine
 10
-3.533579974588348
 20
0.3115688660508908
 30
0.0
 11
-3.430895149150983
 21
0.2840545500000076
 31
0.0
  0
LINE
  5
38
330
2
100
AcDbEntity
  8
LINE
100
AcDbLine
 10
-3.921252000000008
 20
0.7499985000000038
 30
0.0
 11
0.0
 21
0.7499985000000038
 31
0.0
  0
LINE
  5
39
330
2
100
AcDbEntity
  8
LINE
100
AcDbLine
 10
-3.921252000000008
 20
-0.7499985000000038
 30
0.0
 11
0.0
 21
-0.7499985000000038
 31
0.0
  0
LINE
  5
3A
330
2
100
AcDbEntity
  8
LINE
100
AcDbLine
 10
1.999996000000009
 20
1.185500120000034
 30
0.0
 11
1.939996119999987
 21
1.2455
 31
0.0
  0
LINE
  5
3B
330
2
100
AcDbEntity
  8
LINE
100
AcDbLine
 10
1.99999600000001
 20
0.0
 30
0.0
 11
1.99999600000001
 21
1.185500120000034
 31
0.0
  0
LINE
  5
3C
330
2
100
AcDbEntity
  8
LINE
100
AcDbLine
 10
-0.0000000000000002
 20
1.088020000000035
 30
0.0
 11
0.272763361175947
 21
1.2455
 31
0.0
  0
CIRCLE
  5
3D
330
2
100
AcDbEntity
  8
LINE
100
AcDbCircle
 10
1.367997263999993
 20
0.0
 30
0.0
 40
0.2159995680000035
  0
LWPOLYLINE
  5
3E
330
2
100
AcDbEntity
  8
LINE
100
AcDbPolyline
 90
       16
 70
     1
 43
0.0
 10
1.099651334031988
 20
0.0
 42
0.1075270714354371
 10
1.119653714992836
 20
-0.0919355086409155
 42
0.1017862429383482
 10
1.178248037215809
 20
-0.1720740636260416
 42
0.0945967217597763
 10
1.264124864332528
 20
-0.2244842144935433
 42
0.0900730289486178
 10
1.367997263999993
 20
-0.2433494745125699
 42
0.0900730289486174
 10
1.471869663667462
 20
-0.2244842144935433
 42
0.0945967217597764
 10
1.557746490784182
 20
-0.1720740636260416
 42
0.1017862429383479
 10
1.616340813007155
 20
-0.0919355086409155
 42
0.1075270714354359
 10
1.636343193968001
 20
0.0
 42
0.1075270714354361
 10
1.616340813007155
 20
0.0919355086409724
 42
0.1017862429383472
 10
1.557746490784182
 20
0.1720740636260416
 42
0.0945967217597756
 10
1.471869663667462
 20
0.2244842144936001
 42
0.0900730289486177
 10
1.367997263999993
 20
0.2433494745126268
 42
0.0900730289486173
 10
1.264124864332528
 20
0.2244842144936001
 42
0.0945967217597766
 10
1.178248037215809
 20
0.1720740636260416
 42
0.1017862429383487
 10
1.119653714992836
 20
0.0919355086409724
 42
0.1075270714354371
  0
LINE
  5
3F
330
2
100
AcDbEntity
  8
HIDDEN
100
AcDbLine
 10
0.2399995199999978
 20
0.7084985829999937
 30
0.0
 11
0.2399995199999978
 21
-0.7084985829999937
 31
0.0
  0
LINE
  5
40
330
2
100
AcDbEntity
  8
LINE
100
AcDbLine
 10
0.0
 20
1.088020000000035
 30
0.0
 11
0.0
 21
0.0
 31
0.0
  0
LINE
  5
41
330
2
100
AcDbEntity
  8
HIDDEN
100
AcDbLine
 10
1.342997313999999
 20
0.991998016000025
 30
0.0
 11
1.342997313999999
 21
0.7084985829999937
 31
0.0
  0
LINE
  5
42
330
2
100
AcDbEntity
  8
LINE
100
AcDbLine
 10
0.2727633611759472
 20
1.2455
 30
0.0
 11
0.2727633611759472
 21
0.0
 31
0.0
  0
LINE
  5
43
330
2
100
AcDbEntity
  8
HIDDEN
100
AcDbLine
 10
0.2399995199999978
 20
-0.7084985829999937
 30
0.0
 11
1.99999600000001
 21
-0.7084985829999937
 31
0.0
  0
LINE
  5
44
330
2
100
AcDbEntity
  8
HIDDEN
100
AcDbLine
 10
0.2399995199999978
 20
0.7084985829999937
 30
0.0
 11
1.99999600000001
 21
0.7084985829999937
 31
0.0
  0
LINE
  5
45
330
2
100
AcDbEntity
  8
LINE
100
AcDbLine
 10
0.272763361175947
 20
1.2455
 30
0.0
 11
1.939996119999987
 21
1.2455
 31
0.0
  0
LINE
  5
46
330
2
100
AcDbEntity
  8
HIDDEN
100
AcDbLine
 10
1.99999600000001
 20
0.991998016000025
 30
0.0
 11
1.342997313999999
 21
0.991998016000025
 31
0.0
  0
LINE
  5
47
330
2
100
AcDbEntity
  8
LINE
100
AcDbLine
 10
1.99999600000001
 20
-1.185500120000034
 30
0.0
 11
1.939996119999987
 21
-1.2455
 31
0.0
  0
LINE
  5
48
330
2
100
AcDbEntity
  8
LINE
100
AcDbLine
 10
0.0
 20
-1.088020000000035
 30
0.0
 11
0.2727633611759472
 21
-1.2455
 31
0.0
  0
LINE
  5
49
330
2
100
AcDbEntity
  8
LINE
100
AcDbLine
 10
0.2727633611759472
 20
-1.2455
 30
0.0
 11
1.939996119999987
 21
-1.2455
 31
0.0
  0
LINE
  5
4A
330
2
100
AcDbEntity
  8
HIDDEN
100
AcDbLine
 10
1.99999600000001
 20
-0.991998016000025
 30
0.0
 11
1.342997313999999
 21
-0.991998016000025
 31
0.0
  0
LINE
  5
4B
330
2
100
AcDbEntity
  8
LINE
100
AcDbLine
 10
1.99999600000001
 20
0.0
 30
0.0
 11
1.99999600000001
 21
-1.185500120000034
 31
0.0
  0
LINE
  5
4C
330
2
100
AcDbEntity
  8
HIDDEN
100
AcDbLine
 10
1.342997313999999
 20
-0.991998016000025
 30
0.0
 11
1.342997313999999
 21
-0.7084985829999937
 31
0.0
  0
LINE
  5
4D
330
2
100
AcDbEntity
  8
LINE
100
AcDbLine
 10
0.2727633611759472
 20
-1.2455
 30
0.0
 11
0.2727633611759472
 21
0.0
 31
0.0
  0
LINE
  5
4E
330
2
100
AcDbEntity
  8
LINE
100
AcDbLine
 10
0.0
 20
-1.088020000000035
 30
0.0
 11
0.0
 21
0.0
 31
0.0
  0
LINE
  5
E5
330
2
100
AcDbEntity
  8
LINE
100
AcDbLine
 10
-3.921252000000008
 20
0.7499985000000038
 30
0.0
 11
-3.99999199999999
 21
0.6712585000000219
 31
0.0
  0
LINE
  5
E6
330
2
100
AcDbEntity
  8
LINE
100
AcDbLine
 10
-3.99999199999999
 20
-0.6712585000000219
 30
0.0
 11
-3.921252000000008
 21
-0.7499985000000038
 31
0.0
  0
LINE
  5
E7
330
2
100
AcDbEntity
  8
LINE
100
AcDbLine
 10
-3.99999199999999
 20
-0.6712585000000219
 30
0.0
 11
-3.99999199999999
 21
0.6712585000000219
 31
0.0
  0
LINE
  5
E8
330
2
100
AcDbEntity
  8
LINE
100
AcDbLine
 10
-3.921252000000008
 20
0.7499985000000038
 30
0.0
 11
-3.921252000000008
 21
-0.7499985000000038
 31
0.0
  0
LINE
  5
E9
330
2
100
AcDbEntity
  8
CTRL
100
AcDbLine
 10
-4.108723839785426
 20
0.0
 30
0.0
 11
2.161728988727873
 21
0.0
 31
0.0
  0
DIMENSION
  5
F5
330
2
100
AcDbEntity
  8
DIM
100
AcDbDimension
  2
*D0
 10
-4.56323548058071
 20
-0.7499985000000037
 30
0.0
 11
-4.56323548058071
 21
0.0104461533490294
 31
0.0
 70
   160
  1
%%c<>
 71
     5
 42
1.499997000000005
  3
STANDARD
100
AcDbAlignedDimension
 13
-3.921252000000008
 23
0.7499985000000038
 33
0.0
 14
-3.921252000000008
 24
-0.7499985000000038
 34
0.0
 50
90.0
100
AcDbRotatedDimension
  0
DIMENSION
  5
103
330
2
100
AcDbEntity
  8
DIM
100
AcDbDimension
  2
*D1
 10
1.99999600000001
 20
2.914477117223674
 30
0.0
 11
-0.9787226661613264
 21
2.914477117223674
 31
0.0
 70
   160
 71
     5
 42
5.999988
  3
STANDARD
100
AcDbAlignedDimension
 13
-3.99999199999999
 23
0.6712585000000219
 33
0.0
 14
1.99999600000001
 24
1.185500120000034
 34
0.0
100
AcDbRotatedDimension
  0
DIMENSION
  5
110
330
2
100
AcDbEntity
  8
DIM
100
AcDbDimension
  2
*D2
 10
1.99999600000001
 20
2.026553979765969
 30
0.0
 11
1.059119904056792
 21
2.026553979765969
 31
0.0
 70
   160
 71
     5
 42
1.99999600000001
  3
STANDARD
100
AcDbAlignedDimension
 13
-0.0000000000000002
 23
1.088020000000035
 33
0.0
 14
1.99999600000001
 24
1.185500120000034
 34
0.0
100
AcDbRotatedDimension
  0
DIMENSION
  5
11D
330
2
100
AcDbEntity
  8
DIM
100
AcDbDimension
  2
*D3
 10
3.044710082621555
 20
-1.2455
 30
0.0
 11
3.044710082621556
 21
0.0104461533490294
 31
0.0
 70
   160
  1
%%c<>
 71
     5
 42
2.491
  3
STANDARD
100
AcDbAlignedDimension
 13
1.939996119999987
 23
1.2455
 33
0.0
 14
1.939996119999987
 24
-1.2455
 34
0.0
 50
90.0
100
AcDbRotatedDimension
  0
LINE
  5
312
330
2
100
AcDbEntity
  8
LINE
100
AcDbLine
 10
-1.814829011077902
 20
1.572552374898901
 30
0.0
 11
-1.763607373297353
 21
1.572552374898901
 31
0.0
  0
LINE
  5
313
330
2
100
AcDbEntity
  8
LINE
100
AcDbLine
 10
-1.814829011077916
 20
1.22863566408664
 30
0.0
 11
-1.763607373297353
 21
1.22863566408664
 31
0.0
  0
LINE
  5
314
330
2
100
AcDbEntity
  8
LINE
100
AcDbLine
 10
-1.814829011077902
 20
1.22863566408664
 30
0.0
 11
-1.814829011077902
 21
1.572552374898901
 31
0.0
  0
LINE
  5
315
330
2
100
AcDbEntity
  8
LINE
100
AcDbLine
 10
-1.889956659456319
 20
1.228635664086633
 30
0.0
 11
-1.969812353326025
 21
1.48128206745822
 31
0.0
  0
LINE
  5
316
330
2
100
AcDbEntity
  8
LINE
100
AcDbLine
 10
-1.92722853818858
 20
1.572552374898901
 30
0.0
 11
-1.835076333262867
 21
1.228635664086633
 31
0.0
  0
LINE
  5
317
330
2
100
AcDbEntity
  8
LINE
100
AcDbLine
 10
-2.1440930460028
 20
1.22863566408664
 30
0.0
 11
-2.189369007469154
 21
1.342074357637029
 31
0.0
  0
LINE
  5
318
330
2
100
AcDbEntity
  8
LINE
100
AcDbLine
 10
-2.219160320735221
 20
1.278186680166905
 30
0.0
 11
-2.189369007469154
 21
1.342074357637029
 31
0.0
  0
ARC
  5
319
330
2
100
AcDbEntity
  8
LINE
100
AcDbCircle
 10
-2.491465510730086
 20
1.326048243080009
 30
0.0
 40
0.0584981162543635
100
AcDbArc
 50
180.0
 51
242.0588959302372
  0
ARC
  5
31A
330
2
100
AcDbEntity
  8
LINE
100
AcDbCircle
 10
-2.50164552840556
 20
1.326048243080009
 30
0.0
 40
0.1031984247723265
100
AcDbArc
 50
180.0
 51
250.723207331739
  0
ARC
  5
31B
330
2
100
AcDbEntity
  8
LINE
100
AcDbCircle
 10
-2.514661145594757
 20
1.326048243080009
 30
0.0
 40
0.0584981162543635
100
AcDbArc
 50
297.9411040697627
 51
0.0
  0
ARC
  5
31C
330
2
100
AcDbEntity
  8
LINE
100
AcDbCircle
 10
-2.507200281387282
 20
1.326048243080009
 30
0.0
 40
0.1031984247723242
100
AcDbArc
 50
289.2767926682573
 51
0.0
  0
LINE
  5
31D
330
2
100
AcDbEntity
  8
LINE
100
AcDbLine
 10
-2.08189534298357
 20
1.228635664086633
 30
0.0
 11
-2.155855895942574
 21
1.413943457233573
 31
0.0
  0
LINE
  5
31E
330
2
100
AcDbEntity
  8
LINE
100
AcDbLine
 10
-2.28135802375445
 20
1.572552374898901
 30
0.0
 11
-2.28135802375445
 21
1.22863566408664
 31
0.0
  0
LINE
  5
31F
330
2
100
AcDbEntity
  8
LINE
100
AcDbLine
 10
-2.694451033873343
 20
1.22863566408664
 30
0.0
 11
-2.694451033873343
 21
1.572552374898901
 31
0.0
  0
LINE
  5
320
330
2
100
AcDbEntity
  8
LINE
100
AcDbLine
 10
-2.643229396092794
 20
1.572552374898901
 30
0.0
 11
-2.643229396092794
 21
1.22863566408664
 31
0.0
  0
ARC
  5
321
330
2
100
AcDbEntity
  8
LINE
100
AcDbCircle
 10
-2.843495765768045
 20
1.326048243080009
 30
0.0
 40
0.0584981162543635
100
AcDbArc
 50
297.9411040697627
 51
62.05889593023716
  0
LINE
  5
322
330
2
100
AcDbEntity
  8
LINE
100
AcDbLine
 10
-2.878798247157737
 20
1.274369269247841
 30
0.0
 11
-2.878798247157737
 21
1.37772721691217
 31
0.0
  0
ARC
  5
323
330
2
100
AcDbEntity
  8
LINE
100
AcDbCircle
 10
-2.836034901560585
 20
1.326048243080009
 30
0.0
 40
0.1031984247723242
100
AcDbArc
 50
289.2767926682573
 51
46.24915972781781
  0
LINE
  5
324
330
2
100
AcDbEntity
  8
LINE
100
AcDbLine
 10
-2.065511426414123
 20
1.228635664086633
 30
0.0
 11
-1.998660789848817
 21
1.572552374898901
 31
0.0
  0
LINE
  5
325
330
2
100
AcDbEntity
  8
LINE
100
AcDbLine
 10
-2.933678573351182
 20
1.22863566408664
 30
0.0
 11
-2.933678573351182
 21
1.572552374898901
 31
0.0
  0
LINE
  5
326
330
2
100
AcDbEntity
  8
LINE
100
AcDbLine
 10
-2.010032127006704
 20
1.274369269247841
 30
0.0
 11
-1.969812353326025
 21
1.48128206745822
 31
0.0
  0
LINE
  5
327
330
2
100
AcDbEntity
  8
LINE
100
AcDbLine
 10
-2.864163493506154
 20
1.22863566408664
 30
0.0
 11
-2.801965790486924
 21
1.22863566408664
 31
0.0
  0
LINE
  5
328
330
2
100
AcDbEntity
  8
LINE
100
AcDbLine
 10
-2.878798247157737
 20
1.274369269247841
 30
0.0
 11
-2.816085671478467
 21
1.274369269247841
 31
0.0
  0
LINE
  5
329
330
2
100
AcDbEntity
  8
LINE
100
AcDbLine
 10
-2.933678573351182
 20
1.22863566408664
 30
0.0
 11
-2.801965790486924
 21
1.22863566408664
 31
0.0
  0
LINE
  5
32A
330
2
100
AcDbEntity
  8
LINE
100
AcDbLine
 10
-2.28135802375445
 20
1.22863566408664
 30
0.0
 11
-2.219160320735221
 21
1.22863566408664
 31
0.0
  0
LINE
  5
32B
330
2
100
AcDbEntity
  8
LINE
100
AcDbLine
 10
-2.694451033873343
 20
1.22863566408664
 30
0.0
 11
-2.643229396092794
 21
1.22863566408664
 31
0.0
  0
LINE
  5
32C
330
2
100
AcDbEntity
  8
LINE
100
AcDbLine
 10
-2.535328873332852
 20
1.22863566408664
 30
0.0
 11
-2.473131170313608
 21
1.22863566408664
 31
0.0
  0
LINE
  5
32D
330
2
100
AcDbEntity
  8
LINE
100
AcDbLine
 10
-2.535714639479248
 20
1.22863566408664
 30
0.0
 11
-2.473131170313608
 21
1.22863566408664
 31
0.0
  0
LINE
  5
32E
330
2
100
AcDbEntity
  8
LINE
100
AcDbLine
 10
-2.518875605019671
 20
1.274369269247841
 30
0.0
 11
-2.487251051305179
 21
1.274369269247841
 31
0.0
  0
LINE
  5
32F
330
2
100
AcDbEntity
  8
LINE
100
AcDbLine
 10
-1.835076333262867
 20
1.228635664086633
 30
0.0
 11
-1.889956659456319
 21
1.228635664086633
 31
0.0
  0
LINE
  5
330
330
2
100
AcDbEntity
  8
LINE
100
AcDbLine
 10
-1.933798643549879
 20
1.228635664086633
 30
0.0
 11
-1.946052926119786
 21
1.274369269247841
 31
0.0
  0
LINE
  5
331
330
2
100
AcDbEntity
  8
LINE
100
AcDbLine
 10
-2.219160320735221
 20
1.22863566408664
 30
0.0
 11
-2.219160320735221
 21
1.278186680166905
 31
0.0
  0
LINE
  5
332
330
2
100
AcDbEntity
  8
LINE
100
AcDbLine
 10
-2.1440930460028
 20
1.22863566408664
 30
0.0
 11
-2.08189534298357
 21
1.22863566408664
 31
0.0
  0
LINE
  5
333
330
2
100
AcDbEntity
  8
LINE
100
AcDbLine
 10
-2.010032127006704
 20
1.274369269247841
 30
0.0
 11
-1.946052926119786
 21
1.274369269247841
 31
0.0
  0
LINE
  5
334
330
2
100
AcDbEntity
  8
LINE
100
AcDbLine
 10
-2.065511426414123
 20
1.228635664086633
 30
0.0
 11
-1.933798643549879
 21
1.228635664086633
 31
0.0
  0
ARC
  5
335
330
2
100
AcDbEntity
  8
LINE
100
AcDbCircle
 10
-2.836034901560585
 20
1.475139795905539
 30
0.0
 40
0.1031984247723265
100
AcDbArc
 50
313.7508402721822
 51
70.72320733173913
  0
ARC
  5
336
330
2
100
AcDbEntity
  8
LINE
100
AcDbCircle
 10
-2.843495765768045
 20
1.475139795905539
 30
0.0
 40
0.0584981162543635
100
AcDbArc
 50
297.9411040697627
 51
62.05889593023716
  0
LINE
  5
337
330
2
100
AcDbEntity
  8
LINE
100
AcDbLine
 10
-2.878798247157737
 20
1.423460822073371
 30
0.0
 11
-2.878798247157737
 21
1.526818769737698
 31
0.0
  0
LINE
  5
338
330
2
100
AcDbEntity
  8
LINE
100
AcDbLine
 10
-2.816085671478467
 20
1.37772721691217
 30
0.0
 11
-2.878798247157737
 21
1.37772721691217
 31
0.0
  0
LINE
  5
339
330
2
100
AcDbEntity
  8
LINE
100
AcDbLine
 10
-2.816085671478467
 20
1.423460822073371
 30
0.0
 11
-2.878798247157737
 21
1.423460822073371
 31
0.0
  0
LINE
  5
33A
330
2
100
AcDbEntity
  8
LINE
100
AcDbLine
 10
-2.878798247157737
 20
1.526818769737698
 30
0.0
 11
-2.816085671478467
 21
1.526818769737698
 31
0.0
  0
LINE
  5
33B
330
2
100
AcDbEntity
  8
LINE
100
AcDbLine
 10
-2.864163493506154
 20
1.572552374898901
 30
0.0
 11
-2.801965790486924
 21
1.572552374898901
 31
0.0
  0
LINE
  5
33C
330
2
100
AcDbEntity
  8
LINE
100
AcDbLine
 10
-2.933678573351182
 20
1.572552374898901
 30
0.0
 11
-2.801965790486924
 21
1.572552374898901
 31
0.0
  0
LINE
  5
33D
330
2
100
AcDbEntity
  8
LINE
100
AcDbLine
 10
-2.28135802375445
 20
1.572552374898901
 30
0.0
 11
-2.219160320735221
 21
1.572552374898901
 31
0.0
  0
ARC
  5
33E
330
2
100
AcDbEntity
  8
LINE
100
AcDbCircle
 10
-2.50164552840556
 20
1.475139795905539
 30
0.0
 40
0.1031984247723265
100
AcDbArc
 50
109.2767926682608
 51
180.0
  0
ARC
  5
33F
330
2
100
AcDbEntity
  8
LINE
100
AcDbCircle
 10
-2.491465510730086
 20
1.475139795905539
 30
0.0
 40
0.0584981162543635
100
AcDbArc
 50
117.9411040697628
 51
180.0
  0
LINE
  5
340
330
2
100
AcDbEntity
  8
LINE
100
AcDbLine
 10
-2.503063328162418
 20
1.37772721691217
 30
0.0
 11
-2.503063328162418
 21
1.423460822073371
 31
0.0
  0
LINE
  5
341
330
2
100
AcDbEntity
  8
LINE
100
AcDbLine
 10
-2.549963626984443
 20
1.37772721691217
 30
0.0
 11
-2.549963626984443
 21
1.475139795905539
 31
0.0
  0
LINE
  5
342
330
2
100
AcDbEntity
  8
LINE
100
AcDbLine
 10
-2.456163029340394
 20
1.37772721691217
 30
0.0
 11
-2.503063328162418
 21
1.37772721691217
 31
0.0
  0
LINE
  5
343
330
2
100
AcDbEntity
  8
LINE
100
AcDbLine
 10
-2.518875605019671
 20
1.526818769737698
 30
0.0
 11
-2.487251051305179
 21
1.526818769737698
 31
0.0
  0
LINE
  5
344
330
2
100
AcDbEntity
  8
LINE
100
AcDbLine
 10
-2.694451033873343
 20
1.572552374898901
 30
0.0
 11
-2.643229396092794
 21
1.572552374898901
 31
0.0
  0
LINE
  5
345
330
2
100
AcDbEntity
  8
LINE
100
AcDbLine
 10
-2.535714639479248
 20
1.572552374898901
 30
0.0
 11
-2.473131170313608
 21
1.572552374898901
 31
0.0
  0
LINE
  5
346
330
2
100
AcDbEntity
  8
LINE
100
AcDbLine
 10
-2.535328873332852
 20
1.572552374898901
 30
0.0
 11
-2.473131170313608
 21
1.572552374898901
 31
0.0
  0
ARC
  5
347
330
2
100
AcDbEntity
  8
LINE
100
AcDbCircle
 10
-2.514661145594757
 20
1.475139795905539
 30
0.0
 40
0.0584981162543635
100
AcDbArc
 50
0.0
 51
62.05889593023716
  0
ARC
  5
348
330
2
100
AcDbEntity
  8
LINE
100
AcDbCircle
 10
-2.507200281387296
 20
1.475139795905539
 30
0.0
 40
0.1031984247723265
100
AcDbArc
 50
0.0
 51
70.72320733173913
  0
LINE
  5
349
330
2
100
AcDbEntity
  8
LINE
100
AcDbLine
 10
-2.456163029340394
 20
1.475139795905539
 30
0.0
 11
-2.404001856614975
 21
1.475139795905539
 31
0.0
  0
LINE
  5
34A
330
2
100
AcDbEntity
  8
LINE
100
AcDbLine
 10
-2.404001856614975
 20
1.423460822073371
 30
0.0
 11
-2.503063328162418
 21
1.423460822073371
 31
0.0
  0
LINE
  5
34B
330
2
100
AcDbEntity
  8
LINE
100
AcDbLine
 10
-2.60484395317788
 20
1.326048243080009
 30
0.0
 11
-2.60484395317788
 21
1.475139795905539
 31
0.0
  0
LINE
  5
34C
330
2
100
AcDbEntity
  8
LINE
100
AcDbLine
 10
-2.456163029340394
 20
1.326048243080009
 30
0.0
 11
-2.456163029340394
 21
1.37772721691217
 31
0.0
  0
LINE
  5
34D
330
2
100
AcDbEntity
  8
LINE
100
AcDbLine
 10
-2.549963626984443
 20
1.326048243080009
 30
0.0
 11
-2.549963626984443
 21
1.37772721691217
 31
0.0
  0
LINE
  5
34E
330
2
100
AcDbEntity
  8
LINE
100
AcDbLine
 10
-2.404001856614975
 20
1.326048243080009
 30
0.0
 11
-2.404001856614975
 21
1.423460822073371
 31
0.0
  0
LINE
  5
34F
330
2
100
AcDbEntity
  8
LINE
100
AcDbLine
 10
-2.155855895942574
 20
1.413943457233573
 30
0.0
 11
-2.08189534298357
 21
1.572552374898901
 31
0.0
  0
LINE
  5
350
330
2
100
AcDbEntity
  8
LINE
100
AcDbLine
 10
-2.219160320735221
 20
1.411570084731454
 30
0.0
 11
-2.1440930460028
 21
1.572552374898901
 31
0.0
  0
LINE
  5
351
330
2
100
AcDbEntity
  8
LINE
100
AcDbLine
 10
-2.219160320735221
 20
1.572552374898901
 30
0.0
 11
-2.219160320735221
 21
1.411570084731454
 31
0.0
  0
LINE
  5
352
330
2
100
AcDbEntity
  8
LINE
100
AcDbLine
 10
-2.1440930460028
 20
1.572552374898901
 30
0.0
 11
-2.08189534298357
 21
1.572552374898901
 31
0.0
  0
LINE
  5
353
330
2
100
AcDbEntity
  8
LINE
100
AcDbLine
 10
-1.998660789848817
 20
1.572552374898901
 30
0.0
 11
-1.92722853818858
 21
1.572552374898901
 31
0.0
  0
LINE
  5
354
330
2
100
AcDbEntity
  8
LINE
100
AcDbLine
 10
-1.211145422950028
 20
1.250254168230669
 30
0.0
 11
-1.211145422950028
 21
1.354860414331565
 31
0.0
  0
LINE
  5
355
330
2
100
AcDbEntity
  8
LINE
100
AcDbLine
 10
-1.266025749143452
 20
1.344799021196107
 30
0.0
 11
-1.266025749143452
 21
1.246791470218069
 31
0.0
  0
LINE
  5
356
330
2
100
AcDbEntity
  8
LINE
100
AcDbLine
 10
-1.324564763749807
 20
1.22863566408664
 30
0.0
 11
-1.324564763749807
 21
1.37772721691217
 31
0.0
  0
LINE
  5
357
330
2
100
AcDbEntity
  8
LINE
100
AcDbLine
 10
-1.379445089943252
 20
1.22863566408664
 30
0.0
 11
-1.379445089943252
 21
1.572552374898901
 31
0.0
  0
LINE
  5
358
330
2
100
AcDbEntity
  8
LINE
100
AcDbLine
 10
-1.489205742330149
 20
1.274369269247841
 30
0.0
 11
-1.489205742330149
 21
1.37772721691217
 31
0.0
  0
LINE
  5
359
330
2
100
AcDbEntity
  8
LINE
100
AcDbLine
 10
-1.54408606852358
 20
1.22863566408664
 30
0.0
 11
-1.54408606852358
 21
1.572552374898901
 31
0.0
  0
LINE
  5
35A
330
2
100
AcDbEntity
  8
LINE
100
AcDbLine
 10
-1.763607373297353
 20
1.572552374898901
 30
0.0
 11
-1.763607373297353
 21
1.22863566408664
 31
0.0
  0
LINE
  5
35B
330
2
100
AcDbEntity
  8
LINE
100
AcDbLine
 10
-1.578703109404325
 20
1.309832368509844
 30
0.0
 11
-1.667750066842663
 21
1.500794184986657
 31
0.0
  0
LINE
  5
35C
330
2
100
AcDbEntity
  8
LINE
100
AcDbLine
 10
-1.630818681906422
 20
1.300393853998869
 30
0.0
 11
-1.719865639344732
 21
1.491355670475688
 31
0.0
  0
LINE
  5
35D
330
2
100
AcDbEntity
  8
LINE
100
AcDbLine
 10
-1.412373285659315
 20
1.22863566408664
 30
0.0
 11
-1.412373285659315
 21
1.274369269247841
 31
0.0
  0
LINE
  5
35E
330
2
100
AcDbEntity
  8
LINE
100
AcDbLine
 10
-1.489205742330149
 20
1.274369269247841
 30
0.0
 11
-1.412373285659315
 21
1.274369269247841
 31
0.0
  0
LINE
  5
35F
330
2
100
AcDbEntity
  8
LINE
100
AcDbLine
 10
-1.379445089943252
 20
1.22863566408664
 30
0.0
 11
-1.324564763749807
 21
1.22863566408664
 31
0.0
  0
ARC
  5
360
330
2
100
AcDbEntity
  8
LINE
100
AcDbCircle
 10
-1.647398170901146
 20
1.292662711312329
 30
0.0
 40
0.0182934420644818
100
AcDbArc
 50
270.0
 51
24.9999999999988
  0
ARC
  5
361
330
2
100
AcDbEntity
  8
LINE
100
AcDbCircle
 10
-1.630431115067921
 20
1.285711203327835
 30
0.0
 40
0.057075539241183
100
AcDbArc
 50
270.0
 51
24.9999999999988
  0
LINE
  5
362
330
2
100
AcDbEntity
  8
LINE
100
AcDbLine
 10
-1.727020489168408
 20
1.22863566408664
 30
0.0
 11
-1.630431115067921
 21
1.22863566408664
 31
0.0
  0
LINE
  5
363
330
2
100
AcDbEntity
  8
LINE
100
AcDbLine
 10
-1.727020489168408
 20
1.274369269247841
 30
0.0
 11
-1.647398170901146
 21
1.274369269247841
 31
0.0
  0
LINE
  5
364
330
2
100
AcDbEntity
  8
LINE
100
AcDbLine
 10
-1.727020489168408
 20
1.274369269247841
 30
0.0
 11
-1.727020489168408
 21
1.22863566408664
 31
0.0
  0
LINE
  5
365
330
2
100
AcDbEntity
  8
LINE
100
AcDbLine
 10
-1.54408606852358
 20
1.22863566408664
 30
0.0
 11
-1.412373285659315
 21
1.22863566408664
 31
0.0
  0
LINE
  5
366
330
2
100
AcDbEntity
  8
LINE
100
AcDbLine
 10
-1.263737572261866
 20
1.22863566408664
 30
0.0
 11
-1.205454044751826
 21
1.22863566408664
 31
0.0
  0
ARC
  5
367
330
2
100
AcDbEntity
  8
LINE
100
AcDbCircle
 10
-1.192851980885528
 20
1.246791470218069
 30
0.0
 40
0.073173768257927
100
AcDbArc
 50
180.0
 51
194.3662353416889
  0
ARC
  5
368
330
2
100
AcDbEntity
  8
LINE
100
AcDbCircle
 10
-1.167241161995271
 20
1.250254168230669
 30
0.0
 40
0.0439042609547562
100
AcDbArc
 50
180.0
 51
209.4985180895031
  0
LINE
  5
369
330
2
100
AcDbEntity
  8
LINE
100
AcDbLine
 10
-1.287977879620827
 20
1.423460822073371
 30
0.0
 11
-1.324564763749807
 21
1.423460822073371
 31
0.0
  0
LINE
  5
36A
330
2
100
AcDbEntity
  8
LINE
100
AcDbLine
 10
-1.324564763749807
 20
1.526818769737698
 30
0.0
 11
-1.287977879620827
 21
1.526818769737698
 31
0.0
  0
LINE
  5
36B
330
2
100
AcDbEntity
  8
LINE
100
AcDbLine
 10
-1.379445089943252
 20
1.572552374898901
 30
0.0
 11
-1.268220962191181
 21
1.572552374898901
 31
0.0
  0
ARC
  5
36C
330
2
100
AcDbEntity
  8
LINE
100
AcDbCircle
 10
-1.298953944859522
 20
1.344799021196107
 30
0.0
 40
0.0329281957160671
100
AcDbArc
 50
0.0
 51
90.0
  0
LINE
  5
36D
330
2
100
AcDbEntity
  8
LINE
100
AcDbLine
 10
-1.324564763749807
 20
1.423460822073371
 30
0.0
 11
-1.324564763749807
 21
1.526818769737698
 31
0.0
  0
LINE
  5
36E
330
2
100
AcDbEntity
  8
LINE
100
AcDbLine
 10
-1.489205742330149
 20
1.423460822073371
 30
0.0
 11
-1.489205742330149
 21
1.526818769737698
 31
0.0
  0
LINE
  5
36F
330
2
100
AcDbEntity
  8
LINE
100
AcDbLine
 10
-1.412373285659315
 20
1.37772721691217
 30
0.0
 11
-1.412373285659315
 21
1.423460822073371
 31
0.0
  0
LINE
  5
370
330
2
100
AcDbEntity
  8
LINE
100
AcDbLine
 10
-1.412373285659315
 20
1.37772721691217
 30
0.0
 11
-1.489205742330149
 21
1.37772721691217
 31
0.0
  0
LINE
  5
371
330
2
100
AcDbEntity
  8
LINE
100
AcDbLine
 10
-1.298953944859522
 20
1.37772721691217
 30
0.0
 11
-1.324564763749807
 21
1.37772721691217
 31
0.0
  0
LINE
  5
372
330
2
100
AcDbEntity
  8
LINE
100
AcDbLine
 10
-1.412373285659315
 20
1.423460822073371
 30
0.0
 11
-1.489205742330149
 21
1.423460822073371
 31
0.0
  0
LINE
  5
373
330
2
100
AcDbEntity
  8
LINE
100
AcDbLine
 10
-1.412373285659315
 20
1.526818769737698
 30
0.0
 11
-1.412373285659315
 21
1.572552374898901
 31
0.0
  0
LINE
  5
374
330
2
100
AcDbEntity
  8
LINE
100
AcDbLine
 10
-1.489205742330149
 20
1.526818769737698
 30
0.0
 11
-1.412373285659315
 21
1.526818769737698
 31
0.0
  0
LINE
  5
375
330
2
100
AcDbEntity
  8
LINE
100
AcDbLine
 10
-1.587990329478337
 20
1.572552374898901
 30
0.0
 11
-1.587990329478337
 21
1.526818769737698
 31
0.0
  0
ARC
  5
376
330
2
100
AcDbEntity
  8
LINE
100
AcDbCircle
 10
-1.668137633681122
 20
1.51547683565772
 30
0.0
 40
0.057075539241183
100
AcDbArc
 50
90.0
 51
204.9999999999986
  0
ARC
  5
377
330
2
100
AcDbEntity
  8
LINE
100
AcDbCircle
 10
-1.651170577847917
 20
1.508525327673212
 30
0.0
 40
0.0182934420644818
100
AcDbArc
 50
90.0
 51
204.9999999999986
  0
LINE
  5
378
330
2
100
AcDbEntity
  8
LINE
100
AcDbLine
 10
-1.587990329478337
 20
1.526818769737698
 30
0.0
 11
-1.651170577847917
 21
1.526818769737684
 31
0.0
  0
LINE
  5
379
330
2
100
AcDbEntity
  8
LINE
100
AcDbLine
 10
-1.587990329478337
 20
1.572552374898901
 30
0.0
 11
-1.668137633681122
 21
1.572552374898901
 31
0.0
  0
LINE
  5
37A
330
2
100
AcDbEntity
  8
LINE
100
AcDbLine
 10
-1.54408606852358
 20
1.572552374898901
 30
0.0
 11
-1.412373285659315
 21
1.572552374898901
 31
0.0
  0
LINE
  5
37B
330
2
100
AcDbEntity
  8
LINE
100
AcDbLine
 10
-1.266025749143452
 20
1.445412952550753
 30
0.0
 11
-1.266025749143452
 21
1.50486663926031
 31
0.0
  0
LINE
  5
37C
330
2
100
AcDbEntity
  8
LINE
100
AcDbLine
 10
-1.211145422950028
 20
1.51547683565772
 30
0.0
 11
-1.211145422950028
 21
1.446327624653975
 31
0.0
  0
ARC
  5
37D
330
2
100
AcDbEntity
  8
LINE
100
AcDbCircle
 10
-1.287977879620827
 20
1.445412952550753
 30
0.0
 40
0.0219521304773781
100
AcDbArc
 50
270.0
 51
0.0
  0
ARC
  5
37E
330
2
100
AcDbEntity
  8
LINE
100
AcDbCircle
 10
-1.256879028111208
 20
1.446327624653975
 30
0.0
 40
0.0457336051612044
100
AcDbArc
 50
270.0
 51
0.0
  0
ARC
  5
37F
330
2
100
AcDbEntity
  8
LINE
100
AcDbCircle
 10
-1.268220962191181
 20
1.51547683565772
 30
0.0
 40
0.057075539241183
100
AcDbArc
 50
0.0
 51
90.0
  0
ARC
  5
380
330
2
100
AcDbEntity
  8
LINE
100
AcDbCircle
 10
-1.287977879620827
 20
1.50486663926031
 30
0.0
 40
0.0219521304773781
100
AcDbArc
 50
0.0
 51
90.0
  0
ARC
  5
381
330
2
100
AcDbEntity
  8
LINE
100
AcDbCircle
 10
-1.256879028111208
 20
1.354860414331565
 30
0.0
 40
0.0457336051612044
100
AcDbArc
 50
0.0
 51
90.0
  0
ENDSEC
  0
SECTION
  2
OBJECTS
  0
DICTIONARY
  5
7
330
0
100
AcDbDictionary
281
     1
  3
ACAD_GROUP
350
1F
  3
ACAD_LAYOUT
350
B
  3
ACAD_MLINESTYLE
350
20
  3
ACAD_PLOTSETTINGS
350
21
  3
ACAD_PLOTSTYLENAME
350
6
  3
AcDbVariableDictionary
350
ED
  0
DICTIONARY
  5
1F
102
{ACAD_REACTORS
330
7
102
}
330
7
100
AcDbDictionary
281
     1
  0
DICTIONARY
  5
B
102
{ACAD_REACTORS
330
7
102
}
330
7
100
AcDbDictionary
281
     1
  3
Layout1
350
F
  3
Model
350
A
  0
DICTIONARY
  5
20
102
{ACAD_REACTORS
330
7
102
}
330
7
100
AcDbDictionary
281
     1
  3
STANDARD
350
25
  0
DICTIONARY
  5
21
102
{ACAD_REACTORS
330
7
102
}
330
7
100
AcDbDictionary
281
     1
  0
ACDBDICTIONARYWDFLT
  5
6
102
{ACAD_REACTORS
330
7
102
}
330
7
100
AcDbDictionary
281
     1
  3
Normal
350
5
100
AcDbDictionaryWithDefault
340
5
  0
DICTIONARY
  5
ED
102
{ACAD_REACTORS
330
7
102
}
330
7
100
AcDbDictionary
281
     1
  3
DIMASSOC
350
EF
  3
HIDETEXT
350
EE
  0
LAYOUT
  5
F
102
{ACAD_REACTORS
330
B
102
}
330
B
100
AcDbPlotSettings
  1

  2
\\HAL\Compaq IJ900
  4

  6

 40
0.0
 41
0.0
 42
0.0
 43
0.0
 44
0.0
 45
0.0
 46
0.0
 47
0.0
 48
0.0
 49
0.0
140
0.0
141
0.0
142
1.0
143
1.0
 70
   688
 72
     0
 73
     0
 74
     5
  7
KPT.ctb
 75
    16
147
1.0
148
0.0
149
0.0
100
AcDbLayout
  1
Layout1
 70
     1
 71
     1
 10
0.0
 20
0.0
 11
12.0
 21
9.0
 12
0.0
 22
0.0
 32
0.0
 14
1.000000000000000E+20
 24
1.000000000000000E+20
 34
1.000000000000000E+20
 15
-1.000000000000000E+20
 25
-1.000000000000000E+20
 35
-1.000000000000000E+20
146
0.0
 13
0.0
 23
0.0
 33
0.0
 16
1.0
 26
0.0
 36
0.0
 17
0.0
 27
1.0
 37
0.0
 76
     0
330
C
  0
LAYOUT
  5
A
102
{ACAD_REACTORS
330
B
102
}
330
B
100
AcDbPlotSettings
  1

  2
\\PRINT_SRV\HP LaserJet (Engineering)
  4
Letter
  6

 40
6.349999904632567
 41
4.233341693878172
 42
6.349990844726562
 43
4.23333740234375
 44
215.8999938964841
 45
279.3999938964843
 46
0.0
 47
0.0
 48
0.0
 49
0.0
140
0.0
141
0.0
142
1.0
143
73.68551521849855
 70
 11952
 72
     0
 73
     1
 74
     0
  7
KPT.ctb
 75
     0
147
0.0135711882726845
148
3658.355290520464
149
2374.418055633259
100
AcDbLayout
  1
Model
 70
     1
 71
     0
 10
0.0
 20
0.0
 11
12.0
 21
9.0
 12
0.0
 22
0.0
 32
0.0
 14
0.0
 24
0.0
 34
0.0
 15
0.0
 25
0.0
 35
0.0
146
0.0
 13
0.0
 23
0.0
 33
0.0
 16
1.0
 26
0.0
 36
0.0
 17
0.0
 27
1.0
 37
0.0
 76
     0
330
2
  0
MLINESTYLE
  5
25
102
{ACAD_REACTORS
330
20
102
}
330
20
100
AcDbMlineStyle
  2
STANDARD
 70
     0
  3

 62
     0
 51
90.0
 52
90.0
 71
     2
 49
0.5
 62
   256
  6
BYLAYER
 49
-0.5
 62
   256
  6
BYLAYER
  0
ACDBPLACEHOLDER
  5
5
102
{ACAD_REACTORS
330
6
102
}
330
6
  0
DICTIONARYVAR
  5
EF
102
{ACAD_REACTORS
330
ED
102
}
330
ED
100
DictionaryVariables
280
     0
  1
1
  0
DICTIONARYVAR
  5
EE
102
{ACAD_REACTORS
330
ED
102
}
330
ED
100
DictionaryVariables
280
     0
  1
1
  0
ENDSEC
  0
EOF
