  0
SECTION
  2
HEADER
  9
$ACADVER
  1
AC1015
  9
$ACADMAINTVER
 70
    13
  9
$DWGCODEPAGE
  3
ANSI_1252
  9
$INSBASE
 10
0.0
 20
0.0
 30
0.0
  9
$EXTMIN
 10
-4.749827252566454
 20
-1.2455
 30
0.0
  9
$EXTMAX
 10
3.052457176794543
 20
3.012114714396951
 30
0.0
  9
$LIMMIN
 10
0.0
 20
0.0
  9
$LIMMAX
 10
5.5
 20
4.25
  9
$ORTHOMODE
 70
     1
  9
$REGENMODE
 70
     1
  9
$FILLMODE
 70
     1
  9
$QTEXTMODE
 70
     0
  9
$MIRRTEXT
 70
     1
  9
$LTSCALE
 40
1.0
  9
$ATTMODE
 70
     1
  9
$TEXTSIZE
 40
3.2
  9
$TRACEWID
 40
0.05
  9
$TEXTSTYLE
  7
romans
  9
$CLAYER
  8
DIM
  9
$CELTYPE
  6
BYLAYER
  9
$CECOLOR
 62
   256
  9
$CELTSCALE
 40
1.0
  9
$DISPSILH
 70
     0
  9
$DIMSCALE
 40
1.0
  9
$DIMASZ
 40
0.18
  9
$DIMEXO
 40
0.0625
  9
$DIMDLI
 40
0.38
  9
$DIMRND
 40
0.0
  9
$DIMDLE
 40
0.0
  9
$DIMEXE
 40
0.18
  9
$DIMTP
 40
0.0
  9
$DIMTM
 40
0.0
  9
$DIMTXT
 40
0.18
  9
$DIMCEN
 40
0.09
  9
$DIMTSZ
 40
0.0
  9
$DIMTOL
 70
     0
  9
$DIMLIM
 70
     0
  9
$DIMTIH
 70
     0
  9
$DIMTOH
 70
     0
  9
$DIMSE1
 70
     0
  9
$DIMSE2
 70
     0
  9
$DIMTAD
 70
     1
  9
$DIMZIN
 70
     0
  9
$DIMBLK
  1

  9
$DIMASO
 70
     1
  9
$DIMSHO
 70
     0
  9
$DIMPOST
  1

  9
$DIMAPOST
  1

  9
$DIMALT
 70
     0
  9
$DIMALTD
 70
     2
  9
$DIMALTF
 40
25.4
  9
$DIMLFAC
 40
1.0
  9
$DIMTOFL
 70
     0
  9
$DIMTVP
 40
0.0
  9
$DIMTIX
 70
     0
  9
$DIMSOXD
 70
     0
  9
$DIMSAH
 70
     0
  9
$DIMBLK1
  1

  9
$DIMBLK2
  1

  9
$DIMSTYLE
  2
STANDARD
  9
$DIMCLRD
 70
     0
  9
$DIMCLRE
 70
     0
  9
$DIMCLRT
 70
     0
  9
$DIMTFAC
 40
1.0
  9
$DIMGAP
 40
0.09
  9
$DIMJUST
 70
     0
  9
$DIMSD1
 70
     0
  9
$DIMSD2
 70
     0
  9
$DIMTOLJ
 70
     1
  9
$DIMTZIN
 70
     0
  9
$DIMALTZ
 70
     0
  9
$DIMALTTZ
 70
     0
  9
$DIMUPT
 70
     0
  9
$DIMDEC
 70
     3
  9
$DIMTDEC
 70
     3
  9
$DIMALTU
 70
     2
  9
$DIMALTTD
 70
     2
  9
$DIMTXSTY
  7
romans
  9
$DIMAUNIT
 70
     0
  9
$DIMADEC
 70
     0
  9
$DIMALTRND
 40
0.0
  9
$DIMAZIN
 70
     0
  9
$DIMDSEP
 70
    46
  9
$DIMATFIT
 70
     3
  9
$DIMFRAC
 70
     0
  9
$DIMLDRBLK
  1

  9
$DIMLUNIT
 70
     2
  9
$DIMLWD
 70
    -2
  9
$DIMLWE
 70
    -2
  9
$DIMTMOVE
 70
     0
  9
$LUNITS
 70
     2
  9
$LUPREC
 70
     4
  9
$SKETCHINC
 40
0.1
  9
$FILLETRAD
 40
0.0
  9
$AUNITS
 70
     0
  9
$AUPREC
 70
     0
  9
$MENU
  1
acad
  9
$ELEVATION
 40
0.0
  9
$PELEVATION
 40
0.0
  9
$THICKNESS
 40
0.0
  9
$LIMCHECK
 70
     0
  9
$CHAMFERA
 40
2.0
  9
$CHAMFERB
 40
2.0
  9
$CHAMFERC
 40
0.0
  9
$CHAMFERD
 40
0.0
  9
$SKPOLY
 70
     0
  9
$TDCREATE
 40
2450004.748690625
  9
$TDUCREATE
 40
2450004.957023958
  9
$TDUPDATE
 40
2452852.609565984
  9
$TDUUPDATE
 40
2452852.817899317
  9
$TDINDWG
 40
0.0127647222
  9
$TDUSRTIMER
 40
0.0127645949
  9
$USRTIMER
 70
     1
  9
$ANGBASE
 50
0.0
  9
$ANGDIR
 70
     0
  9
$PDMODE
 70
     0
  9
$PDSIZE
 40
0.0
  9
$PLINEWID
 40
0.0
  9
$SPLFRAME
 70
     0
  9
$SPLINETYPE
 70
     6
  9
$SPLINESEGS
 70
     8
  9
$HANDSEED
  5
3BA
  9
$SURFTAB1
 70
     6
  9
$SURFTAB2
 70
     6
  9
$SURFTYPE
 70
     6
  9
$SURFU
 70
     6
  9
$SURFV
 70
     6
  9
$UCSBASE
  2

  9
$UCSNAME
  2

  9
$UCSORG
 10
0.0
 20
0.0
 30
0.0
  9
$UCSXDIR
 10
1.0
 20
0.0
 30
0.0
  9
$UCSYDIR
 10
0.0
 20
1.0
 30
0.0
  9
$UCSORTHOREF
  2

  9
$UCSORTHOVIEW
 70
     0
  9
$UCSORGTOP
 10
0.0
 20
0.0
 30
0.0
  9
$UCSORGBOTTOM
 10
0.0
 20
0.0
 30
0.0
  9
$UCSORGLEFT
 10
0.0
 20
0.0
 30
0.0
  9
$UCSORGRIGHT
 10
0.0
 20
0.0
 30
0.0
  9
$UCSORGFRONT
 10
0.0
 20
0.0
 30
0.0
  9
$UCSORGBACK
 10
0.0
 20
0.0
 30
0.0
  9
$PUCSBASE
  2

  9
$PUCSNAME
  2

  9
$PUCSORG
 10
0.0
 20
0.0
 30
0.0
  9
$PUCSXDIR
 10
1.0
 20
0.0
 30
0.0
  9
$PUCSYDIR
 10
0.0
 20
1.0
 30
0.0
  9
$PUCSORTHOREF
  2

  9
$PUCSORTHOVIEW
 70
     0
  9
$PUCSORGTOP
 10
0.0
 20
0.0
 30
0.0
  9
$PUCSORGBOTTOM
 10
0.0
 20
0.0
 30
0.0
  9
$PUCSORGLEFT
 10
0.0
 20
0.0
 30
0.0
  9
$PUCSORGRIGHT
 10
0.0
 20
0.0
 30
0.0
  9
$PUCSORGFRONT
 10
0.0
 20
0.0
 30
0.0
  9
$PUCSORGBACK
 10
0.0
 20
0.0
 30
0.0
  9
$USERI1
 70
     0
  9
$USERI2
 70
     0
  9
$USERI3
 70
     0
  9
$USERI4
 70
     0
  9
$USERI5
 70
     0
  9
$USERR1
 40
0.0
  9
$USERR2
 40
0.0
  9
$USERR3
 40
0.0
  9
$USERR4
 40
0.0
  9
$USERR5
 40
0.0
  9
$WORLDVIEW
 70
     1
  9
$SHADEDGE
 70
     3
  9
$SHADEDIF
 70
    70
  9
$TILEMODE
 70
     1
  9
$MAXACTVP
 70
    16
  9
$PINSBASE
 10
196.4574860773915
 20
50.0
 30
107.8535326309645
  9
$PLIMCHECK
 70
     0
  9
$PEXTMIN
 10
1.000000000000000E+20
 20
1.000000000000000E+20
 30
1.000000000000000E+20
  9
$PEXTMAX
 10
-1.000000000000000E+20
 20
-1.000000000000000E+20
 30
-1.000000000000000E+20
  9
$PLIMMIN
 10
0.0
 20
0.0
  9
$PLIMMAX
 10
12.0
 20
9.0
  9
$UNITMODE
 70
     0
  9
$VISRETAIN
 70
     0
  9
$PLINEGEN
 70
     0
  9
$PSLTSCALE
 70
     0
  9
$TREEDEPTH
 70
  3020
  9
$CMLSTYLE
  2
STANDARD
  9
$CMLJUST
 70
     0
  9
$CMLSCALE
 40
1.0
  9
$PROXYGRAPHICS
 70
     1
  9
$MEASUREMENT
 70
     0
  9
$CELWEIGHT
370
    -1
  9
$ENDCAPS
280
     0
  9
$JOINSTYLE
280
     0
  9
$LWDISPLAY
290
     0
  9
$INSUNITS
 70
     0
  9
$HYPERLINKBASE
  1

  9
$STYLESHEET
  1

  9
$XEDIT
290
     1
  9
$CEPSNTYPE
380
     0
  9
$PSTYLEMODE
290
     1
  9
$FINGERPRINTGUID
  2
{A082F6E6-5B34-47FB-A554-BB578FA055CC}
  9
$VERSIONGUID
  2
{3682B890-D964-4BFF-8C36-401F274EF13A}
  9
$EXTNAMES
290
     1
  9
$PSVPSCALE
 40
0.0
  9
$OLESTARTUP
290
     0
  0
ENDSEC
  0
SECTION
  2
CLASSES
  0
CLASS
  1
DICTIONARYVAR
  2
AcDbDictionaryVar
  3
AutoCAD 2000
 90
        0
280
     0
281
     0
  0
CLASS
  1
LWPOLYLINE
  2
AcDbPolyline
  3
AutoCAD 2000
 90
    32768
280
     0
281
     1
  0
CLASS
  1
ACDBDICTIONARYWDFLT
  2
AcDbDictionaryWithDefault
  3
AutoCAD 2000
 90
        0
280
     0
281
     0
  0
CLASS
  1
ACDBPLACEHOLDER
  2
AcDbPlaceHolder
  3
AutoCAD 2000
 90
        0
280
     0
281
     0
  0
CLASS
  1
LAYOUT
  2
AcDbLayout
  3
AutoCAD 2000
 90
        0
280
     0
281
     0
  0
ENDSEC
  0
SECTION
  2
TABLES
  0
TABLE
  2
VPORT
  5
8
330
0
100
AcDbSymbolTable
 70
     2
  0
VPORT
  5
3B9
330
8
100
AcDbSymbolTableRecord
100
AcDbViewportTableRecord
  2
*Active
 70
     0
 10
0.0
 20
0.0
 11
1.0
 21
1.0
 12
-0.2391642006363392
 22
0.8833561553156927
 13
0.0
 23
0.0
 14
1.0
 24
1.0
 15
0.0
 25
0.0
 16
0.0
 26
0.0
 36
1.0
 17
0.0
 27
0.0
 37
0.0
 40
5.236275902845893
 41
1.731751824817518
 42
50.0
 43
0.0
 44
0.0
 50
0.0
 51
0.0
 71
     0
 72
  1000
 73
     1
 74
     1
 75
     0
 76
     0
 77
     0
 78
     0
281
     0
 65
     1
110
0.0
120
0.0
130
0.0
111
1.0
121
0.0
131
0.0
112
0.0
122
1.0
132
0.0
 79
     0
146
0.0
  0
ENDTAB
  0
TABLE
  2
LTYPE
  5
5
330
0
100
AcDbSymbolTable
 70
     3
  0
LTYPE
  5
11
330
5
100
AcDbSymbolTableRecord
100
AcDbLinetypeTableRecord
  2
BYBLOCK
 70
     0
  3

 72
    65
 73
     0
 40
0.0
  0
LTYPE
  5
12
330
5
100
AcDbSymbolTableRecord
100
AcDbLinetypeTableRecord
  2
BYLAYER
 70
     0
  3

 72
    65
 73
     0
 40
0.0
  0
LTYPE
  5
13
330
5
100
AcDbSymbolTableRecord
100
AcDbLinetypeTableRecord
  2
CONTINUOUS
 70
     0
  3
Solid line
 72
    65
 73
     0
 40
0.0
  0
LTYPE
  5
38
330
5
100
AcDbSymbolTableRecord
100
AcDbLinetypeTableRecord
  2
HIDDEN
 70
     0
  3
_ _ _ _ _ _ _ _ _ _ _ _ _ _ _ _ _ _ _ _ _ _ _
 72
    65
 73
     2
 40
0.375
 49
0.25
 74
     0
 49
-0.125
 74
     0
  0
LTYPE
  5
39
330
5
100
AcDbSymbolTableRecord
100
AcDbLinetypeTableRecord
  2
CENTER
 70
     0
  3
____ _ ____ _ ____ _ ____ _ ____ _ ____ _ ____
 72
    65
 73
     4
 40
2.0
 49
1.25
 74
     0
 49
-0.25
 74
     0
 49
0.25
 74
     0
 49
-0.25
 74
     0
  0
ENDTAB
  0
TABLE
  2
LAYER
  5
2
330
0
100
AcDbSymbolTable
 70
     6
  0
LAYER
  5
E
330
2
100
AcDbSymbolTableRecord
100
AcDbLayerTableRecord
  2
0
 70
     0
 62
     7
  6
CONTINUOUS
370
    -3
390
11C
  0
LAYER
  5
3A
330
2
100
AcDbSymbolTableRecord
100
AcDbLayerTableRecord
  2
LINE
 70
     0
 62
     3
  6
CONTINUOUS
370
    -3
390
11C
  0
LAYER
  5
3B
330
2
100
AcDbSymbolTableRecord
100
AcDbLayerTableRecord
  2
HIDDEN
 70
     0
 62
     2
  6
HIDDEN
370
    -3
390
11C
  0
LAYER
  5
3C
330
2
100
AcDbSymbolTableRecord
100
AcDbLayerTableRecord
  2
CTRL
 70
     0
 62
     1
  6
CENTER
370
    -3
390
11C
  0
LAYER
  5
3E
330
2
100
AcDbSymbolTableRecord
100
AcDbLayerTableRecord
  2
DIM
 70
     0
 62
     7
  6
CONTINUOUS
370
    -3
390
11C
  0
LAYER
  5
12B
330
2
100
AcDbSymbolTableRecord
100
AcDbLayerTableRecord
  2
Defpoints
 70
     0
 62
     7
  6
CONTINUOUS
290
     0
370
    -3
390
11C
  0
ENDTAB
  0
TABLE
  2
STYLE
  5
3
330
0
100
AcDbSymbolTable
 70
     4
  0
STYLE
  5
F
330
3
100
AcDbSymbolTableRecord
100
AcDbTextStyleTableRecord
  2
STANDARD
 70
     0
 40
0.0
 41
1.0
 50
0.0
 71
     0
 42
3.2
  3
txt
  4

  0
STYLE
  5
123
330
3
100
AcDbSymbolTableRecord
100
AcDbTextStyleTableRecord
  2
romans
 70
     0
 40
0.0
 41
1.0
 50
0.0
 71
     0
 42
3.2
  3
romans.shx
  4

  0
STYLE
  5
1A8
330
3
100
AcDbSymbolTableRecord
100
AcDbTextStyleTableRecord
  2
STYLE1
 70
     0
 40
0.0
 41
1.0
 50
0.0
 71
     0
 42
0.2
  3
romans.shx
  4

  0
STYLE
  5
1A9
330
3
100
AcDbSymbolTableRecord
100
AcDbTextStyleTableRecord
  2
LOGO
 70
     0
 40
0.0
 41
0.6
 50
0.0
 71
     0
 42
4.7
  3
ARIAL.TTF
  4

1001
ACAD
1000
Arial
1071
       34
  0
ENDTAB
  0
TABLE
  2
VIEW
  5
6
330
0
100
AcDbSymbolTable
 70
     0
  0
ENDTAB
  0
TABLE
  2
UCS
  5
7
330
0
100
AcDbSymbolTable
 70
     0
  0
ENDTAB
  0
TABLE
  2
APPID
  5
9
330
0
100
AcDbSymbolTable
 70
     1
  0
APPID
  5
10
330
9
100
AcDbSymbolTableRecord
100
AcDbRegAppTableRecord
  2
ACAD
 70
     0
  0
ENDTAB
  0
TABLE
  2
DIMSTYLE
  5
A
330
0
100
AcDbSymbolTable
 70
     2
100
AcDbDimStyleTable
 71
     1
340
113
  0
DIMSTYLE
105
113
102
{ACAD_REACTORS
330
12A
330
138
330
145
330
152
102
}
330
A
100
AcDbSymbolTableRecord
100
AcDbDimStyleTableRecord
  2
STANDARD
 70
     0
 73
     0
 74
     0
 77
     1
271
     3
272
     3
340
123
  0
DIMSTYLE
105
1AA
330
A
100
AcDbSymbolTableRecord
100
AcDbDimStyleTableRecord
  2
AM_ANSI
 70
     0
  4
"
 41
2.5
 42
1.0
 43
10.0
 44
1.0
 47
0.1
 48
0.1
 78
     8
 79
     2
140
3.5
141
0.0
143
0.0393701
146
0.71
147
1.5
176
   256
177
   256
178
     2
271
     2
272
     3
274
     4
284
     8
340
F
371
    -1
372
    -1
  0
ENDTAB
  0
TABLE
  2
BLOCK_RECORD
  5
1
330
0
100
AcDbSymbolTable
 70
     5
  0
BLOCK_RECORD
  5
17
330
1
100
AcDbSymbolTableRecord
100
AcDbBlockTableRecord
  2
*MODEL_SPACE
340
11F
  0
BLOCK_RECORD
  5
14
330
1
100
AcDbSymbolTableRecord
100
AcDbBlockTableRecord
  2
*PAPER_SPACE
340
120
  0
BLOCK_RECORD
  5
12C
330
1
100
AcDbSymbolTableRecord
100
AcDbBlockTableRecord
  2
*D0
340
0
  0
BLOCK_RECORD
  5
139
330
1
100
AcDbSymbolTableRecord
100
AcDbBlockTableRecord
  2
*D1
340
0
  0
BLOCK_RECORD
  5
146
330
1
100
AcDbSymbolTableRecord
100
AcDbBlockTableRecord
  2
*D2
340
0
  0
BLOCK_RECORD
  5
153
330
1
100
AcDbSymbolTableRecord
100
AcDbBlockTableRecord
  2
*D3
340
0
  0
ENDTAB
  0
ENDSEC
  0
SECTION
  2
BLOCKS
  0
BLOCK
  5
41
330
17
100
AcDbEntity
  8
0
100
AcDbBlockBegin
  2
*MODEL_SPACE
 70
     0
 10
0.0
 20
0.0
 30
0.0
  3
*MODEL_SPACE
  1

  0
ENDBLK
  5
42
330
17
100
AcDbEntity
  8
0
100
AcDbBlockEnd
  0
BLOCK
  5
3F
330
14
100
AcDbEntity
 67
     1
  8
0
100
AcDbBlockBegin
  2
*PAPER_SPACE
 70
     0
 10
0.0
 20
0.0
 30
0.0
  3
*PAPER_SPACE
  1

  0
ENDBLK
  5
40
330
14
100
AcDbEntity
 67
     1
  8
0
100
AcDbBlockEnd
  0
BLOCK
  5
136
330
12C
100
AcDbEntity
  8
0
100
AcDbBlockBegin
  2
*D0
 70
     1
 10
0.0
 20
0.0
 30
0.0
  3
*D0
  1

  0
LINE
  5
186
330
12C
100
AcDbEntity
  8
DIM
 62
     0
370
    -2
100
AcDbLine
 10
-3.999991999999997
 20
0.60875875
 30
0.0
 11
-3.999991999999997
 21
2.922114714396951
 31
0.0
  0
LINE
  5
187
330
12C
100
AcDbEntity
  8
DIM
 62
     0
370
    -2
100
AcDbLine
 10
1.999996000000003
 20
1.248000119999999
 30
0.0
 11
1.999996000000003
 21
2.922114714396951
 31
0.0
  0
LINE
  5
188
330
12C
100
AcDbEntity
  8
DIM
 62
     0
370
    -2
100
AcDbLine
 10
-3.819991999999998
 20
2.742114714396951
 30
0.0
 11
1.819996000000003
 21
2.742114714396951
 31
0.0
  0
SOLID
  5
189
330
12C
100
AcDbEntity
  8
DIM
 62
     0
100
AcDbTrace
 10
-3.819991999999998
 20
2.772114714396951
 30
0.0
 11
-3.819991999999998
 21
2.712114714396951
 31
0.0
 12
-3.999991999999997
 22
2.742114714396951
 32
0.0
 13
-3.999991999999997
 23
2.742114714396951
 33
0.0
  0
SOLID
  5
18A
330
12C
100
AcDbEntity
  8
DIM
 62
     0
100
AcDbTrace
 10
1.819996000000003
 20
2.772114714396951
 30
0.0
 11
1.819996000000003
 21
2.712114714396951
 31
0.0
 12
1.999996000000003
 22
2.742114714396951
 32
0.0
 13
1.999996000000003
 23
2.742114714396951
 33
0.0
  0
MTEXT
  5
18B
330
12C
100
AcDbEntity
  8
DIM
 62
     0
100
AcDbMText
 10
-0.9999979999999975
 20
2.922114714396951
 30
0.0
 40
0.18
 41
0.0
 71
     5
 72
     1
  1
\A1;6.000
  7
romans
 73
     1
 44
1.0
  0
POINT
  5
18C
330
12C
100
AcDbEntity
  8
Defpoints
 62
     0
100
AcDbPoint
 10
-3.999991999999997
 20
0.54625875
 30
0.0
  0
POINT
  5
18D
330
12C
100
AcDbEntity
  8
Defpoints
 62
     0
100
AcDbPoint
 10
1.999996000000003
 20
1.185500119999999
 30
0.0
  0
POINT
  5
18E
330
12C
100
AcDbEntity
  8
Defpoints
 62
     0
100
AcDbPoint
 10
1.999996000000003
 20
2.742114714396951
 30
0.0
  0
ENDBLK
  5
137
330
12C
100
AcDbEntity
  8
0
100
AcDbBlockEnd
  0
BLOCK
  5
143
330
139
100
AcDbEntity
  8
0
100
AcDbBlockBegin
  2
*D1
 70
     1
 10
0.0
 20
0.0
 30
0.0
  3
*D1
  1

  0
LINE
  5
18F
330
139
100
AcDbEntity
  8
DIM
 62
     0
370
    -2
100
AcDbLine
 10
0.0
 20
1.150519999999997
 30
0.0
 11
0.0000000000000001
 21
2.222544823116813
 31
0.0
  0
LINE
  5
190
330
139
100
AcDbEntity
  8
DIM
 62
     0
370
    -2
100
AcDbLine
 10
1.999996000000003
 20
1.248000119999999
 30
0.0
 11
1.999996000000003
 21
2.222544823116813
 31
0.0
  0
LINE
  5
191
330
139
100
AcDbEntity
  8
DIM
 62
     0
370
    -2
100
AcDbLine
 10
0.18
 20
2.042544823116815
 30
0.0
 11
1.819996000000003
 21
2.042544823116815
 31
0.0
  0
SOLID
  5
192
330
139
100
AcDbEntity
  8
DIM
 62
     0
100
AcDbTrace
 10
0.18
 20
2.072544823116813
 30
0.0
 11
0.18
 21
2.012544823116815
 31
0.0
 12
0.0000000000000001
 22
2.042544823116815
 32
0.0
 13
0.0000000000000001
 23
2.042544823116815
 33
0.0
  0
SOLID
  5
193
330
139
100
AcDbEntity
  8
DIM
 62
     0
100
AcDbTrace
 10
1.819996000000003
 20
2.072544823116813
 30
0.0
 11
1.819996000000003
 21
2.012544823116815
 31
0.0
 12
1.999996000000003
 22
2.042544823116815
 32
0.0
 13
1.999996000000003
 23
2.042544823116815
 33
0.0
  0
MTEXT
  5
194
330
139
100
AcDbEntity
  8
DIM
 62
     0
100
AcDbMText
 10
0.9999980000000016
 20
2.222544823116815
 30
0.0
 40
0.18
 41
0.0
 71
     5
 72
     1
  1
\A1;2.000
  7
romans
 73
     1
 44
1.0
  0
POINT
  5
195
330
139
100
AcDbEntity
  8
Defpoints
 62
     0
100
AcDbPoint
 10
0.0
 20
1.088019999999997
 30
0.0
  0
POINT
  5
196
330
139
100
AcDbEntity
  8
Defpoints
 62
     0
100
AcDbPoint
 10
1.999996000000003
 20
1.185500119999999
 30
0.0
  0
POINT
  5
197
330
139
100
AcDbEntity
  8
Defpoints
 62
     0
100
AcDbPoint
 10
1.999996000000003
 20
2.042544823116815
 30
0.0
  0
ENDBLK
  5
144
330
139
100
AcDbEntity
  8
0
100
AcDbBlockEnd
  0
BLOCK
  5
150
330
146
100
AcDbEntity
  8
0
100
AcDbBlockBegin
  2
*D2
 70
     1
 10
0.0
 20
0.0
 30
0.0
  3
*D2
  1

  0
LINE
  5
15F
330
146
100
AcDbEntity
  8
DIM
 62
     0
370
    -2
100
AcDbLine
 10
-3.983752000000001
 20
0.6249987500000001
 30
0.0
 11
-4.659827252566453
 21
0.6249987500000002
 31
0.0
  0
LINE
  5
160
330
146
100
AcDbEntity
  8
DIM
 62
     0
370
    -2
100
AcDbLine
 10
-3.983752000000001
 20
-0.6249987500000001
 30
0.0
 11
-4.659827252566453
 21
-0.6249987500000001
 31
0.0
  0
LINE
  5
161
330
146
100
AcDbEntity
  8
DIM
 62
     0
370
    -2
100
AcDbLine
 10
-4.479827252566455
 20
0.4449987500000003
 30
0.0
 11
-4.479827252566455
 21
-0.44499875
 31
0.0
  0
SOLID
  5
162
330
146
100
AcDbEntity
  8
DIM
 62
     0
100
AcDbTrace
 10
-4.509827252566455
 20
0.4449987500000003
 30
0.0
 11
-4.449827252566453
 21
0.4449987500000003
 31
0.0
 12
-4.479827252566455
 22
0.6249987500000002
 32
0.0
 13
-4.479827252566455
 23
0.6249987500000002
 33
0.0
  0
SOLID
  5
163
330
146
100
AcDbEntity
  8
DIM
 62
     0
100
AcDbTrace
 10
-4.509827252566455
 20
-0.44499875
 30
0.0
 11
-4.449827252566453
 21
-0.44499875
 31
0.0
 12
-4.479827252566455
 22
-0.6249987500000001
 32
0.0
 13
-4.479827252566455
 23
-0.6249987500000001
 33
0.0
  0
MTEXT
  5
164
330
146
100
AcDbEntity
  8
DIM
 62
     0
100
AcDbMText
 10
-4.659827252566453
 20
-0.0000000000000006
 30
0.0
 40
0.18
 41
0.0
 71
     5
 72
     1
  1
\A1;%%c1.250
  7
romans
 11
0.0000000000000001
 21
1.0
 31
0.0
 73
     1
 44
1.0
  0
POINT
  5
165
330
146
100
AcDbEntity
  8
Defpoints
 62
     0
100
AcDbPoint
 10
-3.921252000000001
 20
0.6249987500000001
 30
0.0
  0
POINT
  5
166
330
146
100
AcDbEntity
  8
Defpoints
 62
     0
100
AcDbPoint
 10
-3.921252000000001
 20
-0.6249987500000001
 30
0.0
  0
POINT
  5
167
330
146
100
AcDbEntity
  8
Defpoints
 62
     0
100
AcDbPoint
 10
-4.479827252566455
 20
-0.6249987500000001
 30
0.0
  0
ENDBLK
  5
151
330
146
100
AcDbEntity
  8
0
100
AcDbBlockEnd
  0
BLOCK
  5
15D
330
153
100
AcDbEntity
  8
0
100
AcDbBlockBegin
  2
*D3
 70
     1
 10
0.0
 20
0.0
 30
0.0
  3
*D3
  1

  0
LINE
  5
198
330
153
100
AcDbEntity
  8
DIM
 62
     0
370
    -2
100
AcDbLine
 10
2.002496119999995
 20
1.2455
 30
0.0
 11
3.052457176794543
 21
1.245499999999998
 31
0.0
  0
LINE
  5
199
330
153
100
AcDbEntity
  8
DIM
 62
     0
370
    -2
100
AcDbLine
 10
2.002496119999995
 20
-1.2455
 30
0.0
 11
3.052457176794543
 21
-1.2455
 31
0.0
  0
LINE
  5
19A
330
153
100
AcDbEntity
  8
DIM
 62
     0
370
    -2
100
AcDbLine
 10
2.872457176794543
 20
1.065499999999999
 30
0.0
 11
2.872457176794543
 21
-1.065499999999999
 31
0.0
  0
SOLID
  5
19B
330
153
100
AcDbEntity
  8
DIM
 62
     0
100
AcDbTrace
 10
2.842457176794543
 20
1.065499999999999
 30
0.0
 11
2.902457176794543
 21
1.065499999999999
 31
0.0
 12
2.872457176794543
 22
1.245499999999998
 32
0.0
 13
2.872457176794543
 23
1.245499999999998
 33
0.0
  0
SOLID
  5
19C
330
153
100
AcDbEntity
  8
DIM
 62
     0
100
AcDbTrace
 10
2.842457176794543
 20
-1.065499999999999
 30
0.0
 11
2.902457176794543
 21
-1.065499999999999
 31
0.0
 12
2.872457176794543
 22
-1.2455
 32
0.0
 13
2.872457176794543
 23
-1.2455
 33
0.0
  0
MTEXT
  5
19D
330
153
100
AcDbEntity
  8
DIM
 62
     0
100
AcDbMText
 10
2.692457176794543
 20
0.0000000000000003
 30
0.0
 40
0.18
 41
0.0
 71
     5
 72
     1
  1
\A1;%%c2.491
  7
romans
 11
0.0000000000000001
 21
1.0
 31
0.0
 73
     1
 44
1.0
  0
POINT
  5
19E
330
153
100
AcDbEntity
  8
Defpoints
 62
     0
100
AcDbPoint
 10
1.939996119999995
 20
1.2455
 30
0.0
  0
POINT
  5
19F
330
153
100
AcDbEntity
  8
Defpoints
 62
     0
100
AcDbPoint
 10
1.939996119999995
 20
-1.2455
 30
0.0
  0
POINT
  5
1A0
330
153
100
AcDbEntity
  8
Defpoints
 62
     0
100
AcDbPoint
 10
2.872457176794543
 20
-1.2455
 30
0.0
  0
ENDBLK
  5
15E
330
153
100
AcDbEntity
  8
0
100
AcDbBlockEnd
  0
ENDSEC
  0
SECTION
  2
ENTITIES
  0
LINE
  5
D8
330
17
100
AcDbEntity
  8
CTRL
100
AcDbLine
 10
-4.108723839785419
 20
0.0
 30
0.0
 11
2.161728988727885
 21
0.0
 31
0.0
  0
LINE
  5
D9
330
17
100
AcDbEntity
  8
HIDDEN
100
AcDbLine
 10
-3.999991999999997
 20
-0.2499994999999987
 30
0.0
 11
-0.0247150489932437
 21
-0.2499995000000009
 31
0.0
  0
LINE
  5
DA
330
17
100
AcDbEntity
  8
HIDDEN
100
AcDbLine
 10
-3.999991999999997
 20
0.2499995000000009
 30
0.0
 11
-0.0247150489932437
 21
0.2499995000000009
 31
0.0
  0
LINE
  5
DB
330
17
100
AcDbEntity
  8
LINE
100
AcDbLine
 10
-3.921252000000001
 20
-0.6249987500000001
 30
0.0
 11
-0.1574799999999996
 21
-0.6249987500000023
 31
0.0
  0
LINE
  5
DC
330
17
100
AcDbEntity
  8
LINE
100
AcDbLine
 10
-3.921252000000001
 20
0.6249987500000001
 30
0.0
 11
-0.1574799999999996
 21
0.6249987500000001
 31
0.0
  0
LINE
  5
DD
330
17
100
AcDbEntity
  8
LINE
100
AcDbLine
 10
-3.921252000000001
 20
0.6249987500000001
 30
0.0
 11
-3.921252000000001
 21
-0.6249987500000001
 31
0.0
  0
LINE
  5
DE
330
17
100
AcDbEntity
  8
LINE
100
AcDbLine
 10
-3.999991999999997
 20
-0.54625875
 30
0.0
 11
-3.999991999999997
 21
0.54625875
 31
0.0
  0
LINE
  5
DF
330
17
100
AcDbEntity
  8
LINE
100
AcDbLine
 10
-3.999991999999997
 20
-0.54625875
 30
0.0
 11
-3.921252000000001
 21
-0.6249987500000001
 31
0.0
  0
LINE
  5
E0
330
17
100
AcDbEntity
  8
LINE
100
AcDbLine
 10
-3.921252000000001
 20
0.6249987500000001
 30
0.0
 11
-3.999991999999997
 21
0.54625875
 31
0.0
  0
ARC
  5
E1
330
17
100
AcDbEntity
  8
LINE
100
AcDbCircle
 10
-0.1574799999999996
 20
-0.79232125
 30
0.0
 40
0.15748
100
AcDbArc
 50
0.0000000000000509
 51
90.0
  0
ARC
  5
E2
330
17
100
AcDbEntity
  8
LINE
100
AcDbCircle
 10
-0.1574799999999996
 20
0.7923212499999979
 30
0.0
 40
0.15748
100
AcDbArc
 50
270.0
 51
359.9999999999998
  0
LINE
  5
E3
330
17
100
AcDbEntity
  8
LINE
100
AcDbLine
 10
-0.1574799999999996
 20
0.6348412499999978
 30
0.0
 11
-0.1574799999999996
 21
-0.6348412500000002
 31
0.0
  0
LINE
  5
E7
330
17
100
AcDbEntity
  8
LINE
100
AcDbLine
 10
0.0
 20
-1.088020000000001
 30
0.0
 11
0.0
 21
-0.0000000000000022
 31
0.0
  0
LINE
  5
E8
330
17
100
AcDbEntity
  8
LINE
100
AcDbLine
 10
0.2727633611759472
 20
-1.245499999999998
 30
0.0
 11
0.2727633611759472
 21
-0.0000000000000022
 31
0.0
  0
LINE
  5
E9
330
17
100
AcDbEntity
  8
HIDDEN
100
AcDbLine
 10
1.342997313999999
 20
-0.9919980159999999
 30
0.0
 11
1.342997313999999
 21
-0.7084985830000025
 31
0.0
  0
LINE
  5
EB
330
17
100
AcDbEntity
  8
LINE
100
AcDbLine
 10
1.999996000000002
 20
0.0
 30
0.0
 11
1.999996000000003
 21
-1.185500119999999
 31
0.0
  0
LINE
  5
EC
330
17
100
AcDbEntity
  8
HIDDEN
100
AcDbLine
 10
1.999996000000002
 20
-0.9919980159999999
 30
0.0
 11
1.342997313999999
 21
-0.9919980159999999
 31
0.0
  0
LINE
  5
ED
330
17
100
AcDbEntity
  8
LINE
100
AcDbLine
 10
0.2727633611759475
 20
-1.2455
 30
0.0
 11
1.939996119999995
 21
-1.2455
 31
0.0
  0
LINE
  5
EE
330
17
100
AcDbEntity
  8
LINE
100
AcDbLine
 10
0.0000000000000002
 20
-1.088020000000001
 30
0.0
 11
0.2727633611759475
 21
-1.2455
 31
0.0
  0
LINE
  5
EF
330
17
100
AcDbEntity
  8
LINE
100
AcDbLine
 10
1.999996000000003
 20
-1.185500119999999
 30
0.0
 11
1.939996119999995
 21
-1.2455
 31
0.0
  0
LINE
  5
F0
330
17
100
AcDbEntity
  8
HIDDEN
100
AcDbLine
 10
1.999996000000002
 20
0.9919980159999999
 30
0.0
 11
1.342997313999999
 21
0.9919980159999999
 31
0.0
  0
LINE
  5
F1
330
17
100
AcDbEntity
  8
LINE
100
AcDbLine
 10
0.2727633611759472
 20
1.245499999999995
 30
0.0
 11
1.939996119999995
 21
1.2455
 31
0.0
  0
LINE
  5
F2
330
17
100
AcDbEntity
  8
HIDDEN
100
AcDbLine
 10
0.2399995199999978
 20
0.7084985830000026
 30
0.0
 11
1.999996000000002
 21
0.7084985830000004
 31
0.0
  0
LINE
  5
F3
330
17
100
AcDbEntity
  8
HIDDEN
100
AcDbLine
 10
0.2399995199999978
 20
-0.7084985830000025
 30
0.0
 11
1.999996000000002
 21
-0.7084985829999983
 31
0.0
  0
LINE
  5
F4
330
17
100
AcDbEntity
  8
LINE
100
AcDbLine
 10
0.2727633611759472
 20
1.245499999999998
 30
0.0
 11
0.2727633611759472
 21
0.0
 31
0.0
  0
LINE
  5
F5
330
17
100
AcDbEntity
  8
HIDDEN
100
AcDbLine
 10
1.342997313999999
 20
0.9919980159999999
 30
0.0
 11
1.342997313999999
 21
0.7084985830000026
 31
0.0
  0
LINE
  5
F6
330
17
100
AcDbEntity
  8
LINE
100
AcDbLine
 10
0.0
 20
1.088019999999997
 30
0.0
 11
0.0
 21
0.0
 31
0.0
  0
LINE
  5
F7
330
17
100
AcDbEntity
  8
HIDDEN
100
AcDbLine
 10
-0.0247150489932437
 20
0.2499995000000009
 30
0.0
 11
-0.0247150489932437
 21
-0.2499995000000009
 31
0.0
  0
LINE
  5
F8
330
17
100
AcDbEntity
  8
HIDDEN
100
AcDbLine
 10
0.2399995199999978
 20
0.7084985830000026
 30
0.0
 11
0.2399995199999978
 21
-0.7084985830000025
 31
0.0
  0
LINE
  5
F9
330
17
100
AcDbEntity
  8
HIDDEN
100
AcDbLine
 10
0.2399995199999978
 20
-0.7084985830000025
 30
0.0
 11
-0.0247150489932437
 21
-0.2499994999999987
 31
0.0
  0
LINE
  5
FA
330
17
100
AcDbEntity
  8
HIDDEN
100
AcDbLine
 10
0.2399995199999978
 20
0.7084985830000004
 30
0.0
 11
-0.0247150489932437
 21
0.2499995000000009
 31
0.0
  0
LWPOLYLINE
  5
FB
330
17
100
AcDbEntity
  8
LINE
100
AcDbPolyline
 90
       16
 70
     1
 43
0.0
 10
1.099651334031988
 20
0.0
 42
0.1075270714354371
 10
1.119653714992827
 20
-0.0919355086409339
 42
0.1017862429383482
 10
1.178248037215809
 20
-0.1720740636260328
 42
0.0945967217597763
 10
1.264124864332528
 20
-0.2244842144935814
 42
0.0900730289486178
 10
1.367997264000003
 20
-0.2433494745125874
 42
0.0900730289486174
 10
1.471869663667475
 20
-0.2244842144935814
 42
0.0945967217597764
 10
1.557746490784196
 20
-0.1720740636260328
 42
0.1017862429383479
 10
1.616340813007169
 20
-0.0919355086409339
 42
0.1075270714354359
 10
1.636343193968015
 20
0.0
 42
0.1075270714354361
 10
1.616340813007169
 20
0.0919355086409361
 42
0.1017862429383472
 10
1.557746490784196
 20
0.172074063626035
 42
0.0945967217597756
 10
1.471869663667475
 20
0.2244842144935814
 42
0.0900730289486177
 10
1.367997264000003
 20
0.2433494745125874
 42
0.0900730289486173
 10
1.264124864332528
 20
0.2244842144935814
 42
0.0945967217597766
 10
1.178248037215809
 20
0.172074063626035
 42
0.1017862429383487
 10
1.119653714992827
 20
0.0919355086409339
 42
0.1075270714354371
  0
CIRCLE
  5
10D
330
17
100
AcDbEntity
  8
LINE
100
AcDbCircle
 10
1.367997264000003
 20
0.0
 30
0.0
 40
0.2159995680000035
  0
CIRCLE
  5
10E
330
17
100
AcDbEntity
  8
HIDDEN
100
AcDbCircle
 10
1.367997264000003
 20
0.0
 30
0.0
 40
0.2359995280000033
  0
LINE
  5
10F
330
17
100
AcDbEntity
  8
LINE
100
AcDbLine
 10
0.0
 20
1.088019999999997
 30
0.0
 11
0.2727633611759472
 21
1.245499999999995
 31
0.0
  0
LINE
  5
110
330
17
100
AcDbEntity
  8
LINE
100
AcDbLine
 10
1.999996000000002
 20
0.0
 30
0.0
 11
1.999996000000003
 21
1.185500119999999
 31
0.0
  0
LINE
  5
112
330
17
100
AcDbEntity
  8
LINE
100
AcDbLine
 10
1.999996000000002
 20
1.185500119999999
 30
0.0
 11
1.939996119999995
 21
1.2455
 31
0.0
  0
DIMENSION
  5
12A
330
17
100
AcDbEntity
  8
DIM
100
AcDbDimension
  2
*D0
 10
1.999996000000003
 20
2.742114714396951
 30
0.0
 11
-0.9999979999999975
 21
2.922114714396951
 31
0.0
 70
    32
 71
     5
 42
5.999988
  3
STANDARD
100
AcDbAlignedDimension
 13
-3.999991999999997
 23
0.54625875
 33
0.0
 14
1.999996000000003
 24
1.185500119999999
 34
0.0
100
AcDbRotatedDimension
  0
DIMENSION
  5
138
330
17
100
AcDbEntity
  8
DIM
100
AcDbDimension
  2
*D1
 10
1.999996000000003
 20
2.042544823116815
 30
0.0
 11
0.9999980000000016
 21
2.222544823116815
 31
0.0
 70
    32
 71
     5
 42
1.999996000000003
  3
STANDARD
100
AcDbAlignedDimension
 13
0.0
 23
1.088019999999997
 33
0.0
 14
1.999996000000003
 24
1.185500119999999
 34
0.0
100
AcDbRotatedDimension
  0
DIMENSION
  5
145
330
17
100
AcDbEntity
  8
DIM
100
AcDbDimension
  2
*D2
 10
-4.479827252566455
 20
-0.6249987500000001
 30
0.0
 11
-4.659827252566453
 21
-0.0000000000000006
 31
0.0
 70
    32
  1
%%c<>
 71
     5
 42
1.2499975
  3
STANDARD
100
AcDbAlignedDimension
 13
-3.921252000000001
 23
0.6249987500000001
 33
0.0
 14
-3.921252000000001
 24
-0.6249987500000001
 34
0.0
 50
90.0
100
AcDbRotatedDimension
  0
DIMENSION
  5
152
330
17
100
AcDbEntity
  8
DIM
100
AcDbDimension
  2
*D3
 10
2.872457176794543
 20
-1.2455
 30
0.0
 11
2.692457176794543
 21
0.0000000000000003
 31
0.0
 70
    32
  1
%%c<>
 71
     5
 42
2.491
  3
STANDARD
100
AcDbAlignedDimension
 13
1.939996119999995
 23
1.2455
 33
0.0
 14
1.939996119999995
 24
-1.2455
 34
0.0
 50
90.0
100
AcDbRotatedDimension
  0
LINE
  5
349
330
17
100
AcDbEntity
  8
LINE
100
AcDbLine
 10
-1.883647083739285
 20
1.284499896636271
 30
0.0
 11
-1.832425445958736
 21
1.284499896636271
 31
0.0
  0
LINE
  5
34A
330
17
100
AcDbEntity
  8
LINE
100
AcDbLine
 10
-1.883647083739299
 20
0.9405831858240105
 30
0.0
 11
-1.832425445958736
 21
0.9405831858240105
 31
0.0
  0
LINE
  5
34B
330
17
100
AcDbEntity
  8
LINE
100
AcDbLine
 10
-1.883647083739285
 20
0.9405831858240105
 30
0.0
 11
-1.883647083739285
 21
1.284499896636271
 31
0.0
  0
LINE
  5
34C
330
17
100
AcDbEntity
  8
LINE
100
AcDbLine
 10
-1.958774732117702
 20
0.9405831858240034
 30
0.0
 11
-2.038630425987408
 21
1.19322958919559
 31
0.0
  0
LINE
  5
34D
330
17
100
AcDbEntity
  8
LINE
100
AcDbLine
 10
-1.996046610849963
 20
1.284499896636271
 30
0.0
 11
-1.90389440592425
 21
0.9405831858240034
 31
0.0
  0
LINE
  5
34E
330
17
100
AcDbEntity
  8
LINE
100
AcDbLine
 10
-2.212911118664182
 20
0.9405831858240105
 30
0.0
 11
-2.258187080130537
 21
1.054021879374399
 31
0.0
  0
LINE
  5
34F
330
17
100
AcDbEntity
  8
LINE
100
AcDbLine
 10
-2.287978393396604
 20
0.9901342019042758
 30
0.0
 11
-2.258187080130537
 21
1.054021879374399
 31
0.0
  0
ARC
  5
350
330
17
100
AcDbEntity
  8
LINE
100
AcDbCircle
 10
-2.560283583391469
 20
1.037995764817379
 30
0.0
 40
0.0584981162543635
100
AcDbArc
 50
180.0
 51
242.0588959302372
  0
ARC
  5
351
330
17
100
AcDbEntity
  8
LINE
100
AcDbCircle
 10
-2.570463601066943
 20
1.037995764817379
 30
0.0
 40
0.1031984247723265
100
AcDbArc
 50
180.0
 51
250.723207331739
  0
ARC
  5
352
330
17
100
AcDbEntity
  8
LINE
100
AcDbCircle
 10
-2.58347921825614
 20
1.037995764817379
 30
0.0
 40
0.0584981162543635
100
AcDbArc
 50
297.9411040697627
 51
0.0
  0
ARC
  5
353
330
17
100
AcDbEntity
  8
LINE
100
AcDbCircle
 10
-2.576018354048665
 20
1.037995764817379
 30
0.0
 40
0.1031984247723242
100
AcDbArc
 50
289.2767926682573
 51
0.0
  0
LINE
  5
354
330
17
100
AcDbEntity
  8
LINE
100
AcDbLine
 10
-2.150713415644953
 20
0.9405831858240034
 30
0.0
 11
-2.224673968603957
 21
1.125890978970943
 31
0.0
  0
LINE
  5
355
330
17
100
AcDbEntity
  8
LINE
100
AcDbLine
 10
-2.350176096415833
 20
1.284499896636271
 30
0.0
 11
-2.350176096415833
 21
0.9405831858240105
 31
0.0
  0
LINE
  5
356
330
17
100
AcDbEntity
  8
LINE
100
AcDbLine
 10
-2.763269106534726
 20
0.9405831858240105
 30
0.0
 11
-2.763269106534726
 21
1.284499896636271
 31
0.0
  0
LINE
  5
357
330
17
100
AcDbEntity
  8
LINE
100
AcDbLine
 10
-2.712047468754177
 20
1.284499896636271
 30
0.0
 11
-2.712047468754177
 21
0.9405831858240105
 31
0.0
  0
ARC
  5
358
330
17
100
AcDbEntity
  8
LINE
100
AcDbCircle
 10
-2.912313838429428
 20
1.037995764817379
 30
0.0
 40
0.0584981162543635
100
AcDbArc
 50
297.9411040697627
 51
62.05889593023716
  0
LINE
  5
359
330
17
100
AcDbEntity
  8
LINE
100
AcDbLine
 10
-2.94761631981912
 20
0.9863167909852119
 30
0.0
 11
-2.94761631981912
 21
1.08967473864954
 31
0.0
  0
ARC
  5
35A
330
17
100
AcDbEntity
  8
LINE
100
AcDbCircle
 10
-2.904852974221967
 20
1.037995764817379
 30
0.0
 40
0.1031984247723242
100
AcDbArc
 50
289.2767926682573
 51
46.24915972781781
  0
LINE
  5
35B
330
17
100
AcDbEntity
  8
LINE
100
AcDbLine
 10
-2.134329499075506
 20
0.9405831858240034
 30
0.0
 11
-2.0674788625102
 21
1.284499896636271
 31
0.0
  0
LINE
  5
35C
330
17
100
AcDbEntity
  8
LINE
100
AcDbLine
 10
-3.002496646012565
 20
0.9405831858240105
 30
0.0
 11
-3.002496646012565
 21
1.284499896636271
 31
0.0
  0
LINE
  5
35D
330
17
100
AcDbEntity
  8
LINE
100
AcDbLine
 10
-2.078850199668087
 20
0.9863167909852119
 30
0.0
 11
-2.038630425987408
 21
1.19322958919559
 31
0.0
  0
LINE
  5
35E
330
17
100
AcDbEntity
  8
LINE
100
AcDbLine
 10
-2.932981566167537
 20
0.9405831858240105
 30
0.0
 11
-2.870783863148307
 21
0.9405831858240105
 31
0.0
  0
LINE
  5
35F
330
17
100
AcDbEntity
  8
LINE
100
AcDbLine
 10
-2.94761631981912
 20
0.9863167909852119
 30
0.0
 11
-2.88490374413985
 21
0.9863167909852119
 31
0.0
  0
LINE
  5
360
330
17
100
AcDbEntity
  8
LINE
100
AcDbLine
 10
-3.002496646012565
 20
0.9405831858240105
 30
0.0
 11
-2.870783863148307
 21
0.9405831858240105
 31
0.0
  0
LINE
  5
361
330
17
100
AcDbEntity
  8
LINE
100
AcDbLine
 10
-2.350176096415833
 20
0.9405831858240105
 30
0.0
 11
-2.287978393396604
 21
0.9405831858240105
 31
0.0
  0
LINE
  5
362
330
17
100
AcDbEntity
  8
LINE
100
AcDbLine
 10
-2.763269106534726
 20
0.9405831858240105
 30
0.0
 11
-2.712047468754177
 21
0.9405831858240105
 31
0.0
  0
LINE
  5
363
330
17
100
AcDbEntity
  8
LINE
100
AcDbLine
 10
-2.604146945994235
 20
0.9405831858240105
 30
0.0
 11
-2.541949242974991
 21
0.9405831858240105
 31
0.0
  0
LINE
  5
364
330
17
100
AcDbEntity
  8
LINE
100
AcDbLine
 10
-2.604532712140631
 20
0.9405831858240105
 30
0.0
 11
-2.541949242974991
 21
0.9405831858240105
 31
0.0
  0
LINE
  5
365
330
17
100
AcDbEntity
  8
LINE
100
AcDbLine
 10
-2.587693677681054
 20
0.9863167909852119
 30
0.0
 11
-2.556069123966562
 21
0.9863167909852119
 31
0.0
  0
LINE
  5
366
330
17
100
AcDbEntity
  8
LINE
100
AcDbLine
 10
-1.90389440592425
 20
0.9405831858240034
 30
0.0
 11
-1.958774732117702
 21
0.9405831858240034
 31
0.0
  0
LINE
  5
367
330
17
100
AcDbEntity
  8
LINE
100
AcDbLine
 10
-2.002616716211262
 20
0.9405831858240034
 30
0.0
 11
-2.014870998781169
 21
0.9863167909852119
 31
0.0
  0
LINE
  5
368
330
17
100
AcDbEntity
  8
LINE
100
AcDbLine
 10
-2.287978393396604
 20
0.9405831858240105
 30
0.0
 11
-2.287978393396604
 21
0.9901342019042758
 31
0.0
  0
LINE
  5
369
330
17
100
AcDbEntity
  8
LINE
100
AcDbLine
 10
-2.212911118664182
 20
0.9405831858240105
 30
0.0
 11
-2.150713415644953
 21
0.9405831858240105
 31
0.0
  0
LINE
  5
36A
330
17
100
AcDbEntity
  8
LINE
100
AcDbLine
 10
-2.078850199668087
 20
0.9863167909852119
 30
0.0
 11
-2.014870998781169
 21
0.9863167909852119
 31
0.0
  0
LINE
  5
36B
330
17
100
AcDbEntity
  8
LINE
100
AcDbLine
 10
-2.134329499075506
 20
0.9405831858240034
 30
0.0
 11
-2.002616716211262
 21
0.9405831858240034
 31
0.0
  0
ARC
  5
36C
330
17
100
AcDbEntity
  8
LINE
100
AcDbCircle
 10
-2.904852974221967
 20
1.187087317642909
 30
0.0
 40
0.1031984247723265
100
AcDbArc
 50
313.7508402721822
 51
70.72320733173913
  0
ARC
  5
36D
330
17
100
AcDbEntity
  8
LINE
100
AcDbCircle
 10
-2.912313838429428
 20
1.187087317642909
 30
0.0
 40
0.0584981162543635
100
AcDbArc
 50
297.9411040697627
 51
62.05889593023716
  0
LINE
  5
36E
330
17
100
AcDbEntity
  8
LINE
100
AcDbLine
 10
-2.94761631981912
 20
1.135408343810741
 30
0.0
 11
-2.94761631981912
 21
1.238766291475069
 31
0.0
  0
LINE
  5
36F
330
17
100
AcDbEntity
  8
LINE
100
AcDbLine
 10
-2.88490374413985
 20
1.08967473864954
 30
0.0
 11
-2.94761631981912
 21
1.08967473864954
 31
0.0
  0
LINE
  5
370
330
17
100
AcDbEntity
  8
LINE
100
AcDbLine
 10
-2.88490374413985
 20
1.135408343810741
 30
0.0
 11
-2.94761631981912
 21
1.135408343810741
 31
0.0
  0
LINE
  5
371
330
17
100
AcDbEntity
  8
LINE
100
AcDbLine
 10
-2.94761631981912
 20
1.238766291475069
 30
0.0
 11
-2.88490374413985
 21
1.238766291475069
 31
0.0
  0
LINE
  5
372
330
17
100
AcDbEntity
  8
LINE
100
AcDbLine
 10
-2.932981566167537
 20
1.284499896636271
 30
0.0
 11
-2.870783863148307
 21
1.284499896636271
 31
0.0
  0
LINE
  5
373
330
17
100
AcDbEntity
  8
LINE
100
AcDbLine
 10
-3.002496646012565
 20
1.284499896636271
 30
0.0
 11
-2.870783863148307
 21
1.284499896636271
 31
0.0
  0
LINE
  5
374
330
17
100
AcDbEntity
  8
LINE
100
AcDbLine
 10
-2.350176096415833
 20
1.284499896636271
 30
0.0
 11
-2.287978393396604
 21
1.284499896636271
 31
0.0
  0
ARC
  5
375
330
17
100
AcDbEntity
  8
LINE
100
AcDbCircle
 10
-2.570463601066943
 20
1.187087317642909
 30
0.0
 40
0.1031984247723265
100
AcDbArc
 50
109.2767926682608
 51
180.0
  0
ARC
  5
376
330
17
100
AcDbEntity
  8
LINE
100
AcDbCircle
 10
-2.560283583391469
 20
1.187087317642909
 30
0.0
 40
0.0584981162543635
100
AcDbArc
 50
117.9411040697628
 51
180.0
  0
LINE
  5
377
330
17
100
AcDbEntity
  8
LINE
100
AcDbLine
 10
-2.571881400823801
 20
1.08967473864954
 30
0.0
 11
-2.571881400823801
 21
1.135408343810741
 31
0.0
  0
LINE
  5
378
330
17
100
AcDbEntity
  8
LINE
100
AcDbLine
 10
-2.618781699645825
 20
1.08967473864954
 30
0.0
 11
-2.618781699645825
 21
1.187087317642909
 31
0.0
  0
LINE
  5
379
330
17
100
AcDbEntity
  8
LINE
100
AcDbLine
 10
-2.524981102001777
 20
1.08967473864954
 30
0.0
 11
-2.571881400823801
 21
1.08967473864954
 31
0.0
  0
LINE
  5
37A
330
17
100
AcDbEntity
  8
LINE
100
AcDbLine
 10
-2.587693677681054
 20
1.238766291475069
 30
0.0
 11
-2.556069123966562
 21
1.238766291475069
 31
0.0
  0
LINE
  5
37B
330
17
100
AcDbEntity
  8
LINE
100
AcDbLine
 10
-2.763269106534726
 20
1.284499896636271
 30
0.0
 11
-2.712047468754177
 21
1.284499896636271
 31
0.0
  0
LINE
  5
37C
330
17
100
AcDbEntity
  8
LINE
100
AcDbLine
 10
-2.604532712140631
 20
1.284499896636271
 30
0.0
 11
-2.541949242974991
 21
1.284499896636271
 31
0.0
  0
LINE
  5
37D
330
17
100
AcDbEntity
  8
LINE
100
AcDbLine
 10
-2.604146945994235
 20
1.284499896636271
 30
0.0
 11
-2.541949242974991
 21
1.284499896636271
 31
0.0
  0
ARC
  5
37E
330
17
100
AcDbEntity
  8
LINE
100
AcDbCircle
 10
-2.58347921825614
 20
1.187087317642909
 30
0.0
 40
0.0584981162543635
100
AcDbArc
 50
0.0
 51
62.05889593023716
  0
ARC
  5
37F
330
17
100
AcDbEntity
  8
LINE
100
AcDbCircle
 10
-2.576018354048679
 20
1.187087317642909
 30
0.0
 40
0.1031984247723265
100
AcDbArc
 50
0.0
 51
70.72320733173913
  0
LINE
  5
380
330
17
100
AcDbEntity
  8
LINE
100
AcDbLine
 10
-2.524981102001777
 20
1.187087317642909
 30
0.0
 11
-2.472819929276358
 21
1.187087317642909
 31
0.0
  0
LINE
  5
381
330
17
100
AcDbEntity
  8
LINE
100
AcDbLine
 10
-2.472819929276358
 20
1.135408343810741
 30
0.0
 11
-2.571881400823801
 21
1.135408343810741
 31
0.0
  0
LINE
  5
382
330
17
100
AcDbEntity
  8
LINE
100
AcDbLine
 10
-2.673662025839263
 20
1.037995764817379
 30
0.0
 11
-2.673662025839263
 21
1.187087317642909
 31
0.0
  0
LINE
  5
383
330
17
100
AcDbEntity
  8
LINE
100
AcDbLine
 10
-2.524981102001777
 20
1.037995764817379
 30
0.0
 11
-2.524981102001777
 21
1.08967473864954
 31
0.0
  0
LINE
  5
384
330
17
100
AcDbEntity
  8
LINE
100
AcDbLine
 10
-2.618781699645825
 20
1.037995764817379
 30
0.0
 11
-2.618781699645825
 21
1.08967473864954
 31
0.0
  0
LINE
  5
385
330
17
100
AcDbEntity
  8
LINE
100
AcDbLine
 10
-2.472819929276358
 20
1.037995764817379
 30
0.0
 11
-2.472819929276358
 21
1.135408343810741
 31
0.0
  0
LINE
  5
386
330
17
100
AcDbEntity
  8
LINE
100
AcDbLine
 10
-2.224673968603957
 20
1.125890978970943
 30
0.0
 11
-2.150713415644953
 21
1.284499896636271
 31
0.0
  0
LINE
  5
387
330
17
100
AcDbEntity
  8
LINE
100
AcDbLine
 10
-2.287978393396604
 20
1.123517606468825
 30
0.0
 11
-2.212911118664182
 21
1.284499896636271
 31
0.0
  0
LINE
  5
388
330
17
100
AcDbEntity
  8
LINE
100
AcDbLine
 10
-2.287978393396604
 20
1.284499896636271
 30
0.0
 11
-2.287978393396604
 21
1.123517606468825
 31
0.0
  0
LINE
  5
389
330
17
100
AcDbEntity
  8
LINE
100
AcDbLine
 10
-2.212911118664182
 20
1.284499896636271
 30
0.0
 11
-2.150713415644953
 21
1.284499896636271
 31
0.0
  0
LINE
  5
38A
330
17
100
AcDbEntity
  8
LINE
100
AcDbLine
 10
-2.0674788625102
 20
1.284499896636271
 30
0.0
 11
-1.996046610849963
 21
1.284499896636271
 31
0.0
  0
LINE
  5
38B
330
17
100
AcDbEntity
  8
LINE
100
AcDbLine
 10
-1.279963495611411
 20
0.9622016899680394
 30
0.0
 11
-1.279963495611411
 21
1.066807936068935
 31
0.0
  0
LINE
  5
38C
330
17
100
AcDbEntity
  8
LINE
100
AcDbLine
 10
-1.334843821804835
 20
1.056746542933477
 30
0.0
 11
-1.334843821804835
 21
0.9587389919554398
 31
0.0
  0
LINE
  5
38D
330
17
100
AcDbEntity
  8
LINE
100
AcDbLine
 10
-1.39338283641119
 20
0.9405831858240105
 30
0.0
 11
-1.39338283641119
 21
1.08967473864954
 31
0.0
  0
LINE
  5
38E
330
17
100
AcDbEntity
  8
LINE
100
AcDbLine
 10
-1.448263162604635
 20
0.9405831858240105
 30
0.0
 11
-1.448263162604635
 21
1.284499896636271
 31
0.0
  0
LINE
  5
38F
330
17
100
AcDbEntity
  8
LINE
100
AcDbLine
 10
-1.558023814991532
 20
0.9863167909852119
 30
0.0
 11
-1.558023814991532
 21
1.08967473864954
 31
0.0
  0
LINE
  5
390
330
17
100
AcDbEntity
  8
LINE
100
AcDbLine
 10
-1.612904141184963
 20
0.9405831858240105
 30
0.0
 11
-1.612904141184963
 21
1.284499896636271
 31
0.0
  0
LINE
  5
391
330
17
100
AcDbEntity
  8
LINE
100
AcDbLine
 10
-1.832425445958736
 20
1.284499896636271
 30
0.0
 11
-1.832425445958736
 21
0.9405831858240105
 31
0.0
  0
LINE
  5
392
330
17
100
AcDbEntity
  8
LINE
100
AcDbLine
 10
-1.647521182065708
 20
1.021779890247215
 30
0.0
 11
-1.736568139504046
 21
1.212741706724028
 31
0.0
  0
LINE
  5
393
330
17
100
AcDbEntity
  8
LINE
100
AcDbLine
 10
-1.699636754567805
 20
1.012341375736239
 30
0.0
 11
-1.788683712006115
 21
1.203303192213058
 31
0.0
  0
LINE
  5
394
330
17
100
AcDbEntity
  8
LINE
100
AcDbLine
 10
-1.481191358320698
 20
0.9405831858240105
 30
0.0
 11
-1.481191358320698
 21
0.9863167909852119
 31
0.0
  0
LINE
  5
395
330
17
100
AcDbEntity
  8
LINE
100
AcDbLine
 10
-1.558023814991532
 20
0.9863167909852119
 30
0.0
 11
-1.481191358320698
 21
0.9863167909852119
 31
0.0
  0
LINE
  5
396
330
17
100
AcDbEntity
  8
LINE
100
AcDbLine
 10
-1.448263162604635
 20
0.9405831858240105
 30
0.0
 11
-1.39338283641119
 21
0.9405831858240105
 31
0.0
  0
ARC
  5
397
330
17
100
AcDbEntity
  8
LINE
100
AcDbCircle
 10
-1.716216243562529
 20
1.004610233049699
 30
0.0
 40
0.0182934420644818
100
AcDbArc
 50
270.0
 51
24.9999999999988
  0
ARC
  5
398
330
17
100
AcDbEntity
  8
LINE
100
AcDbCircle
 10
-1.699249187729304
 20
0.9976587250652055
 30
0.0
 40
0.057075539241183
100
AcDbArc
 50
270.0
 51
24.9999999999988
  0
LINE
  5
399
330
17
100
AcDbEntity
  8
LINE
100
AcDbLine
 10
-1.795838561829791
 20
0.9405831858240105
 30
0.0
 11
-1.699249187729304
 21
0.9405831858240105
 31
0.0
  0
LINE
  5
39A
330
17
100
AcDbEntity
  8
LINE
100
AcDbLine
 10
-1.795838561829791
 20
0.9863167909852119
 30
0.0
 11
-1.716216243562529
 21
0.9863167909852119
 31
0.0
  0
LINE
  5
39B
330
17
100
AcDbEntity
  8
LINE
100
AcDbLine
 10
-1.795838561829791
 20
0.9863167909852119
 30
0.0
 11
-1.795838561829791
 21
0.9405831858240105
 31
0.0
  0
LINE
  5
39C
330
17
100
AcDbEntity
  8
LINE
100
AcDbLine
 10
-1.612904141184963
 20
0.9405831858240105
 30
0.0
 11
-1.481191358320698
 21
0.9405831858240105
 31
0.0
  0
LINE
  5
39D
330
17
100
AcDbEntity
  8
LINE
100
AcDbLine
 10
-1.332555644923248
 20
0.9405831858240105
 30
0.0
 11
-1.274272117413209
 21
0.9405831858240105
 31
0.0
  0
ARC
  5
39E
330
17
100
AcDbEntity
  8
LINE
100
AcDbCircle
 10
-1.261670053546911
 20
0.9587389919554398
 30
0.0
 40
0.073173768257927
100
AcDbArc
 50
180.0
 51
194.3662353416889
  0
ARC
  5
39F
330
17
100
AcDbEntity
  8
LINE
100
AcDbCircle
 10
-1.236059234656654
 20
0.9622016899680394
 30
0.0
 40
0.0439042609547562
100
AcDbArc
 50
180.0
 51
209.4985180895031
  0
LINE
  5
3A0
330
17
100
AcDbEntity
  8
LINE
100
AcDbLine
 10
-1.35679595228221
 20
1.135408343810741
 30
0.0
 11
-1.39338283641119
 21
1.135408343810741
 31
0.0
  0
LINE
  5
3A1
330
17
100
AcDbEntity
  8
LINE
100
AcDbLine
 10
-1.39338283641119
 20
1.238766291475069
 30
0.0
 11
-1.35679595228221
 21
1.238766291475069
 31
0.0
  0
LINE
  5
3A2
330
17
100
AcDbEntity
  8
LINE
100
AcDbLine
 10
-1.448263162604635
 20
1.284499896636271
 30
0.0
 11
-1.337039034852564
 21
1.284499896636271
 31
0.0
  0
ARC
  5
3A3
330
17
100
AcDbEntity
  8
LINE
100
AcDbCircle
 10
-1.367772017520905
 20
1.056746542933477
 30
0.0
 40
0.0329281957160671
100
AcDbArc
 50
0.0
 51
90.0
  0
LINE
  5
3A4
330
17
100
AcDbEntity
  8
LINE
100
AcDbLine
 10
-1.39338283641119
 20
1.135408343810741
 30
0.0
 11
-1.39338283641119
 21
1.238766291475069
 31
0.0
  0
LINE
  5
3A5
330
17
100
AcDbEntity
  8
LINE
100
AcDbLine
 10
-1.558023814991532
 20
1.135408343810741
 30
0.0
 11
-1.558023814991532
 21
1.238766291475069
 31
0.0
  0
LINE
  5
3A6
330
17
100
AcDbEntity
  8
LINE
100
AcDbLine
 10
-1.481191358320698
 20
1.08967473864954
 30
0.0
 11
-1.481191358320698
 21
1.135408343810741
 31
0.0
  0
LINE
  5
3A7
330
17
100
AcDbEntity
  8
LINE
100
AcDbLine
 10
-1.481191358320698
 20
1.08967473864954
 30
0.0
 11
-1.558023814991532
 21
1.08967473864954
 31
0.0
  0
LINE
  5
3A8
330
17
100
AcDbEntity
  8
LINE
100
AcDbLine
 10
-1.367772017520905
 20
1.08967473864954
 30
0.0
 11
-1.39338283641119
 21
1.08967473864954
 31
0.0
  0
LINE
  5
3A9
330
17
100
AcDbEntity
  8
LINE
100
AcDbLine
 10
-1.481191358320698
 20
1.135408343810741
 30
0.0
 11
-1.558023814991532
 21
1.135408343810741
 31
0.0
  0
LINE
  5
3AA
330
17
100
AcDbEntity
  8
LINE
100
AcDbLine
 10
-1.481191358320698
 20
1.238766291475069
 30
0.0
 11
-1.481191358320698
 21
1.284499896636271
 31
0.0
  0
LINE
  5
3AB
330
17
100
AcDbEntity
  8
LINE
100
AcDbLine
 10
-1.558023814991532
 20
1.238766291475069
 30
0.0
 11
-1.481191358320698
 21
1.238766291475069
 31
0.0
  0
LINE
  5
3AC
330
17
100
AcDbEntity
  8
LINE
100
AcDbLine
 10
-1.65680840213972
 20
1.284499896636271
 30
0.0
 11
-1.65680840213972
 21
1.238766291475069
 31
0.0
  0
ARC
  5
3AD
330
17
100
AcDbEntity
  8
LINE
100
AcDbCircle
 10
-1.736955706342505
 20
1.22742435739509
 30
0.0
 40
0.057075539241183
100
AcDbArc
 50
90.0
 51
204.9999999999986
  0
ARC
  5
3AE
330
17
100
AcDbEntity
  8
LINE
100
AcDbCircle
 10
-1.7199886505093
 20
1.220472849410582
 30
0.0
 40
0.0182934420644818
100
AcDbArc
 50
90.0
 51
204.9999999999986
  0
LINE
  5
3AF
330
17
100
AcDbEntity
  8
LINE
100
AcDbLine
 10
-1.65680840213972
 20
1.238766291475069
 30
0.0
 11
-1.7199886505093
 21
1.238766291475054
 31
0.0
  0
LINE
  5
3B0
330
17
100
AcDbEntity
  8
LINE
100
AcDbLine
 10
-1.65680840213972
 20
1.284499896636271
 30
0.0
 11
-1.736955706342505
 21
1.284499896636271
 31
0.0
  0
LINE
  5
3B1
330
17
100
AcDbEntity
  8
LINE
100
AcDbLine
 10
-1.612904141184963
 20
1.284499896636271
 30
0.0
 11
-1.481191358320698
 21
1.284499896636271
 31
0.0
  0
LINE
  5
3B2
330
17
100
AcDbEntity
  8
LINE
100
AcDbLine
 10
-1.334843821804835
 20
1.157360474288124
 30
0.0
 11
-1.334843821804835
 21
1.21681416099768
 31
0.0
  0
LINE
  5
3B3
330
17
100
AcDbEntity
  8
LINE
100
AcDbLine
 10
-1.279963495611411
 20
1.22742435739509
 30
0.0
 11
-1.279963495611411
 21
1.158275146391345
 31
0.0
  0
ARC
  5
3B4
330
17
100
AcDbEntity
  8
LINE
100
AcDbCircle
 10
-1.35679595228221
 20
1.157360474288124
 30
0.0
 40
0.0219521304773781
100
AcDbArc
 50
270.0
 51
0.0
  0
ARC
  5
3B5
330
17
100
AcDbEntity
  8
LINE
100
AcDbCircle
 10
-1.325697100772591
 20
1.158275146391345
 30
0.0
 40
0.0457336051612044
100
AcDbArc
 50
270.0
 51
0.0
  0
ARC
  5
3B6
330
17
100
AcDbEntity
  8
LINE
100
AcDbCircle
 10
-1.337039034852564
 20
1.22742435739509
 30
0.0
 40
0.057075539241183
100
AcDbArc
 50
0.0
 51
90.0
  0
ARC
  5
3B7
330
17
100
AcDbEntity
  8
LINE
100
AcDbCircle
 10
-1.35679595228221
 20
1.21681416099768
 30
0.0
 40
0.0219521304773781
100
AcDbArc
 50
0.0
 51
90.0
  0
ARC
  5
3B8
330
17
100
AcDbEntity
  8
LINE
100
AcDbCircle
 10
-1.325697100772591
 20
1.066807936068935
 30
0.0
 40
0.0457336051612044
100
AcDbArc
 50
0.0
 51
90.0
  0
ENDSEC
  0
SECTION
  2
OBJECTS
  0
DICTIONARY
  5
C
330
0
100
AcDbDictionary
281
     1
  3
ACAD_GROUP
350
D
  3
ACAD_LAYOUT
350
11D
  3
ACAD_MLINESTYLE
350
1A
  3
ACAD_PLOTSETTINGS
350
11E
  3
ACAD_PLOTSTYLENAME
350
11B
  3
ACDBVARIABLEDICTIONARY
350
43
  0
DICTIONARY
  5
D
102
{ACAD_REACTORS
330
C
102
}
330
C
100
AcDbDictionary
281
     1
  0
DICTIONARY
  5
11D
102
{ACAD_REACTORS
330
C
102
}
330
C
100
AcDbDictionary
281
     1
  3
Layout1
350
120
  3
Model
350
11F
  0
DICTIONARY
  5
1A
102
{ACAD_REACTORS
330
C
102
}
330
C
100
AcDbDictionary
281
     1
  3
STANDARD
350
1B
  0
DICTIONARY
  5
11E
102
{ACAD_REACTORS
330
C
102
}
330
C
100
AcDbDictionary
281
     1
  0
ACDBDICTIONARYWDFLT
  5
11B
102
{ACAD_REACTORS
330
C
102
}
330
C
100
AcDbDictionary
281
     1
  3
Normal
350
11C
100
AcDbDictionaryWithDefault
340
11C
  0
DICTIONARY
  5
43
102
{ACAD_REACTORS
330
C
102
}
330
C
100
AcDbDictionary
281
     1
  3
DIMADEC
350
44
  3
DIMASSOC
350
1A1
  0
LAYOUT
  5
120
102
{ACAD_REACTORS
330
11D
102
}
330
11D
100
AcDbPlotSettings
  1

  2
\\PRINT_SRV\HP LaserJet (Engineering)
  4

  6

 40
0.0
 41
0.0
 42
0.0
 43
0.0
 44
0.0
 45
0.0
 46
0.0
 47
0.0
 48
0.0
 49
0.0
140
0.0
141
0.0
142
1.0
143
1.0
 70
   688
 72
     0
 73
     0
 74
     5
  7
KPT.ctb
 75
    16
147
1.0
148
0.0
149
0.0
100
AcDbLayout
  1
Layout1
 70
     0
 71
     1
 10
0.0
 20
0.0
 11
12.0
 21
9.0
 12
196.4574860773915
 22
50.0
 32
107.8535326309645
 14
1.000000000000000E+20
 24
1.000000000000000E+20
 34
1.000000000000000E+20
 15
-1.000000000000000E+20
 25
-1.000000000000000E+20
 35
-1.000000000000000E+20
146
0.0
 13
0.0
 23
0.0
 33
0.0
 16
1.0
 26
0.0
 36
0.0
 17
0.0
 27
1.0
 37
0.0
 76
     0
330
14
  0
LAYOUT
  5
11F
102
{ACAD_REACTORS
330
11D
102
}
330
11D
100
AcDbPlotSettings
  1

  2
\\PRINT_SRV\HP LaserJet (Engineering)
  4

  6

 40
0.0
 41
0.0
 42
0.0
 43
0.0
 44
0.0
 45
0.0
 46
0.0
 47
0.0
 48
0.0
 49
0.0
140
0.0
141
0.0
142
1.0
143
1.0
 70
  1712
 72
     0
 73
     0
 74
     0
  7
KPT.ctb
 75
     0
147
1.0
148
0.0
149
0.0
100
AcDbLayout
  1
Model
 70
     1
 71
     0
 10
0.0
 20
0.0
 11
12.0
 21
9.0
 12
0.0
 22
0.0
 32
0.0
 14
0.0
 24
0.0
 34
0.0
 15
0.0
 25
0.0
 35
0.0
146
0.0
 13
0.0
 23
0.0
 33
0.0
 16
1.0
 26
0.0
 36
0.0
 17
0.0
 27
1.0
 37
0.0
 76
     0
330
17
  0
MLINESTYLE
  5
1B
102
{ACAD_REACTORS
330
1A
102
}
330
1A
100
AcDbMlineStyle
  2
STANDARD
 70
     0
  3

 62
   256
 51
90.0
 52
90.0
 71
     2
 49
0.5
 62
   256
  6
BYLAYER
 49
-0.5
 62
   256
  6
BYLAYER
  0
ACDBPLACEHOLDER
  5
11C
102
{ACAD_REACTORS
330
11B
102
}
330
11B
  0
DICTIONARYVAR
  5
44
102
{ACAD_REACTORS
330
43
102
}
330
43
100
DictionaryVariables
280
     0
  1
0
  0
DICTIONARYVAR
  5
1A1
102
{ACAD_REACTORS
330
43
102
}
330
43
100
DictionaryVariables
280
     0
  1
1
  0
ENDSEC
  0
EOF
