  0
SECTION
  2
HEADER
  9
$ACADVER
  1
AC1015
  9
$ACADMAINTVER
 70
    13
  9
$DWGCODEPAGE
  3
ANSI_1252
  9
$INSBASE
 10
0.0
 20
0.0
 30
0.0
  9
$EXTMIN
 10
-5.032277997469142
 20
-0.9849980300000007
 30
0.0
  9
$EXTMAX
 10
3.151949563593194
 20
2.984320657764069
 30
0.0
  9
$LIMMIN
 10
0.0
 20
0.0
  9
$LIMMAX
 10
5.5
 20
4.25
  9
$ORTHOMODE
 70
     1
  9
$REGENMODE
 70
     1
  9
$FILLMODE
 70
     1
  9
$QTEXTMODE
 70
     0
  9
$MIRRTEXT
 70
     1
  9
$LTSCALE
 40
1.0
  9
$ATTMODE
 70
     1
  9
$TEXTSIZE
 40
3.2
  9
$TRACEWID
 40
0.05
  9
$TEXTSTYLE
  7
ROMANS
  9
$CLAYER
  8
DIM
  9
$CELTYPE
  6
BYLAYER
  9
$CECOLOR
 62
   256
  9
$CELTSCALE
 40
1.0
  9
$DISPSILH
 70
     0
  9
$DIMSCALE
 40
1.0
  9
$DIMASZ
 40
0.18
  9
$DIMEXO
 40
0.0625
  9
$DIMDLI
 40
0.38
  9
$DIMRND
 40
0.0
  9
$DIMDLE
 40
0.0
  9
$DIMEXE
 40
0.18
  9
$DIMTP
 40
0.0
  9
$DIMTM
 40
0.0
  9
$DIMTXT
 40
0.18
  9
$DIMCEN
 40
0.09
  9
$DIMTSZ
 40
0.0
  9
$DIMTOL
 70
     0
  9
$DIMLIM
 70
     0
  9
$DIMTIH
 70
     0
  9
$DIMTOH
 70
     0
  9
$DIMSE1
 70
     0
  9
$DIMSE2
 70
     0
  9
$DIMTAD
 70
     1
  9
$DIMZIN
 70
     0
  9
$DIMBLK
  1

  9
$DIMASO
 70
     1
  9
$DIMSHO
 70
     0
  9
$DIMPOST
  1

  9
$DIMAPOST
  1

  9
$DIMALT
 70
     0
  9
$DIMALTD
 70
     2
  9
$DIMALTF
 40
25.4
  9
$DIMLFAC
 40
1.0
  9
$DIMTOFL
 70
     0
  9
$DIMTVP
 40
0.0
  9
$DIMTIX
 70
     0
  9
$DIMSOXD
 70
     0
  9
$DIMSAH
 70
     0
  9
$DIMBLK1
  1

  9
$DIMBLK2
  1

  9
$DIMSTYLE
  2
STANDARD
  9
$DIMCLRD
 70
     0
  9
$DIMCLRE
 70
     0
  9
$DIMCLRT
 70
     0
  9
$DIMTFAC
 40
1.0
  9
$DIMGAP
 40
0.09
  9
$DIMJUST
 70
     0
  9
$DIMSD1
 70
     0
  9
$DIMSD2
 70
     0
  9
$DIMTOLJ
 70
     1
  9
$DIMTZIN
 70
     0
  9
$DIMALTZ
 70
     0
  9
$DIMALTTZ
 70
     0
  9
$DIMUPT
 70
     0
  9
$DIMDEC
 70
     3
  9
$DIMTDEC
 70
     3
  9
$DIMALTU
 70
     2
  9
$DIMALTTD
 70
     2
  9
$DIMTXSTY
  7
ROMANS
  9
$DIMAUNIT
 70
     0
  9
$DIMADEC
 70
     0
  9
$DIMALTRND
 40
0.0
  9
$DIMAZIN
 70
     0
  9
$DIMDSEP
 70
    46
  9
$DIMATFIT
 70
     3
  9
$DIMFRAC
 70
     0
  9
$DIMLDRBLK
  1

  9
$DIMLUNIT
 70
     2
  9
$DIMLWD
 70
    -2
  9
$DIMLWE
 70
    -2
  9
$DIMTMOVE
 70
     0
  9
$LUNITS
 70
     2
  9
$LUPREC
 70
     4
  9
$SKETCHINC
 40
0.1
  9
$FILLETRAD
 40
0.0
  9
$AUNITS
 70
     0
  9
$AUPREC
 70
     0
  9
$MENU
  1
acad
  9
$ELEVATION
 40
0.0
  9
$PELEVATION
 40
0.0
  9
$THICKNESS
 40
0.0
  9
$LIMCHECK
 70
     0
  9
$CHAMFERA
 40
4.0
  9
$CHAMFERB
 40
4.0
  9
$CHAMFERC
 40
0.0
  9
$CHAMFERD
 40
0.0
  9
$SKPOLY
 70
     0
  9
$TDCREATE
 40
2450004.748201041
  9
$TDUCREATE
 40
2450004.956534375
  9
$TDUPDATE
 40
2452852.609649317
  9
$TDUUPDATE
 40
2452852.817982650
  9
$TDINDWG
 40
0.0041371875
  9
$TDUSRTIMER
 40
0.0041368403
  9
$USRTIMER
 70
     1
  9
$ANGBASE
 50
0.0
  9
$ANGDIR
 70
     0
  9
$PDMODE
 70
     0
  9
$PDSIZE
 40
0.0
  9
$PLINEWID
 40
0.0
  9
$SPLFRAME
 70
     0
  9
$SPLINETYPE
 70
     6
  9
$SPLINESEGS
 70
     8
  9
$HANDSEED
  5
3CD
  9
$SURFTAB1
 70
     6
  9
$SURFTAB2
 70
     6
  9
$SURFTYPE
 70
     6
  9
$SURFU
 70
     6
  9
$SURFV
 70
     6
  9
$UCSBASE
  2

  9
$UCSNAME
  2

  9
$UCSORG
 10
0.0
 20
0.0
 30
0.0
  9
$UCSXDIR
 10
1.0
 20
0.0
 30
0.0
  9
$UCSYDIR
 10
0.0
 20
1.0
 30
0.0
  9
$UCSORTHOREF
  2

  9
$UCSORTHOVIEW
 70
     0
  9
$UCSORGTOP
 10
0.0
 20
0.0
 30
0.0
  9
$UCSORGBOTTOM
 10
0.0
 20
0.0
 30
0.0
  9
$UCSORGLEFT
 10
0.0
 20
0.0
 30
0.0
  9
$UCSORGRIGHT
 10
0.0
 20
0.0
 30
0.0
  9
$UCSORGFRONT
 10
0.0
 20
0.0
 30
0.0
  9
$UCSORGBACK
 10
0.0
 20
0.0
 30
0.0
  9
$PUCSBASE
  2

  9
$PUCSNAME
  2

  9
$PUCSORG
 10
0.0
 20
0.0
 30
0.0
  9
$PUCSXDIR
 10
1.0
 20
0.0
 30
0.0
  9
$PUCSYDIR
 10
0.0
 20
1.0
 30
0.0
  9
$PUCSORTHOREF
  2

  9
$PUCSORTHOVIEW
 70
     0
  9
$PUCSORGTOP
 10
0.0
 20
0.0
 30
0.0
  9
$PUCSORGBOTTOM
 10
0.0
 20
0.0
 30
0.0
  9
$PUCSORGLEFT
 10
0.0
 20
0.0
 30
0.0
  9
$PUCSORGRIGHT
 10
0.0
 20
0.0
 30
0.0
  9
$PUCSORGFRONT
 10
0.0
 20
0.0
 30
0.0
  9
$PUCSORGBACK
 10
0.0
 20
0.0
 30
0.0
  9
$USERI1
 70
     0
  9
$USERI2
 70
     0
  9
$USERI3
 70
     0
  9
$USERI4
 70
     0
  9
$USERI5
 70
     0
  9
$USERR1
 40
0.0
  9
$USERR2
 40
0.0
  9
$USERR3
 40
0.0
  9
$USERR4
 40
0.0
  9
$USERR5
 40
0.0
  9
$WORLDVIEW
 70
     1
  9
$SHADEDGE
 70
     3
  9
$SHADEDIF
 70
    70
  9
$TILEMODE
 70
     1
  9
$MAXACTVP
 70
    16
  9
$PINSBASE
 10
28.05518966970319
 20
50.0
 30
8.950068156329773
  9
$PLIMCHECK
 70
     0
  9
$PEXTMIN
 10
1.000000000000000E+20
 20
1.000000000000000E+20
 30
1.000000000000000E+20
  9
$PEXTMAX
 10
-1.000000000000000E+20
 20
-1.000000000000000E+20
 30
-1.000000000000000E+20
  9
$PLIMMIN
 10
0.0
 20
0.0
  9
$PLIMMAX
 10
12.0
 20
9.0
  9
$UNITMODE
 70
     0
  9
$VISRETAIN
 70
     0
  9
$PLINEGEN
 70
     0
  9
$PSLTSCALE
 70
     0
  9
$TREEDEPTH
 70
  3020
  9
$CMLSTYLE
  2
STANDARD
  9
$CMLJUST
 70
     0
  9
$CMLSCALE
 40
1.0
  9
$PROXYGRAPHICS
 70
     1
  9
$MEASUREMENT
 70
     0
  9
$CELWEIGHT
370
    -1
  9
$ENDCAPS
280
     0
  9
$JOINSTYLE
280
     0
  9
$LWDISPLAY
290
     0
  9
$INSUNITS
 70
     0
  9
$HYPERLINKBASE
  1

  9
$STYLESHEET
  1

  9
$XEDIT
290
     1
  9
$CEPSNTYPE
380
     0
  9
$PSTYLEMODE
290
     1
  9
$FINGERPRINTGUID
  2
{EC733466-CC91-4D6E-A416-F4FA22420165}
  9
$VERSIONGUID
  2
{24A6C75B-0841-4C56-9F66-AA70A59AC6BA}
  9
$EXTNAMES
290
     1
  9
$PSVPSCALE
 40
0.0
  9
$OLESTARTUP
290
     0
  0
ENDSEC
  0
SECTION
  2
CLASSES
  0
CLASS
  1
DICTIONARYVAR
  2
AcDbDictionaryVar
  3
AutoCAD 2000
 90
        0
280
     0
281
     0
  0
CLASS
  1
LWPOLYLINE
  2
AcDbPolyline
  3
AutoCAD 2000
 90
    32768
280
     0
281
     1
  0
CLASS
  1
ACDBDICTIONARYWDFLT
  2
AcDbDictionaryWithDefault
  3
AutoCAD 2000
 90
        0
280
     0
281
     0
  0
CLASS
  1
ACDBPLACEHOLDER
  2
AcDbPlaceHolder
  3
AutoCAD 2000
 90
        0
280
     0
281
     0
  0
CLASS
  1
LAYOUT
  2
AcDbLayout
  3
AutoCAD 2000
 90
        0
280
     0
281
     0
  0
ENDSEC
  0
SECTION
  2
TABLES
  0
TABLE
  2
VPORT
  5
8
330
0
100
AcDbSymbolTable
 70
     2
  0
VPORT
  5
3CC
330
8
100
AcDbSymbolTableRecord
100
AcDbViewportTableRecord
  2
*Active
 70
     0
 10
0.0
 20
0.0
 11
1.0
 21
1.0
 12
-0.3006843023251342
 22
0.9995179954035878
 13
0.0
 23
0.0
 14
1.0
 24
1.0
 15
0.0
 25
0.0
 16
0.0
 26
0.0
 36
1.0
 17
0.0
 27
0.0
 37
0.0
 40
5.489643181297288
 41
1.731751824817518
 42
50.0
 43
0.0
 44
0.0
 50
0.0
 51
0.0
 71
     0
 72
   100
 73
     1
 74
     1
 75
     0
 76
     0
 77
     0
 78
     0
281
     0
 65
     1
110
0.0
120
0.0
130
0.0
111
1.0
121
0.0
131
0.0
112
0.0
122
1.0
132
0.0
 79
     0
146
0.0
  0
ENDTAB
  0
TABLE
  2
LTYPE
  5
5
330
0
100
AcDbSymbolTable
 70
     3
  0
LTYPE
  5
11
330
5
100
AcDbSymbolTableRecord
100
AcDbLinetypeTableRecord
  2
BYBLOCK
 70
     0
  3

 72
    65
 73
     0
 40
0.0
  0
LTYPE
  5
12
330
5
100
AcDbSymbolTableRecord
100
AcDbLinetypeTableRecord
  2
BYLAYER
 70
     0
  3

 72
    65
 73
     0
 40
0.0
  0
LTYPE
  5
13
330
5
100
AcDbSymbolTableRecord
100
AcDbLinetypeTableRecord
  2
CONTINUOUS
 70
     0
  3
Solid line
 72
    65
 73
     0
 40
0.0
  0
LTYPE
  5
31
330
5
100
AcDbSymbolTableRecord
100
AcDbLinetypeTableRecord
  2
HIDDEN
 70
     0
  3
_ _ _ _ _ _ _ _ _ _ _ _ _ _ _ _ _ _ _ _ _ _ _
 72
    65
 73
     2
 40
0.375
 49
0.25
 74
     0
 49
-0.125
 74
     0
  0
LTYPE
  5
33
330
5
100
AcDbSymbolTableRecord
100
AcDbLinetypeTableRecord
  2
CENTER
 70
     0
  3
____ _ ____ _ ____ _ ____ _ ____ _ ____ _ ____
 72
    65
 73
     4
 40
2.0
 49
1.25
 74
     0
 49
-0.25
 74
     0
 49
0.25
 74
     0
 49
-0.25
 74
     0
  0
ENDTAB
  0
TABLE
  2
LAYER
  5
2
330
0
100
AcDbSymbolTable
 70
     6
  0
LAYER
  5
E
330
2
100
AcDbSymbolTableRecord
100
AcDbLayerTableRecord
  2
0
 70
     0
 62
     7
  6
CONTINUOUS
370
    -3
390
129
  0
LAYER
  5
34
330
2
100
AcDbSymbolTableRecord
100
AcDbLayerTableRecord
  2
LINE
 70
     0
 62
     3
  6
CONTINUOUS
370
    -3
390
129
  0
LAYER
  5
35
330
2
100
AcDbSymbolTableRecord
100
AcDbLayerTableRecord
  2
HIDDEN
 70
     0
 62
     2
  6
HIDDEN
370
    -3
390
129
  0
LAYER
  5
37
330
2
100
AcDbSymbolTableRecord
100
AcDbLayerTableRecord
  2
CTRL
 70
     0
 62
     1
  6
CENTER
370
    -3
390
129
  0
LAYER
  5
38
330
2
100
AcDbSymbolTableRecord
100
AcDbLayerTableRecord
  2
DIM
 70
     0
 62
     7
  6
CONTINUOUS
370
    -3
390
129
  0
LAYER
  5
3D
330
2
100
AcDbSymbolTableRecord
100
AcDbLayerTableRecord
  2
DEFPOINTS
 70
     0
 62
     7
  6
CONTINUOUS
290
     0
370
    -3
390
129
  0
ENDTAB
  0
TABLE
  2
STYLE
  5
3
330
0
100
AcDbSymbolTable
 70
     4
  0
STYLE
  5
F
330
3
100
AcDbSymbolTableRecord
100
AcDbTextStyleTableRecord
  2
STANDARD
 70
     0
 40
0.0
 41
1.0
 50
0.0
 71
     0
 42
3.2
  3
txt
  4

  0
STYLE
  5
132
330
3
100
AcDbSymbolTableRecord
100
AcDbTextStyleTableRecord
  2
ROMANS
 70
     0
 40
0.0
 41
1.0
 50
0.0
 71
     0
 42
3.2
  3
romans.shx
  4

  0
STYLE
  5
1BB
330
3
100
AcDbSymbolTableRecord
100
AcDbTextStyleTableRecord
  2
STYLE1
 70
     0
 40
0.0
 41
1.0
 50
0.0
 71
     0
 42
0.2
  3
romans.shx
  4

  0
STYLE
  5
1BC
330
3
100
AcDbSymbolTableRecord
100
AcDbTextStyleTableRecord
  2
LOGO
 70
     0
 40
0.0
 41
0.6
 50
0.0
 71
     0
 42
4.7
  3
ARIAL.TTF
  4

1001
ACAD
1000
Arial
1071
       34
  0
ENDTAB
  0
TABLE
  2
VIEW
  5
6
330
0
100
AcDbSymbolTable
 70
     0
  0
ENDTAB
  0
TABLE
  2
UCS
  5
7
330
0
100
AcDbSymbolTable
 70
     0
  0
ENDTAB
  0
TABLE
  2
APPID
  5
9
330
0
100
AcDbSymbolTable
 70
     1
  0
APPID
  5
10
330
9
100
AcDbSymbolTableRecord
100
AcDbRegAppTableRecord
  2
ACAD
 70
     0
  0
ENDTAB
  0
TABLE
  2
DIMSTYLE
  5
A
330
0
100
AcDbSymbolTable
 70
     2
100
AcDbDimStyleTable
 71
     1
340
120
  0
DIMSTYLE
105
120
102
{ACAD_REACTORS
330
137
330
144
330
151
330
15E
102
}
330
A
100
AcDbSymbolTableRecord
100
AcDbDimStyleTableRecord
  2
STANDARD
 70
     0
 73
     0
 74
     0
 77
     1
271
     3
272
     3
340
132
  0
DIMSTYLE
105
1BD
330
A
100
AcDbSymbolTableRecord
100
AcDbDimStyleTableRecord
  2
AM_ANSI
 70
     0
  4
"
 41
2.5
 42
1.0
 43
10.0
 44
1.0
 47
0.1
 48
0.1
 78
     8
 79
     2
140
3.5
141
0.0
143
0.0393701
146
0.71
147
1.5
176
   256
177
   256
178
     2
271
     2
272
     3
274
     4
284
     8
340
F
371
    -1
372
    -1
  0
ENDTAB
  0
TABLE
  2
BLOCK_RECORD
  5
1
330
0
100
AcDbSymbolTable
 70
     5
  0
BLOCK_RECORD
  5
17
330
1
100
AcDbSymbolTableRecord
100
AcDbBlockTableRecord
  2
*MODEL_SPACE
340
12C
  0
BLOCK_RECORD
  5
14
330
1
100
AcDbSymbolTableRecord
100
AcDbBlockTableRecord
  2
*PAPER_SPACE
340
12D
  0
BLOCK_RECORD
  5
138
330
1
100
AcDbSymbolTableRecord
100
AcDbBlockTableRecord
  2
*D0
340
0
  0
BLOCK_RECORD
  5
145
330
1
100
AcDbSymbolTableRecord
100
AcDbBlockTableRecord
  2
*D1
340
0
  0
BLOCK_RECORD
  5
152
330
1
100
AcDbSymbolTableRecord
100
AcDbBlockTableRecord
  2
*D2
340
0
  0
BLOCK_RECORD
  5
15F
330
1
100
AcDbSymbolTableRecord
100
AcDbBlockTableRecord
  2
*D3
340
0
  0
ENDTAB
  0
ENDSEC
  0
SECTION
  2
BLOCKS
  0
BLOCK
  5
40
330
17
100
AcDbEntity
  8
0
100
AcDbBlockBegin
  2
*MODEL_SPACE
 70
     0
 10
0.0
 20
0.0
 30
0.0
  3
*MODEL_SPACE
  1

  0
ENDBLK
  5
41
330
17
100
AcDbEntity
  8
0
100
AcDbBlockEnd
  0
BLOCK
  5
3E
330
14
100
AcDbEntity
 67
     1
  8
0
100
AcDbBlockBegin
  2
*PAPER_SPACE
 70
     0
 10
0.0
 20
0.0
 30
0.0
  3
*PAPER_SPACE
  1

  0
ENDBLK
  5
3F
330
14
100
AcDbEntity
 67
     1
  8
0
100
AcDbBlockEnd
  0
BLOCK
  5
142
330
138
100
AcDbEntity
  8
0
100
AcDbBlockBegin
  2
*D0
 70
     1
 10
0.0
 20
0.0
 30
0.0
  3
*D0
  1

  0
LINE
  5
1AC
330
138
100
AcDbEntity
  8
DIM
 62
     0
370
    -2
100
AcDbLine
 10
-4.003436999999998
 20
0.4998021500000009
 30
0.0
 11
-4.942277997469141
 21
0.4998021500000013
 31
0.0
  0
LINE
  5
1AD
330
138
100
AcDbEntity
  8
DIM
 62
     0
370
    -2
100
AcDbLine
 10
-4.003436999999998
 20
-0.4998021499999998
 30
0.0
 11
-4.942277997469141
 21
-0.4998021499999995
 31
0.0
  0
LINE
  5
1AE
330
138
100
AcDbEntity
  8
DIM
 62
     0
370
    -2
100
AcDbLine
 10
-4.762277997469141
 20
0.3198021500000011
 30
0.0
 11
-4.762277997469141
 21
-0.3198021499999996
 31
0.0
  0
SOLID
  5
1AF
330
138
100
AcDbEntity
  8
DIM
 62
     0
100
AcDbTrace
 10
-4.792277997469143
 20
0.3198021500000011
 30
0.0
 11
-4.732277997469141
 21
0.3198021500000011
 31
0.0
 12
-4.762277997469141
 22
0.4998021500000011
 32
0.0
 13
-4.762277997469141
 23
0.4998021500000011
 33
0.0
  0
SOLID
  5
1B0
330
138
100
AcDbEntity
  8
DIM
 62
     0
100
AcDbTrace
 10
-4.792277997469143
 20
-0.3198021499999996
 30
0.0
 11
-4.732277997469141
 21
-0.3198021499999996
 31
0.0
 12
-4.762277997469141
 22
-0.4998021499999998
 32
0.0
 13
-4.762277997469141
 23
-0.4998021499999998
 33
0.0
  0
MTEXT
  5
1B1
330
138
100
AcDbEntity
  8
DIM
 62
     0
100
AcDbMText
 10
-4.942277997469141
 20
0.0
 30
0.0
 40
0.18
 41
0.0
 71
     5
 72
     1
  1
\A1;%%c1.00
  7
ROMANS
 11
0.0000000000000001
 21
1.0
 31
0.0
 73
     1
 44
1.0
  0
POINT
  5
1B2
330
138
100
AcDbEntity
  8
DEFPOINTS
 62
     0
100
AcDbPoint
 10
-3.940936999999998
 20
0.4998021500000009
 30
0.0
  0
POINT
  5
1B3
330
138
100
AcDbEntity
  8
DEFPOINTS
 62
     0
100
AcDbPoint
 10
-3.940936999999998
 20
-0.4998021499999998
 30
0.0
  0
POINT
  5
1B4
330
138
100
AcDbEntity
  8
DEFPOINTS
 62
     0
100
AcDbPoint
 10
-4.762277997469141
 20
-0.4998021499999998
 30
0.0
  0
ENDBLK
  5
143
330
138
100
AcDbEntity
  8
0
100
AcDbBlockEnd
  0
BLOCK
  5
14F
330
145
100
AcDbEntity
  8
0
100
AcDbBlockBegin
  2
*D1
 70
     1
 10
0.0
 20
0.0
 30
0.0
  3
*D1
  1

  0
LINE
  5
17E
330
145
100
AcDbEntity
  8
DIM
 62
     0
370
    -2
100
AcDbLine
 10
-3.999991999999997
 20
0.5032471499999998
 30
0.0
 11
-3.999991999999997
 21
2.894320657764069
 31
0.0
  0
LINE
  5
17F
330
145
100
AcDbEntity
  8
DIM
 62
     0
370
    -2
100
AcDbLine
 10
1.999996000000002
 20
1.006498109999992
 30
0.0
 11
1.999996000000002
 21
2.894320657764069
 31
0.0
  0
LINE
  5
180
330
145
100
AcDbEntity
  8
DIM
 62
     0
370
    -2
100
AcDbLine
 10
-3.819991999999998
 20
2.714320657764068
 30
0.0
 11
1.819996000000002
 21
2.714320657764068
 31
0.0
  0
SOLID
  5
181
330
145
100
AcDbEntity
  8
DIM
 62
     0
100
AcDbTrace
 10
-3.819991999999998
 20
2.744320657764068
 30
0.0
 11
-3.819991999999998
 21
2.684320657764069
 31
0.0
 12
-3.999991999999997
 22
2.714320657764068
 32
0.0
 13
-3.999991999999997
 23
2.714320657764068
 33
0.0
  0
SOLID
  5
182
330
145
100
AcDbEntity
  8
DIM
 62
     0
100
AcDbTrace
 10
1.819996000000002
 20
2.744320657764068
 30
0.0
 11
1.819996000000002
 21
2.684320657764069
 31
0.0
 12
1.999996000000002
 22
2.714320657764068
 32
0.0
 13
1.999996000000002
 23
2.714320657764068
 33
0.0
  0
MTEXT
  5
183
330
145
100
AcDbEntity
  8
DIM
 62
     0
100
AcDbMText
 10
-0.9999979999999981
 20
2.894320657764069
 30
0.0
 40
0.18
 41
0.0
 71
     5
 72
     1
  1
\A1;6.000
  7
ROMANS
 73
     1
 44
1.0
  0
POINT
  5
184
330
145
100
AcDbEntity
  8
DEFPOINTS
 62
     0
100
AcDbPoint
 10
-3.999991999999997
 20
0.4407471499999998
 30
0.0
  0
POINT
  5
185
330
145
100
AcDbEntity
  8
DEFPOINTS
 62
     0
100
AcDbPoint
 10
1.999996000000002
 20
0.9439981099999927
 30
0.0
  0
POINT
  5
186
330
145
100
AcDbEntity
  8
DEFPOINTS
 62
     0
100
AcDbPoint
 10
1.999996000000002
 20
2.714320657764068
 30
0.0
  0
ENDBLK
  5
150
330
145
100
AcDbEntity
  8
0
100
AcDbBlockEnd
  0
BLOCK
  5
15C
330
152
100
AcDbEntity
  8
0
100
AcDbBlockBegin
  2
*D2
 70
     1
 10
0.0
 20
0.0
 30
0.0
  3
*D2
  1

  0
LINE
  5
187
330
152
100
AcDbEntity
  8
DIM
 62
     0
370
    -2
100
AcDbLine
 10
0.0
 20
0.8890180299999991
 30
0.0
 11
0.0000000000000001
 21
2.070200681191673
 31
0.0
  0
LINE
  5
188
330
152
100
AcDbEntity
  8
DIM
 62
     0
370
    -2
100
AcDbLine
 10
1.999996000000002
 20
1.006498109999992
 30
0.0
 11
1.999996000000002
 21
2.070200681191673
 31
0.0
  0
LINE
  5
189
330
152
100
AcDbEntity
  8
DIM
 62
     0
370
    -2
100
AcDbLine
 10
0.18
 20
1.890200681191671
 30
0.0
 11
1.819996000000002
 21
1.890200681191671
 31
0.0
  0
SOLID
  5
18A
330
152
100
AcDbEntity
  8
DIM
 62
     0
100
AcDbTrace
 10
0.18
 20
1.920200681191673
 30
0.0
 11
0.18
 21
1.860200681191671
 31
0.0
 12
0.0000000000000001
 22
1.890200681191671
 32
0.0
 13
0.0000000000000001
 23
1.890200681191671
 33
0.0
  0
SOLID
  5
18B
330
152
100
AcDbEntity
  8
DIM
 62
     0
100
AcDbTrace
 10
1.819996000000002
 20
1.920200681191673
 30
0.0
 11
1.819996000000002
 21
1.860200681191671
 31
0.0
 12
1.999996000000002
 22
1.890200681191671
 32
0.0
 13
1.999996000000002
 23
1.890200681191671
 33
0.0
  0
MTEXT
  5
18C
330
152
100
AcDbEntity
  8
DIM
 62
     0
100
AcDbMText
 10
0.9999980000000011
 20
2.070200681191673
 30
0.0
 40
0.18
 41
0.0
 71
     5
 72
     1
  1
\A1;2.000
  7
ROMANS
 73
     1
 44
1.0
  0
POINT
  5
18D
330
152
100
AcDbEntity
  8
DEFPOINTS
 62
     0
100
AcDbPoint
 10
0.0
 20
0.8265180299999991
 30
0.0
  0
POINT
  5
18E
330
152
100
AcDbEntity
  8
DEFPOINTS
 62
     0
100
AcDbPoint
 10
1.999996000000002
 20
0.9439981099999927
 30
0.0
  0
POINT
  5
18F
330
152
100
AcDbEntity
  8
DEFPOINTS
 62
     0
100
AcDbPoint
 10
1.999996000000002
 20
1.890200681191671
 30
0.0
  0
ENDBLK
  5
15D
330
152
100
AcDbEntity
  8
0
100
AcDbBlockEnd
  0
BLOCK
  5
169
330
15F
100
AcDbEntity
  8
0
100
AcDbBlockBegin
  2
*D3
 70
     1
 10
0.0
 20
0.0
 30
0.0
  3
*D3
  1

  0
LINE
  5
199
330
15F
100
AcDbEntity
  8
DIM
 62
     0
370
    -2
100
AcDbLine
 10
2.022496079999995
 20
0.9839980300000002
 30
0.0
 11
3.151949563593194
 21
0.98399803
 31
0.0
  0
LINE
  5
19A
330
15F
100
AcDbEntity
  8
DIM
 62
     0
370
    -2
100
AcDbLine
 10
2.022496079999995
 20
-0.9839980299999997
 30
0.0
 11
3.151949563593194
 21
-0.9839980300000002
 31
0.0
  0
LINE
  5
19B
330
15F
100
AcDbEntity
  8
DIM
 62
     0
370
    -2
100
AcDbLine
 10
2.971949563593195
 20
0.8039980299999999
 30
0.0
 11
2.971949563593195
 21
-0.8039980300000003
 31
0.0
  0
SOLID
  5
19C
330
15F
100
AcDbEntity
  8
DIM
 62
     0
100
AcDbTrace
 10
2.941949563593194
 20
0.8039980299999999
 30
0.0
 11
3.001949563593194
 21
0.8039980299999999
 31
0.0
 12
2.971949563593195
 22
0.98399803
 32
0.0
 13
2.971949563593195
 23
0.98399803
 33
0.0
  0
SOLID
  5
19D
330
15F
100
AcDbEntity
  8
DIM
 62
     0
100
AcDbTrace
 10
2.941949563593194
 20
-0.8039980300000003
 30
0.0
 11
3.001949563593194
 21
-0.8039980300000003
 31
0.0
 12
2.971949563593195
 22
-0.9839980300000002
 32
0.0
 13
2.971949563593195
 23
-0.9839980300000002
 33
0.0
  0
MTEXT
  5
19E
330
15F
100
AcDbEntity
  8
DIM
 62
     0
100
AcDbMText
 10
2.791949563593195
 20
0.0000000000000004
 30
0.0
 40
0.18
 41
0.0
 71
     5
 72
     1
  1
\A1;%%c1.968
  7
ROMANS
 11
0.0000000000000001
 21
1.0
 31
0.0
 73
     1
 44
1.0
  0
POINT
  5
19F
330
15F
100
AcDbEntity
  8
DEFPOINTS
 62
     0
100
AcDbPoint
 10
1.959996079999995
 20
0.9839980300000002
 30
0.0
  0
POINT
  5
1A0
330
15F
100
AcDbEntity
  8
DEFPOINTS
 62
     0
100
AcDbPoint
 10
1.959996079999995
 20
-0.9839980299999997
 30
0.0
  0
POINT
  5
1A1
330
15F
100
AcDbEntity
  8
DEFPOINTS
 62
     0
100
AcDbPoint
 10
2.971949563593195
 20
-0.9839980300000002
 30
0.0
  0
ENDBLK
  5
16A
330
15F
100
AcDbEntity
  8
0
100
AcDbBlockEnd
  0
ENDSEC
  0
SECTION
  2
ENTITIES
  0
LINE
  5
D7
330
17
100
AcDbEntity
  8
HIDDEN
100
AcDbLine
 10
0.5283862351278687
 20
-0.1968499999999978
 30
0.0
 11
-3.531054440301743
 21
-0.1968499999999989
 31
0.0
  0
LINE
  5
D8
330
17
100
AcDbEntity
  8
HIDDEN
100
AcDbLine
 10
0.5283862351278687
 20
0.1968499999999989
 30
0.0
 11
-3.531054440301743
 21
0.19685
 31
0.0
  0
LINE
  5
D9
330
17
100
AcDbEntity
  8
LINE
100
AcDbLine
 10
-3.940936999999998
 20
-0.4998021499999998
 30
0.0
 11
-0.0590550000000008
 21
-0.4998021499999998
 31
0.0
  0
LINE
  5
DA
330
17
100
AcDbEntity
  8
LINE
100
AcDbLine
 10
-3.940936999999998
 20
0.4998021499999998
 30
0.0
 11
-0.0590550000000008
 21
0.4998021499999998
 31
0.0
  0
LINE
  5
DB
330
17
100
AcDbEntity
  8
LINE
100
AcDbLine
 10
-3.940936999999998
 20
0.4998021500000009
 30
0.0
 11
-3.940936999999998
 21
-0.4998021499999988
 31
0.0
  0
LINE
  5
DC
330
17
100
AcDbEntity
  8
LINE
100
AcDbLine
 10
-3.999991999999997
 20
0.4407471499999998
 30
0.0
 11
-3.999991999999997
 21
-0.4407471499999998
 31
0.0
  0
LINE
  5
DD
330
17
100
AcDbEntity
  8
LINE
100
AcDbLine
 10
-3.999991999999997
 20
-0.4407471499999998
 30
0.0
 11
-3.940936999999998
 21
-0.4998021499999998
 31
0.0
  0
LINE
  5
DE
330
17
100
AcDbEntity
  8
HIDDEN
100
AcDbLine
 10
-3.999991999999997
 20
0.2547057534134231
 30
0.0
 11
-3.531054440301743
 21
0.1968499999999989
 31
0.0
  0
LINE
  5
DF
330
17
100
AcDbEntity
  8
HIDDEN
100
AcDbLine
 10
-3.999991999999997
 20
0.27559
 30
0.0
 11
-3.531054440301743
 21
0.2177342465865759
 31
0.0
  0
LINE
  5
E0
330
17
100
AcDbEntity
  8
HIDDEN
100
AcDbLine
 10
-3.999991999999997
 20
-0.2547057534134219
 30
0.0
 11
-3.531054440301743
 21
-0.1968499999999978
 31
0.0
  0
LINE
  5
E1
330
17
100
AcDbEntity
  8
HIDDEN
100
AcDbLine
 10
-3.999991999999997
 20
-0.27559
 30
0.0
 11
-3.531054440301743
 21
-0.2177342465865759
 31
0.0
  0
POINT
  5
E2
330
17
100
AcDbEntity
  8
DEFPOINTS
  6
ByBlock
 62
     0
100
AcDbPoint
 10
-3.999991999999997
 20
-0.2755900000000011
 30
0.0
  0
LINE
  5
E3
330
17
100
AcDbEntity
  8
HIDDEN
100
AcDbLine
 10
-3.531054440301743
 20
0.2177342465865759
 30
0.0
 11
-3.531054440301743
 21
-0.2177342465865759
 31
0.0
  0
POINT
  5
E4
330
17
100
AcDbEntity
  8
DEFPOINTS
  6
ByBlock
 62
     0
100
AcDbPoint
 10
-3.999991999999997
 20
0.27559
 30
0.0
  0
LINE
  5
E5
330
17
100
AcDbEntity
  8
LINE
100
AcDbLine
 10
-3.940936999999998
 20
0.4998021499999998
 30
0.0
 11
-3.999991999999997
 21
0.4407471499999998
 31
0.0
  0
LINE
  5
E6
330
17
100
AcDbEntity
  8
LINE
100
AcDbLine
 10
0.1574799999999996
 20
0.9839980299999991
 30
0.0
 11
1.959996079999995
 21
0.9839980300000002
 31
0.0
  0
LINE
  5
E7
330
17
100
AcDbEntity
  8
LINE
100
AcDbLine
 10
0.1574799999999996
 20
-0.9839980300000007
 30
0.0
 11
1.959996079999995
 21
-0.9839980299999997
 31
0.0
  0
LINE
  5
E8
330
17
100
AcDbEntity
  8
LINE
100
AcDbLine
 10
0.1574799999999996
 20
0.9839980299999991
 30
0.0
 11
0.1574799999999996
 21
-0.9849980300000007
 31
0.0
  0
LINE
  5
E9
330
17
100
AcDbEntity
  8
LINE
100
AcDbLine
 10
-0.0590550000000008
 20
0.0000000000000011
 30
0.0
 11
-0.0590550000000008
 21
-0.4998021499999988
 31
0.0
  0
LINE
  5
EA
330
17
100
AcDbEntity
  8
LINE
100
AcDbLine
 10
0.0
 20
0.0
 30
0.0
 11
0.0
 21
-0.8275180300000004
 31
0.0
  0
LINE
  5
EB
330
17
100
AcDbEntity
  8
LINE
100
AcDbLine
 10
0.0
 20
-0.8265180300000009
 30
0.0
 11
0.1574799999999996
 21
-0.9839980300000007
 31
0.0
  0
LINE
  5
EC
330
17
100
AcDbEntity
  8
LINE
100
AcDbLine
 10
-0.0590550000000008
 20
-0.4904922545614337
 30
0.0
 11
0.0
 21
-0.4904922545614337
 31
0.0
  0
LINE
  5
ED
330
17
100
AcDbEntity
  8
LINE
100
AcDbLine
 10
0.0
 20
0.0
 30
0.0
 11
0.0
 21
0.8265180299999991
 31
0.0
  0
LINE
  5
EE
330
17
100
AcDbEntity
  8
LINE
100
AcDbLine
 10
-0.0590550000000008
 20
0.0
 30
0.0
 11
-0.0590550000000008
 21
0.4998021499999998
 31
0.0
  0
LINE
  5
EF
330
17
100
AcDbEntity
  8
LINE
100
AcDbLine
 10
-0.0590550000000008
 20
0.490492254561435
 30
0.0
 11
0.0
 21
0.490492254561435
 31
0.0
  0
LINE
  5
F0
330
17
100
AcDbEntity
  8
LINE
100
AcDbLine
 10
0.0
 20
0.8265180299999991
 30
0.0
 11
0.1574799999999996
 21
0.9839980299999991
 31
0.0
  0
LINE
  5
F1
330
17
100
AcDbEntity
  8
LINE
100
AcDbLine
 10
1.999996000000002
 20
0.9439981099999926
 30
0.0
 11
1.999996000000002
 21
-0.943998109999994
 31
0.0
  0
LINE
  5
F2
330
17
100
AcDbEntity
  8
HIDDEN
100
AcDbLine
 10
0.7329985340000036
 20
0.5512488975000009
 30
0.0
 11
0.7329985340000036
 21
-0.5512488974999985
 31
0.0
  0
LINE
  5
F3
330
17
100
AcDbEntity
  8
HIDDEN
100
AcDbLine
 10
0.7329985340000036
 20
-0.5512488974999995
 30
0.0
 11
0.5283862351278687
 21
-0.1968499999999967
 31
0.0
  0
LINE
  5
F5
330
17
100
AcDbEntity
  8
HIDDEN
100
AcDbLine
 10
1.999996000000002
 20
-0.7709984580000022
 30
0.0
 11
1.448815999999999
 21
-0.7709984580000022
 31
0.0
  0
LINE
  5
F6
330
17
100
AcDbEntity
  8
HIDDEN
100
AcDbLine
 10
0.7329985340000036
 20
-0.5512488974999985
 30
0.0
 11
1.999996000000002
 21
-0.5512488975000009
 31
0.0
  0
LINE
  5
FA
330
17
100
AcDbEntity
  8
HIDDEN
100
AcDbLine
 10
1.448815999999999
 20
-0.7709984580000022
 30
0.0
 11
1.448815999999999
 21
-0.5512488974999985
 31
0.0
  0
LINE
  5
FB
330
17
100
AcDbEntity
  8
LINE
100
AcDbLine
 10
1.999995999999995
 20
-0.9439981100000007
 30
0.0
 11
1.959996079999995
 21
-0.9839980299999997
 31
0.0
  0
LINE
  5
FC
330
17
100
AcDbEntity
  8
HIDDEN
100
AcDbLine
 10
1.999996000000002
 20
0.7709984580000039
 30
0.0
 11
1.448815999999999
 21
0.7709984580000039
 31
0.0
  0
LINE
  5
FD
330
17
100
AcDbEntity
  8
HIDDEN
100
AcDbLine
 10
0.7329985340000036
 20
0.5512488975000009
 30
0.0
 11
1.999996000000002
 21
0.5512488975000009
 31
0.0
  0
LINE
  5
FE
330
17
100
AcDbEntity
  8
HIDDEN
100
AcDbLine
 10
0.7329985340000036
 20
0.5512488975000009
 30
0.0
 11
0.5283862351278687
 21
0.1968499999999989
 31
0.0
  0
LINE
  5
FF
330
17
100
AcDbEntity
  8
HIDDEN
100
AcDbLine
 10
0.5283862351278687
 20
0.1968499999999989
 30
0.0
 11
0.5283862351278687
 21
-0.1968499999999978
 31
0.0
  0
LWPOLYLINE
  5
100
330
17
100
AcDbEntity
  8
LINE
100
AcDbPolyline
 90
        6
 70
     1
 43
0.0
 10
1.625015851345004
 20
0.0802625550806596
 10
1.485997028000005
 20
0.1605251101613181
 10
1.346978204655008
 20
0.0802625550806596
 10
1.346978204655008
 20
-0.0802625550806596
 10
1.485997028000005
 20
-0.1605251101613181
 10
1.625015851345004
 20
-0.0802625550806596
  0
CIRCLE
  5
108
330
17
100
AcDbEntity
  8
HIDDEN
100
AcDbCircle
 10
1.485997027999998
 20
0.0
 30
0.0
 40
0.197499605
  0
CIRCLE
  5
109
330
17
100
AcDbEntity
  8
LINE
100
AcDbCircle
 10
1.485997027999998
 20
0.0
 30
0.0
 40
0.172499655
  0
LWPOLYLINE
  5
10A
330
17
100
AcDbEntity
  8
LINE
100
AcDbPolyline
 90
       16
 70
     1
 43
0.0
 10
1.718258793731614
 20
0.0
 42
0.1138102214018407
 10
1.701211037608215
 20
0.073925436185762
 42
0.1035727593959015
 10
1.650230897559188
 20
0.1396533099771581
 42
0.0917653985016239
 10
1.57651311771441
 20
0.1820247772639248
 42
0.0848654413823146
 10
1.485997028000005
 20
0.1974996049999914
 42
0.0848654413823177
 10
1.395480938285593
 20
0.1820247772639237
 42
0.0917653985016233
 10
1.321763158440816
 20
0.1396533099771581
 42
0.1035727593958979
 10
1.270783018391788
 20
0.0739254361857609
 42
0.1138102214018312
 10
1.253735262268392
 20
0.0
 42
0.1138102214018476
 10
1.270783018391794
 20
-0.0739254361857654
 42
0.1035727593958984
 10
1.321763158440816
 20
-0.1396533099771581
 42
0.0917653985016307
 10
1.3954809382856
 20
-0.1820247772639237
 42
0.0848654413823218
 10
1.485997028000005
 20
-0.1974996049999914
 42
0.0848654413823177
 10
1.57651311771441
 20
-0.1820247772639237
 42
0.091765398501623
 10
1.650230897559188
 20
-0.1396533099771581
 42
0.1035727593958915
 10
1.701211037608215
 20
-0.073925436185762
 42
0.1138102214018285
  0
LINE
  5
11C
330
17
100
AcDbEntity
  8
HIDDEN
100
AcDbLine
 10
1.448815999999999
 20
0.7709984580000039
 30
0.0
 11
1.448815999999999
 21
0.5512488975000009
 31
0.0
  0
LINE
  5
11E
330
17
100
AcDbEntity
  8
LINE
100
AcDbLine
 10
1.999995999999995
 20
0.9439981099999991
 30
0.0
 11
1.959996079999995
 21
0.9839980300000002
 31
0.0
  0
LINE
  5
11F
330
17
100
AcDbEntity
  8
CTRL
100
AcDbLine
 10
-4.39293643692766
 20
0.0
 30
0.0
 11
2.247824547149818
 21
0.0
 31
0.0
  0
DIMENSION
  5
137
330
17
100
AcDbEntity
  8
DIM
100
AcDbDimension
  2
*D0
 10
-4.762277997469141
 20
-0.4998021499999998
 30
0.0
 11
-4.942277997469141
 21
0.0
 31
0.0
 70
    32
  1
%%c<>
 71
     5
 42
0.9996043000000007
  3
STANDARD
100
AcDbAlignedDimension
 13
-3.940936999999998
 23
0.4998021500000009
 33
0.0
 14
-3.940936999999998
 24
-0.4998021499999998
 34
0.0
 50
90.0
100
AcDbRotatedDimension
1001
ACAD
1000
DSTYLE
1002
{
1070
   271
1070
     2
1002
}
  0
DIMENSION
  5
144
330
17
100
AcDbEntity
  8
DIM
100
AcDbDimension
  2
*D1
 10
1.999996000000002
 20
2.714320657764068
 30
0.0
 11
-0.9999979999999981
 21
2.894320657764069
 31
0.0
 70
    32
 71
     5
 42
5.999988
  3
STANDARD
100
AcDbAlignedDimension
 13
-3.999991999999997
 23
0.4407471499999998
 33
0.0
 14
1.999996000000002
 24
0.9439981099999927
 34
0.0
100
AcDbRotatedDimension
  0
DIMENSION
  5
151
330
17
100
AcDbEntity
  8
DIM
100
AcDbDimension
  2
*D2
 10
1.999996000000002
 20
1.890200681191671
 30
0.0
 11
0.9999980000000011
 21
2.070200681191673
 31
0.0
 70
    32
 71
     5
 42
1.999996000000002
  3
STANDARD
100
AcDbAlignedDimension
 13
0.0
 23
0.8265180299999991
 33
0.0
 14
1.999996000000002
 24
0.9439981099999927
 34
0.0
100
AcDbRotatedDimension
  0
DIMENSION
  5
15E
330
17
100
AcDbEntity
  8
DIM
100
AcDbDimension
  2
*D3
 10
2.971949563593195
 20
-0.9839980300000002
 30
0.0
 11
2.791949563593195
 21
0.0000000000000004
 31
0.0
 70
    32
  1
%%c<>
 71
     5
 42
1.967996059999999
  3
STANDARD
100
AcDbAlignedDimension
 13
1.959996079999995
 23
0.9839980300000002
 33
0.0
 14
1.959996079999995
 24
-0.9839980299999997
 34
0.0
 50
90.0
100
AcDbRotatedDimension
  0
LINE
  5
35C
330
17
100
AcDbEntity
  8
LINE
100
AcDbLine
 10
-1.898749395982315
 20
1.223442483183728
 30
0.0
 11
-1.847527758201766
 21
1.223442483183728
 31
0.0
  0
LINE
  5
35D
330
17
100
AcDbEntity
  8
LINE
100
AcDbLine
 10
-1.89874939598233
 20
0.8795257723714673
 30
0.0
 11
-1.847527758201766
 21
0.8795257723714673
 31
0.0
  0
LINE
  5
35E
330
17
100
AcDbEntity
  8
LINE
100
AcDbLine
 10
-1.898749395982315
 20
0.8795257723714673
 30
0.0
 11
-1.898749395982315
 21
1.223442483183728
 31
0.0
  0
LINE
  5
35F
330
17
100
AcDbEntity
  8
LINE
100
AcDbLine
 10
-1.973877044360732
 20
0.8795257723714602
 30
0.0
 11
-2.053732738230439
 21
1.132172175743047
 31
0.0
  0
LINE
  5
360
330
17
100
AcDbEntity
  8
LINE
100
AcDbLine
 10
-2.011148923092993
 20
1.223442483183728
 30
0.0
 11
-1.91899671816728
 21
0.8795257723714602
 31
0.0
  0
LINE
  5
361
330
17
100
AcDbEntity
  8
LINE
100
AcDbLine
 10
-2.228013430907213
 20
0.8795257723714673
 30
0.0
 11
-2.273289392373567
 21
0.9929644659218563
 31
0.0
  0
LINE
  5
362
330
17
100
AcDbEntity
  8
LINE
100
AcDbLine
 10
-2.303080705639634
 20
0.9290767884517325
 30
0.0
 11
-2.273289392373567
 21
0.9929644659218563
 31
0.0
  0
ARC
  5
363
330
17
100
AcDbEntity
  8
LINE
100
AcDbCircle
 10
-2.575385895634499
 20
0.9769383513648364
 30
0.0
 40
0.0584981162543635
100
AcDbArc
 50
180.0
 51
242.0588959302372
  0
ARC
  5
364
330
17
100
AcDbEntity
  8
LINE
100
AcDbCircle
 10
-2.585565913309973
 20
0.9769383513648364
 30
0.0
 40
0.1031984247723265
100
AcDbArc
 50
180.0
 51
250.723207331739
  0
ARC
  5
365
330
17
100
AcDbEntity
  8
LINE
100
AcDbCircle
 10
-2.598581530499171
 20
0.9769383513648364
 30
0.0
 40
0.0584981162543635
100
AcDbArc
 50
297.9411040697627
 51
0.0
  0
ARC
  5
366
330
17
100
AcDbEntity
  8
LINE
100
AcDbCircle
 10
-2.591120666291695
 20
0.9769383513648364
 30
0.0
 40
0.1031984247723242
100
AcDbArc
 50
289.2767926682573
 51
0.0
  0
LINE
  5
367
330
17
100
AcDbEntity
  8
LINE
100
AcDbLine
 10
-2.165815727887983
 20
0.8795257723714602
 30
0.0
 11
-2.239776280846987
 21
1.0648335655184
 31
0.0
  0
LINE
  5
368
330
17
100
AcDbEntity
  8
LINE
100
AcDbLine
 10
-2.365278408658864
 20
1.223442483183728
 30
0.0
 11
-2.365278408658864
 21
0.8795257723714673
 31
0.0
  0
LINE
  5
369
330
17
100
AcDbEntity
  8
LINE
100
AcDbLine
 10
-2.778371418777756
 20
0.8795257723714673
 30
0.0
 11
-2.778371418777756
 21
1.223442483183728
 31
0.0
  0
LINE
  5
36A
330
17
100
AcDbEntity
  8
LINE
100
AcDbLine
 10
-2.727149780997207
 20
1.223442483183728
 30
0.0
 11
-2.727149780997207
 21
0.8795257723714673
 31
0.0
  0
ARC
  5
36B
330
17
100
AcDbEntity
  8
LINE
100
AcDbCircle
 10
-2.927416150672458
 20
0.9769383513648364
 30
0.0
 40
0.0584981162543635
100
AcDbArc
 50
297.9411040697627
 51
62.05889593023716
  0
LINE
  5
36C
330
17
100
AcDbEntity
  8
LINE
100
AcDbLine
 10
-2.962718632062151
 20
0.9252593775326687
 30
0.0
 11
-2.962718632062151
 21
1.028617325196997
 31
0.0
  0
ARC
  5
36D
330
17
100
AcDbEntity
  8
LINE
100
AcDbCircle
 10
-2.919955286464998
 20
0.9769383513648364
 30
0.0
 40
0.1031984247723242
100
AcDbArc
 50
289.2767926682573
 51
46.24915972781781
  0
LINE
  5
36E
330
17
100
AcDbEntity
  8
LINE
100
AcDbLine
 10
-2.149431811318536
 20
0.8795257723714602
 30
0.0
 11
-2.08258117475323
 21
1.223442483183728
 31
0.0
  0
LINE
  5
36F
330
17
100
AcDbEntity
  8
LINE
100
AcDbLine
 10
-3.017598958255596
 20
0.8795257723714673
 30
0.0
 11
-3.017598958255596
 21
1.223442483183728
 31
0.0
  0
LINE
  5
370
330
17
100
AcDbEntity
  8
LINE
100
AcDbLine
 10
-2.093952511911118
 20
0.9252593775326687
 30
0.0
 11
-2.053732738230439
 21
1.132172175743047
 31
0.0
  0
LINE
  5
371
330
17
100
AcDbEntity
  8
LINE
100
AcDbLine
 10
-2.948083878410567
 20
0.8795257723714673
 30
0.0
 11
-2.885886175391338
 21
0.8795257723714673
 31
0.0
  0
LINE
  5
372
330
17
100
AcDbEntity
  8
LINE
100
AcDbLine
 10
-2.962718632062151
 20
0.9252593775326687
 30
0.0
 11
-2.90000605638288
 21
0.9252593775326687
 31
0.0
  0
LINE
  5
373
330
17
100
AcDbEntity
  8
LINE
100
AcDbLine
 10
-3.017598958255596
 20
0.8795257723714673
 30
0.0
 11
-2.885886175391338
 21
0.8795257723714673
 31
0.0
  0
LINE
  5
374
330
17
100
AcDbEntity
  8
LINE
100
AcDbLine
 10
-2.365278408658864
 20
0.8795257723714673
 30
0.0
 11
-2.303080705639634
 21
0.8795257723714673
 31
0.0
  0
LINE
  5
375
330
17
100
AcDbEntity
  8
LINE
100
AcDbLine
 10
-2.778371418777756
 20
0.8795257723714673
 30
0.0
 11
-2.727149780997207
 21
0.8795257723714673
 31
0.0
  0
LINE
  5
376
330
17
100
AcDbEntity
  8
LINE
100
AcDbLine
 10
-2.619249258237265
 20
0.8795257723714673
 30
0.0
 11
-2.557051555218021
 21
0.8795257723714673
 31
0.0
  0
LINE
  5
377
330
17
100
AcDbEntity
  8
LINE
100
AcDbLine
 10
-2.619635024383661
 20
0.8795257723714673
 30
0.0
 11
-2.557051555218021
 21
0.8795257723714673
 31
0.0
  0
LINE
  5
378
330
17
100
AcDbEntity
  8
LINE
100
AcDbLine
 10
-2.602795989924084
 20
0.9252593775326687
 30
0.0
 11
-2.571171436209592
 21
0.9252593775326687
 31
0.0
  0
LINE
  5
379
330
17
100
AcDbEntity
  8
LINE
100
AcDbLine
 10
-1.91899671816728
 20
0.8795257723714602
 30
0.0
 11
-1.973877044360732
 21
0.8795257723714602
 31
0.0
  0
LINE
  5
37A
330
17
100
AcDbEntity
  8
LINE
100
AcDbLine
 10
-2.017719028454292
 20
0.8795257723714602
 30
0.0
 11
-2.029973311024199
 21
0.9252593775326687
 31
0.0
  0
LINE
  5
37B
330
17
100
AcDbEntity
  8
LINE
100
AcDbLine
 10
-2.303080705639634
 20
0.8795257723714673
 30
0.0
 11
-2.303080705639634
 21
0.9290767884517325
 31
0.0
  0
LINE
  5
37C
330
17
100
AcDbEntity
  8
LINE
100
AcDbLine
 10
-2.228013430907213
 20
0.8795257723714673
 30
0.0
 11
-2.165815727887983
 21
0.8795257723714673
 31
0.0
  0
LINE
  5
37D
330
17
100
AcDbEntity
  8
LINE
100
AcDbLine
 10
-2.093952511911118
 20
0.9252593775326687
 30
0.0
 11
-2.029973311024199
 21
0.9252593775326687
 31
0.0
  0
LINE
  5
37E
330
17
100
AcDbEntity
  8
LINE
100
AcDbLine
 10
-2.149431811318536
 20
0.8795257723714602
 30
0.0
 11
-2.017719028454292
 21
0.8795257723714602
 31
0.0
  0
ARC
  5
37F
330
17
100
AcDbEntity
  8
LINE
100
AcDbCircle
 10
-2.919955286464998
 20
1.126029904190366
 30
0.0
 40
0.1031984247723265
100
AcDbArc
 50
313.7508402721822
 51
70.72320733173913
  0
ARC
  5
380
330
17
100
AcDbEntity
  8
LINE
100
AcDbCircle
 10
-2.927416150672458
 20
1.126029904190366
 30
0.0
 40
0.0584981162543635
100
AcDbArc
 50
297.9411040697627
 51
62.05889593023716
  0
LINE
  5
381
330
17
100
AcDbEntity
  8
LINE
100
AcDbLine
 10
-2.962718632062151
 20
1.074350930358198
 30
0.0
 11
-2.962718632062151
 21
1.177708878022525
 31
0.0
  0
LINE
  5
382
330
17
100
AcDbEntity
  8
LINE
100
AcDbLine
 10
-2.90000605638288
 20
1.028617325196997
 30
0.0
 11
-2.962718632062151
 21
1.028617325196997
 31
0.0
  0
LINE
  5
383
330
17
100
AcDbEntity
  8
LINE
100
AcDbLine
 10
-2.90000605638288
 20
1.074350930358198
 30
0.0
 11
-2.962718632062151
 21
1.074350930358198
 31
0.0
  0
LINE
  5
384
330
17
100
AcDbEntity
  8
LINE
100
AcDbLine
 10
-2.962718632062151
 20
1.177708878022525
 30
0.0
 11
-2.90000605638288
 21
1.177708878022525
 31
0.0
  0
LINE
  5
385
330
17
100
AcDbEntity
  8
LINE
100
AcDbLine
 10
-2.948083878410567
 20
1.223442483183728
 30
0.0
 11
-2.885886175391338
 21
1.223442483183728
 31
0.0
  0
LINE
  5
386
330
17
100
AcDbEntity
  8
LINE
100
AcDbLine
 10
-3.017598958255596
 20
1.223442483183728
 30
0.0
 11
-2.885886175391338
 21
1.223442483183728
 31
0.0
  0
LINE
  5
387
330
17
100
AcDbEntity
  8
LINE
100
AcDbLine
 10
-2.365278408658864
 20
1.223442483183728
 30
0.0
 11
-2.303080705639634
 21
1.223442483183728
 31
0.0
  0
ARC
  5
388
330
17
100
AcDbEntity
  8
LINE
100
AcDbCircle
 10
-2.585565913309973
 20
1.126029904190366
 30
0.0
 40
0.1031984247723265
100
AcDbArc
 50
109.2767926682608
 51
180.0
  0
ARC
  5
389
330
17
100
AcDbEntity
  8
LINE
100
AcDbCircle
 10
-2.575385895634499
 20
1.126029904190366
 30
0.0
 40
0.0584981162543635
100
AcDbArc
 50
117.9411040697628
 51
180.0
  0
LINE
  5
38A
330
17
100
AcDbEntity
  8
LINE
100
AcDbLine
 10
-2.586983713066831
 20
1.028617325196997
 30
0.0
 11
-2.586983713066831
 21
1.074350930358198
 31
0.0
  0
LINE
  5
38B
330
17
100
AcDbEntity
  8
LINE
100
AcDbLine
 10
-2.633884011888856
 20
1.028617325196997
 30
0.0
 11
-2.633884011888856
 21
1.126029904190366
 31
0.0
  0
LINE
  5
38C
330
17
100
AcDbEntity
  8
LINE
100
AcDbLine
 10
-2.540083414244807
 20
1.028617325196997
 30
0.0
 11
-2.586983713066831
 21
1.028617325196997
 31
0.0
  0
LINE
  5
38D
330
17
100
AcDbEntity
  8
LINE
100
AcDbLine
 10
-2.602795989924084
 20
1.177708878022525
 30
0.0
 11
-2.571171436209592
 21
1.177708878022525
 31
0.0
  0
LINE
  5
38E
330
17
100
AcDbEntity
  8
LINE
100
AcDbLine
 10
-2.778371418777756
 20
1.223442483183728
 30
0.0
 11
-2.727149780997207
 21
1.223442483183728
 31
0.0
  0
LINE
  5
38F
330
17
100
AcDbEntity
  8
LINE
100
AcDbLine
 10
-2.619635024383661
 20
1.223442483183728
 30
0.0
 11
-2.557051555218021
 21
1.223442483183728
 31
0.0
  0
LINE
  5
390
330
17
100
AcDbEntity
  8
LINE
100
AcDbLine
 10
-2.619249258237265
 20
1.223442483183728
 30
0.0
 11
-2.557051555218021
 21
1.223442483183728
 31
0.0
  0
ARC
  5
391
330
17
100
AcDbEntity
  8
LINE
100
AcDbCircle
 10
-2.598581530499171
 20
1.126029904190366
 30
0.0
 40
0.0584981162543635
100
AcDbArc
 50
0.0
 51
62.05889593023716
  0
ARC
  5
392
330
17
100
AcDbEntity
  8
LINE
100
AcDbCircle
 10
-2.591120666291709
 20
1.126029904190366
 30
0.0
 40
0.1031984247723265
100
AcDbArc
 50
0.0
 51
70.72320733173913
  0
LINE
  5
393
330
17
100
AcDbEntity
  8
LINE
100
AcDbLine
 10
-2.540083414244807
 20
1.126029904190366
 30
0.0
 11
-2.487922241519389
 21
1.126029904190366
 31
0.0
  0
LINE
  5
394
330
17
100
AcDbEntity
  8
LINE
100
AcDbLine
 10
-2.487922241519389
 20
1.074350930358198
 30
0.0
 11
-2.586983713066831
 21
1.074350930358198
 31
0.0
  0
LINE
  5
395
330
17
100
AcDbEntity
  8
LINE
100
AcDbLine
 10
-2.688764338082294
 20
0.9769383513648364
 30
0.0
 11
-2.688764338082294
 21
1.126029904190366
 31
0.0
  0
LINE
  5
396
330
17
100
AcDbEntity
  8
LINE
100
AcDbLine
 10
-2.540083414244807
 20
0.9769383513648364
 30
0.0
 11
-2.540083414244807
 21
1.028617325196997
 31
0.0
  0
LINE
  5
397
330
17
100
AcDbEntity
  8
LINE
100
AcDbLine
 10
-2.633884011888856
 20
0.9769383513648364
 30
0.0
 11
-2.633884011888856
 21
1.028617325196997
 31
0.0
  0
LINE
  5
398
330
17
100
AcDbEntity
  8
LINE
100
AcDbLine
 10
-2.487922241519389
 20
0.9769383513648364
 30
0.0
 11
-2.487922241519389
 21
1.074350930358198
 31
0.0
  0
LINE
  5
399
330
17
100
AcDbEntity
  8
LINE
100
AcDbLine
 10
-2.239776280846987
 20
1.0648335655184
 30
0.0
 11
-2.165815727887983
 21
1.223442483183728
 31
0.0
  0
LINE
  5
39A
330
17
100
AcDbEntity
  8
LINE
100
AcDbLine
 10
-2.303080705639634
 20
1.062460193016281
 30
0.0
 11
-2.228013430907213
 21
1.223442483183728
 31
0.0
  0
LINE
  5
39B
330
17
100
AcDbEntity
  8
LINE
100
AcDbLine
 10
-2.303080705639634
 20
1.223442483183728
 30
0.0
 11
-2.303080705639634
 21
1.062460193016281
 31
0.0
  0
LINE
  5
39C
330
17
100
AcDbEntity
  8
LINE
100
AcDbLine
 10
-2.228013430907213
 20
1.223442483183728
 30
0.0
 11
-2.165815727887983
 21
1.223442483183728
 31
0.0
  0
LINE
  5
39D
330
17
100
AcDbEntity
  8
LINE
100
AcDbLine
 10
-2.08258117475323
 20
1.223442483183728
 30
0.0
 11
-2.011148923092993
 21
1.223442483183728
 31
0.0
  0
LINE
  5
39E
330
17
100
AcDbEntity
  8
LINE
100
AcDbLine
 10
-1.295065807854441
 20
0.9011442765154962
 30
0.0
 11
-1.295065807854441
 21
1.005750522616392
 31
0.0
  0
LINE
  5
39F
330
17
100
AcDbEntity
  8
LINE
100
AcDbLine
 10
-1.349946134047865
 20
0.995689129480934
 30
0.0
 11
-1.349946134047865
 21
0.8976815785028966
 31
0.0
  0
LINE
  5
3A0
330
17
100
AcDbEntity
  8
LINE
100
AcDbLine
 10
-1.40848514865422
 20
0.8795257723714673
 30
0.0
 11
-1.40848514865422
 21
1.028617325196997
 31
0.0
  0
LINE
  5
3A1
330
17
100
AcDbEntity
  8
LINE
100
AcDbLine
 10
-1.463365474847665
 20
0.8795257723714673
 30
0.0
 11
-1.463365474847665
 21
1.223442483183728
 31
0.0
  0
LINE
  5
3A2
330
17
100
AcDbEntity
  8
LINE
100
AcDbLine
 10
-1.573126127234562
 20
0.9252593775326687
 30
0.0
 11
-1.573126127234562
 21
1.028617325196997
 31
0.0
  0
LINE
  5
3A3
330
17
100
AcDbEntity
  8
LINE
100
AcDbLine
 10
-1.628006453427993
 20
0.8795257723714673
 30
0.0
 11
-1.628006453427993
 21
1.223442483183728
 31
0.0
  0
LINE
  5
3A4
330
17
100
AcDbEntity
  8
LINE
100
AcDbLine
 10
-1.847527758201766
 20
1.223442483183728
 30
0.0
 11
-1.847527758201766
 21
0.8795257723714673
 31
0.0
  0
LINE
  5
3A5
330
17
100
AcDbEntity
  8
LINE
100
AcDbLine
 10
-1.662623494308738
 20
0.9607224767946718
 30
0.0
 11
-1.751670451747077
 21
1.151684293271484
 31
0.0
  0
LINE
  5
3A6
330
17
100
AcDbEntity
  8
LINE
100
AcDbLine
 10
-1.714739066810835
 20
0.9512839622836963
 30
0.0
 11
-1.803786024249145
 21
1.142245778760515
 31
0.0
  0
LINE
  5
3A7
330
17
100
AcDbEntity
  8
LINE
100
AcDbLine
 10
-1.496293670563728
 20
0.8795257723714673
 30
0.0
 11
-1.496293670563728
 21
0.9252593775326687
 31
0.0
  0
LINE
  5
3A8
330
17
100
AcDbEntity
  8
LINE
100
AcDbLine
 10
-1.573126127234562
 20
0.9252593775326687
 30
0.0
 11
-1.496293670563728
 21
0.9252593775326687
 31
0.0
  0
LINE
  5
3A9
330
17
100
AcDbEntity
  8
LINE
100
AcDbLine
 10
-1.463365474847665
 20
0.8795257723714673
 30
0.0
 11
-1.40848514865422
 21
0.8795257723714673
 31
0.0
  0
ARC
  5
3AA
330
17
100
AcDbEntity
  8
LINE
100
AcDbCircle
 10
-1.73131855580556
 20
0.9435528195971558
 30
0.0
 40
0.0182934420644818
100
AcDbArc
 50
270.0
 51
24.9999999999988
  0
ARC
  5
3AB
330
17
100
AcDbEntity
  8
LINE
100
AcDbCircle
 10
-1.714351499972334
 20
0.9366013116126623
 30
0.0
 40
0.057075539241183
100
AcDbArc
 50
270.0
 51
24.9999999999988
  0
LINE
  5
3AC
330
17
100
AcDbEntity
  8
LINE
100
AcDbLine
 10
-1.810940874072822
 20
0.8795257723714673
 30
0.0
 11
-1.714351499972334
 21
0.8795257723714673
 31
0.0
  0
LINE
  5
3AD
330
17
100
AcDbEntity
  8
LINE
100
AcDbLine
 10
-1.810940874072822
 20
0.9252593775326687
 30
0.0
 11
-1.73131855580556
 21
0.9252593775326687
 31
0.0
  0
LINE
  5
3AE
330
17
100
AcDbEntity
  8
LINE
100
AcDbLine
 10
-1.810940874072822
 20
0.9252593775326687
 30
0.0
 11
-1.810940874072822
 21
0.8795257723714673
 31
0.0
  0
LINE
  5
3AF
330
17
100
AcDbEntity
  8
LINE
100
AcDbLine
 10
-1.628006453427993
 20
0.8795257723714673
 30
0.0
 11
-1.496293670563728
 21
0.8795257723714673
 31
0.0
  0
LINE
  5
3B0
330
17
100
AcDbEntity
  8
LINE
100
AcDbLine
 10
-1.347657957166279
 20
0.8795257723714673
 30
0.0
 11
-1.289374429656239
 21
0.8795257723714673
 31
0.0
  0
ARC
  5
3B1
330
17
100
AcDbEntity
  8
LINE
100
AcDbCircle
 10
-1.276772365789941
 20
0.8976815785028966
 30
0.0
 40
0.073173768257927
100
AcDbArc
 50
180.0
 51
194.3662353416889
  0
ARC
  5
3B2
330
17
100
AcDbEntity
  8
LINE
100
AcDbCircle
 10
-1.251161546899684
 20
0.9011442765154962
 30
0.0
 40
0.0439042609547562
100
AcDbArc
 50
180.0
 51
209.4985180895031
  0
LINE
  5
3B3
330
17
100
AcDbEntity
  8
LINE
100
AcDbLine
 10
-1.37189826452524
 20
1.074350930358198
 30
0.0
 11
-1.40848514865422
 21
1.074350930358198
 31
0.0
  0
LINE
  5
3B4
330
17
100
AcDbEntity
  8
LINE
100
AcDbLine
 10
-1.40848514865422
 20
1.177708878022525
 30
0.0
 11
-1.37189826452524
 21
1.177708878022525
 31
0.0
  0
LINE
  5
3B5
330
17
100
AcDbEntity
  8
LINE
100
AcDbLine
 10
-1.463365474847665
 20
1.223442483183728
 30
0.0
 11
-1.352141347095594
 21
1.223442483183728
 31
0.0
  0
ARC
  5
3B6
330
17
100
AcDbEntity
  8
LINE
100
AcDbCircle
 10
-1.382874329763935
 20
0.995689129480934
 30
0.0
 40
0.0329281957160671
100
AcDbArc
 50
0.0
 51
90.0
  0
LINE
  5
3B7
330
17
100
AcDbEntity
  8
LINE
100
AcDbLine
 10
-1.40848514865422
 20
1.074350930358198
 30
0.0
 11
-1.40848514865422
 21
1.177708878022525
 31
0.0
  0
LINE
  5
3B8
330
17
100
AcDbEntity
  8
LINE
100
AcDbLine
 10
-1.573126127234562
 20
1.074350930358198
 30
0.0
 11
-1.573126127234562
 21
1.177708878022525
 31
0.0
  0
LINE
  5
3B9
330
17
100
AcDbEntity
  8
LINE
100
AcDbLine
 10
-1.496293670563728
 20
1.028617325196997
 30
0.0
 11
-1.496293670563728
 21
1.074350930358198
 31
0.0
  0
LINE
  5
3BA
330
17
100
AcDbEntity
  8
LINE
100
AcDbLine
 10
-1.496293670563728
 20
1.028617325196997
 30
0.0
 11
-1.573126127234562
 21
1.028617325196997
 31
0.0
  0
LINE
  5
3BB
330
17
100
AcDbEntity
  8
LINE
100
AcDbLine
 10
-1.382874329763935
 20
1.028617325196997
 30
0.0
 11
-1.40848514865422
 21
1.028617325196997
 31
0.0
  0
LINE
  5
3BC
330
17
100
AcDbEntity
  8
LINE
100
AcDbLine
 10
-1.496293670563728
 20
1.074350930358198
 30
0.0
 11
-1.573126127234562
 21
1.074350930358198
 31
0.0
  0
LINE
  5
3BD
330
17
100
AcDbEntity
  8
LINE
100
AcDbLine
 10
-1.496293670563728
 20
1.177708878022525
 30
0.0
 11
-1.496293670563728
 21
1.223442483183728
 31
0.0
  0
LINE
  5
3BE
330
17
100
AcDbEntity
  8
LINE
100
AcDbLine
 10
-1.573126127234562
 20
1.177708878022525
 30
0.0
 11
-1.496293670563728
 21
1.177708878022525
 31
0.0
  0
LINE
  5
3BF
330
17
100
AcDbEntity
  8
LINE
100
AcDbLine
 10
-1.67191071438275
 20
1.223442483183728
 30
0.0
 11
-1.67191071438275
 21
1.177708878022525
 31
0.0
  0
ARC
  5
3C0
330
17
100
AcDbEntity
  8
LINE
100
AcDbCircle
 10
-1.752058018585535
 20
1.166366943942547
 30
0.0
 40
0.057075539241183
100
AcDbArc
 50
90.0
 51
204.9999999999986
  0
ARC
  5
3C1
330
17
100
AcDbEntity
  8
LINE
100
AcDbCircle
 10
-1.73509096275233
 20
1.159415435958039
 30
0.0
 40
0.0182934420644818
100
AcDbArc
 50
90.0
 51
204.9999999999986
  0
LINE
  5
3C2
330
17
100
AcDbEntity
  8
LINE
100
AcDbLine
 10
-1.67191071438275
 20
1.177708878022525
 30
0.0
 11
-1.73509096275233
 21
1.177708878022511
 31
0.0
  0
LINE
  5
3C3
330
17
100
AcDbEntity
  8
LINE
100
AcDbLine
 10
-1.67191071438275
 20
1.223442483183728
 30
0.0
 11
-1.752058018585535
 21
1.223442483183728
 31
0.0
  0
LINE
  5
3C4
330
17
100
AcDbEntity
  8
LINE
100
AcDbLine
 10
-1.628006453427993
 20
1.223442483183728
 30
0.0
 11
-1.496293670563728
 21
1.223442483183728
 31
0.0
  0
LINE
  5
3C5
330
17
100
AcDbEntity
  8
LINE
100
AcDbLine
 10
-1.349946134047865
 20
1.09630306083558
 30
0.0
 11
-1.349946134047865
 21
1.155756747545137
 31
0.0
  0
LINE
  5
3C6
330
17
100
AcDbEntity
  8
LINE
100
AcDbLine
 10
-1.295065807854441
 20
1.166366943942547
 30
0.0
 11
-1.295065807854441
 21
1.097217732938802
 31
0.0
  0
ARC
  5
3C7
330
17
100
AcDbEntity
  8
LINE
100
AcDbCircle
 10
-1.37189826452524
 20
1.09630306083558
 30
0.0
 40
0.0219521304773781
100
AcDbArc
 50
270.0
 51
0.0
  0
ARC
  5
3C8
330
17
100
AcDbEntity
  8
LINE
100
AcDbCircle
 10
-1.340799413015622
 20
1.097217732938802
 30
0.0
 40
0.0457336051612044
100
AcDbArc
 50
270.0
 51
0.0
  0
ARC
  5
3C9
330
17
100
AcDbEntity
  8
LINE
100
AcDbCircle
 10
-1.352141347095594
 20
1.166366943942547
 30
0.0
 40
0.057075539241183
100
AcDbArc
 50
0.0
 51
90.0
  0
ARC
  5
3CA
330
17
100
AcDbEntity
  8
LINE
100
AcDbCircle
 10
-1.37189826452524
 20
1.155756747545137
 30
0.0
 40
0.0219521304773781
100
AcDbArc
 50
0.0
 51
90.0
  0
ARC
  5
3CB
330
17
100
AcDbEntity
  8
LINE
100
AcDbCircle
 10
-1.340799413015622
 20
1.005750522616392
 30
0.0
 40
0.0457336051612044
100
AcDbArc
 50
0.0
 51
90.0
  0
ENDSEC
  0
SECTION
  2
OBJECTS
  0
DICTIONARY
  5
C
330
0
100
AcDbDictionary
281
     1
  3
ACAD_GROUP
350
D
  3
ACAD_LAYOUT
350
12A
  3
ACAD_MLINESTYLE
350
1A
  3
ACAD_PLOTSETTINGS
350
12B
  3
ACAD_PLOTSTYLENAME
350
128
  3
ACDBVARIABLEDICTIONARY
350
42
  0
DICTIONARY
  5
D
102
{ACAD_REACTORS
330
C
102
}
330
C
100
AcDbDictionary
281
     1
  0
DICTIONARY
  5
12A
102
{ACAD_REACTORS
330
C
102
}
330
C
100
AcDbDictionary
281
     1
  3
Layout1
350
12D
  3
Model
350
12C
  0
DICTIONARY
  5
1A
102
{ACAD_REACTORS
330
C
102
}
330
C
100
AcDbDictionary
281
     1
  3
STANDARD
350
1B
  0
DICTIONARY
  5
12B
102
{ACAD_REACTORS
330
C
102
}
330
C
100
AcDbDictionary
281
     1
  0
ACDBDICTIONARYWDFLT
  5
128
102
{ACAD_REACTORS
330
C
102
}
330
C
100
AcDbDictionary
281
     1
  3
Normal
350
129
100
AcDbDictionaryWithDefault
340
129
  0
DICTIONARY
  5
42
102
{ACAD_REACTORS
330
C
102
}
330
C
100
AcDbDictionary
281
     1
  3
DIMADEC
350
43
  3
DIMASSOC
350
130
  0
LAYOUT
  5
12D
102
{ACAD_REACTORS
330
12A
102
}
330
12A
100
AcDbPlotSettings
  1

  2
\\PRINT_SRV\HP LaserJet (Engineering)
  4

  6

 40
0.0
 41
0.0
 42
0.0
 43
0.0
 44
0.0
 45
0.0
 46
0.0
 47
0.0
 48
0.0
 49
0.0
140
0.0
141
0.0
142
1.0
143
1.0
 70
   688
 72
     0
 73
     0
 74
     5
  7
KPT.ctb
 75
    16
147
1.0
148
0.0
149
0.0
100
AcDbLayout
  1
Layout1
 70
     0
 71
     1
 10
0.0
 20
0.0
 11
12.0
 21
9.0
 12
28.05518966970319
 22
50.0
 32
8.950068156329773
 14
1.000000000000000E+20
 24
1.000000000000000E+20
 34
1.000000000000000E+20
 15
-1.000000000000000E+20
 25
-1.000000000000000E+20
 35
-1.000000000000000E+20
146
0.0
 13
0.0
 23
0.0
 33
0.0
 16
1.0
 26
0.0
 36
0.0
 17
0.0
 27
1.0
 37
0.0
 76
     0
330
14
  0
LAYOUT
  5
12C
102
{ACAD_REACTORS
330
12A
102
}
330
12A
100
AcDbPlotSettings
  1

  2
\\PRINT_SRV\HP LaserJet (Engineering)
  4

  6

 40
0.0
 41
0.0
 42
0.0
 43
0.0
 44
0.0
 45
0.0
 46
0.0
 47
0.0
 48
0.0
 49
0.0
140
0.0
141
0.0
142
1.0
143
1.0
 70
  1712
 72
     0
 73
     0
 74
     0
  7
KPT.ctb
 75
     0
147
1.0
148
0.0
149
0.0
100
AcDbLayout
  1
Model
 70
     1
 71
     0
 10
0.0
 20
0.0
 11
12.0
 21
9.0
 12
0.0
 22
0.0
 32
0.0
 14
0.0
 24
0.0
 34
0.0
 15
0.0
 25
0.0
 35
0.0
146
0.0
 13
0.0
 23
0.0
 33
0.0
 16
1.0
 26
0.0
 36
0.0
 17
0.0
 27
1.0
 37
0.0
 76
     0
330
17
  0
MLINESTYLE
  5
1B
102
{ACAD_REACTORS
330
1A
102
}
330
1A
100
AcDbMlineStyle
  2
STANDARD
 70
     0
  3

 62
   256
 51
90.0
 52
90.0
 71
     2
 49
0.5
 62
   256
  6
BYLAYER
 49
-0.5
 62
   256
  6
BYLAYER
  0
ACDBPLACEHOLDER
  5
129
102
{ACAD_REACTORS
330
128
102
}
330
128
  0
DICTIONARYVAR
  5
43
102
{ACAD_REACTORS
330
42
102
}
330
42
100
DictionaryVariables
280
     0
  1
0
  0
DICTIONARYVAR
  5
130
102
{ACAD_REACTORS
330
42
102
}
330
42
100
DictionaryVariables
280
     0
  1
1
  0
ENDSEC
  0
EOF
