  0
SECTION
  2
HEADER
  9
$ACADVER
  1
AC1015
  9
$ACADMAINTVER
 70
    13
  9
$DWGCODEPAGE
  3
ANSI_1252
  9
$INSBASE
 10
0.0
 20
0.0
 30
0.0
  9
$EXTMIN
 10
-1.994273527531586
 20
-1.382944270641793
 30
-0.0000000349181948
  9
$EXTMAX
 10
4.589783350945143
 20
2.320717893641052
 30
0.0000000814935746
  9
$LIMMIN
 10
0.0
 20
0.0
  9
$LIMMAX
 10
12.0
 20
9.0
  9
$ORTHOMODE
 70
     1
  9
$REGENMODE
 70
     1
  9
$FILLMODE
 70
     1
  9
$QTEXTMODE
 70
     0
  9
$MIRRTEXT
 70
     1
  9
$LTSCALE
 40
1.0
  9
$ATTMODE
 70
     1
  9
$TEXTSIZE
 40
0.2
  9
$TRACEWID
 40
0.05
  9
$TEXTSTYLE
  7
STYLE1
  9
$CLAYER
  8
HIDDEN
  9
$CELTYPE
  6
BYLAYER
  9
$CECOLOR
 62
   256
  9
$CELTSCALE
 40
1.0
  9
$DISPSILH
 70
     0
  9
$DIMSCALE
 40
1.0
  9
$DIMASZ
 40
0.12
  9
$DIMEXO
 40
0.0625
  9
$DIMDLI
 40
0.38
  9
$DIMRND
 40
0.0
  9
$DIMDLE
 40
0.0
  9
$DIMEXE
 40
0.0625
  9
$DIMTP
 40
0.0
  9
$DIMTM
 40
0.0
  9
$DIMTXT
 40
0.125
  9
$DIMCEN
 40
0.0
  9
$DIMTSZ
 40
0.0
  9
$DIMTOL
 70
     0
  9
$DIMLIM
 70
     0
  9
$DIMTIH
 70
     0
  9
$DIMTOH
 70
     0
  9
$DIMSE1
 70
     0
  9
$DIMSE2
 70
     0
  9
$DIMTAD
 70
     1
  9
$DIMZIN
 70
     0
  9
$DIMBLK
  1

  9
$DIMASO
 70
     1
  9
$DIMSHO
 70
     1
  9
$DIMPOST
  1

  9
$DIMAPOST
  1

  9
$DIMALT
 70
     0
  9
$DIMALTD
 70
     2
  9
$DIMALTF
 40
25.4
  9
$DIMLFAC
 40
1.0
  9
$DIMTOFL
 70
     1
  9
$DIMTVP
 40
0.0
  9
$DIMTIX
 70
     0
  9
$DIMSOXD
 70
     0
  9
$DIMSAH
 70
     0
  9
$DIMBLK1
  1

  9
$DIMBLK2
  1

  9
$DIMSTYLE
  2
STANDARD
  9
$DIMCLRD
 70
     0
  9
$DIMCLRE
 70
     0
  9
$DIMCLRT
 70
     0
  9
$DIMTFAC
 40
1.0
  9
$DIMGAP
 40
0.05
  9
$DIMJUST
 70
     0
  9
$DIMSD1
 70
     0
  9
$DIMSD2
 70
     0
  9
$DIMTOLJ
 70
     1
  9
$DIMTZIN
 70
     0
  9
$DIMALTZ
 70
     0
  9
$DIMALTTZ
 70
     0
  9
$DIMUPT
 70
     0
  9
$DIMDEC
 70
     3
  9
$DIMTDEC
 70
     3
  9
$DIMALTU
 70
     2
  9
$DIMALTTD
 70
     2
  9
$DIMTXSTY
  7
ROMANS
  9
$DIMAUNIT
 70
     0
  9
$DIMADEC
 70
     0
  9
$DIMALTRND
 40
0.0
  9
$DIMAZIN
 70
     0
  9
$DIMDSEP
 70
    46
  9
$DIMATFIT
 70
     3
  9
$DIMFRAC
 70
     0
  9
$DIMLDRBLK
  1

  9
$DIMLUNIT
 70
     2
  9
$DIMLWD
 70
    -2
  9
$DIMLWE
 70
    -2
  9
$DIMTMOVE
 70
     0
  9
$LUNITS
 70
     2
  9
$LUPREC
 70
     4
  9
$SKETCHINC
 40
0.1
  9
$FILLETRAD
 40
0.0
  9
$AUNITS
 70
     0
  9
$AUPREC
 70
     0
  9
$MENU
  1
acad
  9
$ELEVATION
 40
0.0
  9
$PELEVATION
 40
0.0
  9
$THICKNESS
 40
0.0
  9
$LIMCHECK
 70
     0
  9
$CHAMFERA
 40
0.197
  9
$CHAMFERB
 40
0.197
  9
$CHAMFERC
 40
0.0
  9
$CHAMFERD
 40
0.0
  9
$SKPOLY
 70
     0
  9
$TDCREATE
 40
2452719.353656365
  9
$TDUCREATE
 40
2452719.603656365
  9
$TDUPDATE
 40
2452719.405928055
  9
$TDUUPDATE
 40
2452719.655928055
  9
$TDINDWG
 40
0.0522720370
  9
$TDUSRTIMER
 40
0.0522719213
  9
$USRTIMER
 70
     1
  9
$ANGBASE
 50
0.0
  9
$ANGDIR
 70
     0
  9
$PDMODE
 70
    65
  9
$PDSIZE
 40
-2.0
  9
$PLINEWID
 40
0.0
  9
$SPLFRAME
 70
     0
  9
$SPLINETYPE
 70
     6
  9
$SPLINESEGS
 70
     8
  9
$HANDSEED
  5
8E6
  9
$SURFTAB1
 70
     6
  9
$SURFTAB2
 70
     6
  9
$SURFTYPE
 70
     6
  9
$SURFU
 70
     6
  9
$SURFV
 70
     6
  9
$UCSBASE
  2

  9
$UCSNAME
  2

  9
$UCSORG
 10
0.0
 20
0.0
 30
0.0
  9
$UCSXDIR
 10
1.0
 20
0.0
 30
0.0
  9
$UCSYDIR
 10
0.0
 20
1.0
 30
0.0
  9
$UCSORTHOREF
  2

  9
$UCSORTHOVIEW
 70
     0
  9
$UCSORGTOP
 10
0.0
 20
0.0
 30
0.0
  9
$UCSORGBOTTOM
 10
0.0
 20
0.0
 30
0.0
  9
$UCSORGLEFT
 10
0.0
 20
0.0
 30
0.0
  9
$UCSORGRIGHT
 10
0.0
 20
0.0
 30
0.0
  9
$UCSORGFRONT
 10
0.0
 20
0.0
 30
0.0
  9
$UCSORGBACK
 10
0.0
 20
0.0
 30
0.0
  9
$PUCSBASE
  2

  9
$PUCSNAME
  2

  9
$PUCSORG
 10
0.0
 20
0.0
 30
0.0
  9
$PUCSXDIR
 10
1.0
 20
0.0
 30
0.0
  9
$PUCSYDIR
 10
0.0
 20
1.0
 30
0.0
  9
$PUCSORTHOREF
  2

  9
$PUCSORTHOVIEW
 70
     0
  9
$PUCSORGTOP
 10
0.0
 20
0.0
 30
0.0
  9
$PUCSORGBOTTOM
 10
0.0
 20
0.0
 30
0.0
  9
$PUCSORGLEFT
 10
0.0
 20
0.0
 30
0.0
  9
$PUCSORGRIGHT
 10
0.0
 20
0.0
 30
0.0
  9
$PUCSORGFRONT
 10
0.0
 20
0.0
 30
0.0
  9
$PUCSORGBACK
 10
0.0
 20
0.0
 30
0.0
  9
$USERI1
 70
     0
  9
$USERI2
 70
     0
  9
$USERI3
 70
     0
  9
$USERI4
 70
     0
  9
$USERI5
 70
     0
  9
$USERR1
 40
0.0
  9
$USERR2
 40
0.0
  9
$USERR3
 40
0.0
  9
$USERR4
 40
0.0
  9
$USERR5
 40
0.0
  9
$WORLDVIEW
 70
     1
  9
$SHADEDGE
 70
     3
  9
$SHADEDIF
 70
    70
  9
$TILEMODE
 70
     1
  9
$MAXACTVP
 70
    16
  9
$PINSBASE
 10
0.0
 20
0.0
 30
0.0
  9
$PLIMCHECK
 70
     0
  9
$PEXTMIN
 10
1.000000000000000E+20
 20
1.000000000000000E+20
 30
1.000000000000000E+20
  9
$PEXTMAX
 10
-1.000000000000000E+20
 20
-1.000000000000000E+20
 30
-1.000000000000000E+20
  9
$PLIMMIN
 10
-7.14373779296875
 20
-7.143749713897705
  9
$PLIMMAX
 10
272.2562561035156
 20
208.7562441825866
  9
$UNITMODE
 70
     0
  9
$VISRETAIN
 70
     0
  9
$PLINEGEN
 70
     0
  9
$PSLTSCALE
 70
     1
  9
$TREEDEPTH
 70
  3020
  9
$CMLSTYLE
  2
STANDARD
  9
$CMLJUST
 70
     0
  9
$CMLSCALE
 40
1.0
  9
$PROXYGRAPHICS
 70
     1
  9
$MEASUREMENT
 70
     1
  9
$CELWEIGHT
370
    -1
  9
$ENDCAPS
280
     0
  9
$JOINSTYLE
280
     0
  9
$LWDISPLAY
290
     0
  9
$INSUNITS
 70
     4
  9
$HYPERLINKBASE
  1

  9
$STYLESHEET
  1

  9
$XEDIT
290
     1
  9
$CEPSNTYPE
380
     0
  9
$PSTYLEMODE
290
     1
  9
$FINGERPRINTGUID
  2
{D1A600B4-0B7C-4C98-A56B-7CC634BBC99F}
  9
$VERSIONGUID
  2
{D4E4E61B-21D9-42F5-B41D-0CCA2B2F4D44}
  9
$EXTNAMES
290
     1
  9
$PSVPSCALE
 40
0.0
  9
$OLESTARTUP
290
     0
  0
ENDSEC
  0
SECTION
  2
CLASSES
  0
CLASS
  1
ACDBDICTIONARYWDFLT
  2
AcDbDictionaryWithDefault
  3
AutoCAD 2000
 90
        0
280
     0
281
     0
  0
CLASS
  1
ACDBPLACEHOLDER
  2
AcDbPlaceHolder
  3
AutoCAD 2000
 90
        0
280
     0
281
     0
  0
CLASS
  1
LAYOUT
  2
AcDbLayout
  3
AutoCAD 2000
 90
        0
280
     0
281
     0
  0
CLASS
  1
DICTIONARYVAR
  2
AcDbDictionaryVar
  3
AutoCAD 2000
 90
        0
280
     0
281
     0
  0
CLASS
  1
ACME_DOCUMENT
  2
AcMeDbDoc
  3
AcMeServices
 90
        0
280
     0
281
     0
  0
CLASS
  1
AMGSETTINGSOBJ
  2
AmgSettingsObj
  3
"AcadM|Product Description: AutoCAD Mechanical 2000|Company: Autodesk"
 90
        0
280
     0
281
     0
  0
CLASS
  1
ACMESCOPE
  2
AcMeScope
  3
AcMeServices
 90
        0
280
     0
281
     0
  0
CLASS
  1
ACMECOMMANDHISTORY
  2
AcMeCommandHistory
  3
AcMeServices
 90
        0
280
     0
281
     0
  0
CLASS
  1
ACIMSYSVARMAN
  2
AcImSysVarManager
  3
AcMeServices
 90
        0
280
     0
281
     0
  0
CLASS
  1
ACIMREALSYSVAR
  2
AcImRealSysVar
  3
AcMeServices
 90
        0
280
     0
281
     0
  0
CLASS
  1
ACIMINTSYSVAR
  2
AcImIntSysVar
  3
AcMeServices
 90
        0
280
     0
281
     0
  0
CLASS
  1
ACMEDRAWINGMAN
  2
AcMeDrawingMan
  3
AcMeServices
 90
        0
280
     0
281
     0
  0
CLASS
  1
ACMEVIEW
  2
AcMeView
  3
AcMeServices
 90
        0
280
     0
281
     0
  0
CLASS
  1
ACDBENTITYCACHE
  2
AcMeEntityCache
  3
AcMeServices
 90
        0
280
     0
281
     0
  0
CLASS
  1
GSMANAGER
  2
AcMeGSManager
  3
AcMeServices
 90
        0
280
     0
281
     0
  0
CLASS
  1
AMDTINTERNALREACTOR
  2
AmdtInternalReactor
  3
AcMeServices
 90
        0
280
     0
281
     0
  0
CLASS
  1
ACMESTATEMGR
  2
AcMeStateMgr
  3
AcMeServices
 90
        0
280
     0
281
     0
  0
CLASS
  1
ACGREFMASTER
  2
AcGrefMaster
  3
AcAttribServices
 90
        0
280
     0
281
     0
  0
CLASS
  1
AM_DRAWING_MGR
  2
AcDmDwgMgr
  3
AcMechDwgViewMgmt
 90
        0
280
     0
281
     0
  0
CLASS
  1
AM_DWG_DOCUMENT
  2
AcDmDwgDocument
  3
AcMechDwgViewMgmt
 90
        0
280
     0
281
     0
  0
CLASS
  1
AM_DWG_SHEET
  2
AcDmSheet
  3
AcMechDwgViewMgmt
 90
        0
280
     0
281
     0
  0
CLASS
  1
AM_VIEWDIMPARMAP
  2
AcDmViewDimParMap
  3
AcMechDwgViewMgmt
 90
        0
280
     0
281
     0
  0
CLASS
  1
AM_DWGMGR_NAME
  2
AcDmDwgMgrName
  3
AcMechDwgViewMgmt
 90
        0
280
     0
281
     0
  0
CLASS
  1
ACME_DATABASE
  2
AcMeDbDatabase
  3
AcMeServices
 90
        0
280
     0
281
     0
  0
CLASS
  1
ACRFINSADJUSTERMGR
  2
AcRfInsAdjusterMgr
  3
AcMeServices
 90
        0
280
     0
281
     0
  0
CLASS
  1
ACGREFACADMASTER
  2
AcGrefacadMaster
  3
AcGrefServices
 90
        0
280
     0
281
     0
  0
CLASS
  1
AMDTMENUSTATEMGR
  2
AmdtMenuStateMgr
  3
McadcomServices
 90
        0
280
     0
281
     0
  0
CLASS
  1
AMDTMCOMMENUSTATE
  2
AmdtMcomMenuState
  3
McadcomServices
 90
        0
280
     0
281
     0
  0
CLASS
  1
AMIMASTER
  2
AmiMaster
  3
AmiServices
 90
        0
280
     0
281
     0
  0
CLASS
  1
ASAPP
  2
AcAsAppObject
  3
AutoSurfServices
 90
        0
280
     0
281
     0
  0
CLASS
  1
IM_STATIC_MAN
  2
AcImStaticVarManager
  3
AcMeServices
 90
        0
280
     0
281
     0
  0
CLASS
  1
ACIMSTRSYSVAR
  2
AcImStrSysVar
  3
AcMeServices
 90
        0
280
     0
281
     0
  0
CLASS
  1
ACIMDBLSTATICVAR
  2
AcImDblStaticVar
  3
AcMeServices
 90
        0
280
     0
281
     0
  0
CLASS
  1
ACIMSTRSTATICVAR
  2
AcImStrStaticVar
  3
AcMeServices
 90
        0
280
     0
281
     0
  0
CLASS
  1
ACIMINTSTATICVAR
  2
AcImIntStaticVar
  3
AcMeServices
 90
        0
280
     0
281
     0
  0
CLASS
  1
ACASGREFMASTER
  2
AcAsGrefMaster
  3
AutoSurfResolverServices
 90
        0
280
     0
281
     0
  0
CLASS
  1
ACADGREFMODULE
  2
AcAdGrefModule
  3
AdGrefServices
 90
        0
280
     0
281
     0
  0
CLASS
  1
AMDTMAPISURFMOUDULE
  2
AmdtMApiSurfModule
  3
MApiSurfServices
 90
        0
280
     0
281
     0
  0
CLASS
  1
MAPIAMMOUDLE
  2
MApiAmModule
  3
MApiAmServices
 90
        0
280
     0
281
     0
  0
CLASS
  1
AMDTADMENUSTATE
  2
AmdtAdMenuState
  3
DesignerServices
 90
        0
280
     0
281
     0
  0
CLASS
  1
ADAPPL
  2
AcAdAppl
  3
DesignerServices
 90
        0
280
     0
281
     0
  0
CLASS
  1
DEPMGR
  2
AcAdDepMgr
  3
DesignerServices
 90
        0
280
     0
281
     0
  0
CLASS
  1
PARAMMGR
  2
AcAdParamMgr
  3
DesignerServices
 90
        0
280
     0
281
     0
  0
CLASS
  1
PARAMSCOPE
  2
AcAdParamScope
  3
DesignerServices
 90
        0
280
     0
281
     0
  0
CLASS
  1
NAMEDAPPL
  2
AcAdNamedAppl
  3
DesignerServices
 90
        0
280
     0
281
     0
  0
CLASS
  1
AMDTDMMENUSTATE
  2
AmdtDmMenuState
  3
AcMechDwgViewMgmt
 90
        0
280
     0
281
     0
  0
CLASS
  1
MAPIADMODULE
  2
MApiAdModule
  3
MApiAdServices
 90
        0
280
     0
281
     0
  0
CLASS
  1
AMDTAMMENUSTATE
  2
AmdtAmMenuState
  3
DesignerAssemblies
 90
        0
280
     0
281
     0
  0
CLASS
  1
ACAMPROJECT
  2
AcAmProject
  3
DesignerAssemblies
 90
        0
280
     0
281
     0
  0
CLASS
  1
ACAMGRCOMPDEF
  2
AcAmGrCompDef
  3
DesignerAssemblies
 90
        0
280
     0
281
     0
  0
CLASS
  1
ACCMCONTEXT
  2
AcCmContext
  3
DesignerAssemblies
 90
        0
280
     0
281
     0
  0
CLASS
  1
ACAMCOMPDEF
  2
AcAmCompDef
  3
DesignerAssemblies
 90
        0
280
     0
281
     0
  0
CLASS
  1
ACAMCOMPDEFMGR
  2
AcAmCompDefMgr
  3
DesignerAssemblies
 90
        0
280
     0
281
     0
  0
CLASS
  1
AMCONTEXTMGR
  2
AcAmContextMgr
  3
DesignerAssemblies
 90
        0
280
     0
281
     0
  0
CLASS
  1
ACAMCONTEXTMODELER
  2
AcAmContextModeler
  3
DesignerAssemblies
 90
        0
280
     0
281
     0
  0
CLASS
  1
ACMDATADICTIONARY
  2
AcmDataDictionary
  3
"AcmSymBB|Product Description: AutoCAD Mechanical 2000|Company: Autodesk"
 90
        0
280
     0
281
     0
  0
CLASS
  1
ACMDATAENTRYBLOCK
  2
AcmDataEntryBlock
  3
"AcmSymBB|Product Description: AutoCAD Mechanical 2000|Company: Autodesk"
 90
        0
280
     0
281
     0
  0
CLASS
  1
CATALOGSTATE
  2
AcAmCatalogState
  3
DesignerAssemblies
 90
        0
280
     0
281
     0
  0
CLASS
  1
ACAMGRCOMPDEFSET
  2
AcAmGrCompDefSet
  3
DesignerAssemblies
 90
        0
280
     0
281
     0
  0
CLASS
  1
AMDTBROWSERDBTAB
  2
AmdtBrowserDbTab
  3
McadcomServices
 90
        0
280
     0
281
     0
  0
CLASS
  1
CBROWSERAPPOBJECT
  2
CBrowserAppObject
  3
McadcomServices
 90
        0
280
     0
281
     0
  0
CLASS
  1
DM_PLACEHOLDER
  2
AcDmSelsetPlaceholder
  3
AcMechDwgViewMgmt
 90
        0
280
     0
281
     0
  0
CLASS
  1
ACMSTANDARDISO
  2
AcmStandardISO
  3
"Amdt_StdImp|Product Description: AutoCAD Mechanical 2000|Company: Autodesk"
 90
        0
280
     0
281
     0
  0
CLASS
  1
AMGOBJPROPCFG
  2
AmgObjPropCfg
  3
"AmgLay|Product Description: AutoCAD Mechanical 2000|Company: Autodesk"
 90
        1
280
     0
281
     0
  0
CLASS
  1
AMDTEDGESTANDARDISO
  2
AmdtEdgeStdISO
  3
"Amdt_StdImp|Product Description: AutoCAD Mechanical 2000|Company: Autodesk"
 90
        0
280
     0
281
     0
  0
CLASS
  1
ACMSURFSTANDARDISO
  2
AcmSurfTextStdISO
  3
"Amdt_StdImp|Product Description: AutoCAD Mechanical 2000|Company: Autodesk"
 90
        0
280
     0
281
     0
  0
CLASS
  1
ACMFCFSTANDARDISO
  2
AcmFCFStdISO
  3
"Amdt_StdImp|Product Description: AutoCAD Mechanical 2000|Company: Autodesk"
 90
        0
280
     0
281
     0
  0
CLASS
  1
ACMWELDSTANDARDISO
  2
AcmWeldingStdISO
  3
"Amdt_StdImp|Product Description: AutoCAD Mechanical 2000|Company: Autodesk"
 90
        0
280
     0
281
     0
  0
CLASS
  1
ACMIDSTANDARDISO
  2
AcmIdStdISO
  3
"Amdt_StdImp|Product Description: AutoCAD Mechanical 2000|Company: Autodesk"
 90
        0
280
     0
281
     0
  0
CLASS
  1
ACMDATUMSTANDARDISO
  2
AcmDatumStdISO
  3
"Amdt_StdImp|Product Description: AutoCAD Mechanical 2000|Company: Autodesk"
 90
        0
280
     0
281
     0
  0
CLASS
  1
ACMBOMSTANDARDISO
  2
AcmBOMStdISO
  3
"Amdt_StdImp|Product Description: AutoCAD Mechanical 2000|Company: Autodesk"
 90
        0
280
     0
281
     0
  0
CLASS
  1
ACMDETAILSTANDARDISO
  2
AmdtDetailSymStdISO
  3
"Amdt_StdImp|Product Description: AutoCAD Mechanical 2000|Company: Autodesk"
 90
        0
280
     0
281
     0
  0
CLASS
  1
ACMSECTIONSTANDARDISO
  2
AmdtSectionSymStdISO
  3
"Amdt_StdImp|Product Description: AutoCAD Mechanical 2000|Company: Autodesk"
 90
        0
280
     0
281
     0
  0
CLASS
  1
ACMCENTERLINESTANDARDISO
  2
AmdtCenterLineStdISO
  3
"Amdt_StdImp|Product Description: AutoCAD Mechanical 2000|Company: Autodesk"
 90
        0
280
     0
281
     0
  0
CLASS
  1
ACMTHREADLINESTANDARDISO
  2
AmdtThreadLineStdISO
  3
"Amdt_StdImp|Product Description: AutoCAD Mechanical 2000|Company: Autodesk"
 90
        0
280
     0
281
     0
  0
CLASS
  1
ACMNOTESTANDARDISO
  2
AmdtNoteStdISO
  3
"Amdt_StdImp|Product Description: AutoCAD Mechanical 2000|Company: Autodesk"
 90
        0
280
     0
281
     0
  0
CLASS
  1
ACAMGLAYSTD
  2
AcAmgLayStd
  3
"AcAmgLayStd|Product Description: AutoCAD Mechanical 2000|Company: Autodesk"
 90
        0
280
     0
281
     0
  0
CLASS
  1
ACAMGDIMSTD
  2
AcAmgDimStd
  3
"AcAmgDimStd|Product Description: AutoCAD Mechanical 2000|Company: Autodesk"
 90
        0
280
     0
281
     0
  0
CLASS
  1
ACAMGHOLECHARTSTDISO
  2
AcAmgHoleChartStdISO
  3
ACMSYMBB_MODULE_NAME
 90
        0
280
     0
281
     0
  0
CLASS
  1
ACAMGTITLESTD
  2
AcAmgTitleStd
  3
"TITLEAPP"
 90
        0
280
     0
281
     0
  0
CLASS
  1
ACMSTANDARDANSI
  2
AcmStandardANSI
  3
"Amdt_StdImp|Product Description: AutoCAD Mechanical 2000|Company: Autodesk"
 90
        0
280
     0
281
     0
  0
CLASS
  1
ACMSURFSTANDARDANSI
  2
AcmSurfTextStdANSI
  3
"Amdt_StdImp|Product Description: AutoCAD Mechanical 2000|Company: Autodesk"
 90
        0
280
     0
281
     0
  0
CLASS
  1
ACMFCFSTANDARDANSI
  2
AcmFCFStdANSI
  3
"Amdt_StdImp|Product Description: AutoCAD Mechanical 2000|Company: Autodesk"
 90
        0
280
     0
281
     0
  0
CLASS
  1
ACMWELDSTANDARDANSI
  2
AcmWeldingStdANSI
  3
"Amdt_StdImp|Product Description: AutoCAD Mechanical 2000|Company: Autodesk"
 90
        0
280
     0
281
     0
  0
CLASS
  1
ACMIDSTANDARDANSI
  2
AcmIdStdANSI
  3
"Amdt_StdImp|Product Description: AutoCAD Mechanical 2000|Company: Autodesk"
 90
        0
280
     0
281
     0
  0
CLASS
  1
ACMDATUMSTANDARDANSI
  2
AcmDatumStdANSI
  3
"Amdt_StdImp|Product Description: AutoCAD Mechanical 2000|Company: Autodesk"
 90
        0
280
     0
281
     0
  0
CLASS
  1
ACMBOMSTANDARDANSI
  2
AcmBOMStdANSI
  3
"Amdt_StdImp|Product Description: AutoCAD Mechanical 2000|Company: Autodesk"
 90
        0
280
     0
281
     0
  0
CLASS
  1
ACMDETAILSTANDARDANSI
  2
AmdtDetailSymStdANSI
  3
"Amdt_StdImp|Product Description: AutoCAD Mechanical 2000|Company: Autodesk"
 90
        0
280
     0
281
     0
  0
CLASS
  1
ACMSECTIONSTANDARDANSI
  2
AmdtSectionSymStdANSI
  3
"Amdt_StdImp|Product Description: AutoCAD Mechanical 2000|Company: Autodesk"
 90
        0
280
     0
281
     0
  0
CLASS
  1
ACMCENTERLINESTANDARDANSI
  2
AmdtCenterLineStdANSI
  3
"Amdt_StdImp|Product Description: AutoCAD Mechanical 2000|Company: Autodesk"
 90
        0
280
     0
281
     0
  0
CLASS
  1
ACMTHREADLINESTANDARDANSI
  2
AmdtThreadLineStdANSI
  3
"Amdt_StdImp|Product Description: AutoCAD Mechanical 2000|Company: Autodesk"
 90
        0
280
     0
281
     0
  0
CLASS
  1
ACMNOTESTANDARDANSI
  2
AmdtNoteStdANSI
  3
"Amdt_StdImp|Product Description: AutoCAD Mechanical 2000|Company: Autodesk"
 90
        0
280
     0
281
     0
  0
CLASS
  1
ACAMGHOLECHARTSTDANSI
  2
AcAmgHoleChartStdANSI
  3
ACMSYMBB_MODULE_NAME
 90
        0
280
     0
281
     0
  0
CLASS
  1
LAYER_INDEX
  2
AcDbLayerIndex
  3
AutoCAD 2000
 90
        0
280
     0
281
     0
  0
CLASS
  1
IDBUFFER
  2
AcDbIdBuffer
  3
AutoCAD 2000
 90
        0
280
     0
281
     0
  0
CLASS
  1
ACAMGFILTERDAT
  2
AcAmgFilterDat
  3
"AcadM|Product Description: AutoCAD Mechanical 2000|Company: Autodesk"
 90
        0
280
     0
281
     0
  0
ENDSEC
  0
SECTION
  2
TABLES
  0
TABLE
  2
VPORT
  5
8
330
0
100
AcDbSymbolTable
 70
    58
  0
VPORT
  5
8E5
330
8
100
AcDbSymbolTableRecord
100
AcDbViewportTableRecord
  2
*Active
 70
     0
 10
0.0
 20
0.0
 11
1.0
 21
1.0
 12
-247.6618968574284
 22
-245.4308259836686
 13
0.0
 23
0.0
 14
1.0
 24
1.0
 15
0.0
 25
0.0
 16
0.0
 26
0.0
 36
1.0
 17
248.9596517691351
 27
245.8997127951682
 37
0.0
 40
5.251346931551614
 41
1.261194029850746
 42
50.0
 43
0.0
 44
0.0
 50
0.0
 51
0.0
 71
     0
 72
  1000
 73
     1
 74
     0
 75
     0
 76
     0
 77
     0
 78
     0
281
     0
 65
     0
110
0.0
120
0.0
130
0.0
111
1.0
121
0.0
131
0.0
112
0.0
122
1.0
132
0.0
 79
     0
146
0.0
  0
ENDTAB
  0
TABLE
  2
LTYPE
  5
5
330
0
100
AcDbSymbolTable
 70
    24
  0
LTYPE
  5
14
330
5
100
AcDbSymbolTableRecord
100
AcDbLinetypeTableRecord
  2
BYBLOCK
 70
     0
  3

 72
    65
 73
     0
 40
0.0
  0
LTYPE
  5
15
330
5
100
AcDbSymbolTableRecord
100
AcDbLinetypeTableRecord
  2
BYLAYER
 70
     0
  3

 72
    65
 73
     0
 40
0.0
  0
LTYPE
  5
16
330
5
100
AcDbSymbolTableRecord
100
AcDbLinetypeTableRecord
  2
CONTINUOUS
 70
     0
  3
Solid line
 72
    65
 73
     0
 40
0.0
  0
LTYPE
  5
28
330
5
100
AcDbSymbolTableRecord
100
AcDbLinetypeTableRecord
  2
HIDDEN
 70
     0
  3
__ __ __ __ __ __ __ __ __ __ __ __ __ __ __ __
 72
    65
 73
     2
 40
0.375
 49
0.25
 74
     0
 49
-0.125
 74
     0
  0
LTYPE
  5
C5
330
5
100
AcDbSymbolTableRecord
100
AcDbLinetypeTableRecord
  2
CENTER
 70
     0
  3
____ _ ____ _ ____ _ ____ _ ____ _ ____ _ ____
 72
    65
 73
     4
 40
2.0
 49
1.25
 74
     0
 49
-0.25
 74
     0
 49
0.25
 74
     0
 49
-0.25
 74
     0
  0
LTYPE
  5
34B
330
5
100
AcDbSymbolTableRecord
100
AcDbLinetypeTableRecord
  2
PHANTOM2
 70
     0
  3
Phantom (.5x) ___ _ _ ___ _ _ ___ _ _ ___ _ _
 72
    65
 73
     6
 40
31.75
 49
15.875
 74
     0
 49
-3.174999999999999
 74
     0
 49
3.174999999999999
 74
     0
 49
-3.174999999999999
 74
     0
 49
3.174999999999999
 74
     0
 49
-3.174999999999999
 74
     0
  0
LTYPE
  5
3F5
330
5
100
AcDbSymbolTableRecord
100
AcDbLinetypeTableRecord
  2
Amconstr
 70
     0
  3
_______________________
 72
    65
 73
     2
 40
9999.0
 49
9999.0
 74
     0
 49
0.0
 74
     0
  0
LTYPE
  5
409
330
5
100
AcDbSymbolTableRecord
100
AcDbLinetypeTableRecord
  2
ACISOWELD
 70
     0
  3
_ _ _ _ _
 72
    65
 73
     2
 40
2.0
 49
2.0
 74
     0
 49
-1.0
 74
     0
  0
LTYPE
  5
40A
330
5
100
AcDbSymbolTableRecord
100
AcDbLinetypeTableRecord
  2
ACISOTGB
 70
     0
  3
__ . . __ . .
 72
    65
 73
     6
 40
9.0
 49
4.0
 74
     0
 49
-1.0
 74
     0
 49
1.0
 74
     0
 49
-1.0
 74
     0
 49
1.0
 74
     0
 49
-1.0
 74
     0
  0
LTYPE
  5
40B
330
5
100
AcDbSymbolTableRecord
100
AcDbLinetypeTableRecord
  2
ACISOTGL
 70
     0
  3
_ _ _ _ _
 72
    65
 73
     2
 40
3.0
 49
2.0
 74
     0
 49
-1.0
 74
     0
  0
LTYPE
  5
439
330
5
100
AcDbSymbolTableRecord
100
AcDbLinetypeTableRecord
  2
CENTER2
 70
     0
  3
Center (.5x) ___ _ ___ _ ___ _ ___ _ ___ _ ___
 72
    65
 73
     4
 40
1.125
 49
0.75
 74
     0
 49
-0.125
 74
     0
 49
0.125
 74
     0
 49
-0.125
 74
     0
  0
LTYPE
  5
43A
330
5
100
AcDbSymbolTableRecord
100
AcDbLinetypeTableRecord
  2
HIDDEN2
 70
     0
  3
Hidden (.5x) _ _ _ _ _ _ _ _ _ _ _ _ _ _ _ _ _
 72
    65
 73
     2
 40
0.1875
 49
0.125
 74
     0
 49
-0.0625
 74
     0
  0
LTYPE
  5
43B
330
5
100
AcDbSymbolTableRecord
100
AcDbLinetypeTableRecord
  2
Amzigzag2
 70
     0
  3
/\/-/\/-/\/-/\/-/\/-/\/
 72
    65
 73
     2
 40
0.4401
 49
0.0001
 74
     4
 75
   135
340
3F9
 46
0.0016
 50
0.0
 44
0.0
 45
0.0
 49
-0.4400000000000001
 74
     0
  0
LTYPE
  5
43C
330
5
100
AcDbSymbolTableRecord
100
AcDbLinetypeTableRecord
  2
ACANSTGBM
 70
     0
  3
__ . . __ . .
 72
    65
 73
     6
 40
9.0
 49
4.0
 74
     0
 49
-1.0
 74
     0
 49
1.0
 74
     0
 49
-1.0
 74
     0
 49
1.0
 74
     0
 49
-1.0
 74
     0
  0
LTYPE
  5
43D
330
5
100
AcDbSymbolTableRecord
100
AcDbLinetypeTableRecord
  2
ACANSTGLM
 70
     0
  3
_ _ _ _ _
 72
    65
 73
     2
 40
3.0
 49
2.0
 74
     0
 49
-1.0
 74
     0
  0
ENDTAB
  0
TABLE
  2
LAYER
  5
2
330
0
100
AcDbSymbolTable
 70
    20
  0
LAYER
  5
F
330
2
100
AcDbSymbolTableRecord
100
AcDbLayerTableRecord
  2
0
 70
     0
 62
     7
  6
CONTINUOUS
370
    -3
390
316
  0
LAYER
  5
4CA
330
2
100
AcDbSymbolTableRecord
100
AcDbLayerTableRecord
  2
LINE
 70
     0
 62
     3
  6
CONTINUOUS
370
    -3
390
316
  0
LAYER
  5
4CB
330
2
100
AcDbSymbolTableRecord
100
AcDbLayerTableRecord
  2
HIDDEN
 70
     0
 62
     2
  6
HIDDEN
370
    -3
390
316
  0
LAYER
  5
4CC
330
2
100
AcDbSymbolTableRecord
100
AcDbLayerTableRecord
  2
DIM
 70
     0
 62
     7
  6
CONTINUOUS
370
    -3
390
316
  0
LAYER
  5
4CF
330
2
100
AcDbSymbolTableRecord
100
AcDbLayerTableRecord
  2
CTRL
 70
     0
 62
     1
  6
CENTER
370
    -3
390
316
  0
LAYER
  5
5CF
330
2
100
AcDbSymbolTableRecord
100
AcDbLayerTableRecord
  2
KA
 70
     0
 62
     3
  6
CONTINUOUS
370
    -3
390
316
  0
LAYER
  5
674
330
2
100
AcDbSymbolTableRecord
100
AcDbLayerTableRecord
  2
Defpoints
 70
     0
 62
     7
  6
CONTINUOUS
290
     0
370
    -3
390
316
  0
ENDTAB
  0
TABLE
  2
STYLE
  5
3
330
0
100
AcDbSymbolTable
 70
     8
  0
STYLE
  5
10
330
3
100
AcDbSymbolTableRecord
100
AcDbTextStyleTableRecord
  2
STANDARD
 70
     0
 40
0.0
 41
1.0
 50
0.0
 71
     0
 42
0.2
  3
ROMANS.SHX
  4

  0
STYLE
  5
1CA
330
3
100
AcDbSymbolTableRecord
100
AcDbTextStyleTableRecord
  2
ROMANS
 70
     0
 40
0.0
 41
1.0
 50
0.0
 71
     0
 42
0.24
  3
romans
  4

  0
STYLE
  5
28B
330
3
100
AcDbSymbolTableRecord
100
AcDbTextStyleTableRecord
  2
STYLE1
 70
     0
 40
0.0
 41
1.0
 50
0.0
 71
     0
 42
0.2
  3
romans.shx
  4

  0
STYLE
  5
3F9
330
3
100
AcDbSymbolTableRecord
100
AcDbTextStyleTableRecord
  2

 70
     1
 40
0.0
 41
1.0
 50
0.0
 71
     0
 42
0.2
  3
ltypeshp.shx
  4

  0
STYLE
  5
3FB
330
3
100
AcDbSymbolTableRecord
100
AcDbTextStyleTableRecord
  2
ACISOTS
 70
     0
 40
1.0
 41
1.0
 50
0.0
 71
     0
 42
0.2
  3
isocp.shx
  4

  0
STYLE
  5
408
330
3
100
AcDbSymbolTableRecord
100
AcDbTextStyleTableRecord
  2
ACISOGDT
 70
     0
 40
0.0
 41
1.0
 50
0.0
 71
     0
 42
0.2
  3
amgdt.shx
  4

  0
STYLE
  5
420
330
3
100
AcDbSymbolTableRecord
100
AcDbTextStyleTableRecord
  2
ACANSTS
 70
     0
 40
1.0
 41
1.0
 50
0.0
 71
     0
 42
0.2
  3
romans.shx
  4

  0
STYLE
  5
42C
330
3
100
AcDbSymbolTableRecord
100
AcDbTextStyleTableRecord
  2
ACANSGDT
 70
     0
 40
0.0
 41
1.0
 50
0.0
 71
     0
 42
0.2
  3
amgdtans.shx
  4

  0
ENDTAB
  0
TABLE
  2
VIEW
  5
6
330
0
100
AcDbSymbolTable
 70
     0
  0
ENDTAB
  0
TABLE
  2
UCS
  5
7
330
0
100
AcDbSymbolTable
 70
     0
  0
ENDTAB
  0
TABLE
  2
APPID
  5
9
330
0
100
AcDbSymbolTable
 70
    16
  0
APPID
  5
11
330
9
100
AcDbSymbolTableRecord
100
AcDbRegAppTableRecord
  2
ACAD
 70
     0
  0
APPID
  5
329
330
9
100
AcDbSymbolTableRecord
100
AcDbRegAppTableRecord
  2
GENIUS_GENDIM_13
 70
     0
  0
APPID
  5
32A
330
9
100
AcDbSymbolTableRecord
100
AcDbRegAppTableRecord
  2
GENIUS_GENDTOL_13
 70
     0
  0
APPID
  5
32B
330
9
100
AcDbSymbolTableRecord
100
AcDbRegAppTableRecord
  2
GENIUS_GE3DTOL_13
 70
     0
  0
APPID
  5
32E
330
9
100
AcDbSymbolTableRecord
100
AcDbRegAppTableRecord
  2
MCAD_NO_VIS
 70
     0
  0
APPID
  5
32F
330
9
100
AcDbSymbolTableRecord
100
AcDbRegAppTableRecord
  2
ACAD_TEMP_GRAPHIC
 70
     0
  0
APPID
  5
360
330
9
100
AcDbSymbolTableRecord
100
AcDbRegAppTableRecord
  2
AD_DRAW
 70
     0
  0
APPID
  5
363
330
9
100
AcDbSymbolTableRecord
100
AcDbRegAppTableRecord
  2
ACATTRIBSERVICES
 70
     0
  0
APPID
  5
3AF
330
9
100
AcDbSymbolTableRecord
100
AcDbRegAppTableRecord
  2
ASURF_PCURVE_APPNAME
 70
     0
  0
APPID
  5
3B4
330
9
100
AcDbSymbolTableRecord
100
AcDbRegAppTableRecord
  2
AMG_3D2D_5.0
 70
     0
  0
APPID
  5
3DF
330
9
100
AcDbSymbolTableRecord
100
AcDbRegAppTableRecord
  2
DESIGNERASSEMBLIES
 70
     0
  0
APPID
  5
3E7
330
9
100
AcDbSymbolTableRecord
100
AcDbRegAppTableRecord
  2
ACADM_DIM_EDIT
 70
     0
  0
APPID
  5
3E8
330
9
100
AcDbSymbolTableRecord
100
AcDbRegAppTableRecord
  2
AMDT_DM_ADJ
 70
     0
  0
APPID
  5
62F
330
9
100
AcDbSymbolTableRecord
100
AcDbRegAppTableRecord
  2
GENIUS_GENFIL_13
 70
     0
  0
APPID
  5
630
330
9
100
AcDbSymbolTableRecord
100
AcDbRegAppTableRecord
  2
GENIUS_GENOBJ-N-CHA_13
 70
     0
  0
APPID
  5
631
330
9
100
AcDbSymbolTableRecord
100
AcDbRegAppTableRecord
  2
GENIUS_GENODEF_13
 70
     0
  0
ENDTAB
  0
TABLE
  2
DIMSTYLE
  5
A
330
0
100
AcDbSymbolTable
 70
    15
100
AcDbDimStyleTable
 71
     2
340
1D
340
431
  0
DIMSTYLE
105
1D
102
{ACAD_REACTORS
330
681
330
698
330
6B7
330
673
330
7B2
102
}
330
A
100
AcDbSymbolTableRecord
100
AcDbDimStyleTableRecord
  2
STANDARD
 70
     0
 41
0.12
 44
0.0625
 73
     0
 74
     0
 77
     1
140
0.125
141
0.0
147
0.05
172
     1
271
     3
272
     3
340
1CA
  0
DIMSTYLE
105
40F
330
A
100
AcDbSymbolTableRecord
100
AcDbDimStyleTableRecord
  2
AM_ISO
 70
     0
  4
"
 41
2.5
 42
1.0
 43
10.0
 44
1.0
 47
0.1
 48
0.1
 73
     0
 74
     0
 77
     1
 78
     8
 79
     2
140
3.5
141
0.0
143
0.0393701
146
0.71
147
1.5
172
     1
176
   256
177
   256
178
     2
271
     2
272
     3
274
     4
283
     0
284
     8
340
10
371
    -1
372
    -1
  0
DIMSTYLE
105
410
330
A
100
AcDbSymbolTableRecord
100
AcDbDimStyleTableRecord
  2
AM_ISO$3
 70
     0
  4
"
 41
2.5
 42
1.0
 43
10.0
 44
1.0
 47
0.1
 48
0.1
 73
     0
 77
     1
 78
     8
 79
     2
140
3.5
141
0.0
143
0.0393701
146
0.71
147
1.5
176
   256
177
   256
178
     2
271
     2
272
     3
274
     4
283
     0
284
     8
288
     1
289
     0
340
10
371
    -1
372
    -1
  0
DIMSTYLE
105
411
330
A
100
AcDbSymbolTableRecord
100
AcDbDimStyleTableRecord
  2
AM_ISO$4
 70
     0
  4
"
 41
2.5
 42
1.0
 43
10.0
 44
1.0
 47
0.1
 48
0.1
 73
     0
 77
     1
 78
     8
 79
     2
140
3.5
141
0.0
143
0.0393701
146
0.71
147
1.5
176
   256
177
   256
178
     2
271
     2
272
     3
274
     4
283
     0
284
     8
288
     1
289
     0
340
10
371
    -1
372
    -1
  0
DIMSTYLE
105
412
330
A
100
AcDbSymbolTableRecord
100
AcDbDimStyleTableRecord
  2
AM_ISO$6
 70
     0
  4
"
 41
2.5
 42
1.0
 43
10.0
 44
1.0
 47
0.1
 48
0.1
 73
     0
 74
     0
 78
     8
 79
     2
140
3.5
141
0.0
143
0.0393701
146
0.71
147
1.5
172
     1
176
   256
177
   256
178
     2
271
     2
272
     3
274
     4
283
     0
284
     8
340
10
371
    -1
372
    -1
  0
DIMSTYLE
105
413
330
A
100
AcDbSymbolTableRecord
100
AcDbDimStyleTableRecord
  2
AM_ISO$7
 70
     0
  4
"
 41
2.5
 42
1.0
 43
10.0
 44
1.0
 47
0.1
 48
0.1
 73
     0
 74
     0
 77
     1
 78
     8
 79
     2
140
5.0
141
0.0
143
0.0393701
146
0.71
147
1.5
172
     1
176
   256
177
   256
178
     2
271
     2
272
     3
274
     4
283
     0
284
     8
340
10
371
    -1
372
    -1
  0
DIMSTYLE
105
414
330
A
100
AcDbSymbolTableRecord
100
AcDbDimStyleTableRecord
  2
AM_ISO$SF
 70
     0
  4
"
 41
2.5
 42
1.0
 43
10.0
 44
1.0
 47
0.1
 48
0.1
 73
     0
 74
     0
 75
     1
 76
     1
 77
     1
 78
     8
 79
     2
140
3.5
141
0.0
143
0.0393701
146
0.71
147
1.5
172
     1
176
   256
177
   256
178
     2
271
     2
272
     3
274
     4
283
     0
284
     8
340
10
371
    -1
372
    -1
  0
DIMSTYLE
105
419
330
A
100
AcDbSymbolTableRecord
100
AcDbDimStyleTableRecord
  2
AM_ISO$SH
 70
     0
  4
"
 41
2.5
 42
1.0
 43
10.0
 44
1.0
 47
0.1
 48
0.1
 73
     0
 74
     0
 75
     1
 76
     1
 77
     1
 78
     8
 79
     2
140
3.5
141
0.0
143
0.0393701
144
2.0
146
0.71
147
1.5
172
     1
173
     1
176
   256
177
   256
178
     2
271
     2
272
     3
274
     4
283
     0
284
     8
340
10
343
415
371
    -1
372
    -1
  0
DIMSTYLE
105
431
330
A
100
AcDbSymbolTableRecord
100
AcDbDimStyleTableRecord
  2
AM_ANSI
 70
     0
  4
"
 41
2.5
 42
1.0
 43
10.0
 44
1.0
 47
0.1
 48
0.1
 78
     8
 79
     2
140
3.5
141
0.0
143
0.0393701
146
0.71
147
1.5
176
   256
177
   256
178
     2
271
     2
272
     3
274
     4
284
     8
340
10
371
    -1
372
    -1
  0
DIMSTYLE
105
432
330
A
100
AcDbSymbolTableRecord
100
AcDbDimStyleTableRecord
  2
AM_ANSI$3
 70
     0
  4
"
 41
2.5
 42
1.0
 43
10.0
 44
1.0
 47
0.1
 48
0.1
 78
     8
 79
     2
140
3.5
141
0.0
143
0.0393701
146
0.71
147
1.5
176
   256
177
   256
178
     2
271
     2
272
     3
274
     4
284
     8
288
     1
289
     0
340
10
371
    -1
372
    -1
  0
DIMSTYLE
105
433
330
A
100
AcDbSymbolTableRecord
100
AcDbDimStyleTableRecord
  2
AM_ANSI$4
 70
     0
  4
"
 41
2.5
 42
1.0
 43
10.0
 44
1.0
 47
0.1
 48
0.1
 78
     8
 79
     2
140
3.5
141
0.0
143
0.0393701
146
0.71
147
1.5
176
   256
177
   256
178
     2
271
     2
272
     3
274
     4
284
     8
288
     1
289
     0
340
10
371
    -1
372
    -1
  0
DIMSTYLE
105
434
330
A
100
AcDbSymbolTableRecord
100
AcDbDimStyleTableRecord
  2
AM_ANSI$7
 70
     0
  4
"
 41
2.5
 42
1.0
 43
10.0
 44
1.0
 47
0.1
 48
0.1
 78
     8
 79
     2
140
5.0
141
0.0
143
0.0393701
146
0.71
147
1.5
176
   256
177
   256
178
     2
271
     2
272
     3
274
     4
284
     8
340
10
371
    -1
372
    -1
  0
DIMSTYLE
105
435
330
A
100
AcDbSymbolTableRecord
100
AcDbDimStyleTableRecord
  2
AM_ANSI$SF
 70
     0
  4
"
 41
2.5
 42
1.0
 43
10.0
 44
1.0
 47
0.1
 48
0.1
 75
     1
 76
     1
 78
     8
 79
     2
140
3.5
141
0.0
143
0.0393701
146
0.71
147
1.5
176
   256
177
   256
178
     2
271
     2
272
     3
274
     4
284
     8
340
10
371
    -1
372
    -1
  0
DIMSTYLE
105
436
330
A
100
AcDbSymbolTableRecord
100
AcDbDimStyleTableRecord
  2
AM_ANSI$SH
 70
     0
  4
"
 41
2.5
 42
1.0
 43
10.0
 44
1.0
 47
0.1
 48
0.1
 75
     1
 76
     1
 78
     8
 79
     2
140
3.5
141
0.0
143
0.0393701
146
0.71
147
1.5
173
     1
176
   256
177
   256
178
     2
271
     2
272
     3
274
     4
284
     8
340
10
343
415
371
    -1
372
    -1
  0
ENDTAB
  0
TABLE
  2
BLOCK_RECORD
  5
1
330
0
100
AcDbSymbolTable
 70
     9
  0
BLOCK_RECORD
  5
1A
102
{ACAD_XDICTIONARY
360
43F
102
}
330
1
100
AcDbSymbolTableRecord
100
AcDbBlockTableRecord
  2
*MODEL_SPACE
340
319
  0
BLOCK_RECORD
  5
4B0
330
1
100
AcDbSymbolTableRecord
100
AcDbBlockTableRecord
  2
*Paper_Space
340
4B1
  0
BLOCK_RECORD
  5
3D6
330
1
100
AcDbSymbolTableRecord
100
AcDbBlockTableRecord
  2
*U0
340
0
  0
BLOCK_RECORD
  5
415
330
1
100
AcDbSymbolTableRecord
100
AcDbBlockTableRecord
  2
GENAXEH
340
0
  0
BLOCK_RECORD
  5
675
330
1
100
AcDbSymbolTableRecord
100
AcDbBlockTableRecord
  2
*D3
340
0
  0
BLOCK_RECORD
  5
682
330
1
100
AcDbSymbolTableRecord
100
AcDbBlockTableRecord
  2
*D4
340
0
  0
BLOCK_RECORD
  5
699
330
1
100
AcDbSymbolTableRecord
100
AcDbBlockTableRecord
  2
*D5
340
0
  0
BLOCK_RECORD
  5
6B8
330
1
100
AcDbSymbolTableRecord
100
AcDbBlockTableRecord
  2
*D6
340
0
  0
BLOCK_RECORD
  5
7B3
330
1
100
AcDbSymbolTableRecord
100
AcDbBlockTableRecord
  2
*D8
340
0
  0
ENDTAB
  0
ENDSEC
  0
SECTION
  2
BLOCKS
  0
BLOCK
  5
1B
330
1A
100
AcDbEntity
  8
0
100
AcDbBlockBegin
  2
*MODEL_SPACE
 70
     0
 10
0.0
 20
0.0
 30
0.0
  3
*MODEL_SPACE
  1

  0
ENDBLK
  5
1C
330
1A
100
AcDbEntity
  8
0
100
AcDbBlockEnd
  0
BLOCK
  5
4B2
330
4B0
100
AcDbEntity
 67
     1
  8
0
100
AcDbBlockBegin
  2
*Paper_Space
 70
     0
 10
0.0
 20
0.0
 30
0.0
  3
*Paper_Space
  1

  0
ENDBLK
  5
4B3
330
4B0
100
AcDbEntity
 67
     1
  8
0
100
AcDbBlockEnd
  0
BLOCK
  5
3D7
330
3D6
100
AcDbEntity
  8
0
100
AcDbBlockBegin
  2
*U0
 70
     1
 10
0.0
 20
0.0
 30
0.0
  3
*U0
  1

  0
ENDBLK
  5
3D8
330
3D6
100
AcDbEntity
  8
0
100
AcDbBlockEnd
  0
BLOCK
  5
417
330
415
100
AcDbEntity
  8
0
100
AcDbBlockBegin
  2
GENAXEH
 70
     0
 10
0.0
 20
0.0
 30
0.0
  3
GENAXEH
  1

  0
LINE
  5
416
330
415
100
AcDbEntity
  8
0
100
AcDbLine
 10
-1.0
 20
0.0
 30
0.0
 11
1.0
 21
0.0
 31
0.0
  0
ENDBLK
  5
418
330
415
100
AcDbEntity
  8
0
100
AcDbBlockEnd
  0
BLOCK
  5
67F
330
675
100
AcDbEntity
  8
0
100
AcDbBlockBegin
  2
*D3
 70
     1
 10
0.0
 20
0.0
 30
0.0
  3
*D3
  1

  0
LINE
  5
87D
330
675
100
AcDbEntity
  8
DIM
 62
     0
370
    -2
100
AcDbLine
 10
0.0000000000000001
 20
1.27313
 30
0.0
 11
0.0000000000000001
 21
1.807483902964634
 31
0.0
  0
LINE
  5
87E
330
675
100
AcDbEntity
  8
DIM
 62
     0
370
    -2
100
AcDbLine
 10
2.756
 20
1.248000000000002
 30
0.0
 11
2.756
 21
1.807483902964634
 31
0.0
  0
LINE
  5
87F
330
675
100
AcDbEntity
  8
DIM
 62
     0
370
    -2
100
AcDbLine
 10
0.1200000000000001
 20
1.744983902964634
 30
0.0
 11
2.636
 21
1.744983902964634
 31
0.0
  0
SOLID
  5
880
330
675
100
AcDbEntity
  8
DIM
 62
     0
100
AcDbTrace
 10
0.1200000000000001
 20
1.764983902964634
 30
0.0
 11
0.1200000000000001
 21
1.724983902964634
 31
0.0
 12
0.0000000000000001
 22
1.744983902964634
 32
0.0
 13
0.0000000000000001
 23
1.744983902964634
 33
0.0
  0
SOLID
  5
881
330
675
100
AcDbEntity
  8
DIM
 62
     0
100
AcDbTrace
 10
2.636
 20
1.764983902964634
 30
0.0
 11
2.636
 21
1.724983902964634
 31
0.0
 12
2.756
 22
1.744983902964634
 32
0.0
 13
2.756
 23
1.744983902964634
 33
0.0
  0
MTEXT
  5
882
330
675
100
AcDbEntity
  8
DIM
 62
     0
100
AcDbMText
 10
1.378
 20
1.857483902964634
 30
0.0
 40
0.125
 41
0.0
 71
     5
 72
     1
  1
\A1;2.756
  7
ROMANS
 73
     1
 44
1.0
  0
POINT
  5
883
330
675
100
AcDbEntity
  8
Defpoints
 62
     0
100
AcDbPoint
 10
0.0000000000000001
 20
1.21063
 30
0.0
  0
POINT
  5
884
330
675
100
AcDbEntity
  8
Defpoints
 62
     0
100
AcDbPoint
 10
2.756
 20
1.185500000000002
 30
0.0
  0
POINT
  5
885
330
675
100
AcDbEntity
  8
Defpoints
 62
     0
100
AcDbPoint
 10
2.756
 20
1.744983902964634
 30
0.0
  0
ENDBLK
  5
680
330
675
100
AcDbEntity
  8
0
100
AcDbBlockEnd
  0
BLOCK
  5
68C
330
682
100
AcDbEntity
  8
0
100
AcDbBlockBegin
  2
*D4
 70
     1
 10
0.0
 20
0.0
 30
0.0
  3
*D4
  1

  0
LINE
  5
8CF
330
682
100
AcDbEntity
  8
DIM
 62
     0
370
    -2
100
AcDbLine
 10
2.46487
 20
1.382500000000002
 30
0.0
 11
4.5895982645442
 21
1.382500000000001
 31
0.0
  0
LINE
  5
8D0
330
682
100
AcDbEntity
  8
DIM
 62
     0
370
    -2
100
AcDbLine
 10
2.46487
 20
-1.382499999999997
 30
0.0
 11
4.5895982645442
 21
-1.382499999999998
 31
0.0
  0
LINE
  5
8D1
330
682
100
AcDbEntity
  8
DIM
 62
     0
370
    -2
100
AcDbLine
 10
4.5270982645442
 20
1.262500000000001
 30
0.0
 11
4.5270982645442
 21
-1.262499999999998
 31
0.0
  0
SOLID
  5
8D2
330
682
100
AcDbEntity
  8
DIM
 62
     0
100
AcDbTrace
 10
4.5070982645442
 20
1.262500000000001
 30
0.0
 11
4.547098264544199
 21
1.262500000000001
 31
0.0
 12
4.5270982645442
 22
1.382500000000001
 32
0.0
 13
4.5270982645442
 23
1.382500000000001
 33
0.0
  0
SOLID
  5
8D3
330
682
100
AcDbEntity
  8
DIM
 62
     0
100
AcDbTrace
 10
4.5070982645442
 20
-1.262499999999998
 30
0.0
 11
4.547098264544199
 21
-1.262499999999998
 31
0.0
 12
4.5270982645442
 22
-1.382499999999998
 32
0.0
 13
4.5270982645442
 23
-1.382499999999998
 33
0.0
  0
MTEXT
  5
8D4
330
682
100
AcDbEntity
  8
DIM
 62
     0
100
AcDbMText
 10
4.4145982645442
 20
0.0000000000000026
 30
0.0
 40
0.125
 41
0.0
 71
     5
 72
     1
  1
\A1;%%c2.765
  7
ROMANS
 11
0.0000000000000001
 21
1.0
 31
0.0
 73
     1
 44
1.0
  0
POINT
  5
8D5
330
682
100
AcDbEntity
  8
Defpoints
 62
     0
100
AcDbPoint
 10
2.40237
 20
1.382500000000002
 30
0.0
  0
POINT
  5
8D6
330
682
100
AcDbEntity
  8
Defpoints
 62
     0
100
AcDbPoint
 10
2.40237
 20
-1.382499999999997
 30
0.0
  0
POINT
  5
8D7
330
682
100
AcDbEntity
  8
Defpoints
 62
     0
100
AcDbPoint
 10
4.5270982645442
 20
-1.382499999999998
 30
0.0
  0
ENDBLK
  5
68D
330
682
100
AcDbEntity
  8
0
100
AcDbBlockEnd
  0
BLOCK
  5
6A3
330
699
100
AcDbEntity
  8
0
100
AcDbBlockBegin
  2
*D5
 70
     1
 10
0.0
 20
0.0
 30
0.0
  3
*D5
  1

  0
LINE
  5
7A8
330
699
100
AcDbEntity
  8
DIM
 62
     0
370
    -2
100
AcDbLine
 10
-0.0231299999999999
 20
1.25
 30
0.0
 11
-1.881603415746354
 21
1.25
 31
0.0
  0
LINE
  5
7A9
330
699
100
AcDbEntity
  8
DIM
 62
     0
370
    -2
100
AcDbLine
 10
-0.0231300000000002
 20
-1.25
 30
0.0
 11
-1.881603415746354
 21
-1.249999999999999
 31
0.0
  0
LINE
  5
7AA
330
699
100
AcDbEntity
  8
DIM
 62
     0
370
    -2
100
AcDbLine
 10
-1.819103415746354
 20
1.13
 30
0.0
 11
-1.819103415746354
 21
-1.129999999999999
 31
0.0
  0
SOLID
  5
7AB
330
699
100
AcDbEntity
  8
DIM
 62
     0
100
AcDbTrace
 10
-1.839103415746354
 20
1.13
 30
0.0
 11
-1.799103415746354
 21
1.13
 31
0.0
 12
-1.819103415746354
 22
1.25
 32
0.0
 13
-1.819103415746354
 23
1.25
 33
0.0
  0
SOLID
  5
7AC
330
699
100
AcDbEntity
  8
DIM
 62
     0
100
AcDbTrace
 10
-1.839103415746355
 20
-1.129999999999999
 30
0.0
 11
-1.799103415746355
 21
-1.129999999999999
 31
0.0
 12
-1.819103415746354
 22
-1.249999999999999
 32
0.0
 13
-1.819103415746354
 23
-1.249999999999999
 33
0.0
  0
MTEXT
  5
7AD
330
699
100
AcDbEntity
  8
DIM
 62
     0
100
AcDbMText
 10
-1.931603415746354
 20
0.0000000000000001
 30
0.0
 40
0.125
 41
0.0
 71
     5
 72
     1
  1
\A1;%%c2.500
  7
ROMANS
 11
0.0000000000000001
 21
1.0
 31
0.0
 73
     1
 44
1.0
  0
POINT
  5
7AE
330
699
100
AcDbEntity
  8
Defpoints
 62
     0
100
AcDbPoint
 10
0.0393700000000001
 20
1.25
 30
0.0
  0
POINT
  5
7AF
330
699
100
AcDbEntity
  8
Defpoints
 62
     0
100
AcDbPoint
 10
0.0393699999999998
 20
-1.25
 30
0.0
  0
POINT
  5
7B0
330
699
100
AcDbEntity
  8
Defpoints
 62
     0
100
AcDbPoint
 10
-1.819103415746354
 20
-1.249999999999999
 30
0.0
  0
ENDBLK
  5
6A4
330
699
100
AcDbEntity
  8
0
100
AcDbBlockEnd
  0
BLOCK
  5
6C2
330
6B8
100
AcDbEntity
  8
0
100
AcDbBlockBegin
  2
*D6
 70
     1
 10
0.0
 20
0.0
 30
0.0
  3
*D6
  1

  0
LINE
  5
8D8
330
6B8
100
AcDbEntity
  8
DIM
 62
     0
370
    -2
100
AcDbLine
 10
2.46487
 20
0.9450000000000025
 30
0.0
 11
4.261528416643977
 21
0.945000000000002
 31
0.0
  0
LINE
  5
8D9
330
6B8
100
AcDbEntity
  8
DIM
 62
     0
370
    -2
100
AcDbLine
 10
2.46487
 20
-0.944999999999997
 30
0.0
 11
4.261528416643977
 21
-0.9449999999999976
 31
0.0
  0
LINE
  5
8DA
330
6B8
100
AcDbEntity
  8
DIM
 62
     0
370
    -2
100
AcDbLine
 10
4.199028416643977
 20
0.8250000000000021
 30
0.0
 11
4.199028416643977
 21
-0.8249999999999975
 31
0.0
  0
SOLID
  5
8DB
330
6B8
100
AcDbEntity
  8
DIM
 62
     0
100
AcDbTrace
 10
4.179028416643977
 20
0.8250000000000021
 30
0.0
 11
4.219028416643976
 21
0.8250000000000021
 31
0.0
 12
4.199028416643977
 22
0.9450000000000022
 32
0.0
 13
4.199028416643977
 23
0.9450000000000022
 33
0.0
  0
SOLID
  5
8DC
330
6B8
100
AcDbEntity
  8
DIM
 62
     0
100
AcDbTrace
 10
4.179028416643977
 20
-0.8249999999999975
 30
0.0
 11
4.219028416643976
 21
-0.8249999999999975
 31
0.0
 12
4.199028416643977
 22
-0.9449999999999974
 32
0.0
 13
4.199028416643977
 23
-0.9449999999999974
 33
0.0
  0
MTEXT
  5
8DD
330
6B8
100
AcDbEntity
  8
DIM
 62
     0
100
AcDbMText
 10
4.086528416643977
 20
0.000000000000003
 30
0.0
 40
0.125
 41
0.0
 71
     5
 72
     1
  1
\A1;%%c1.890
  7
ROMANS
 11
0.0000000000000001
 21
1.0
 31
0.0
 73
     1
 44
1.0
  0
POINT
  5
8DE
330
6B8
100
AcDbEntity
  8
Defpoints
 62
     0
100
AcDbPoint
 10
2.40237
 20
0.9450000000000025
 30
0.0
  0
POINT
  5
8DF
330
6B8
100
AcDbEntity
  8
Defpoints
 62
     0
100
AcDbPoint
 10
2.40237
 20
-0.944999999999997
 30
0.0
  0
POINT
  5
8E0
330
6B8
100
AcDbEntity
  8
Defpoints
 62
     0
100
AcDbPoint
 10
4.199028416643977
 20
-0.9449999999999974
 30
0.0
  0
ENDBLK
  5
6C3
330
6B8
100
AcDbEntity
  8
0
100
AcDbBlockEnd
  0
BLOCK
  5
7BD
330
7B3
100
AcDbEntity
  8
0
100
AcDbBlockBegin
  2
*D8
 70
     1
 10
0.0
 20
0.0
 30
0.0
  3
*D8
  1

  0
LINE
  5
886
330
7B3
100
AcDbEntity
  8
DIM
 62
     0
370
    -2
100
AcDbLine
 10
-1.574996849999999
 20
0.724520285845607
 30
0.0
 11
-1.574996849999999
 21
2.207863541981623
 31
0.0
  0
LINE
  5
887
330
7B3
100
AcDbEntity
  8
DIM
 62
     0
370
    -2
100
AcDbLine
 10
2.756
 20
1.248000000000002
 30
0.0
 11
2.756
 21
2.207863541981623
 31
0.0
  0
LINE
  5
888
330
7B3
100
AcDbEntity
  8
DIM
 62
     0
370
    -2
100
AcDbLine
 10
-1.45499685
 20
2.145363541981623
 30
0.0
 11
2.636
 21
2.145363541981623
 31
0.0
  0
SOLID
  5
889
330
7B3
100
AcDbEntity
  8
DIM
 62
     0
100
AcDbTrace
 10
-1.45499685
 20
2.165363541981623
 30
0.0
 11
-1.45499685
 21
2.125363541981623
 31
0.0
 12
-1.574996849999999
 22
2.145363541981623
 32
0.0
 13
-1.574996849999999
 23
2.145363541981623
 33
0.0
  0
SOLID
  5
88A
330
7B3
100
AcDbEntity
  8
DIM
 62
     0
100
AcDbTrace
 10
2.636
 20
2.165363541981623
 30
0.0
 11
2.636
 21
2.125363541981623
 31
0.0
 12
2.756
 22
2.145363541981623
 32
0.0
 13
2.756
 23
2.145363541981623
 33
0.0
  0
MTEXT
  5
88B
330
7B3
100
AcDbEntity
  8
DIM
 62
     0
100
AcDbMText
 10
0.5905015750000003
 20
2.257863541981623
 30
0.0
 40
0.125
 41
0.0
 71
     5
 72
     1
  1
\A1;4.331
  7
ROMANS
 73
     1
 44
1.0
  0
POINT
  5
88C
330
7B3
100
AcDbEntity
  8
Defpoints
 62
     0
100
AcDbPoint
 10
-1.574996849999999
 20
0.662020285845607
 30
0.0
  0
POINT
  5
88D
330
7B3
100
AcDbEntity
  8
Defpoints
 62
     0
100
AcDbPoint
 10
2.756
 20
1.185500000000002
 30
0.0
  0
POINT
  5
88E
330
7B3
100
AcDbEntity
  8
Defpoints
 62
     0
100
AcDbPoint
 10
2.756
 20
2.145363541981623
 30
0.0
  0
ENDBLK
  5
7BE
330
7B3
100
AcDbEntity
  8
0
100
AcDbBlockEnd
  0
ENDSEC
  0
SECTION
  2
ENTITIES
  0
LINE
  5
61E
330
1A
100
AcDbEntity
  8
LINE
100
AcDbLine
 10
0.0000000000000001
 20
1.21063
 30
0.0
 11
-0.0000000000000002
 21
-1.210629999999999
 31
0.0
  0
LINE
  5
628
330
1A
100
AcDbEntity
  8
LINE
100
AcDbLine
 10
0.3940000000000002
 20
1.249999999999999
 30
0.0
 11
0.3939999999999998
 21
-1.249999999999995
 31
0.0
  0
LINE
  5
629
330
1A
100
AcDbEntity
  8
LINE
100
AcDbLine
 10
0.0393700000000001
 20
1.25
 30
0.0
 11
0.3940000000000001
 21
1.25
 31
0.0
  0
LINE
  5
62A
330
1A
100
AcDbEntity
  8
LINE
100
AcDbLine
 10
0.0393699999999998
 20
-1.25
 30
0.0
 11
0.394000000000001
 21
-1.25
 31
0.0
  0
LINE
  5
62E
330
1A
100
AcDbEntity
  8
LINE
100
AcDbLine
 10
0.0000000000000001
 20
1.21063
 30
0.0
 11
0.0393700000000001
 21
1.25
 31
0.0
1001
GENIUS_GENFIL_13
1070
     0
1040
0.03937
1040
0.03937
1040
0.0
1040
0.0
1002
{
1002
}
1001
GENIUS_GENOBJ-N-CHA_13
1002
{
1000
OWNER
1000
GEN
1002
}
1001
GENIUS_GENODEF_13
1002
{
1000
HIER
1070
     0
1002
}
1002
{
1000
MANEDIT
1070
     0
1002
}
1002
{
1000
NOSEL
1070
     0
1002
}
1002
{
1000
BEHIND
1070
     0
1002
}
1002
{
1000
OTHER
1070
     0
1002
}
1002
{
1000
REACTOR
1002
}
  0
LINE
  5
637
330
1A
100
AcDbEntity
  8
LINE
100
AcDbLine
 10
0.0393699999999998
 20
-1.25
 30
0.0
 11
-0.0000000000000002
 21
-1.21063
 31
0.0
1001
GENIUS_GENFIL_13
1070
     0
1040
0.03937
1040
0.03937
1040
0.0
1040
0.0
1002
{
1002
}
1001
GENIUS_GENODEF_13
1002
{
1000
HIER
1070
     0
1002
}
1002
{
1000
MANEDIT
1070
     0
1002
}
1002
{
1000
NOSEL
1070
     0
1002
}
1002
{
1000
BEHIND
1070
     0
1002
}
1002
{
1000
OTHER
1070
     0
1002
}
1002
{
1000
REACTOR
1002
}
1001
GENIUS_GENOBJ-N-CHA_13
1002
{
1000
OWNER
1000
GEN
1002
}
  0
LINE
  5
63B
330
1A
100
AcDbEntity
  8
LINE
100
AcDbLine
 10
2.756000000000001
 20
1.185500000000002
 30
0.0
 11
2.756
 21
-1.185499999999994
 31
0.0
  0
LINE
  5
63C
330
1A
100
AcDbEntity
  8
LINE
100
AcDbLine
 10
2.40237
 20
-1.382499999999997
 30
0.0
 11
0.4295032679971241
 21
-1.382499999999997
 31
0.0
  0
LINE
  5
63D
330
1A
100
AcDbEntity
  8
LINE
100
AcDbLine
 10
2.40237
 20
1.382500000000002
 30
0.0
 11
0.4295032679971249
 21
1.382500000000003
 31
0.0
  0
LINE
  5
660
330
1A
100
AcDbEntity
  8
HIDDEN
100
AcDbLine
 10
0.0
 20
0.3148700000000011
 30
0.0
 11
0.3638057251244596
 21
0.9450000000000034
 31
0.0
  0
LINE
  5
661
330
1A
100
AcDbEntity
  8
HIDDEN
100
AcDbLine
 10
0.000075055534996
 20
-0.3149999999999999
 30
0.0
 11
0.3638057251244591
 21
-0.944999999999997
 31
0.0
  0
LINE
  5
662
330
1A
100
AcDbEntity
  8
HIDDEN
100
AcDbLine
 10
0.3638057251244596
 20
0.9450000000000034
 30
0.0
 11
0.3638057251244591
 21
-0.9449999999999969
 31
0.0
  0
LINE
  5
669
330
1A
100
AcDbEntity
  8
HIDDEN
100
AcDbLine
 10
0.000075055534994
 20
0.315
 30
0.0
 11
0.000075055534996
 21
-0.3149999999999999
 31
0.0
  0
LINE
  5
66A
330
1A
100
AcDbEntity
  8
HIDDEN
100
AcDbLine
 10
2.40237
 20
1.343130000000002
 30
0.0
 11
2.40237
 21
0.9256300000000031
 31
0.0
  0
LINE
  5
66C
330
1A
100
AcDbEntity
  8
HIDDEN
100
AcDbLine
 10
2.40237
 20
0.9256300000000029
 30
0.0
 11
2.756
 21
0.9256300000000029
 31
0.0
  0
LINE
  5
66F
330
1A
100
AcDbEntity
  8
HIDDEN
100
AcDbLine
 10
2.40237
 20
0.9450000000000025
 30
0.0
 11
0.3638057251244596
 21
0.9450000000000034
 31
0.0
  0
LINE
  5
670
330
1A
100
AcDbEntity
  8
HIDDEN
100
AcDbLine
 10
2.40237
 20
-0.944999999999997
 30
0.0
 11
0.3638057251244591
 21
-0.9449999999999969
 31
0.0
  0
DIMENSION
  5
673
330
1A
100
AcDbEntity
  8
DIM
100
AcDbDimension
  2
*D3
 10
2.756
 20
1.744983902964634
 30
0.0
 11
1.378
 21
1.857483902964634
 31
0.0
 70
    32
 71
     5
 42
2.756
  3
STANDARD
100
AcDbAlignedDimension
 13
0.0000000000000001
 23
1.21063
 33
0.0
 14
2.756
 24
1.185500000000002
 34
0.0
100
AcDbRotatedDimension
  0
DIMENSION
  5
681
330
1A
100
AcDbEntity
  8
DIM
100
AcDbDimension
  2
*D4
 10
4.5270982645442
 20
-1.382499999999998
 30
0.0
 11
4.4145982645442
 21
0.0000000000000026
 31
0.0
 70
    32
  1
%%c<>
 71
     5
 42
2.764999999999999
  3
STANDARD
100
AcDbAlignedDimension
 13
2.40237
 23
1.382500000000002
 33
0.0
 14
2.40237
 24
-1.382499999999997
 34
0.0
 50
90.0
100
AcDbRotatedDimension
  0
LINE
  5
68E
330
1A
100
AcDbEntity
  8
CTRL
100
AcDbLine
 10
-1.708883050928761
 20
0.0000000000000013
 30
0.0
 11
2.941720418688845
 21
0.0000000000000013
 31
0.0
  0
DIMENSION
  5
698
330
1A
100
AcDbEntity
  8
DIM
100
AcDbDimension
  2
*D5
 10
-1.819103415746354
 20
-1.249999999999999
 30
0.0
 11
-1.819103415746354
 21
0.0000000000000001
 31
0.0
 70
   160
  1
%%c<>
 71
     5
 42
2.5
  3
STANDARD
100
AcDbAlignedDimension
 13
0.0393700000000001
 23
1.25
 33
0.0
 14
0.0393699999999998
 24
-1.25
 34
0.0
 50
90.0
100
AcDbRotatedDimension
  0
DIMENSION
  5
6B7
330
1A
100
AcDbEntity
  8
DIM
100
AcDbDimension
  2
*D6
 10
4.199028416643977
 20
-0.9449999999999974
 30
0.0
 11
4.086528416643977
 21
0.000000000000003
 31
0.0
 70
    32
  1
%%c<>
 71
     5
 42
1.889999999999999
  3
STANDARD
100
AcDbAlignedDimension
 13
2.40237
 23
0.9450000000000025
 33
0.0
 14
2.40237
 24
-0.944999999999997
 34
0.0
 50
90.0
100
AcDbRotatedDimension
  0
LINE
  5
701
330
1A
100
AcDbEntity
  8
LINE
100
AcDbLine
 10
2.59837
 20
1.343130000000002
 30
0.0
 11
2.59837
 21
-1.343129999999994
 31
0.0
  0
LINE
  5
70D
330
1A
100
AcDbEntity
  8
LINE
100
AcDbLine
 10
2.59837
 20
1.343130000000002
 30
0.0
 11
2.756
 21
1.185500000000002
 31
0.0
1001
GENIUS_GENFIL_13
1070
     0
1040
0.197
1040
0.197
1040
0.0
1040
0.0
1002
{
1002
}
1001
GENIUS_GENOBJ-N-CHA_13
1002
{
1000
OWNER
1000
GEN
1002
}
1001
GENIUS_GENODEF_13
1002
{
1000
HIER
1070
     0
1002
}
1002
{
1000
MANEDIT
1070
     0
1002
}
1002
{
1000
NOSEL
1070
     0
1002
}
1002
{
1000
BEHIND
1070
     0
1002
}
1002
{
1000
OTHER
1070
     0
1002
}
1002
{
1000
REACTOR
1002
}
  0
LINE
  5
718
330
1A
100
AcDbEntity
  8
LINE
100
AcDbLine
 10
2.40237
 20
1.343130000000002
 30
0.0
 11
2.59837
 21
1.343130000000002
 31
0.0
  0
LINE
  5
722
330
1A
100
AcDbEntity
  8
LINE
100
AcDbLine
 10
2.59837
 20
-1.343129999999994
 30
0.0
 11
2.756
 21
-1.185499999999994
 31
0.0
1001
GENIUS_GENFIL_13
1070
     0
1040
0.197
1040
0.197
1040
0.0
1040
0.0
1002
{
1002
}
1001
GENIUS_GENOBJ-N-CHA_13
1002
{
1000
OWNER
1000
GEN
1002
}
1001
GENIUS_GENODEF_13
1002
{
1000
HIER
1070
     0
1002
}
1002
{
1000
MANEDIT
1070
     0
1002
}
1002
{
1000
NOSEL
1070
     0
1002
}
1002
{
1000
BEHIND
1070
     0
1002
}
1002
{
1000
OTHER
1070
     0
1002
}
1002
{
1000
REACTOR
1002
}
  0
LINE
  5
723
330
1A
100
AcDbEntity
  8
LINE
100
AcDbLine
 10
2.40237
 20
-1.343129999999994
 30
0.0
 11
2.59837
 21
-1.343129999999994
 31
0.0
  0
LINE
  5
724
330
1A
100
AcDbEntity
  8
HIDDEN
100
AcDbLine
 10
2.40237
 20
-1.343129999999994
 30
0.0
 11
2.40237
 21
-0.9256299999999944
 31
0.0
  0
LINE
  5
725
330
1A
100
AcDbEntity
  8
HIDDEN
100
AcDbLine
 10
2.402370000000001
 20
-0.9256299999999944
 30
0.0
 11
2.756
 21
-0.9256299999999944
 31
0.0
  0
LINE
  5
77E
330
1A
100
AcDbEntity
  8
KA
100
AcDbLine
 10
-1.37499725
 20
-0.7084985830000008
 30
0.0
 11
-0.6234987530000006
 21
-0.7084985830000008
 31
0.0
  0
LINE
  5
77F
330
1A
100
AcDbEntity
  8
KA
100
AcDbLine
 10
-1.574996849999999
 20
-0.662020285845607
 30
0.0
 11
-1.574996849999999
 21
0.0000000000000001
 31
0.0
  0
LINE
  5
780
330
1A
100
AcDbEntity
  8
KA
100
AcDbLine
 10
-1.37499725
 20
-0.708498583
 30
0.0
 11
-1.37499725
 21
0.0000000000000001
 31
0.0
  0
LINE
  5
781
330
1A
100
AcDbEntity
  8
KA
100
AcDbLine
 10
-1.529224662615546
 20
-0.7004277113980783
 30
0.0
 11
-1.486290741783554
 21
-0.6928573027677963
 31
0.0
  0
LINE
  5
782
330
1A
100
AcDbEntity
  8
KA
100
AcDbLine
 10
-1.37499725
 20
-0.7084985830000008
 30
0.0
 11
-1.486290741783554
 21
-0.6928573027677963
 31
0.0
  0
ARC
  5
783
330
1A
100
AcDbEntity
  8
KA
100
AcDbCircle
 10
-1.535996927999999
 20
-0.662020285845607
 30
0.0
 40
0.038999922
100
AcDbArc
 50
180.0
 51
280.0000000000003
  0
LINE
  5
784
330
1A
100
AcDbEntity
  8
KA
100
AcDbLine
 10
-1.486290741783554
 20
-0.6928573027677963
 30
0.0
 11
-1.486290741783554
 21
0.0000000000000001
 31
0.0
  0
LINE
  5
785
330
1A
100
AcDbEntity
  8
KA
100
AcDbLine
 10
-0.0799998399999999
 20
-0.7084985830000008
 30
0.0
 11
-0.0000000000000006
 21
-0.6870626904773825
 31
0.0
  0
LINE
  5
786
330
1A
100
AcDbEntity
  8
KA
100
AcDbLine
 10
-0.079999840000001
 20
-0.7084985830000008
 30
0.0
 11
-0.0799998400000018
 21
0.0
 31
0.0
  0
LINE
  5
787
330
1A
100
AcDbEntity
  8
KA
100
AcDbLine
 10
-0.079999840000001
 20
0.708498583000003
 30
0.0
 11
-0.0799998400000018
 21
0.0
 31
0.0
  0
LINE
  5
788
330
1A
100
AcDbEntity
  8
KA
100
AcDbLine
 10
-0.0799998399999999
 20
0.7084985830000008
 30
0.0
 11
-0.0000000000000006
 21
0.6870626904773824
 31
0.0
  0
LINE
  5
789
330
1A
100
AcDbEntity
  8
KA
100
AcDbLine
 10
-1.486290741783554
 20
0.692857302767796
 30
0.0
 11
-1.486290741783554
 21
0.0000000000000001
 31
0.0
  0
ARC
  5
78A
330
1A
100
AcDbEntity
  8
KA
100
AcDbCircle
 10
-1.535996927999999
 20
0.662020285845607
 30
0.0
 40
0.038999922
100
AcDbArc
 50
79.99999999999968
 51
180.0
  0
LINE
  5
78B
330
1A
100
AcDbEntity
  8
KA
100
AcDbLine
 10
-1.37499725
 20
0.7084985830000008
 30
0.0
 11
-1.486290741783554
 21
0.692857302767796
 31
0.0
  0
LINE
  5
78C
330
1A
100
AcDbEntity
  8
KA
100
AcDbLine
 10
-1.529224662615546
 20
0.7004277113980782
 30
0.0
 11
-1.486290741783554
 21
0.692857302767796
 31
0.0
  0
LINE
  5
78D
330
1A
100
AcDbEntity
  8
KA
100
AcDbLine
 10
-1.37499725
 20
0.7084985829999999
 30
0.0
 11
-1.37499725
 21
0.0000000000000001
 31
0.0
  0
LINE
  5
78E
330
1A
100
AcDbEntity
  8
KA
100
AcDbLine
 10
-1.574996849999999
 20
0.662020285845607
 30
0.0
 11
-1.574996849999999
 21
0.0000000000000001
 31
0.0
  0
LINE
  5
78F
330
1A
100
AcDbEntity
  8
KA
100
AcDbLine
 10
-1.37499725
 20
0.7084985830000008
 30
0.0
 11
-0.6234987529999995
 21
0.7084985830000019
 31
0.0
  0
CIRCLE
  5
790
330
1A
100
AcDbEntity
  8
KA
100
AcDbCircle
 10
-0.6099987800000001
 20
0.0000000000000001
 30
0.0
 40
0.177165
  0
LWPOLYLINE
  5
791
330
1A
100
AcDbEntity
  8
KA
100
AcDbPolyline
 90
       16
 70
     1
 43
0.0
 10
-0.3783224559472357
 20
0.0000000000000001
 42
0.1115408558816133
 10
-0.395423542110402
 20
0.0757046609381619
 42
0.1029733543267754
 10
-0.4461788802219184
 20
0.1425324140344466
 42
0.0927957371124016
 10
-0.5199226301687268
 20
0.1858354055169336
 42
0.0866911325972541
 10
-0.6099987800000001
 20
0.2015712730052916
 42
0.086691132597254
 10
-0.7000749298312728
 20
0.1858354055169337
 42
0.0927957371124026
 10
-0.7738186797780818
 20
0.1425324140344465
 42
0.1029733543267735
 10
-0.8245740178895974
 20
0.0757046609381631
 42
0.1115408558816151
 10
-0.8416751040527643
 20
0.0000000000000001
 42
0.1115408558816122
 10
-0.824574017889598
 20
-0.0757046609381625
 42
0.1029733543267726
 10
-0.7738186797780818
 20
-0.1425324140344464
 42
0.0927957371123996
 10
-0.7000749298312739
 20
-0.1858354055169335
 42
0.0866911325972534
 10
-0.6099987800000001
 20
-0.2015712730052914
 42
0.0866911325972539
 10
-0.5199226301687268
 20
-0.1858354055169335
 42
0.0927957371124012
 10
-0.4461788802219184
 20
-0.1425324140344464
 42
0.1029733543267761
 10
-0.395423542110402
 20
-0.0757046609381615
 42
0.1115408558816135
  0
LINE
  5
792
330
1A
100
AcDbEntity
  8
KA
100
AcDbLine
 10
-0.5347574664694158
 20
0.846455
 30
0.0
 11
-0.1612411415305831
 21
0.8464550000000002
 31
0.0
  0
LINE
  5
793
330
1A
100
AcDbEntity
  8
KA
100
AcDbLine
 10
-0.6234987529999995
 20
0.7084985830000022
 30
0.0
 11
-0.548395634528213
 21
0.8385810000000002
 31
0.0
  0
LINE
  5
794
330
1A
100
AcDbEntity
  8
KA
100
AcDbLine
 10
-0.0724998549999996
 20
0.708498583000003
 30
0.0
 11
-0.1476029734717858
 21
0.8385810000000002
 31
0.0
  0
LINE
  5
795
330
1A
100
AcDbEntity
  8
KA
100
AcDbLine
 10
-0.0724998549999993
 20
0.708498583000003
 30
0.0
 11
-0.0724998549999993
 21
0.7064889680760052
 31
0.0
  0
ARC
  5
796
330
1A
100
AcDbEntity
  8
KA
100
AcDbCircle
 10
-0.5347574664694158
 20
0.8307070000000001
 30
0.0
 40
0.015748
100
AcDbArc
 50
90.0
 51
149.9999999999998
  0
ARC
  5
797
330
1A
100
AcDbEntity
  8
KA
100
AcDbCircle
 10
-0.1612411415305831
 20
0.8307070000000001
 30
0.0
 40
0.015748
100
AcDbArc
 50
30.00000000000017
 51
90.0
  0
ARC
  5
798
330
1A
100
AcDbEntity
  8
KA
100
AcDbCircle
 10
-0.1612411415305831
 20
-0.8307070000000001
 30
0.0
 40
0.015748
100
AcDbArc
 50
270.0
 51
329.9999999999998
  0
ARC
  5
799
330
1A
100
AcDbEntity
  8
KA
100
AcDbCircle
 10
-0.5347574664694158
 20
-0.8307070000000001
 30
0.0
 40
0.015748
100
AcDbArc
 50
210.0000000000001
 51
270.0
  0
LINE
  5
79A
330
1A
100
AcDbEntity
  8
KA
100
AcDbLine
 10
-0.0724998549999993
 20
-0.7084985830000028
 30
0.0
 11
-0.0724998549999993
 21
-0.706488968076005
 31
0.0
  0
LINE
  5
79B
330
1A
100
AcDbEntity
  8
KA
100
AcDbLine
 10
-0.0724998549999996
 20
-0.7084985830000028
 30
0.0
 11
-0.1476029734717858
 21
-0.8385810000000002
 31
0.0
  0
LINE
  5
79C
330
1A
100
AcDbEntity
  8
KA
100
AcDbLine
 10
-0.6234987529999995
 20
-0.7084985830000019
 30
0.0
 11
-0.548395634528213
 21
-0.8385809999999999
 31
0.0
  0
LINE
  5
79D
330
1A
100
AcDbEntity
  8
KA
100
AcDbLine
 10
-0.5347574664694158
 20
-0.846455
 30
0.0
 11
-0.1612411415305831
 21
-0.846455
 31
0.0
  0
ARC
  5
79E
330
1A
100
AcDbEntity
  8
KA
100
AcDbCircle
 10
-0.3517492964999988
 20
1.646501635107252
 30
0.0
 40
0.9765743662776339
100
AcDbArc
 50
253.8431355893572
 51
286.1568644106425
  0
ARC
  5
79F
330
1A
100
AcDbEntity
  8
KA
100
AcDbCircle
 10
-0.3517492964999988
 20
-1.646501635107251
 30
0.0
 40
0.9765743662776339
100
AcDbArc
 50
73.84313558935748
 51
106.1568644106427
  0
LINE
  5
7A0
330
1A
100
AcDbEntity
  8
KA
100
AcDbLine
 10
-0.6234987529999995
 20
0.1766499022190503
 30
0.0
 11
-0.6234987529999995
 21
-0.1766499022190472
 31
0.0
  0
LINE
  5
7A2
330
1A
100
AcDbEntity
  8
HIDDEN
100
AcDbLine
 10
-1.574996849999999
 20
0.315
 30
0.0
 11
0.000075055534994
 21
0.315
 31
0.0
  0
LINE
  5
7A3
330
1A
100
AcDbEntity
  8
HIDDEN
100
AcDbLine
 10
-1.574996849999999
 20
-0.3149999999999999
 30
0.0
 11
0.000075055534996
 21
-0.3149999999999999
 31
0.0
  0
DIMENSION
  5
7B2
330
1A
100
AcDbEntity
  8
DIM
100
AcDbDimension
  2
*D8
 10
2.756
 20
2.145363541981623
 30
0.0
 11
0.5905015750000003
 21
2.257863541981623
 31
0.0
 70
    32
 71
     5
 42
4.33099685
  3
STANDARD
100
AcDbAlignedDimension
 13
-1.574996849999999
 23
0.662020285845607
 33
0.0
 14
2.756
 24
1.185500000000002
 34
0.0
100
AcDbRotatedDimension
  0
LINE
  5
833
330
1A
100
AcDbEntity
  8
HIDDEN
100
AcDbLine
 10
1.070102471691428
 20
1.382500000000002
 30
0.0
 11
1.052944888486331
 21
1.285194510300352
 31
0.0
  0
LINE
  5
834
330
1A
100
AcDbEntity
  8
HIDDEN
100
AcDbLine
 10
0.8304617912863928
 20
1.382500000000002
 30
0.0
 11
0.8205302587754497
 21
1.326175480229748
 31
0.0
  0
LINE
  5
835
330
1A
100
AcDbEntity
  8
HIDDEN
100
AcDbLine
 10
0.8397340099591879
 20
1.322789340765243
 30
0.0
 11
0.7731195561582116
 21
0.9450000000000034
 31
0.0
  0
LINE
  5
836
330
1A
100
AcDbEntity
  8
HIDDEN
100
AcDbLine
 10
1.033741137302592
 20
1.288580649764858
 30
0.0
 11
0.9731585986997037
 21
0.9450000000000034
 31
0.0
  0
LINE
  5
838
330
1A
100
AcDbEntity
  8
HIDDEN
100
AcDbLine
 10
0.8205302587754498
 20
1.326175480229748
 30
0.0
 11
1.05294488848633
 21
1.285194510300352
 31
0.0
  0
LINE
  5
839
330
1A
100
AcDbEntity
  8
HIDDEN
100
AcDbLine
 10
1.033741137302592
 20
-1.288580649764852
 30
0.0
 11
0.9731585986997037
 21
-0.944999999999997
 31
0.0
  0
LINE
  5
83A
330
1A
100
AcDbEntity
  8
HIDDEN
100
AcDbLine
 10
0.8397340099591879
 20
-1.322789340765238
 30
0.0
 11
0.7731195561582114
 21
-0.944999999999997
 31
0.0
  0
LINE
  5
83B
330
1A
100
AcDbEntity
  8
HIDDEN
100
AcDbLine
 10
0.8205302587754498
 20
-1.326175480229742
 30
0.0
 11
1.05294488848633
 21
-1.285194510300347
 31
0.0
  0
LINE
  5
83C
330
1A
100
AcDbEntity
  8
HIDDEN
100
AcDbLine
 10
0.8304617912863928
 20
-1.382499999999997
 30
0.0
 11
0.8205302587754497
 21
-1.326175480229742
 31
0.0
  0
LINE
  5
83D
330
1A
100
AcDbEntity
  8
HIDDEN
100
AcDbLine
 10
1.070102471691428
 20
-1.382499999999997
 30
0.0
 11
1.052944888486331
 21
-1.285194510300347
 31
0.0
  0
LINE
  5
87C
330
1A
100
AcDbEntity
  8
LINE
100
AcDbLine
 10
0.3940000000000002
 20
1.25
 30
0.0
 11
0.4295032679971249
 21
1.382500000000003
 31
0.0
  0
LINE
  5
892
330
1A
100
AcDbEntity
  8
LINE
100
AcDbLine
 10
2.40237
 20
1.382500000000002
 30
0.0
 11
2.40237
 21
1.343130000000002
 31
0.0
  0
LINE
  5
893
330
1A
100
AcDbEntity
  8
LINE
100
AcDbLine
 10
2.40237
 20
-1.382499999999997
 30
0.0
 11
2.40237
 21
-1.343129999999994
 31
0.0
  0
LINE
  5
894
330
1A
100
AcDbEntity
  8
LINE
100
AcDbLine
 10
0.3940000000000002
 20
-1.249999999999997
 30
0.0
 11
0.4295032679971249
 21
-1.3825
 31
0.0
  0
VIEWPORT
  5
7A7
330
4B0
100
AcDbEntity
 67
     1
  8
0
100
AcDbViewport
 10
132.5562591552734
 20
100.8062472343444
 30
0.0
 40
295.6051935424805
 41
234.385183045517
 68
     1
 69
     1
 12
132.5562591552734
 22
100.8062472343444
 13
0.0
 23
0.0
 14
0.5
 24
0.5
 15
0.5
 25
0.5
 16
0.0
 26
0.0
 36
1.0
 17
0.0
 27
0.0
 37
0.0
 42
50.0
 43
0.0
 44
0.0
 45
234.385183045517
 50
0.0
 51
0.0
 72
  1000
 90
    32800
  1

281
     0
 71
     1
 74
     0
110
0.0
120
0.0
130
0.0
111
1.0
121
0.0
131
0.0
112
0.0
122
1.0
132
0.0
 79
     0
146
0.0
  0
ENDSEC
  0
SECTION
  2
OBJECTS
  0
DICTIONARY
  5
C
330
0
100
AcDbDictionary
281
     1
  3
ACAD_GROUP
350
D
  3
ACAD_LAYOUT
350
317
  3
ACAD_MLINESTYLE
350
E
  3
ACAD_PLOTSETTINGS
350
318
  3
ACAD_PLOTSTYLENAME
350
315
  3
AcDbVariableDictionary
350
31F
  3
AcmDictionary
350
3E0
  3
AMG
350
326
  3
AMGSNAPSETTINGS
350
5F4
  3
DWGPROPS
350
5C7
  3
MAPISURF_MODULE
350
3B2
  0
DICTIONARY
  5
43F
330
1A
100
AcDbDictionary
280
     1
281
     1
  3
ACAD_INDEX
360
440
  0
DICTIONARY
  5
D
102
{ACAD_REACTORS
330
C
102
}
330
C
100
AcDbDictionary
281
     1
  0
DICTIONARY
  5
317
102
{ACAD_REACTORS
330
C
102
}
330
C
100
AcDbDictionary
281
     1
  3
Layout1
350
4B1
  3
Model
350
319
  0
DICTIONARY
  5
E
102
{ACAD_REACTORS
330
C
102
}
330
C
100
AcDbDictionary
281
     1
  3
STANDARD
350
13
  0
DICTIONARY
  5
318
102
{ACAD_REACTORS
330
C
102
}
330
C
100
AcDbDictionary
281
     1
  0
ACDBDICTIONARYWDFLT
  5
315
102
{ACAD_REACTORS
330
C
102
}
330
C
100
AcDbDictionary
281
     1
  3
Normal
350
316
100
AcDbDictionaryWithDefault
340
316
  0
DICTIONARY
  5
31F
102
{ACAD_REACTORS
330
C
102
}
330
C
100
AcDbDictionary
281
     1
  3
DIMASSOC
350
320
  3
INDEXCTL
350
44A
  0
DICTIONARY
  5
3E0
102
{ACAD_REACTORS
330
C
102
}
330
C
100
AcDbDictionary
281
     1
  3
AcmBOMDATA
350
3E1
  3
AcmStdDictionary
350
3EF
  0
DICTIONARY
  5
326
102
{ACAD_REACTORS
330
C
102
}
330
C
100
AcDbDictionary
281
     1
  3
AcMgSettings
350
327
  3
AMGLAYCFG
350
3F1
  0
DICTIONARY
  5
5F4
102
{ACAD_REACTORS
330
C
102
}
330
C
100
AcDbDictionary
281
     1
  3
DIMENSION
350
5F9
  3
FEA
350
5F8
  3
HATCH (1)
350
5F5
  3
HATCH (2)
350
5F6
  3
SIMPLE WELD
350
5FA
  3
SYMBOLS
350
5F7
  0
XRECORD
  5
5C7
102
{ACAD_REACTORS
330
C
102
}
330
C
100
AcDbXrecord
280
     1
  1
DWGPROPS COOKIE
  2

  3

  4

  6

  7

  8

  9

300
AmdtFileType=84
301
=
302
=
303
=
304
=
305
=
306
=
307
=
308
=
309
=
 40
0.0000008101851852
 41
2452719.353656365
 42
2452719.353656365
  1

 90
        1
  0
DICTIONARY
  5
440
102
{ACAD_REACTORS
330
43F
102
}
330
43F
100
AcDbDictionary
281
     1
  3
*A1
350
441
  0
LAYOUT
  5
4B1
102
{ACAD_REACTORS
330
317
102
}
330
317
100
AcDbPlotSettings
  1

  2
\\PRINT_SRV\HP LaserJet (Engineering)
  4
Letter
  6

 40
7.143749713897705
 41
7.143756389617919
 42
7.14373779296875
 43
7.14373779296875
 44
215.8999938964843
 45
279.3999938964843
 46
0.0
 47
0.0
 48
0.0
 49
0.0
140
0.0
141
0.0
142
1.0
143
1.0
 70
   688
 72
     1
 73
     1
 74
     5
  7
KPT.ctb
 75
    16
147
1.0
148
0.0
149
0.0
100
AcDbLayout
  1
Layout1
 70
     1
 71
     1
 10
-7.14373779296875
 20
-7.143749713897705
 11
272.2562561035156
 21
208.7562441825866
 12
0.0
 22
0.0
 32
0.0
 14
1.000000000000000E+20
 24
1.000000000000000E+20
 34
1.000000000000000E+20
 15
-1.000000000000000E+20
 25
-1.000000000000000E+20
 35
-1.000000000000000E+20
146
0.0
 13
0.0
 23
0.0
 33
0.0
 16
1.0
 26
0.0
 36
0.0
 17
0.0
 27
1.0
 37
0.0
 76
     0
330
4B0
331
7A7
  0
LAYOUT
  5
319
102
{ACAD_REACTORS
330
317
102
}
330
317
100
AcDbPlotSettings
  1

  2
\\PRINT_SRV\HP LaserJet (Engineering)
  4
Letter
  6

 40
6.349999904632568
 41
4.233341693878173
 42
6.349990844726562
 43
4.23333740234375
 44
215.8999938964843
 45
279.3999938964843
 46
0.0
 47
0.0
 48
0.0
 49
0.0
140
0.0
141
0.0
142
1.0
143
73.68551521849855
 70
 11952
 72
     0
 73
     1
 74
     0
  7
KPT.ctb
 75
     0
147
0.0135711882726845
148
3658.355290520464
149
2374.418055633259
100
AcDbLayout
  1
Model
 70
     1
 71
     0
 10
0.0
 20
0.0
 11
12.0
 21
9.0
 12
0.0
 22
0.0
 32
0.0
 14
0.0
 24
0.0
 34
0.0
 15
0.0
 25
0.0
 35
0.0
146
0.0
 13
0.0
 23
0.0
 33
0.0
 16
1.0
 26
0.0
 36
0.0
 17
0.0
 27
1.0
 37
0.0
 76
     0
330
1A
  0
MLINESTYLE
  5
13
102
{ACAD_REACTORS
330
E
102
}
330
E
100
AcDbMlineStyle
  2
STANDARD
 70
     0
  3

 62
     0
 51
90.0
 52
90.0
 71
     2
 49
0.5
 62
   256
  6
BYLAYER
 49
-0.5
 62
   256
  6
BYLAYER
  0
ACDBPLACEHOLDER
  5
316
102
{ACAD_REACTORS
330
315
102
}
330
315
  0
DICTIONARYVAR
  5
320
102
{ACAD_REACTORS
330
31F
102
}
330
31F
100
DictionaryVariables
280
     0
  1
1
  0
DICTIONARYVAR
  5
44A
102
{ACAD_REACTORS
330
31F
102
}
330
31F
100
DictionaryVariables
280
     0
  1
1
  0
ACMDATADICTIONARY
  5
3E1
102
{ACAD_REACTORS
330
3E0
102
}
330
3E0
100
AcDbDictionary
281
     1
  3
*A1
350
3E2
100
AcmDataDictionary
  0
DICTIONARY
  5
3EF
102
{ACAD_REACTORS
330
3E0
102
}
330
3E0
100
AcDbDictionary
281
     1
  3
ANSI
350
41F
  3
ISO
350
3F0
  0
DICTIONARY
  5
327
102
{ACAD_REACTORS
330
326
102
}
330
326
100
AcDbDictionary
281
     1
  3
DWGSETTINGS
350
328
  3
FEM
350
43E
  3
Shaft
350
41E
  3
TRANSSETTINGS
350
32C
  0
ACAMGFILTERDAT
  5
5F9
102
{ACAD_REACTORS
330
5F4
102
}
330
5F4
100
AcAmgFilterDat
 70
    15
  1
DIMENSION,AMDT_*_DIM
  2
*
  3
*
  4
*
  5
*
290
     1
  0
ACAMGFILTERDAT
  5
5F8
102
{ACAD_REACTORS
330
5F4
102
}
330
5F4
100
AcAmgFilterDat
 70
    15
  1
*
  2
AM_FEA-AM_*
  3
*
  4
*
  5
*
290
     1
  0
ACAMGFILTERDAT
  5
5F5
102
{ACAD_REACTORS
330
5F4
102
}
330
5F4
100
AcAmgFilterDat
 70
    15
  1
HATCH
  2
*
  3
*
  4
*
  5
*
290
     1
  0
ACAMGFILTERDAT
  5
5F6
102
{ACAD_REACTORS
330
5F4
102
}
330
5F4
100
AcAmgFilterDat
 70
    15
  1
LINE
  2
8,8N,*-8,*-8N,AM_8,AM_8N,*-AM_8,*-AM_8N
  3
*
  4
*
  5
INSERT,STDPART2D
290
     1
  0
ACAMGFILTERDAT
  5
5FA
102
{ACAD_REACTORS
330
5F4
102
}
330
5F4
100
AcAmgFilterDat
 70
    15
  1
ARC
  2
AM_5
  3
*
  4
2
  5
INSERT
290
     0
  0
ACAMGFILTERDAT
  5
5F7
102
{ACAD_REACTORS
330
5F4
102
}
330
5F4
100
AcAmgFilterDat
 70
    15
  1
ACMFCFRAME,ACMDATUMTARGET,ACMDATUMID,ACMWELDSYM,ACMSURFSYM,ACMFEATID,ACMPARTREF,ACMBALLOON,AMDTEDGESYM,AMGSCREWCALCTABLE
  2
*
  3
*
  4
*
  5
*
290
     1
  0
LAYER_INDEX
  5
441
102
{ACAD_REACTORS
330
440
102
}
330
440
100
AcDbIndex
 40
2452719.405928055
100
AcDbLayerIndex
  8
0
360
442
 90
        0
  8
LINE
360
5A6
 90
       18
  8
HIDDEN
360
5A7
 90
       22
  8
DIM
360
5A8
 90
        5
  8
CTRL
360
5AB
 90
        1
  8
KA
360
671
 90
       35
  8
Defpoints
360
6E8
 90
        0
  0
ACMDATAENTRYBLOCK
  5
3E2
102
{ACAD_REACTORS
330
3E1
102
}
330
3E1
100
AcmDataEntry
100
AcmDataEntryBlock
  0
IDBUFFER
  5
442
330
0
100
AcDbIdBuffer
  0
IDBUFFER
  5
5A6
330
0
100
AcDbIdBuffer
330
893
330
894
330
61E
330
628
330
629
330
62A
330
62E
330
637
330
63B
330
63C
330
63D
330
701
330
70D
330
718
330
722
330
723
330
87C
330
892
  0
IDBUFFER
  5
5A7
330
0
100
AcDbIdBuffer
330
660
330
661
330
662
330
669
330
66A
330
66C
330
66F
330
670
330
724
330
725
330
7A2
330
7A3
330
833
330
834
330
835
330
836
330
838
330
839
330
83A
330
83B
330
83C
330
83D
  0
IDBUFFER
  5
5A8
330
0
100
AcDbIdBuffer
330
673
330
681
330
698
330
6B7
330
7B2
  0
IDBUFFER
  5
5AB
330
0
100
AcDbIdBuffer
330
68E
  0
IDBUFFER
  5
671
330
0
100
AcDbIdBuffer
330
77E
330
77F
330
780
330
781
330
782
330
783
330
784
330
785
330
786
330
787
330
788
330
789
330
78A
330
78B
330
78C
330
78D
330
78E
330
78F
330
790
330
791
330
792
330
793
330
794
330
795
330
796
330
797
330
798
330
799
330
79A
330
79B
330
79C
330
79D
330
79E
330
79F
330
7A0
  0
IDBUFFER
  5
6E8
330
0
100
AcDbIdBuffer
  0
ENDSEC
  0
EOF
